  0
SECTION
  2
HEADER
  9
$ACADVER
  1
AC1024
  9
$ACADMAINTVER
 70
   225
  9
$DWGCODEPAGE
  3
ANSI_932
  9
$LASTSAVEDBY
  1
takanashi
  9
$INSBASE
 10
0.0
 20
0.0
 30
0.0
  9
$EXTMIN
 10
19.9694844009
 20
9.997285330199247
 30
-0.0000000000009313
  9
$EXTMAX
 10
800.0354022998775
 20
560.0291761481542
 30
0.0000000000119644
  9
$LIMMIN
 10
0.0
 20
0.0
  9
$LIMMAX
 10
840.0
 20
594.0
  9
$ORTHOMODE
 70
     0
  9
$REGENMODE
 70
     1
  9
$FILLMODE
 70
     1
  9
$QTEXTMODE
 70
     0
  9
$MIRRTEXT
 70
     0
  9
$LTSCALE
 40
1.0
  9
$ATTMODE
 70
     1
  9
$TEXTSIZE
 40
5.0
  9
$TRACEWID
 40
1.0
  9
$TEXTSTYLE
  7
STANDARD
  9
$CLAYER
  8
0
  9
$CELTYPE
  6
BYLAYER
  9
$CECOLOR
 62
   256
  9
$CELTSCALE
 40
1.0
  9
$DISPSILH
 70
     0
  9
$DIMSCALE
 40
1.0
  9
$DIMASZ
 40
1.5
  9
$DIMEXO
 40
5.0
  9
$DIMDLI
 40
3.75
  9
$DIMRND
 40
0.0
  9
$DIMDLE
 40
0.0
  9
$DIMEXE
 40
0.0
  9
$DIMTP
 40
0.0
  9
$DIMTM
 40
0.0
  9
$DIMTXT
 40
5.0
  9
$DIMCEN
 40
2.5
  9
$DIMTSZ
 40
0.0
  9
$DIMTOL
 70
     0
  9
$DIMLIM
 70
     0
  9
$DIMTIH
 70
     0
  9
$DIMTOH
 70
     0
  9
$DIMSE1
 70
     0
  9
$DIMSE2
 70
     0
  9
$DIMTAD
 70
     1
  9
$DIMZIN
 70
     8
  9
$DIMBLK
  1
DotBlank
  9
$DIMASO
 70
     1
  9
$DIMSHO
 70
     1
  9
$DIMPOST
  1

  9
$DIMAPOST
  1

  9
$DIMALT
 70
     0
  9
$DIMALTD
 70
     2
  9
$DIMALTF
 40
25.4
  9
$DIMLFAC
 40
1.0
  9
$DIMTOFL
 70
     1
  9
$DIMTVP
 40
0.0
  9
$DIMTIX
 70
     0
  9
$DIMSOXD
 70
     0
  9
$DIMSAH
 70
     0
  9
$DIMBLK1
  1

  9
$DIMBLK2
  1

  9
$DIMSTYLE
  2
STANDARD
  9
$DIMCLRD
 70
     0
  9
$DIMCLRE
 70
     0
  9
$DIMCLRT
 70
     0
  9
$DIMTFAC
 40
1.0
  9
$DIMGAP
 40
0.625
  9
$DIMJUST
 70
     0
  9
$DIMSD1
 70
     0
  9
$DIMSD2
 70
     0
  9
$DIMTOLJ
 70
     1
  9
$DIMTZIN
 70
     0
  9
$DIMALTZ
 70
     0
  9
$DIMALTTZ
 70
     0
  9
$DIMUPT
 70
     0
  9
$DIMDEC
 70
     4
  9
$DIMTDEC
 70
     4
  9
$DIMALTU
 70
     2
  9
$DIMALTTD
 70
     2
  9
$DIMTXSTY
  7
STANDARD
  9
$DIMAUNIT
 70
     0
  9
$DIMADEC
 70
     0
  9
$DIMALTRND
 40
0.0
  9
$DIMAZIN
 70
     0
  9
$DIMDSEP
 70
    46
  9
$DIMATFIT
 70
     3
  9
$DIMFRAC
 70
     0
  9
$DIMLDRBLK
  1
NONE
  9
$DIMLUNIT
 70
     2
  9
$DIMLWD
 70
    -2
  9
$DIMLWE
 70
    -2
  9
$DIMTMOVE
 70
     0
  9
$DIMFXL
 40
1.0
  9
$DIMFXLON
 70
     0
  9
$DIMJOGANG
 40
0.7853981633974483
  9
$DIMTFILL
 70
     0
  9
$DIMTFILLCLR
 70
     0
  9
$DIMARCSYM
 70
     0
  9
$DIMLTYPE
  6

  9
$DIMLTEX1
  6

  9
$DIMLTEX2
  6

  9
$DIMTXTDIRECTION
 70
     0
  9
$LUNITS
 70
     2
  9
$LUPREC
 70
     4
  9
$SKETCHINC
 40
1.0
  9
$FILLETRAD
 40
0.5
  9
$AUNITS
 70
     0
  9
$AUPREC
 70
     1
  9
$MENU
  1
.
  9
$ELEVATION
 40
0.0
  9
$PELEVATION
 40
0.0
  9
$THICKNESS
 40
0.0
  9
$LIMCHECK
 70
     0
  9
$CHAMFERA
 40
10.0
  9
$CHAMFERB
 40
10.0
  9
$CHAMFERC
 40
20.0
  9
$CHAMFERD
 40
0.0
  9
$SKPOLY
 70
     0
  9
$TDCREATE
 40
2450431.623194444
  9
$TDUCREATE
 40
2450431.248202778
  9
$TDUPDATE
 40
2458823.496076389
  9
$TDUUPDATE
 40
2458823.121076389
  9
$TDINDWG
 40
1.4304451389
  9
$TDUSRTIMER
 40
1.4304450116
  9
$USRTIMER
 70
     1
  9
$ANGBASE
 50
0.0
  9
$ANGDIR
 70
     0
  9
$PDMODE
 70
    34
  9
$PDSIZE
 40
0.0
  9
$PLINEWID
 40
0.0
  9
$SPLFRAME
 70
     0
  9
$SPLINETYPE
 70
     6
  9
$SPLINESEGS
 70
     8
  9
$HANDSEED
  5
5E19
  9
$SURFTAB1
 70
     6
  9
$SURFTAB2
 70
     6
  9
$SURFTYPE
 70
     6
  9
$SURFU
 70
     6
  9
$SURFV
 70
     6
  9
$UCSBASE
  2

  9
$UCSNAME
  2

  9
$UCSORG
 10
0.0
 20
0.0
 30
0.0
  9
$UCSXDIR
 10
1.0
 20
0.0
 30
0.0
  9
$UCSYDIR
 10
0.0
 20
1.0
 30
0.0
  9
$UCSORTHOREF
  2

  9
$UCSORTHOVIEW
 70
     1
  9
$UCSORGTOP
 10
0.0
 20
0.0
 30
0.0
  9
$UCSORGBOTTOM
 10
0.0
 20
0.0
 30
0.0
  9
$UCSORGLEFT
 10
0.0
 20
0.0
 30
0.0
  9
$UCSORGRIGHT
 10
0.0
 20
0.0
 30
0.0
  9
$UCSORGFRONT
 10
0.0
 20
0.0
 30
0.0
  9
$UCSORGBACK
 10
0.0
 20
0.0
 30
0.0
  9
$PUCSBASE
  2

  9
$PUCSNAME
  2

  9
$PUCSORG
 10
0.0
 20
0.0
 30
0.0
  9
$PUCSXDIR
 10
1.0
 20
0.0
 30
0.0
  9
$PUCSYDIR
 10
0.0
 20
1.0
 30
0.0
  9
$PUCSORTHOREF
  2

  9
$PUCSORTHOVIEW
 70
     0
  9
$PUCSORGTOP
 10
0.0
 20
0.0
 30
0.0
  9
$PUCSORGBOTTOM
 10
0.0
 20
0.0
 30
0.0
  9
$PUCSORGLEFT
 10
0.0
 20
0.0
 30
0.0
  9
$PUCSORGRIGHT
 10
0.0
 20
0.0
 30
0.0
  9
$PUCSORGFRONT
 10
0.0
 20
0.0
 30
0.0
  9
$PUCSORGBACK
 10
0.0
 20
0.0
 30
0.0
  9
$USERI1
 70
     0
  9
$USERI2
 70
     0
  9
$USERI3
 70
     0
  9
$USERI4
 70
     0
  9
$USERI5
 70
     0
  9
$USERR1
 40
0.0
  9
$USERR2
 40
0.0
  9
$USERR3
 40
0.0
  9
$USERR4
 40
0.0
  9
$USERR5
 40
0.0
  9
$WORLDVIEW
 70
     1
  9
$SHADEDGE
 70
     3
  9
$SHADEDIF
 70
    70
  9
$TILEMODE
 70
     1
  9
$MAXACTVP
 70
    16
  9
$PINSBASE
 10
0.0
 20
0.0
 30
0.0
  9
$PLIMCHECK
 70
     0
  9
$PEXTMIN
 10
1.000000000000000E+20
 20
1.000000000000000E+20
 30
1.000000000000000E+20
  9
$PEXTMAX
 10
-1.000000000000000E+20
 20
-1.000000000000000E+20
 30
-1.000000000000000E+20
  9
$PLIMMIN
 10
0.0
 20
0.0
  9
$PLIMMAX
 10
420.0
 20
297.0
  9
$UNITMODE
 70
     0
  9
$VISRETAIN
 70
     0
  9
$PLINEGEN
 70
     0
  9
$PSLTSCALE
 70
     1
  9
$TREEDEPTH
 70
  3020
  9
$CMLSTYLE
  2
STANDARD
  9
$CMLJUST
 70
     0
  9
$CMLSCALE
 40
1.0
  9
$PROXYGRAPHICS
 70
     1
  9
$MEASUREMENT
 70
     1
  9
$CELWEIGHT
370
    -1
  9
$ENDCAPS
280
     0
  9
$JOINSTYLE
280
     0
  9
$LWDISPLAY
290
     0
  9
$INSUNITS
 70
     0
  9
$HYPERLINKBASE
  1

  9
$STYLESHEET
  1
SCREENING 100%.CTB
  9
$XEDIT
290
     1
  9
$CEPSNTYPE
380
     0
  9
$PSTYLEMODE
290
     1
  9
$FINGERPRINTGUID
  2
{87E49A17-DA8C-4230-82A7-C569D142D783}
  9
$VERSIONGUID
  2
{3995EFF2-3232-AF45-A474-5A53A7D437CF}
  9
$EXTNAMES
290
     1
  9
$PSVPSCALE
 40
0.0
  9
$OLESTARTUP
290
     0
  9
$SORTENTS
280
   127
  9
$INDEXCTL
280
     0
  9
$HIDETEXT
280
     0
  9
$XCLIPFRAME
280
     2
  9
$HALOGAP
280
     0
  9
$OBSCOLOR
 70
   257
  9
$OBSLTYPE
280
     0
  9
$INTERSECTIONDISPLAY
280
     0
  9
$INTERSECTIONCOLOR
 70
   257
  9
$DIMASSOC
280
     1
  9
$PROJECTNAME
  1

  9
$CAMERADISPLAY
290
     0
  9
$LENSLENGTH
 40
50.0
  9
$CAMERAHEIGHT
 40
0.0
  9
$STEPSPERSEC
 40
2.0
  9
$STEPSIZE
 40
6.0
  9
$3DDWFPREC
 40
2.0
  9
$PSOLWIDTH
 40
0.25
  9
$PSOLHEIGHT
 40
4.0
  9
$LOFTANG1
 40
1.570796326794896
  9
$LOFTANG2
 40
1.570796326794896
  9
$LOFTMAG1
 40
0.0
  9
$LOFTMAG2
 40
0.0
  9
$LOFTPARAM
 70
     7
  9
$LOFTNORMALS
280
     1
  9
$LATITUDE
 40
37.795
  9
$LONGITUDE
 40
-122.394
  9
$NORTHDIRECTION
 40
0.0
  9
$TIMEZONE
 70
 -8000
  9
$LIGHTGLYPHDISPLAY
280
     1
  9
$TILEMODELIGHTSYNCH
280
     1
  9
$CMATERIAL
347
26C2
  9
$SOLIDHIST
280
     0
  9
$SHOWHIST
280
     1
  9
$DWFFRAME
280
     2
  9
$DGNFRAME
280
     0
  9
$REALWORLDSCALE
290
     1
  9
$INTERFERECOLOR
 62
     1
  9
$INTERFEREOBJVS
345
26DC
  9
$INTERFEREVPVS
346
2795
  9
$CSHADOW
280
     0
  9
$SHADOWPLANELOCATION
 40
0.0
  0
ENDSEC
  0
SECTION
  2
CLASSES
  0
CLASS
  1
ACDBDICTIONARYWDFLT
  2
AcDbDictionaryWithDefault
  3
ObjectDBX Classes
 90
        0
 91
        1
280
     0
281
     0
  0
CLASS
  1
DICTIONARYVAR
  2
AcDbDictionaryVar
  3
ObjectDBX Classes
 90
        0
 91
       13
280
     0
281
     0
  0
CLASS
  1
MATERIAL
  2
AcDbMaterial
  3
ObjectDBX Classes
 90
     1153
 91
        3
280
     0
281
     0
  0
CLASS
  1
SORTENTSTABLE
  2
AcDbSortentsTable
  3
ObjectDBX Classes
 90
        0
 91
        1
280
     0
281
     0
  0
CLASS
  1
VISUALSTYLE
  2
AcDbVisualStyle
  3
ObjectDBX Classes
 90
     4095
 91
       26
280
     0
281
     0
  0
CLASS
  1
TABLESTYLE
  2
AcDbTableStyle
  3
ObjectDBX Classes
 90
     4095
 91
        1
280
     0
281
     0
  0
CLASS
  1
SCALE
  2
AcDbScale
  3
ObjectDBX Classes
 90
     1153
 91
       33
280
     0
281
     0
  0
CLASS
  1
MLEADERSTYLE
  2
AcDbMLeaderStyle
  3
ACDB_MLEADERSTYLE_CLASS
 90
     4095
 91
        1
280
     0
281
     0
  0
CLASS
  1
CELLSTYLEMAP
  2
AcDbCellStyleMap
  3
ObjectDBX Classes
 90
     1152
 91
        2
280
     0
281
     0
  0
CLASS
  1
ACDBSECTIONVIEWSTYLE
  2
AcDbSectionViewStyle
  3
ObjectDBX Classes
 90
     1025
 91
        1
280
     0
281
     0
  0
CLASS
  1
ACDBDETAILVIEWSTYLE
  2
AcDbDetailViewStyle
  3
ObjectDBX Classes
 90
     1025
 91
        1
280
     0
281
     0
  0
CLASS
  1
MULTILEADER
  2
AcDbMLeader
  3
ACDB_MLEADER_CLASS
 90
     1025
 91
       11
280
     0
281
     1
  0
ENDSEC
  0
SECTION
  2
TABLES
  0
TABLE
  2
VPORT
  5
8
102
{ACAD_XDICTIONARY
360
2728
102
}
330
0
100
AcDbSymbolTable
 70
     1
  0
VPORT
  5
274D
330
8
100
AcDbSymbolTableRecord
100
AcDbViewportTableRecord
  2
*Active
 70
     0
 10
0.0
 20
0.0
 11
1.0
 21
1.0
 12
420.0000000000001
 22
297.0
 13
0.0
 23
0.0
 14
5.0
 24
5.0
 15
10.0
 25
10.0
 16
0.0
 26
0.0
 36
1.0
 17
0.0
 27
0.0
 37
0.0
 40
598.1684210526316
 41
1.84192037470726
 42
50.0
 43
0.0
 44
0.0
 50
0.0
 51
0.0
 71
     0
 72
   100
 73
     1
 74
     0
 75
     0
 76
     0
 77
     0
 78
     0
281
     0
 65
     1
110
0.0
120
0.0
130
0.0
111
1.0
121
0.0
131
0.0
112
0.0
122
1.0
132
0.0
 79
     0
146
0.0
348
26D8
 60
     3
 61
     5
292
     1
282
     1
141
0.0
142
0.0
 63
   250
421
  3355443
1001
ACAD_NAV_VCDISPLAY
1070
     3
  0
ENDTAB
  0
TABLE
  2
LTYPE
  5
5
330
0
100
AcDbSymbolTable
 70
     4
  0
LTYPE
  5
14
330
5
100
AcDbSymbolTableRecord
100
AcDbLinetypeTableRecord
  2
BYBLOCK
 70
     0
  3

 72
    65
 73
     0
 40
0.0
  0
LTYPE
  5
15
330
5
100
AcDbSymbolTableRecord
100
AcDbLinetypeTableRecord
  2
BYLAYER
 70
     0
  3

 72
    65
 73
     0
 40
0.0
  0
LTYPE
  5
16
330
5
100
AcDbSymbolTableRecord
100
AcDbLinetypeTableRecord
  2
CONTINUOUS
 70
     0
  3
Solid line
 72
    65
 73
     0
 40
0.0
  0
LTYPE
  5
E7E
330
5
100
AcDbSymbolTableRecord
100
AcDbLinetypeTableRecord
  2
DASHED2
 70
     0
  3
Dashed (.5x) _ _ _ _ _ _ _ _ _ _ _ _ _ _ _ _ _
 72
    65
 73
     2
 40
9.524999999999996
 49
6.349999999999997
 74
     0
 49
-3.174999999999998
 74
     0
  0
LTYPE
  5
1500
330
5
100
AcDbSymbolTableRecord
100
AcDbLinetypeTableRecord
  2
CENTER2
 70
     0
  3
Center (.5x) ___ _ ___ _ ___ _ ___ _ ___ _ ___
 72
    65
 73
     4
 40
28.57499999999999
 49
19.05
 74
     0
 49
-3.174999999999998
 74
     0
 49
3.174999999999998
 74
     0
 49
-3.174999999999998
 74
     0
  0
LTYPE
  5
2A90
330
5
100
AcDbSymbolTableRecord
100
AcDbLinetypeTableRecord
  2
C5
 70
     0
  3
----------  ･  ----------  ･  ----------  ･  --
 72
    65
 73
     4
 40
20.48
 49
12.8
 74
     0
 49
-2.56
 74
     0
 49
2.56
 74
     0
 49
-2.56
 74
     0
  0
ENDTAB
  0
TABLE
  2
LAYER
  5
2
102
{ACAD_XDICTIONARY
360
16F6
102
}
330
0
100
AcDbSymbolTable
 70
    13
  0
LAYER
  5
F
102
{ACAD_XDICTIONARY
360
2718
102
}
330
2
100
AcDbSymbolTableRecord
100
AcDbLayerTableRecord
  2
0
 70
     0
 62
     7
  6
CONTINUOUS
370
    -3
390
3AE
347
16F3
  0
LAYER
  5
87
102
{ACAD_XDICTIONARY
360
271A
102
}
330
2
100
AcDbSymbolTableRecord
100
AcDbLayerTableRecord
  2
WAKU
 70
     0
 62
     7
  6
CONTINUOUS
370
    -3
390
3AE
347
16F3
  0
LAYER
  5
9C
330
2
100
AcDbSymbolTableRecord
100
AcDbLayerTableRecord
  2
DEFPOINTS
 70
     0
 62
     7
  6
CONTINUOUS
290
     0
370
    -3
390
3AE
347
16F3
  0
LAYER
  5
1502
102
{ACAD_XDICTIONARY
360
271C
102
}
330
2
100
AcDbSymbolTableRecord
100
AcDbLayerTableRecord
  2
SUNPOU
 70
     0
 62
     7
  6
CONTINUOUS
370
     5
390
3AE
347
16F3
  0
LAYER
  5
2368
102
{ACAD_XDICTIONARY
360
2369
102
}
330
2
100
AcDbSymbolTableRecord
100
AcDbLayerTableRecord
  2
TEKUSU
 70
     0
 62
     7
  6
CONTINUOUS
370
    -3
390
3AE
347
16F3
  0
LAYER
  5
236C
102
{ACAD_XDICTIONARY
360
236D
102
}
330
2
100
AcDbSymbolTableRecord
100
AcDbLayerTableRecord
  2
SITAJI
 70
     0
 62
     7
  6
CONTINUOUS
370
    -3
390
3AE
347
16F3
  0
LAYER
  5
2370
102
{ACAD_XDICTIONARY
360
2371
102
}
330
2
100
AcDbSymbolTableRecord
100
AcDbLayerTableRecord
  2
SEIHIN
 70
     0
 62
     4
  6
CONTINUOUS
370
    -3
390
3AE
347
16F3
  0
LAYER
  5
2374
102
{ACAD_XDICTIONARY
360
2375
102
}
330
2
100
AcDbSymbolTableRecord
100
AcDbLayerTableRecord
  2
HIKIDASI
 70
     0
 62
     7
  6
CONTINUOUS
370
     5
390
3AE
347
16F3
  0
LAYER
  5
2378
102
{ACAD_XDICTIONARY
360
2720
102
}
330
2
100
AcDbSymbolTableRecord
100
AcDbLayerTableRecord
  2
SEALING
 70
     0
 62
     7
  6
CONTINUOUS
370
     9
390
3AE
347
16F3
  0
LAYER
  5
237B
102
{ACAD_XDICTIONARY
360
2722
102
}
330
2
100
AcDbSymbolTableRecord
100
AcDbLayerTableRecord
  2
PACKING
 70
     0
 62
     7
  6
CONTINUOUS
370
     9
390
3AE
347
16F3
  0
LAYER
  5
237E
102
{ACAD_XDICTIONARY
360
237F
102
}
330
2
100
AcDbSymbolTableRecord
100
AcDbLayerTableRecord
  2
KASAGI
 70
     0
 62
     7
  6
CONTINUOUS
370
    -3
390
3AE
347
16F3
  0
LAYER
  5
2382
102
{ACAD_XDICTIONARY
360
2383
102
}
330
2
100
AcDbSymbolTableRecord
100
AcDbLayerTableRecord
  2
SUTEITA
 70
     0
 62
     1
  6
CONTINUOUS
370
    -3
390
3AE
347
16F3
1001
AcAecLayerStandard
1000

1000

  0
LAYER
  5
58DE
102
{ACAD_XDICTIONARY
360
58DF
102
}
330
2
100
AcDbSymbolTableRecord
100
AcDbLayerTableRecord
  2
YAKUMONO
 70
     0
 62
     1
  6
CONTINUOUS
370
    -3
390
3AE
347
16F3
  0
ENDTAB
  0
TABLE
  2
STYLE
  5
3
330
0
100
AcDbSymbolTable
 70
     3
  0
STYLE
  5
10
330
3
100
AcDbSymbolTableRecord
100
AcDbTextStyleTableRecord
  2
STANDARD
 70
     0
 40
5.0
 41
1.0
 50
0.0
 71
     0
 42
5.0
  3
txt.shx
  4
extfont.shx
  0
STYLE
  5
EA1
330
3
100
AcDbSymbolTableRecord
100
AcDbTextStyleTableRecord
  2
WAKU
 70
     0
 40
5.0
 41
1.0
 50
0.0
 71
     0
 42
5.0
  3

  4

1001
ACAD
1000
MS Gothic
1071
    32817
  0
STYLE
  5
2A9F
330
3
100
AcDbSymbolTableRecord
100
AcDbTextStyleTableRecord
  2
ＭＳ ゴシック
 70
     0
 40
0.0
 41
1.0
 50
0.0
 71
     0
 42
2.5
  3

  4

1001
ACAD
1000
MS Gothic
1071
    32817
  0
ENDTAB
  0
TABLE
  2
VIEW
  5
6
330
0
100
AcDbSymbolTable
 70
     1
  0
ENDTAB
  0
TABLE
  2
UCS
  5
7
330
0
100
AcDbSymbolTable
 70
     0
  0
ENDTAB
  0
TABLE
  2
APPID
  5
9
330
0
100
AcDbSymbolTable
 70
    11
  0
APPID
  5
11
330
9
100
AcDbSymbolTableRecord
100
AcDbRegAppTableRecord
  2
ACAD
 70
     0
  0
APPID
  5
2102
330
9
100
AcDbSymbolTableRecord
100
AcDbRegAppTableRecord
  2
GENIUS_GENODEF_13
 70
     0
  0
APPID
  5
2103
330
9
100
AcDbSymbolTableRecord
100
AcDbRegAppTableRecord
  2
GENIUS_GENOBJ-N-FIL_13
 70
     0
  0
APPID
  5
2386
330
9
100
AcDbSymbolTableRecord
100
AcDbRegAppTableRecord
  2
AcAecLayerStandard
 70
     0
  0
APPID
  5
2709
330
9
100
AcDbSymbolTableRecord
100
AcDbRegAppTableRecord
  2
ACAD_MLEADERVER
 70
     0
  0
APPID
  5
27A5
330
9
100
AcDbSymbolTableRecord
100
AcDbRegAppTableRecord
  2
ACAD_EXEMPT_FROM_CAD_STANDARDS
 70
     0
  0
APPID
  5
27B1
330
9
100
AcDbSymbolTableRecord
100
AcDbRegAppTableRecord
  2
ACAD_NAV_VCDISPLAY
 70
     0
  0
APPID
  5
27DD
330
9
100
AcDbSymbolTableRecord
100
AcDbRegAppTableRecord
  2
ACAD_PSEXT
 70
     0
  0
APPID
  5
288A
330
9
100
AcDbSymbolTableRecord
100
AcDbRegAppTableRecord
  2
GradientColor1ACI
 70
     0
  0
APPID
  5
288B
330
9
100
AcDbSymbolTableRecord
100
AcDbRegAppTableRecord
  2
GradientColor2ACI
 70
     0
  0
APPID
  5
58E0
330
9
100
AcDbSymbolTableRecord
100
AcDbRegAppTableRecord
  2
AcCmTransparency
 70
     0
  0
ENDTAB
  0
TABLE
  2
DIMSTYLE
  5
A
330
0
100
AcDbSymbolTable
 70
     1
100
AcDbDimStyleTable
 71
     1
340
1D
  0
DIMSTYLE
105
1D
102
{ACAD_REACTORS
330
25B1
330
25ED
330
4B55
102
}
330
A
100
AcDbSymbolTableRecord
100
AcDbDimStyleTableRecord
  2
STANDARD
 70
     0
 41
1.5
 42
5.0
 43
3.75
 44
0.0
 73
     0
 74
     0
 77
     1
 78
     8
140
5.0
141
2.5
147
0.625
172
     1
340
10
341
B0
342
14C3
  0
ENDTAB
  0
TABLE
  2
BLOCK_RECORD
  5
1
330
0
100
AcDbSymbolTable
 70
     7
  0
BLOCK_RECORD
  5
1A
102
{ACAD_XDICTIONARY
360
27AF
102
}
330
1
100
AcDbSymbolTableRecord
100
AcDbBlockTableRecord
  2
*MODEL_SPACE
340
3B3
 70
     0
280
     1
281
     0
  0
BLOCK_RECORD
  5
17
330
1
100
AcDbSymbolTableRecord
100
AcDbBlockTableRecord
  2
*PAPER_SPACE
340
3B4
 70
     0
280
     1
281
     0
  0
BLOCK_RECORD
  5
B0
330
1
100
AcDbSymbolTableRecord
100
AcDbBlockTableRecord
  2
_NONE
340
0
 70
     0
280
     1
281
     0
  0
BLOCK_RECORD
  5
E1F
330
1
100
AcDbSymbolTableRecord
100
AcDbBlockTableRecord
  2
IGロゴ
340
0
 70
     0
280
     1
281
     0
  0
BLOCK_RECORD
  5
14C3
330
1
100
AcDbSymbolTableRecord
100
AcDbBlockTableRecord
  2
_DotBlank
340
0
102
{BLKREFS
331
4DF2
331
4DF3
331
584B
331
584C
331
5856
331
5857
102
}
 70
     0
280
     1
281
     0
  0
BLOCK_RECORD
  5
2639
330
1
100
AcDbSymbolTableRecord
100
AcDbBlockTableRecord
  2
*D3
340
0
 70
     0
280
     1
281
     0
  0
BLOCK_RECORD
  5
2645
330
1
100
AcDbSymbolTableRecord
100
AcDbBlockTableRecord
  2
*D4
340
0
 70
     0
280
     1
281
     0
  0
BLOCK_RECORD
  5
2A19
330
1
100
AcDbSymbolTableRecord
100
AcDbBlockTableRecord
  2
_Dot
340
0
 70
     0
280
     1
281
     0
  0
BLOCK_RECORD
  5
4B56
330
1
100
AcDbSymbolTableRecord
100
AcDbBlockTableRecord
  2
*D6
340
0
 70
     0
280
     1
281
     0
  0
ENDTAB
  0
ENDSEC
  0
SECTION
  2
BLOCKS
  0
BLOCK
  5
1B
330
1A
100
AcDbEntity
  8
0
100
AcDbBlockBegin
  2
*MODEL_SPACE
 70
     0
 10
0.0
 20
0.0
 30
0.0
  3
*MODEL_SPACE
  1

  0
ENDBLK
  5
1C
330
1A
100
AcDbEntity
  8
0
100
AcDbBlockEnd
  0
BLOCK
  5
18
330
17
100
AcDbEntity
 67
     1
  8
0
100
AcDbBlockBegin
  2
*PAPER_SPACE
 70
     0
 10
0.0
 20
0.0
 30
0.0
  3
*PAPER_SPACE
  1

  0
ENDBLK
  5
19
330
17
100
AcDbEntity
 67
     1
  8
0
100
AcDbBlockEnd
  0
BLOCK
  5
B1
330
B0
100
AcDbEntity
  8
0
100
AcDbBlockBegin
  2
_NONE
 70
     0
 10
0.0
 20
0.0
 30
0.0
  3
_NONE
  1

  0
CIRCLE
  5
B2
330
B0
100
AcDbEntity
  8
0
  6
ByBlock
 62
     0
100
AcDbCircle
 10
0.0
 20
0.0
 30
0.0
 40
0.25
  0
ENDBLK
  5
B3
330
B0
100
AcDbEntity
  8
0
100
AcDbBlockEnd
  0
BLOCK
  5
E20
330
E1F
100
AcDbEntity
  8
0
100
AcDbBlockBegin
  2
IGロゴ
 70
     0
 10
0.0
 20
0.0
 30
0.0
  3
IGロゴ
  1

  0
CIRCLE
  5
E21
330
E1F
100
AcDbEntity
  8
WAKU
100
AcDbCircle
 10
-7.133294257549736
 20
40.74217652150603
 30
0.0
 40
0.8702311197916666
  0
POLYLINE
  5
E22
330
E1F
100
AcDbEntity
  8
WAKU
100
AcDb2dPolyline
 66
     1
 10
0.0
 20
0.0
 30
0.0
 70
     1
  0
VERTEX
  5
E23
330
E22
100
AcDbEntity
  8
WAKU
100
AcDbVertex
100
AcDb2dVertex
 10
-6.558996840015013
 20
36.03789863522132
 30
0.0
  0
VERTEX
  5
E24
330
E22
100
AcDbEntity
  8
WAKU
100
AcDbVertex
100
AcDb2dVertex
 10
-7.774082017966402
 20
36.03789863522132
 30
0.0
  0
VERTEX
  5
E25
330
E22
100
AcDbEntity
  8
WAKU
100
AcDbVertex
100
AcDb2dVertex
 10
-7.774082017966402
 20
38.72059449025604
 30
0.0
  0
VERTEX
  5
E26
330
E22
100
AcDbEntity
  8
WAKU
100
AcDbVertex
100
AcDb2dVertex
 10
-6.558996840015013
 20
38.72059449025604
 30
0.0
  0
SEQEND
  5
E27
330
E22
100
AcDbEntity
  8
WAKU
  0
SPLINE
  5
E28
330
E1F
100
AcDbEntity
  8
WAKU
100
AcDbSpline
210
0.0
220
0.0
230
1.0
 70
     9
 71
     3
 72
    56
 73
    52
 74
     0
 42
0.000000001
 43
0.0000000001
 40
0.0
 40
0.0
 40
0.0
 40
0.0
 40
1.0
 40
1.0
 40
1.0
 40
2.0
 40
2.0
 40
2.0
 40
3.0
 40
3.0
 40
3.0
 40
4.0
 40
4.0
 40
4.0
 40
5.0
 40
5.0
 40
5.0
 40
6.0
 40
6.0
 40
6.0
 40
7.0
 40
7.0
 40
7.0
 40
8.0
 40
8.0
 40
8.0
 40
9.0
 40
9.0
 40
9.0
 40
10.0
 40
10.0
 40
10.0
 40
11.0
 40
11.0
 40
11.0
 40
12.0
 40
12.0
 40
12.0
 40
13.0
 40
13.0
 40
13.0
 40
14.0
 40
14.0
 40
14.0
 40
15.0
 40
15.0
 40
15.0
 40
16.0
 40
16.0
 40
16.0
 40
17.0
 40
17.0
 40
17.0
 40
17.0
 10
-3.33025335043168
 20
41.50009752845046
 30
0.0
 10
-3.33025335043168
 20
41.50009752845046
 30
0.0
 10
-3.254805759285846
 20
41.50698771942269
 30
0.0
 10
-3.254805759285846
 20
41.50698771942269
 30
0.0
 10
-3.014682603903903
 20
41.57795668643657
 30
0.0
 10
-2.824513333070568
 20
41.68785523244353
 30
0.0
 10
-2.840016262758068
 20
42.06302613088103
 30
0.0
 10
-2.853107625605291
 20
42.38342001108935
 30
0.0
 10
-3.100120971959456
 20
42.65248196855464
 30
0.0
 10
-3.420170342619181
 20
42.65248196855464
 30
0.0
 10
-3.420170342619181
 20
42.65248196855464
 30
0.0
 10
-7.55359590685529
 20
42.652137459006
 30
0.0
 10
-7.55359590685529
 20
42.652137459006
 30
0.0
 10
-8.404534491924735
 20
42.68383233747825
 30
0.0
 10
-8.989167195917787
 20
42.06509318817269
 30
0.0
 10
-8.989167195917787
 20
41.3305988305338
 30
0.0
 10
-8.989167195917787
 20
40.88411445553381
 30
0.0
 10
-8.740431301820567
 20
40.46932495900603
 30
0.0
 10
-8.381796861716402
 20
40.22816827497825
 30
0.0
 10
-8.381796861716402
 20
40.22816827497825
 30
0.0
 10
-8.354925116924736
 20
40.20715319251297
 30
0.0
 10
-8.354925116924736
 20
40.20715319251297
 30
0.0
 10
-8.607450616056681
 20
40.05798055796435
 30
0.0
 10
-8.748355021438625
 20
39.8075221161241
 30
0.0
 10
-8.771781670744179
 20
39.50090861786021
 30
0.0
 10
-8.794863810501125
 20
39.19601766733936
 30
0.0
 10
-8.621230998001124
 20
38.83669420813798
 30
0.0
 10
-8.330464938973346
 20
38.69854587914492
 30
0.0
 10
-8.330464938973346
 20
38.69854587914492
 30
0.0
 10
-8.350446492792791
 20
38.68407647810325
 30
0.0
 10
-8.350446492792791
 20
38.68407647810325
 30
0.0
 10
-9.024996188973343
 20
38.26515286699215
 30
0.0
 10
-9.494562703730293
 20
37.59198120900604
 30
0.0
 10
-9.243070733244179
 20
36.46681302324215
 30
0.0
 10
-9.13076062039696
 20
35.96176202497826
 30
0.0
 10
-8.617441392966401
 20
35.58314603105465
 30
0.0
 10
-8.290501831334458
 20
35.41468086178382
 30
0.0
 10
-7.829203545744178
 20
35.17765829233937
 30
0.0
 10
-6.996523966751125
 20
35.05983602671437
 30
0.0
 10
-6.482860229771957
 20
35.04467760657548
 30
0.0
 10
-6.482860229771957
 20
35.04467760657548
 30
0.0
 10
-3.647891154251123
 20
34.73668607011715
 30
0.0
 10
-3.247571058765013
 20
36.70865872636714
 30
0.0
 10
-2.847250963278903
 20
38.68028687306853
 30
0.0
 10
-4.534658732376124
 20
39.39479967688798
 30
0.0
 10
-4.775126397306681
 20
39.40513496334631
 30
0.0
 10
-5.015594062237235
 20
39.41478123070742
 30
0.0
 10
-3.57830022543168
 20
39.8912379364366
 30
0.0
 10
-3.738497165535846
 20
41.33438843556853
 30
0.0
 10
-3.738497165535846
 20
41.33438843556853
 30
0.0
 10
-3.640656453730291
 20
41.4573783444227
 30
0.0
 10
-3.33025335043168
 20
41.50009752845046
 30
0.0
  0
ELLIPSE
  5
E29
330
E1F
100
AcDbEntity
  8
WAKU
100
AcDbEllipse
 10
-6.072204847827513
 20
38.96691881751298
 30
0.0
 11
-5.716791449652776
 21
-5.716791449652776
 31
0.0
210
0.0
220
0.0
230
1.0
 40
0.7036880800289264
 41
0.0
 42
6.283185307179584
  0
POLYLINE
  5
E2A
330
E1F
100
AcDbEntity
  8
WAKU
100
AcDb2dPolyline
 66
     1
 10
0.0
 20
0.0
 30
0.0
 70
     1
  0
VERTEX
  5
E2B
330
E2A
100
AcDbEntity
  8
WAKU
100
AcDbVertex
100
AcDb2dVertex
 10
38.86320910616554
 20
39.71657159529075
 30
0.0
  0
VERTEX
  5
E2C
330
E2A
100
AcDbEntity
  8
WAKU
100
AcDbVertex
100
AcDb2dVertex
 10
38.86320910616554
 20
38.31097263695742
 30
0.0
  0
VERTEX
  5
E2D
330
E2A
100
AcDbEntity
  8
WAKU
100
AcDbVertex
100
AcDb2dVertex
 10
31.17513401935998
 20
38.31097263695742
 30
0.0
  0
VERTEX
  5
E2E
330
E2A
100
AcDbEntity
  8
WAKU
100
AcDbVertex
100
AcDb2dVertex
 10
31.17513401935998
 20
39.71657159529075
 30
0.0
  0
SEQEND
  5
E2F
330
E2A
100
AcDbEntity
  8
WAKU
  0
SPLINE
  5
E30
330
E1F
100
AcDbEntity
  8
WAKU
100
AcDbSpline
210
0.0
220
0.0
230
1.0
 70
     9
 71
     3
 72
    53
 73
    49
 74
     0
 42
0.000000001
 43
0.0000000001
 40
0.0
 40
0.0
 40
0.0
 40
0.0
 40
1.0
 40
1.0
 40
1.0
 40
2.0
 40
2.0
 40
2.0
 40
3.0
 40
3.0
 40
3.0
 40
4.0
 40
4.0
 40
4.0
 40
5.0
 40
5.0
 40
5.0
 40
6.0
 40
6.0
 40
6.0
 40
7.0
 40
7.0
 40
7.0
 40
8.0
 40
8.0
 40
8.0
 40
9.0
 40
9.0
 40
9.0
 40
10.0
 40
10.0
 40
10.0
 40
11.0
 40
11.0
 40
11.0
 40
12.0
 40
12.0
 40
12.0
 40
13.0
 40
13.0
 40
13.0
 40
14.0
 40
14.0
 40
14.0
 40
15.0
 40
15.0
 40
15.0
 40
16.0
 40
16.0
 40
16.0
 40
16.0
 10
92.00725207491553
 20
42.91637628279075
 30
0.0
 10
92.00725207491553
 20
42.87055651282547
 30
0.0
 10
92.00725207491553
 20
40.82899292775603
 30
0.0
 10
92.00725207491553
 20
40.82899292775603
 30
0.0
 10
92.00725207491553
 20
40.82899292775603
 30
0.0
 10
90.36945368081831
 20
40.82899292775603
 30
0.0
 10
90.32397842040165
 20
40.82899292775603
 30
0.0
 10
90.32397842040165
 20
40.78489570553379
 30
0.0
 10
90.32397842040165
 20
39.62424303626298
 30
0.0
 10
90.32397842040165
 20
39.57980130449215
 30
0.0
 10
90.36945368081831
 20
39.57980130449215
 30
0.0
 10
92.00725207491553
 20
39.57980130449215
 30
0.0
 10
92.00725207491553
 20
39.57980130449215
 30
0.0
 10
92.00725207491553
 20
39.57980130449215
 30
0.0
 10
92.00725207491553
 20
36.45303264129771
 30
0.0
 10
92.00725207491553
 20
36.45303264129771
 30
0.0
 10
92.00725207491553
 20
36.45303264129771
 30
0.0
 10
89.91194500026276
 20
36.45303264129771
 30
0.0
 10
89.86646973984608
 20
36.45303264129771
 30
0.0
 10
89.86646973984608
 20
36.40893541907548
 30
0.0
 10
89.86646973984608
 20
35.26481920813797
 30
0.0
 10
89.86646973984608
 20
35.22037747636714
 30
0.0
 10
89.91228950981136
 20
35.22037747636714
 30
0.0
 10
95.3272905948808
 20
35.22037747636714
 30
0.0
 10
95.3734548743947
 20
35.22037747636714
 30
0.0
 10
95.3734548743947
 20
35.26481920813797
 30
0.0
 10
95.3734548743947
 20
36.40893541907548
 30
0.0
 10
95.3734548743947
 20
36.45303264129771
 30
0.0
 10
95.32763510442942
 20
36.45303264129771
 30
0.0
 10
93.41905220512387
 20
36.45303264129771
 30
0.0
 10
93.41905220512387
 20
36.45303264129771
 30
0.0
 10
93.41905220512387
 20
36.45303264129771
 30
0.0
 10
93.41905220512387
 20
39.57980130449215
 30
0.0
 10
93.41905220512387
 20
39.57980130449215
 30
0.0
 10
93.41905220512387
 20
39.57980130449215
 30
0.0
 10
95.18776422769331
 20
39.57980130449215
 30
0.0
 10
95.23323948810995
 20
39.57980130449215
 30
0.0
 10
95.23323948810995
 20
39.62424303626298
 30
0.0
 10
95.23323948810995
 20
40.78489570553379
 30
0.0
 10
95.23323948810995
 20
40.82899292775603
 30
0.0
 10
95.18776422769331
 20
40.82899292775603
 30
0.0
 10
93.41905220512387
 20
40.82899292775603
 30
0.0
 10
93.41905220512387
 20
40.82899292775603
 30
0.0
 10
93.41905220512387
 20
40.82899292775603
 30
0.0
 10
93.41905220512387
 20
42.87055651282547
 30
0.0
 10
93.41905220512387
 20
42.91637628279075
 30
0.0
 10
93.37461047335304
 20
42.91637628279075
 30
0.0
 10
92.05134929713777
 20
42.91637628279075
 30
0.0
 10
92.00725207491553
 20
42.91637628279075
 30
0.0
  0
SPLINE
  5
E31
330
E1F
100
AcDbEntity
  8
WAKU
100
AcDbSpline
210
0.0
220
0.0
230
1.0
 70
     9
 71
     3
 72
    74
 73
    70
 74
     0
 42
0.000000001
 43
0.0000000001
 40
0.0
 40
0.0
 40
0.0
 40
0.0
 40
1.0
 40
1.0
 40
1.0
 40
2.0
 40
2.0
 40
2.0
 40
3.0
 40
3.0
 40
3.0
 40
4.0
 40
4.0
 40
4.0
 40
5.0
 40
5.0
 40
5.0
 40
6.0
 40
6.0
 40
6.0
 40
7.0
 40
7.0
 40
7.0
 40
8.0
 40
8.0
 40
8.0
 40
9.0
 40
9.0
 40
9.0
 40
10.0
 40
10.0
 40
10.0
 40
11.0
 40
11.0
 40
11.0
 40
12.0
 40
12.0
 40
12.0
 40
13.0
 40
13.0
 40
13.0
 40
14.0
 40
14.0
 40
14.0
 40
15.0
 40
15.0
 40
15.0
 40
16.0
 40
16.0
 40
16.0
 40
17.0
 40
17.0
 40
17.0
 40
18.0
 40
18.0
 40
18.0
 40
19.0
 40
19.0
 40
19.0
 40
20.0
 40
20.0
 40
20.0
 40
21.0
 40
21.0
 40
21.0
 40
22.0
 40
22.0
 40
22.0
 40
23.0
 40
23.0
 40
23.0
 40
23.0
 10
87.80871420599192
 20
42.92464451195741
 30
0.0
 10
87.80871420599192
 20
42.87951376108935
 30
0.0
 10
87.80871420599192
 20
41.76330282358935
 30
0.0
 10
87.80871420599192
 20
41.76330282358935
 30
0.0
 10
87.80871420599192
 20
41.76330282358935
 30
0.0
 10
86.67562230060999
 20
41.76330282358935
 30
0.0
 10
86.63083605929054
 20
41.76330282358935
 30
0.0
 10
86.63083605929054
 20
41.71920560136714
 30
0.0
 10
86.63083605929054
 20
40.67603068817269
 30
0.0
 10
86.63083605929054
 20
40.63193346595046
 30
0.0
 10
86.6763113197072
 20
40.63193346595046
 30
0.0
 10
88.69479276501968
 20
40.63193346595046
 30
0.0
 10
88.69479276501968
 20
40.63193346595046
 30
0.0
 10
88.69479276501968
 20
40.63193346595046
 30
0.0
 10
88.67550023029748
 20
40.59713800154074
 30
0.0
 10
88.67550023029748
 20
40.59713800154074
 30
0.0
 10
88.34959419731138
 20
40.01112725935325
 30
0.0
 10
87.48694228758914
 20
39.1315943817491
 30
0.0
 10
86.4654714759572
 20
38.57727851803382
 30
0.0
 10
86.47305068602666
 20
38.54558363956158
 30
0.0
 10
86.79516711397804
 20
37.19545071855464
 30
0.0
 10
86.8092920054711
 20
37.13585056664492
 30
0.0
 10
87.15896919731136
 20
37.34944648678381
 30
0.0
 10
87.41011665824888
 20
37.51377754147132
 30
0.0
 10
87.77116266519332
 20
37.79076321855465
 30
0.0
 10
87.77116266519332
 20
37.79076321855465
 30
0.0
 10
87.80871420599192
 20
37.81970202063798
 30
0.0
 10
87.80871420599192
 20
37.81970202063798
 30
0.0
 10
87.80871420599192
 20
37.81970202063798
 30
0.0
 10
87.80871420599192
 20
35.03089722463104
 30
0.0
 10
87.80871420599192
 20
34.98507745466576
 30
0.0
 10
87.85315593776275
 20
34.98507745466576
 30
0.0
 10
89.13886557317942
 20
34.98507745466576
 30
0.0
 10
89.18330730495027
 20
34.98507745466576
 30
0.0
 10
89.18330730495027
 20
35.03089722463104
 30
0.0
 10
89.18330730495027
 20
38.15973294511714
 30
0.0
 10
89.18330730495027
 20
38.15973294511714
 30
0.0
 10
89.18330730495027
 20
38.15973294511714
 30
0.0
 10
89.22499296033221
 20
38.10667847463103
 30
0.0
 10
89.22499296033221
 20
38.10667847463103
 30
0.0
 10
89.51128039522803
 20
37.74494344858937
 30
0.0
 10
89.71695259574886
 20
37.5471949676866
 30
0.0
 10
89.98635906276275
 20
37.32050768470048
 30
0.0
 10
90.01323080755442
 20
37.36598294511714
 30
0.0
 10
90.63782661918637
 20
38.43051745032548
 30
0.0
 10
90.6609087589433
 20
38.47013604841576
 30
0.0
 10
90.28470433186001
 20
38.66168335744354
 30
0.0
 10
89.8726709117211
 20
38.9052516083116
 30
0.0
 10
89.40551596380442
 20
39.37171753713104
 30
0.0
 10
89.40551596380442
 20
39.37171753713104
 30
0.0
 10
89.39070205321415
 20
39.38618693817272
 30
0.0
 10
89.39070205321415
 20
39.38618693817272
 30
0.0
 10
89.39070205321415
 20
39.38618693817272
 30
0.0
 10
89.40344890651275
 20
39.40237888695742
 30
0.0
 10
89.40344890651275
 20
39.40237888695742
 30
0.0
 10
89.81479330755439
 20
39.93740221595048
 30
0.0
 10
89.99256023463775
 20
40.29224705101992
 30
0.0
 10
90.13932130234607
 20
40.60988485483934
 30
0.0
 10
90.13932130234607
 20
40.60988485483934
 30
0.0
 10
90.13725424505443
 20
41.71851658226992
 30
0.0
 10
90.13725424505443
 20
41.76330282358935
 30
0.0
 10
90.09281251328358
 20
41.76330282358935
 30
0.0
 10
89.18330730495027
 20
41.76330282358935
 30
0.0
 10
89.18330730495027
 20
41.76330282358935
 30
0.0
 10
89.18330730495027
 20
41.76330282358935
 30
0.0
 10
89.18330730495027
 20
42.87951376108935
 30
0.0
 10
89.18330730495027
 20
42.92464451195741
 30
0.0
 10
89.13886557317942
 20
42.92464451195741
 30
0.0
 10
87.85315593776275
 20
42.92464451195741
 30
0.0
 10
87.80871420599192
 20
42.92464451195741
 30
0.0
  0
SPLINE
  5
E32
330
E1F
100
AcDbEntity
  8
WAKU
100
AcDbSpline
210
0.0
220
0.0
230
1.0
 70
     9
 71
     3
 72
    35
 73
    31
 74
     0
 42
0.000000001
 43
0.0000000001
 40
0.0
 40
0.0
 40
0.0
 40
0.0
 40
1.0
 40
1.0
 40
1.0
 40
2.0
 40
2.0
 40
2.0
 40
3.0
 40
3.0
 40
3.0
 40
4.0
 40
4.0
 40
4.0
 40
5.0
 40
5.0
 40
5.0
 40
6.0
 40
6.0
 40
6.0
 40
7.0
 40
7.0
 40
7.0
 40
8.0
 40
8.0
 40
8.0
 40
9.0
 40
9.0
 40
9.0
 40
10.0
 40
10.0
 40
10.0
 40
10.0
 10
80.33940268255442
 20
36.44579794077686
 30
0.0
 10
80.62155600286692
 20
36.95360501542964
 30
0.0
 10
80.80621312092246
 20
37.32808689476993
 30
0.0
 10
81.06804037786693
 20
37.88343628713104
 30
0.0
 10
81.06804037786693
 20
37.88343628713104
 30
0.0
 10
81.07424154974195
 20
37.89652764997825
 30
0.0
 10
81.07424154974195
 20
37.89652764997825
 30
0.0
 10
81.07424154974195
 20
37.89652764997825
 30
0.0
 10
83.71697429713776
 20
37.89652764997825
 30
0.0
 10
83.71697429713776
 20
37.89652764997825
 30
0.0
 10
83.71697429713776
 20
37.89652764997825
 30
0.0
 10
83.72593154540162
 20
37.85174140865882
 30
0.0
 10
83.72593154540162
 20
37.85174140865882
 30
0.0
 10
83.72593154540162
 20
37.85174140865882
 30
0.0
 10
82.7082503388044
 20
37.41731486786021
 30
0.0
 10
82.65209528238081
 20
37.39354370900603
 30
0.0
 10
82.69309191866554
 20
37.34669041039492
 30
0.0
 10
83.43034235269332
 20
36.50505358313797
 30
0.0
 10
83.43034235269332
 20
36.50505358313797
 30
0.0
 10
83.43034235269332
 20
36.50505358313797
 30
0.0
 10
83.38073297769332
 20
36.50367554494354
 30
0.0
 10
83.38073297769332
 20
36.50367554494354
 30
0.0
 10
83.38073297769332
 20
36.50367554494354
 30
0.0
 10
81.27750218342248
 20
36.41927070553381
 30
0.0
 10
81.27750218342248
 20
36.41927070553381
 30
0.0
 10
81.27750218342248
 20
36.41927070553381
 30
0.0
 10
80.3197656382836
 20
36.41065796681854
 30
0.0
 10
80.3197656382836
 20
36.41065796681854
 30
0.0
 10
80.3197656382836
 20
36.41065796681854
 30
0.0
 10
80.33940268255442
 20
36.44579794077686
 30
0.0
 10
80.33940268255442
 20
36.44579794077686
 30
0.0
  0
SPLINE
  5
E33
330
E1F
100
AcDbEntity
  8
WAKU
100
AcDbSpline
210
0.0
220
0.0
230
1.0
 70
     9
 71
     3
 72
    56
 73
    52
 74
     0
 42
0.000000001
 43
0.0000000001
 40
0.0
 40
0.0
 40
0.0
 40
0.0
 40
1.0
 40
1.0
 40
1.0
 40
2.0
 40
2.0
 40
2.0
 40
3.0
 40
3.0
 40
3.0
 40
4.0
 40
4.0
 40
4.0
 40
5.0
 40
5.0
 40
5.0
 40
6.0
 40
6.0
 40
6.0
 40
7.0
 40
7.0
 40
7.0
 40
8.0
 40
8.0
 40
8.0
 40
9.0
 40
9.0
 40
9.0
 40
10.0
 40
10.0
 40
10.0
 40
11.0
 40
11.0
 40
11.0
 40
12.0
 40
12.0
 40
12.0
 40
13.0
 40
13.0
 40
13.0
 40
14.0
 40
14.0
 40
14.0
 40
15.0
 40
15.0
 40
15.0
 40
16.0
 40
16.0
 40
16.0
 40
17.0
 40
17.0
 40
17.0
 40
17.0
 10
77.46619304713775
 20
39.06165894338104
 30
0.0
 10
77.46619304713775
 20
39.01756172115881
 30
0.0
 10
77.46619304713775
 20
37.94062487220048
 30
0.0
 10
77.46619304713775
 20
37.89652764997825
 30
0.0
 10
77.51166830755443
 20
37.89652764997825
 30
0.0
 10
79.56081110269329
 20
37.89652764997825
 30
0.0
 10
79.56081110269329
 20
37.89652764997825
 30
0.0
 10
79.56081110269329
 20
37.89652764997825
 30
0.0
 10
79.54978679713774
 20
37.86552179060326
 30
0.0
 10
79.54978679713774
 20
37.86552179060326
 30
0.0
 10
79.3306787242211
 20
37.2557398895616
 30
0.0
 10
79.0891775306447
 20
36.76998142601993
 30
0.0
 10
78.9031423743947
 20
36.41513659095048
 30
0.0
 10
78.9031423743947
 20
36.41513659095048
 30
0.0
 10
78.8965966929711
 20
36.40273424720048
 30
0.0
 10
78.8965966929711
 20
36.40273424720048
 30
0.0
 10
78.8965966929711
 20
36.40273424720048
 30
0.0
 10
77.83481826415166
 20
36.39446601803382
 30
0.0
 10
77.83481826415166
 20
36.39446601803382
 30
0.0
 10
77.83481826415166
 20
36.39446601803382
 30
0.0
 10
77.58367080321416
 20
36.40066718990882
 30
0.0
 10
77.53543946640859
 20
36.40170071855465
 30
0.0
 10
77.54474122422109
 20
36.34899075761715
 30
0.0
 10
77.74524578151275
 20
35.18317044511714
 30
0.0
 10
77.75179146293637
 20
35.14527439476992
 30
0.0
 10
79.81230307317942
 20
35.20280748938797
 30
0.0
 10
80.21331218776275
 20
35.23140178192271
 30
0.0
 10
83.93367080321414
 20
35.4980521725477
 30
0.0
 10
83.93367080321414
 20
35.4980521725477
 30
0.0
 10
84.18688532144331
 20
35.51596666907548
 30
0.0
 10
84.18688532144331
 20
35.51596666907548
 30
0.0
 10
84.18688532144331
 20
35.51596666907548
 30
0.0
 10
84.54483074245024
 20
34.9585502194227
 30
0.0
 10
84.56653484401275
 20
34.92409926456159
 30
0.0
 10
84.60236383706831
 20
34.94098023244354
 30
0.0
 10
85.82123862005444
 20
35.52010078365881
 30
0.0
 10
85.86946995685995
 20
35.54283841386715
 30
0.0
 10
85.40300402804053
 20
36.20670831404075
 30
0.0
 10
84.80769152804054
 20
36.99804674720048
 30
0.0
 10
83.92505806449888
 20
37.85656454233937
 30
0.0
 10
83.92505806449888
 20
37.85656454233937
 30
0.0
 10
83.88337240911694
 20
37.89652764997825
 30
0.0
 10
83.88337240911694
 20
37.89652764997825
 30
0.0
 10
83.88337240911694
 20
37.89652764997825
 30
0.0
 10
85.80814725720719
 20
37.89652764997825
 30
0.0
 10
85.85362251762388
 20
37.89652764997825
 30
0.0
 10
85.85362251762388
 20
37.94062487220048
 30
0.0
 10
85.85362251762388
 20
39.01756172115881
 30
0.0
 10
85.85362251762388
 20
39.06165894338104
 30
0.0
 10
85.80711372856137
 20
39.06165894338104
 30
0.0
 10
77.51235732665165
 20
39.06165894338104
 30
0.0
 10
77.46619304713775
 20
39.06165894338104
 30
0.0
  0
SPLINE
  5
E34
330
E1F
100
AcDbEntity
  8
WAKU
100
AcDbSpline
210
0.0
220
0.0
230
1.0
 70
     9
 71
     3
 72
    26
 73
    22
 74
     0
 42
0.000000001
 43
0.0000000001
 40
0.0
 40
0.0
 40
0.0
 40
0.0
 40
1.0
 40
1.0
 40
1.0
 40
2.0
 40
2.0
 40
2.0
 40
3.0
 40
3.0
 40
3.0
 40
4.0
 40
4.0
 40
4.0
 40
5.0
 40
5.0
 40
5.0
 40
6.0
 40
6.0
 40
6.0
 40
7.0
 40
7.0
 40
7.0
 40
7.0
 10
80.22502551241553
 20
40.82141371768659
 30
0.0
 10
81.11627171467246
 20
41.42912856143659
 30
0.0
 10
81.43356500894331
 20
41.75055597029075
 30
0.0
 10
81.66094131102665
 20
42.00445950761714
 30
0.0
 10
81.66094131102665
 20
42.00445950761714
 30
0.0
 10
81.67747776935998
 20
42.02237400414492
 30
0.0
 10
81.67747776935998
 20
42.02237400414492
 30
0.0
 10
81.67747776935998
 20
42.02237400414492
 30
0.0
 10
81.69504775633914
 20
42.00514852671434
 30
0.0
 10
81.69504775633914
 20
42.00514852671434
 30
0.0
 10
81.95584148463778
 20
41.74676636525602
 30
0.0
 10
82.3137869056447
 20
41.39226603973519
 30
0.0
 10
83.14991158012388
 20
40.82141371768659
 30
0.0
 10
83.14991158012388
 20
40.82141371768659
 30
0.0
 10
83.21261231797109
 20
40.77869453365879
 30
0.0
 10
83.21261231797109
 20
40.77869453365879
 30
0.0
 10
83.21261231797109
 20
40.77869453365879
 30
0.0
 10
80.1623247745683
 20
40.77869453365879
 30
0.0
 10
80.1623247745683
 20
40.77869453365879
 30
0.0
 10
80.1623247745683
 20
40.77869453365879
 30
0.0
 10
80.22502551241553
 20
40.82141371768659
 30
0.0
 10
80.22502551241553
 20
40.82141371768659
 30
0.0
  0
SPLINE
  5
E35
330
E1F
100
AcDbEntity
  8
WAKU
100
AcDbSpline
210
0.0
220
0.0
230
1.0
 70
     9
 71
     3
 72
    44
 73
    40
 74
     0
 42
0.000000001
 43
0.0000000001
 40
0.0
 40
0.0
 40
0.0
 40
0.0
 40
1.0
 40
1.0
 40
1.0
 40
2.0
 40
2.0
 40
2.0
 40
3.0
 40
3.0
 40
3.0
 40
4.0
 40
4.0
 40
4.0
 40
5.0
 40
5.0
 40
5.0
 40
6.0
 40
6.0
 40
6.0
 40
7.0
 40
7.0
 40
7.0
 40
8.0
 40
8.0
 40
8.0
 40
9.0
 40
9.0
 40
9.0
 40
10.0
 40
10.0
 40
10.0
 40
11.0
 40
11.0
 40
11.0
 40
12.0
 40
12.0
 40
12.0
 40
13.0
 40
13.0
 40
13.0
 40
13.0
 10
80.86581327283218
 20
42.98355564476993
 30
0.0
 10
80.20504395859608
 20
42.15363214216576
 30
0.0
 10
79.03681207925581
 20
41.47322578365881
 30
0.0
 10
77.08344293863081
 20
40.78110610049907
 30
0.0
 10
77.10859213567943
 20
40.73597534963103
 30
0.0
 10
77.7528249915822
 20
39.57635620900603
 30
0.0
 10
77.7714285072072
 20
39.54328329233937
 30
0.0
 10
77.7776296790822
 20
39.54535034963104
 30
0.0
 10
77.7838308509572
 20
39.54776191647132
 30
0.0
 10
77.7838308509572
 20
39.54776191647132
 30
0.0
 10
78.0573714325544
 20
39.64594713782548
 30
0.0
 10
78.46974936224192
 20
39.79443075327687
 30
0.0
 10
79.17048178411693
 20
40.17476929494352
 30
0.0
 10
79.17048178411693
 20
40.17476929494352
 30
0.0
 10
79.20493273897804
 20
40.19337281056853
 30
0.0
 10
79.20493273897804
 20
40.19337281056853
 30
0.0
 10
79.20493273897804
 20
40.19337281056853
 30
0.0
 10
79.20493273897804
 20
39.73999824459632
 30
0.0
 10
79.20493273897804
 20
39.69762357011715
 30
0.0
 10
79.25075250894329
 20
39.69762357011715
 30
0.0
 10
84.08663304279745
 20
39.69762357011715
 30
0.0
 10
84.13279732231137
 20
39.69762357011715
 30
0.0
 10
84.13279732231137
 20
39.74034275414492
 30
0.0
 10
84.13279732231137
 20
40.22679023678381
 30
0.0
 10
84.13279732231137
 20
40.22679023678381
 30
0.0
 10
84.13279732231137
 20
40.22679023678381
 30
0.0
 10
84.16724827717247
 20
40.20818672115882
 30
0.0
 10
84.16724827717247
 20
40.20818672115882
 30
0.0
 10
84.8438650306447
 20
39.83956150414492
 30
0.0
 10
85.26003256536695
 20
39.67695299720047
 30
0.0
 10
85.53874079019331
 20
39.5687769989366
 30
0.0
 10
85.55803332491553
 20
39.60219442515187
 30
0.0
 10
86.21845812960302
 20
40.75216729841574
 30
0.0
 10
86.2446408552975
 20
40.79798706838103
 30
0.0
 10
84.61338814262388
 20
41.35195842254769
 30
0.0
 10
83.39106826415164
 20
42.06681573591575
 30
0.0
 10
82.51015734835304
 20
42.98355564476993
 30
0.0
 10
82.49155383272805
 20
42.98355564476993
 30
0.0
 10
80.88648384574886
 20
42.98355564476993
 30
0.0
 10
80.86581327283218
 20
42.98355564476993
 30
0.0
  0
SPLINE
  5
E36
330
E1F
100
AcDbEntity
  8
WAKU
100
AcDbSpline
210
0.0
220
0.0
230
1.0
 70
     9
 71
     3
 72
    50
 73
    46
 74
     0
 42
0.000000001
 43
0.0000000001
 40
0.0
 40
0.0
 40
0.0
 40
0.0
 40
1.0
 40
1.0
 40
1.0
 40
2.0
 40
2.0
 40
2.0
 40
3.0
 40
3.0
 40
3.0
 40
4.0
 40
4.0
 40
4.0
 40
5.0
 40
5.0
 40
5.0
 40
6.0
 40
6.0
 40
6.0
 40
7.0
 40
7.0
 40
7.0
 40
8.0
 40
8.0
 40
8.0
 40
9.0
 40
9.0
 40
9.0
 40
10.0
 40
10.0
 40
10.0
 40
11.0
 40
11.0
 40
11.0
 40
12.0
 40
12.0
 40
12.0
 40
13.0
 40
13.0
 40
13.0
 40
14.0
 40
14.0
 40
14.0
 40
15.0
 40
15.0
 40
15.0
 40
15.0
 10
68.10483508272804
 20
39.81096721161021
 30
0.0
 10
68.10483508272804
 20
39.76686998938798
 30
0.0
 10
68.10483508272804
 20
38.68166491126298
 30
0.0
 10
68.10483508272804
 20
38.63756768904075
 30
0.0
 10
68.1499658335961
 20
38.63756768904075
 30
0.0
 10
69.59139378498497
 20
38.63756768904075
 30
0.0
 10
69.59139378498497
 20
38.63756768904075
 30
0.0
 10
69.59139378498497
 20
38.63756768904075
 30
0.0
 10
69.59139378498497
 20
36.56396471595048
 30
0.0
 10
69.59139378498497
 20
36.56396471595048
 30
0.0
 10
69.59139378498497
 20
36.56396471595048
 30
0.0
 10
68.2130110809919
 20
36.46991360917964
 30
0.0
 10
68.2130110809919
 20
36.46991360917964
 30
0.0
 10
68.21370010008914
 20
36.46991360917964
 30
0.0
 10
68.00596084227665
 20
36.46026734181854
 30
0.0
 10
68.00596084227665
 20
36.46026734181854
 30
0.0
 10
68.00596084227665
 20
36.46026734181854
 30
0.0
 10
67.88297093342248
 20
36.45578871768659
 30
0.0
 10
67.84541939262386
 20
36.45441067949214
 30
0.0
 10
67.85127605495026
 20
36.40686836178382
 30
0.0
 10
67.99355849852665
 20
35.22347806230464
 30
0.0
 10
67.99872614175581
 20
35.18041436872825
 30
0.0
 10
71.1575341929711
 20
35.4825492428602
 30
0.0
 10
71.73286513915164
 20
35.54077135657548
 30
0.0
 10
72.7794851478322
 20
35.73851983747825
 30
0.0
 10
72.77914063828359
 20
35.77572686872826
 30
0.0
 10
72.76260417995023
 20
36.83509373070742
 30
0.0
 10
72.76191516085304
 20
36.88642565345047
 30
0.0
 10
72.42085070772803
 20
36.82820353973522
 30
0.0
 10
72.03121040824886
 20
36.76205770640186
 30
0.0
 10
71.00078234835304
 20
36.67179620466575
 30
0.0
 10
71.00078234835304
 20
36.67179620466575
 30
0.0
 10
70.9749441322072
 20
36.6697291473741
 30
0.0
 10
70.9749441322072
 20
36.6697291473741
 30
0.0
 10
70.9749441322072
 20
36.6697291473741
 30
0.0
 10
70.9749441322072
 20
38.63756768904075
 30
0.0
 10
70.9749441322072
 20
38.63756768904075
 30
0.0
 10
70.9749441322072
 20
38.63756768904075
 30
0.0
 10
72.3888113197072
 20
38.63756768904075
 30
0.0
 10
72.43394207057527
 20
38.63756768904075
 30
0.0
 10
72.43394207057527
 20
38.68166491126298
 30
0.0
 10
72.43394207057527
 20
39.76686998938798
 30
0.0
 10
72.43394207057527
 20
39.81096721161021
 30
0.0
 10
72.38812230060998
 20
39.81096721161021
 30
0.0
 10
68.15065485269332
 20
39.81096721161021
 30
0.0
 10
68.10483508272804
 20
39.81096721161021
 30
0.0
  0
SPLINE
  5
E37
330
E1F
100
AcDbEntity
  8
WAKU
100
AcDbSpline
210
0.0
220
0.0
230
1.0
 70
     9
 71
     3
 72
    89
 73
    85
 74
     0
 42
0.000000001
 43
0.0000000001
 40
0.0
 40
0.0
 40
0.0
 40
0.0
 40
1.0
 40
1.0
 40
1.0
 40
2.0
 40
2.0
 40
2.0
 40
3.0
 40
3.0
 40
3.0
 40
4.0
 40
4.0
 40
4.0
 40
5.0
 40
5.0
 40
5.0
 40
6.0
 40
6.0
 40
6.0
 40
7.0
 40
7.0
 40
7.0
 40
8.0
 40
8.0
 40
8.0
 40
9.0
 40
9.0
 40
9.0
 40
10.0
 40
10.0
 40
10.0
 40
11.0
 40
11.0
 40
11.0
 40
12.0
 40
12.0
 40
12.0
 40
13.0
 40
13.0
 40
13.0
 40
14.0
 40
14.0
 40
14.0
 40
15.0
 40
15.0
 40
15.0
 40
16.0
 40
16.0
 40
16.0
 40
17.0
 40
17.0
 40
17.0
 40
18.0
 40
18.0
 40
18.0
 40
19.0
 40
19.0
 40
19.0
 40
20.0
 40
20.0
 40
20.0
 40
21.0
 40
21.0
 40
21.0
 40
22.0
 40
22.0
 40
22.0
 40
23.0
 40
23.0
 40
23.0
 40
24.0
 40
24.0
 40
24.0
 40
25.0
 40
25.0
 40
25.0
 40
26.0
 40
26.0
 40
26.0
 40
27.0
 40
27.0
 40
27.0
 40
28.0
 40
28.0
 40
28.0
 40
28.0
 10
74.36939671467247
 20
42.55980889997824
 30
0.0
 10
74.59573948810998
 20
42.36481649546436
 30
0.0
 10
74.79762208359609
 20
42.10436727671435
 30
0.0
 10
75.02844348116553
 20
41.80085436438797
 30
0.0
 10
75.02844348116553
 20
41.80085436438797
 30
0.0
 10
75.05703777370027
 20
41.76330282358935
 30
0.0
 10
75.05703777370027
 20
41.76330282358935
 30
0.0
 10
75.05703777370027
 20
41.76330282358935
 30
0.0
 10
74.07036242647802
 20
41.76330282358935
 30
0.0
 10
74.07036242647802
 20
41.76330282358935
 30
0.0
 10
74.07036242647802
 20
41.76330282358935
 30
0.0
 10
74.07036242647802
 20
42.88743748070742
 30
0.0
 10
74.07036242647802
 20
42.93325725067268
 30
0.0
 10
74.0259206947072
 20
42.93325725067268
 30
0.0
 10
72.6678640540822
 20
42.93325725067268
 30
0.0
 10
72.62169977456832
 20
42.93325725067268
 30
0.0
 10
72.62307781276277
 20
42.89122708574214
 30
0.0
 10
72.6306570228322
 20
42.66178372636714
 30
0.0
 10
72.6306570228322
 20
42.66178372636714
 30
0.0
 10
72.6303125132836
 20
42.66316176456157
 30
0.0
 10
72.64857151935998
 20
42.2325248287977
 30
0.0
 10
72.64857151935998
 20
42.2325248287977
 30
0.0
 10
72.64857151935998
 20
42.2325248287977
 30
0.0
 10
72.66855307317944
 20
41.76399184268658
 30
0.0
 10
72.66855307317944
 20
41.76399184268658
 30
0.0
 10
72.66855307317944
 20
41.76399184268658
 30
0.0
 10
72.64409289522801
 20
41.76330282358935
 30
0.0
 10
72.64409289522801
 20
41.76330282358935
 30
0.0
 10
72.64409289522801
 20
41.76330282358935
 30
0.0
 10
67.97288792560998
 20
41.76330282358935
 30
0.0
 10
67.92672364609609
 20
41.76330282358935
 30
0.0
 10
67.92672364609609
 20
41.71920560136714
 30
0.0
 10
67.92672364609609
 20
40.63400052324214
 30
0.0
 10
67.92672364609609
 20
40.58990330101992
 30
0.0
 10
67.97288792560998
 20
40.58990330101992
 30
0.0
 10
72.71333931449887
 20
40.58990330101992
 30
0.0
 10
72.71333931449887
 20
40.58990330101992
 30
0.0
 10
72.71333931449887
 20
40.58990330101992
 30
0.0
 10
72.71540637179054
 20
40.54511705970047
 30
0.0
 10
72.71540637179054
 20
40.54511705970047
 30
0.0
 10
72.7698388804711
 20
39.22702352671436
 30
0.0
 10
72.87112468776277
 20
36.77411554060326
 30
0.0
 10
74.21333388915164
 20
35.44086358747826
 30
0.0
 10
74.44415528672109
 20
35.21004218990881
 30
0.0
 10
74.88133790390858
 20
34.97646471595048
 30
0.0
 10
75.33712403672109
 20
34.97646471595048
 30
0.0
 10
76.16050185790166
 20
34.97646471595048
 30
0.0
 10
76.64005914956831
 20
35.85393053626297
 30
0.0
 10
76.85503310790164
 20
36.38344171247825
 30
0.0
 10
76.84676487873497
 20
36.40135620900603
 30
0.0
 10
76.32104330755443
 20
37.58371297983936
 30
0.0
 10
76.28176921901277
 20
37.67259644338103
 30
0.0
 10
76.0533593882836
 20
37.11449097463103
 30
0.0
 10
75.56966798203359
 20
36.56224216820742
 30
0.0
 10
75.2999170054711
 20
36.56224216820742
 30
0.0
 10
75.01294055147804
 20
36.56224216820742
 30
0.0
 10
74.7576589759572
 20
37.16754544511714
 30
0.0
 10
74.6611963023461
 20
37.42765015431853
 30
0.0
 10
74.25088542995027
 20
38.53455933400603
 30
0.0
 10
74.14512099852666
 20
39.68591024546436
 30
0.0
 10
74.09861220946416
 20
40.56509861351992
 30
0.0
 10
74.09861220946416
 20
40.56509861351992
 30
0.0
 10
74.0972341712697
 20
40.58990330101992
 30
0.0
 10
74.0972341712697
 20
40.58990330101992
 30
0.0
 10
74.0972341712697
 20
40.58990330101992
 30
0.0
 10
76.6521169837697
 20
40.58990330101992
 30
0.0
 10
76.69793675373495
 20
40.58990330101992
 30
0.0
 10
76.69793675373495
 20
40.63400052324214
 30
0.0
 10
76.69793675373495
 20
41.71920560136714
 30
0.0
 10
76.69793675373495
 20
41.76330282358935
 30
0.0
 10
76.65349502196416
 20
41.76330282358935
 30
0.0
 10
75.84217503498497
 20
41.76330282358935
 30
0.0
 10
75.84217503498497
 20
41.76330282358935
 30
0.0
 10
75.84217503498497
 20
41.76330282358935
 30
0.0
 10
75.83390680581832
 20
41.80843357445739
 30
0.0
 10
75.83390680581832
 20
41.80843357445739
 30
0.0
 10
75.83390680581832
 20
41.80843357445739
 30
0.0
 10
76.34929309054053
 20
42.01169420813797
 30
0.0
 10
76.40269207057524
 20
42.03270929060325
 30
0.0
 10
75.78636448810998
 20
42.81061185136714
 30
0.0
 10
75.65889595512387
 20
42.89639472897131
 30
0.0
 10
75.52625977890859
 20
42.98424466386713
 30
0.0
 10
75.52591526935998
 20
42.97976603973518
 30
0.0
 10
74.53579482665166
 20
42.6200980709852
 30
0.0
 10
74.36939671467247
 20
42.55980889997824
 30
0.0
  0
SPLINE
  5
E38
330
E1F
100
AcDbEntity
  8
WAKU
100
AcDbSpline
210
0.0
220
0.0
230
1.0
 70
     9
 71
     3
 72
   197
 73
   193
 74
     0
 42
0.000000001
 43
0.0000000001
 40
0.0
 40
0.0
 40
0.0
 40
0.0
 40
1.0
 40
1.0
 40
1.0
 40
2.0
 40
2.0
 40
2.0
 40
3.0
 40
3.0
 40
3.0
 40
4.0
 40
4.0
 40
4.0
 40
5.0
 40
5.0
 40
5.0
 40
6.0
 40
6.0
 40
6.0
 40
7.0
 40
7.0
 40
7.0
 40
8.0
 40
8.0
 40
8.0
 40
9.0
 40
9.0
 40
9.0
 40
10.0
 40
10.0
 40
10.0
 40
11.0
 40
11.0
 40
11.0
 40
12.0
 40
12.0
 40
12.0
 40
13.0
 40
13.0
 40
13.0
 40
14.0
 40
14.0
 40
14.0
 40
15.0
 40
15.0
 40
15.0
 40
16.0
 40
16.0
 40
16.0
 40
17.0
 40
17.0
 40
17.0
 40
18.0
 40
18.0
 40
18.0
 40
19.0
 40
19.0
 40
19.0
 40
20.0
 40
20.0
 40
20.0
 40
21.0
 40
21.0
 40
21.0
 40
22.0
 40
22.0
 40
22.0
 40
23.0
 40
23.0
 40
23.0
 40
24.0
 40
24.0
 40
24.0
 40
25.0
 40
25.0
 40
25.0
 40
26.0
 40
26.0
 40
26.0
 40
27.0
 40
27.0
 40
27.0
 40
28.0
 40
28.0
 40
28.0
 40
29.0
 40
29.0
 40
29.0
 40
30.0
 40
30.0
 40
30.0
 40
31.0
 40
31.0
 40
31.0
 40
32.0
 40
32.0
 40
32.0
 40
33.0
 40
33.0
 40
33.0
 40
34.0
 40
34.0
 40
34.0
 40
35.0
 40
35.0
 40
35.0
 40
36.0
 40
36.0
 40
36.0
 40
37.0
 40
37.0
 40
37.0
 40
38.0
 40
38.0
 40
38.0
 40
39.0
 40
39.0
 40
39.0
 40
40.0
 40
40.0
 40
40.0
 40
41.0
 40
41.0
 40
41.0
 40
42.0
 40
42.0
 40
42.0
 40
43.0
 40
43.0
 40
43.0
 40
44.0
 40
44.0
 40
44.0
 40
45.0
 40
45.0
 40
45.0
 40
46.0
 40
46.0
 40
46.0
 40
47.0
 40
47.0
 40
47.0
 40
48.0
 40
48.0
 40
48.0
 40
49.0
 40
49.0
 40
49.0
 40
50.0
 40
50.0
 40
50.0
 40
51.0
 40
51.0
 40
51.0
 40
52.0
 40
52.0
 40
52.0
 40
53.0
 40
53.0
 40
53.0
 40
54.0
 40
54.0
 40
54.0
 40
55.0
 40
55.0
 40
55.0
 40
56.0
 40
56.0
 40
56.0
 40
57.0
 40
57.0
 40
57.0
 40
58.0
 40
58.0
 40
58.0
 40
59.0
 40
59.0
 40
59.0
 40
60.0
 40
60.0
 40
60.0
 40
61.0
 40
61.0
 40
61.0
 40
62.0
 40
62.0
 40
62.0
 40
63.0
 40
63.0
 40
63.0
 40
64.0
 40
64.0
 40
64.0
 40
64.0
 10
64.0265310462697
 20
42.91637628279075
 30
0.0
 10
64.0265310462697
 20
42.87193455101991
 30
0.0
 10
64.0265310462697
 20
41.85563138261714
 30
0.0
 10
64.0265310462697
 20
41.85563138261714
 30
0.0
 10
64.0265310462697
 20
41.85563138261714
 30
0.0
 10
63.48737360269332
 20
41.85563138261714
 30
0.0
 10
63.48737360269332
 20
41.85563138261714
 30
0.0
 10
63.48737360269332
 20
41.85563138261714
 30
0.0
 10
63.66341798203359
 20
42.60872925588103
 30
0.0
 10
63.67478679713776
 20
42.65730510223519
 30
0.0
 10
63.6237993839433
 20
42.66143921681853
 30
0.0
 10
62.49966472682526
 20
42.75170071855463
 30
0.0
 10
62.4603906382836
 20
42.75480130449214
 30
0.0
 10
62.36013835963776
 20
42.10781237220047
 30
0.0
 10
62.1599783118947
 20
41.52317966820739
 30
0.0
 10
61.86301108099192
 20
41.01778416039493
 30
0.0
 10
61.86301108099192
 20
41.01778416039493
 30
0.0
 10
61.81960287786693
 20
40.94337009789492
 30
0.0
 10
61.81960287786693
 20
40.94337009789492
 30
0.0
 10
61.81960287786693
 20
40.94337009789492
 30
0.0
 10
61.81960287786693
 20
41.48493910831159
 30
0.0
 10
61.81960287786693
 20
41.52765829233937
 30
0.0
 10
61.77516114609609
 20
41.52765829233937
 30
0.0
 10
60.93145726154748
 20
41.52765829233937
 30
0.0
 10
60.93145726154748
 20
41.52765829233937
 30
0.0
 10
60.93145726154748
 20
41.52765829233937
 30
0.0
 10
60.93145726154748
 20
42.8712455319227
 30
0.0
 10
60.93145726154748
 20
42.91637628279075
 30
0.0
 10
60.88736003932526
 20
42.91637628279075
 30
0.0
 10
59.73187501328361
 20
42.91637628279075
 30
0.0
 10
59.68777779106137
 20
42.91637628279075
 30
0.0
 10
59.68777779106137
 20
42.8712455319227
 30
0.0
 10
59.68777779106137
 20
41.52765829233937
 30
0.0
 10
59.68777779106137
 20
41.52765829233937
 30
0.0
 10
59.68777779106137
 20
41.52765829233937
 30
0.0
 10
58.59154840738082
 20
41.52765829233937
 30
0.0
 10
58.54710667560998
 20
41.52765829233937
 30
0.0
 10
58.54710667560998
 20
41.48390557966575
 30
0.0
 10
58.54710667560998
 20
40.45692261525603
 30
0.0
 10
58.54710667560998
 20
40.41282539303379
 30
0.0
 10
58.59154840738082
 20
40.41282539303379
 30
0.0
 10
59.59372668429054
 20
40.41282539303379
 30
0.0
 10
59.59372668429054
 20
40.41282539303379
 30
0.0
 10
59.59372668429054
 20
40.41282539303379
 30
0.0
 10
59.58373590738081
 20
40.38250855275602
 30
0.0
 10
59.58373590738081
 20
40.38250855275602
 30
0.0
 10
59.15378799071415
 20
39.0327201412977
 30
0.0
 10
58.73314183185998
 20
38.4835719208116
 30
0.0
 10
58.37140680581832
 20
38.0777396725477
 30
0.0
 10
58.3776079776933
 20
38.05500204233937
 30
0.0
 10
58.77276042995024
 20
36.56534275414492
 30
0.0
 10
58.7958425697072
 20
36.47818183834632
 30
0.0
 10
58.99462457925581
 20
36.74035360483936
 30
0.0
 10
59.3350000132836
 20
37.21164266733936
 30
0.0
 10
59.64230253064471
 20
38.16662313608937
 30
0.0
 10
59.64230253064471
 20
38.16662313608937
 30
0.0
 10
59.68777779106137
 20
38.15973294511714
 30
0.0
 10
59.68777779106137
 20
38.15973294511714
 30
0.0
 10
59.68777779106137
 20
38.15973294511714
 30
0.0
 10
59.68777779106137
 20
35.0391654537977
 30
0.0
 10
59.68777779106137
 20
34.99334568383242
 30
0.0
 10
59.73187501328361
 20
34.99334568383242
 30
0.0
 10
60.88736003932526
 20
34.99334568383242
 30
0.0
 10
60.93145726154748
 20
34.99334568383242
 30
0.0
 10
60.93145726154748
 20
35.0391654537977
 30
0.0
 10
60.93145726154748
 20
38.47943780622826
 30
0.0
 10
60.93145726154748
 20
38.47943780622826
 30
0.0
 10
60.93145726154748
 20
38.47943780622826
 30
0.0
 10
60.97899957925581
 20
38.47943780622826
 30
0.0
 10
60.97899957925581
 20
38.47943780622826
 30
0.0
 10
61.07063911918636
 20
38.14112942949214
 30
0.0
 10
61.11921496554053
 20
37.96611857879771
 30
0.0
 10
61.49128527804053
 20
37.34152276716576
 30
0.0
 10
61.5305593665822
 20
37.38872057532547
 30
0.0
 10
62.2312917884572
 20
38.22450074025603
 30
0.0
 10
62.2591970618947
 20
38.25791816647131
 30
0.0
 10
62.13689617213774
 20
38.36092652150603
 30
0.0
 10
62.03044272161693
 20
38.45601115692272
 30
0.0
 10
61.84440756536693
 20
38.66581747202687
 30
0.0
 10
61.84440756536693
 20
38.66581747202687
 30
0.0
 10
61.8099566105058
 20
38.70474705101992
 30
0.0
 10
61.8099566105058
 20
38.70474705101992
 30
0.0
 10
61.8099566105058
 20
38.70474705101992
 30
0.0
 10
61.81719131102664
 20
38.70474705101992
 30
0.0
 10
61.82098091606136
 20
38.70474705101992
 30
0.0
 10
61.5832693275197
 20
38.98207723765187
 30
0.0
 10
61.15642199679054
 20
39.51572252845048
 30
0.0
 10
60.93386882838776
 20
40.00974922115879
 30
0.0
 10
60.93386882838776
 20
40.00974922115879
 30
0.0
 10
60.93145726154748
 20
40.01422784529075
 30
0.0
 10
60.93145726154748
 20
40.01422784529075
 30
0.0
 10
60.93145726154748
 20
40.01422784529075
 30
0.0
 10
60.93145726154748
 20
40.41282539303379
 30
0.0
 10
60.93145726154748
 20
40.41282539303379
 30
0.0
 10
60.93145726154748
 20
40.41282539303379
 30
0.0
 10
61.81512425373497
 20
40.41282539303379
 30
0.0
 10
61.81512425373497
 20
40.41282539303379
 30
0.0
 10
61.82856012613082
 20
40.40869127845048
 30
0.0
 10
62.54824057317943
 20
39.90364028018659
 30
0.0
 10
62.54824057317943
 20
39.90364028018659
 30
0.0
 10
62.54824057317943
 20
39.90364028018659
 30
0.0
 10
62.5940603431447
 20
39.87228991126297
 30
0.0
 10
62.6033621009572
 20
39.86574422983937
 30
0.0
 10
62.60818523463774
 20
39.87194540171437
 30
0.0
 10
62.62885580755442
 20
39.89916165605464
 30
0.0
 10
62.62885580755442
 20
39.89916165605464
 30
0.0
 10
62.74323297769331
 20
40.05040134789489
 30
0.0
 10
62.91721029974192
 20
40.31085056664492
 30
0.0
 10
63.09359918863082
 20
40.69394518470047
 30
0.0
 10
63.09359918863082
 20
40.69394518470047
 30
0.0
 10
63.10014487005442
 20
40.70738105709629
 30
0.0
 10
63.10014487005442
 20
40.70738105709629
 30
0.0
 10
63.10014487005442
 20
40.70738105709629
 30
0.0
 10
64.0265310462697
 20
40.70738105709629
 30
0.0
 10
64.0265310462697
 20
40.70738105709629
 30
0.0
 10
64.0265310462697
 20
40.70738105709629
 30
0.0
 10
64.0265310462697
 20
39.86161011525604
 30
0.0
 10
64.0265310462697
 20
39.86161011525604
 30
0.0
 10
64.0265310462697
 20
39.86161011525604
 30
0.0
 10
61.90986437960305
 20
39.86161011525604
 30
0.0
 10
61.86645617647805
 20
39.86161011525604
 30
0.0
 10
61.86645617647805
 20
39.8168238739366
 30
0.0
 10
61.86645617647805
 20
38.70750312740881
 30
0.0
 10
61.86645617647805
 20
38.70474705101992
 30
0.0
 10
61.87506891519332
 20
38.70474705101992
 30
0.0
 10
63.55868707925582
 20
38.70474705101992
 30
0.0
 10
63.55868707925582
 20
38.70474705101992
 30
0.0
 10
63.55868707925582
 20
38.70474705101992
 30
0.0
 10
63.53698297769331
 20
38.66891805796436
 30
0.0
 10
63.53698297769331
 20
38.66891805796436
 30
0.0
 10
63.00816082057526
 20
37.8045436004991
 30
0.0
 10
62.30398330321413
 20
37.1165580319227
 30
0.0
 10
61.44581001762386
 20
36.62184232011714
 30
0.0
 10
61.47130372422109
 20
36.58429077931854
 30
0.0
 10
62.21096572508916
 20
35.51768921681853
 30
0.0
 10
62.23956001762386
 20
35.4763480709852
 30
0.0
 10
62.98749024765861
 20
36.09474271074214
 30
0.0
 10
63.5583425697072
 20
36.7940970944227
 30
0.0
 10
63.98208931449886
 20
37.61471883921436
 30
0.0
 10
63.98208931449886
 20
37.61471883921436
 30
0.0
 10
64.0265310462697
 20
37.60403904320742
 30
0.0
 10
64.0265310462697
 20
37.60403904320742
 30
0.0
 10
64.0265310462697
 20
37.60403904320742
 30
0.0
 10
64.0265310462697
 20
35.0391654537977
 30
0.0
 10
64.0265310462697
 20
34.99334568383242
 30
0.0
 10
64.07062826849193
 20
34.99334568383242
 30
0.0
 10
65.27262208359609
 20
34.99334568383242
 30
0.0
 10
65.31671930581831
 20
34.99334568383242
 30
0.0
 10
65.31671930581831
 20
35.0391654537977
 30
0.0
 10
65.31671930581831
 20
37.41042467688798
 30
0.0
 10
65.31671930581831
 20
37.41042467688798
 30
0.0
 10
65.31671930581831
 20
37.41042467688798
 30
0.0
 10
65.36081652804054
 20
37.42144898244354
 30
0.0
 10
65.36081652804054
 20
37.42144898244354
 30
0.0
 10
65.78800836831831
 20
36.60668389997825
 30
0.0
 10
66.33474502196415
 20
35.96038398678382
 30
0.0
 10
66.9848345401933
 20
35.49632962480465
 30
0.0
 10
67.00688315130442
 20
35.55248468122825
 30
0.0
 10
67.50504395859609
 20
36.83612725935326
 30
0.0
 10
67.51813532144331
 20
36.87092272376297
 30
0.0
 10
67.1488210853322
 20
37.09761000674909
 30
0.0
 10
66.40399144123498
 20
37.56373142601992
 30
0.0
 10
65.7039480384572
 20
38.66891805796436
 30
0.0
 10
65.7039480384572
 20
38.66891805796436
 30
0.0
 10
65.68121040824888
 20
38.70474705101992
 30
0.0
 10
65.68121040824888
 20
38.70474705101992
 30
0.0
 10
65.68121040824888
 20
38.70474705101992
 30
0.0
 10
67.31005155408221
 20
38.70474705101992
 30
0.0
 10
67.35552681449886
 20
38.70474705101992
 30
0.0
 10
67.35552681449886
 20
38.74884427324214
 30
0.0
 10
67.35552681449886
 20
39.81751289303382
 30
0.0
 10
67.35552681449886
 20
39.86161011525604
 30
0.0
 10
67.30970704453359
 20
39.86161011525604
 30
0.0
 10
65.31671930581831
 20
39.86161011525604
 30
0.0
 10
65.31671930581831
 20
39.86161011525604
 30
0.0
 10
65.31671930581831
 20
39.86161011525604
 30
0.0
 10
65.31671930581831
 20
40.70738105709629
 30
0.0
 10
65.31671930581831
 20
40.70738105709629
 30
0.0
 10
65.31671930581831
 20
40.70738105709629
 30
0.0
 10
67.16949165824885
 20
40.70738105709629
 30
0.0
 10
67.21496691866554
 20
40.70738105709629
 30
0.0
 10
67.21496691866554
 20
40.75147827931853
 30
0.0
 10
67.21496691866554
 20
41.81187866994353
 30
0.0
 10
67.21496691866554
 20
41.85563138261714
 30
0.0
 10
67.16949165824885
 20
41.85563138261714
 30
0.0
 10
65.31671930581831
 20
41.85563138261714
 30
0.0
 10
65.31671930581831
 20
41.85563138261714
 30
0.0
 10
65.31671930581831
 20
41.85563138261714
 30
0.0
 10
65.31671930581831
 20
42.87193455101991
 30
0.0
 10
65.31671930581831
 20
42.91637628279075
 30
0.0
 10
65.27262208359609
 20
42.91637628279075
 30
0.0
 10
64.07062826849193
 20
42.91637628279075
 30
0.0
 10
64.0265310462697
 20
42.91637628279075
 30
0.0
  0
SPLINE
  5
E39
330
E1F
100
AcDbEntity
  8
WAKU
100
AcDbSpline
210
0.0
220
0.0
230
1.0
 70
     9
 71
     3
 72
    29
 73
    25
 74
     0
 42
0.000000001
 43
0.0000000001
 40
0.0
 40
0.0
 40
0.0
 40
0.0
 40
1.0
 40
1.0
 40
1.0
 40
2.0
 40
2.0
 40
2.0
 40
3.0
 40
3.0
 40
3.0
 40
4.0
 40
4.0
 40
4.0
 40
5.0
 40
5.0
 40
5.0
 40
6.0
 40
6.0
 40
6.0
 40
7.0
 40
7.0
 40
7.0
 40
8.0
 40
8.0
 40
8.0
 40
8.0
 10
52.86201010442942
 20
40.47552613088103
 30
0.0
 10
52.84340658880442
 20
40.53271471595047
 30
0.0
 10
52.72213922769331
 20
40.83450508053378
 30
0.0
 10
52.68596572508915
 20
40.89996189476992
 30
0.0
 10
52.68596572508915
 20
40.89996189476992
 30
0.0
 10
52.66632868081831
 20
40.93475735917964
 30
0.0
 10
52.66632868081831
 20
40.93475735917964
 30
0.0
 10
52.66632868081831
 20
40.93475735917964
 30
0.0
 10
54.5883474525197
 20
40.93475735917964
 30
0.0
 10
54.5883474525197
 20
40.93475735917964
 30
0.0
 10
54.5883474525197
 20
40.93475735917964
 30
0.0
 10
54.58042373290165
 20
40.9054740475477
 30
0.0
 10
54.58042373290165
 20
40.9054740475477
 30
0.0
 10
54.5015310462697
 20
40.61401896942268
 30
0.0
 10
54.46329048637386
 20
40.53374824459631
 30
0.0
 10
54.42815051241554
 20
40.47104750674907
 30
0.0
 10
54.42815051241554
 20
40.47104750674907
 30
0.0
 10
54.42126032144331
 20
40.45898967254768
 30
0.0
 10
54.42126032144331
 20
40.45898967254768
 30
0.0
 10
54.42126032144331
 20
40.45898967254768
 30
0.0
 10
52.86683323810998
 20
40.45898967254768
 30
0.0
 10
52.86683323810998
 20
40.45898967254768
 30
0.0
 10
52.86683323810998
 20
40.45898967254768
 30
0.0
 10
52.86201010442942
 20
40.47552613088103
 30
0.0
 10
52.86201010442942
 20
40.47552613088103
 30
0.0
  0
SPLINE
  5
E3A
330
E1F
100
AcDbEntity
  8
WAKU
100
AcDbSpline
210
0.0
220
0.0
230
1.0
 70
     9
 71
     3
 72
   203
 73
   199
 74
     0
 42
0.000000001
 43
0.0000000001
 40
0.0
 40
0.0
 40
0.0
 40
0.0
 40
1.0
 40
1.0
 40
1.0
 40
2.0
 40
2.0
 40
2.0
 40
3.0
 40
3.0
 40
3.0
 40
4.0
 40
4.0
 40
4.0
 40
5.0
 40
5.0
 40
5.0
 40
6.0
 40
6.0
 40
6.0
 40
7.0
 40
7.0
 40
7.0
 40
8.0
 40
8.0
 40
8.0
 40
9.0
 40
9.0
 40
9.0
 40
10.0
 40
10.0
 40
10.0
 40
11.0
 40
11.0
 40
11.0
 40
12.0
 40
12.0
 40
12.0
 40
13.0
 40
13.0
 40
13.0
 40
14.0
 40
14.0
 40
14.0
 40
15.0
 40
15.0
 40
15.0
 40
16.0
 40
16.0
 40
16.0
 40
17.0
 40
17.0
 40
17.0
 40
18.0
 40
18.0
 40
18.0
 40
19.0
 40
19.0
 40
19.0
 40
20.0
 40
20.0
 40
20.0
 40
21.0
 40
21.0
 40
21.0
 40
22.0
 40
22.0
 40
22.0
 40
23.0
 40
23.0
 40
23.0
 40
24.0
 40
24.0
 40
24.0
 40
25.0
 40
25.0
 40
25.0
 40
26.0
 40
26.0
 40
26.0
 40
27.0
 40
27.0
 40
27.0
 40
28.0
 40
28.0
 40
28.0
 40
29.0
 40
29.0
 40
29.0
 40
30.0
 40
30.0
 40
30.0
 40
31.0
 40
31.0
 40
31.0
 40
32.0
 40
32.0
 40
32.0
 40
33.0
 40
33.0
 40
33.0
 40
34.0
 40
34.0
 40
34.0
 40
35.0
 40
35.0
 40
35.0
 40
36.0
 40
36.0
 40
36.0
 40
37.0
 40
37.0
 40
37.0
 40
38.0
 40
38.0
 40
38.0
 40
39.0
 40
39.0
 40
39.0
 40
40.0
 40
40.0
 40
40.0
 40
41.0
 40
41.0
 40
41.0
 40
42.0
 40
42.0
 40
42.0
 40
43.0
 40
43.0
 40
43.0
 40
44.0
 40
44.0
 40
44.0
 40
45.0
 40
45.0
 40
45.0
 40
46.0
 40
46.0
 40
46.0
 40
47.0
 40
47.0
 40
47.0
 40
48.0
 40
48.0
 40
48.0
 40
49.0
 40
49.0
 40
49.0
 40
50.0
 40
50.0
 40
50.0
 40
51.0
 40
51.0
 40
51.0
 40
52.0
 40
52.0
 40
52.0
 40
53.0
 40
53.0
 40
53.0
 40
54.0
 40
54.0
 40
54.0
 40
55.0
 40
55.0
 40
55.0
 40
56.0
 40
56.0
 40
56.0
 40
57.0
 40
57.0
 40
57.0
 40
58.0
 40
58.0
 40
58.0
 40
59.0
 40
59.0
 40
59.0
 40
60.0
 40
60.0
 40
60.0
 40
61.0
 40
61.0
 40
61.0
 40
62.0
 40
62.0
 40
62.0
 40
63.0
 40
63.0
 40
63.0
 40
64.0
 40
64.0
 40
64.0
 40
65.0
 40
65.0
 40
65.0
 40
66.0
 40
66.0
 40
66.0
 40
66.0
 10
50.02221789522804
 20
42.70346938174909
 30
0.0
 10
50.17380209661692
 20
42.45611152584632
 30
0.0
 10
50.30471572508915
 20
42.2077201412977
 30
0.0
 10
50.40841309922109
 20
41.96449639997825
 30
0.0
 10
50.40841309922109
 20
41.96449639997825
 30
0.0
 10
50.42253799071414
 20
41.93176799286018
 30
0.0
 10
50.42253799071414
 20
41.93176799286018
 30
0.0
 10
50.42253799071414
 20
41.93176799286018
 30
0.0
 10
49.28669000894331
 20
41.93176799286018
 30
0.0
 10
49.24190376762386
 20
41.93176799286018
 30
0.0
 10
49.24190376762386
 20
41.88801528018657
 30
0.0
 10
49.24190376762386
 20
40.97816556230464
 30
0.0
 10
49.24190376762386
 20
40.93475735917964
 30
0.0
 10
49.28737902804054
 20
40.93475735917964
 30
0.0
 10
51.28829048637386
 20
40.93475735917964
 30
0.0
 10
51.28829048637386
 20
40.93475735917964
 30
0.0
 10
51.28829048637386
 20
40.93475735917964
 30
0.0
 10
51.29518067734609
 20
40.9237330536241
 30
0.0
 10
51.29518067734609
 20
40.9237330536241
 30
0.0
 10
51.38130806449886
 20
40.78661825327685
 30
0.0
 10
51.40921333793636
 20
40.7104816430338
 30
0.0
 10
51.48500543863081
 20
40.4899955319227
 30
0.0
 10
51.48500543863081
 20
40.4899955319227
 30
0.0
 10
51.49568523463774
 20
40.45898967254768
 30
0.0
 10
51.49568523463774
 20
40.45898967254768
 30
0.0
 10
51.49568523463774
 20
40.45898967254768
 30
0.0
 10
49.6518701304711
 20
40.45898967254768
 30
0.0
 10
49.60639487005442
 20
40.45898967254768
 30
0.0
 10
49.60639487005442
 20
40.41558146942271
 30
0.0
 10
49.60639487005442
 20
39.6063285397352
 30
0.0
 10
49.60639487005442
 20
39.56326484615882
 30
0.0
 10
49.65255914956832
 20
39.56326484615882
 30
0.0
 10
52.95399415390861
 20
39.56326484615882
 30
0.0
 10
52.95399415390861
 20
39.56326484615882
 30
0.0
 10
52.95399415390861
 20
39.56326484615882
 30
0.0
 10
52.95399415390861
 20
39.17982571855464
 30
0.0
 10
52.95399415390861
 20
39.17982571855464
 30
0.0
 10
52.95399415390861
 20
39.17982571855464
 30
0.0
 10
49.89578289088774
 20
39.17982571855464
 30
0.0
 10
49.84961861137386
 20
39.17982571855464
 30
0.0
 10
49.84961861137386
 20
39.13676202497825
 30
0.0
 10
49.84961861137386
 20
38.46117880015187
 30
0.0
 10
49.84961861137386
 20
38.4184596161241
 30
0.0
 10
49.89578289088774
 20
38.4184596161241
 30
0.0
 10
52.95399415390861
 20
38.4184596161241
 30
0.0
 10
52.95399415390861
 20
38.4184596161241
 30
0.0
 10
52.95399415390861
 20
38.4184596161241
 30
0.0
 10
52.95399415390861
 20
38.03502048851992
 30
0.0
 10
52.95399415390861
 20
38.03502048851992
 30
0.0
 10
52.95399415390861
 20
38.03502048851992
 30
0.0
 10
49.28806804713776
 20
38.03502048851992
 30
0.0
 10
49.24190376762386
 20
38.03502048851992
 30
0.0
 10
49.24190376762386
 20
37.99161228539492
 30
0.0
 10
49.24190376762386
 20
37.14067370032547
 30
0.0
 10
49.24190376762386
 20
37.09726549720048
 30
0.0
 10
49.28772353758915
 20
37.09726549720048
 30
0.0
 10
51.88325847682524
 20
37.09726549720048
 30
0.0
 10
51.88325847682524
 20
37.09726549720048
 30
0.0
 10
51.88325847682524
 20
37.09726549720048
 30
0.0
 10
51.8935937632836
 20
37.05316827497826
 30
0.0
 10
51.8935937632836
 20
37.05316827497826
 30
0.0
 10
50.77669380668638
 20
36.51573337914492
 30
0.0
 10
49.73799751762386
 20
36.26286337046437
 30
0.0
 10
49.19884007404748
 20
36.15709893904075
 30
0.0
 10
49.22915691432526
 20
36.10438897810325
 30
0.0
 10
49.8103445228322
 20
35.10358873938797
 30
0.0
 10
49.82791450981136
 20
35.0732718991102
 30
0.0
 10
51.74442112873498
 20
35.62276462914493
 30
0.0
 10
52.36109322074886
 20
36.04582235483937
 30
0.0
 10
52.91575359401274
 20
36.50264201629771
 30
0.0
 10
52.91575359401274
 20
36.50264201629771
 30
0.0
 10
52.95399415390861
 20
36.53433689476992
 30
0.0
 10
52.95399415390861
 20
36.53433689476992
 30
0.0
 10
52.95399415390861
 20
36.53433689476992
 30
0.0
 10
52.95399415390861
 20
35.04674466386715
 30
0.0
 10
52.95399415390861
 20
35.00161391299909
 30
0.0
 10
52.99809137613081
 20
35.00161391299909
 30
0.0
 10
54.24659398029748
 20
35.00161391299909
 30
0.0
 10
54.2910357120683
 20
35.00161391299909
 30
0.0
 10
54.2910357120683
 20
35.04674466386715
 30
0.0
 10
54.2910357120683
 20
36.5674098114366
 30
0.0
 10
54.2910357120683
 20
36.5674098114366
 30
0.0
 10
54.2910357120683
 20
36.5674098114366
 30
0.0
 10
54.32927627196415
 20
36.5367484616102
 30
0.0
 10
54.32927627196415
 20
36.5367484616102
 30
0.0
 10
55.1619558509572
 20
35.86116523678381
 30
0.0
 10
55.75451227456831
 20
35.53663724199215
 30
0.0
 10
57.39920085963776
 20
35.0732718991102
 30
0.0
 10
57.41642633706831
 20
35.10255521074215
 30
0.0
 10
58.03998862005443
 20
36.13505032792964
 30
0.0
 10
58.07306153672111
 20
36.18982734615882
 30
0.0
 10
57.60142796467248
 20
36.27113159963104
 30
0.0
 10
56.43422961397804
 20
36.47887085744353
 30
0.0
 10
55.3324880775197
 20
37.05316827497826
 30
0.0
 10
55.3324880775197
 20
37.05316827497826
 30
0.0
 10
55.34316787352665
 20
37.09726549720048
 30
0.0
 10
55.34316787352665
 20
37.09726549720048
 30
0.0
 10
55.34316787352665
 20
37.09726549720048
 30
0.0
 10
57.93870281276276
 20
37.09726549720048
 30
0.0
 10
57.98486709227663
 20
37.09726549720048
 30
0.0
 10
57.98486709227663
 20
37.14067370032547
 30
0.0
 10
57.98486709227663
 20
37.99161228539492
 30
0.0
 10
57.98486709227663
 20
38.03502048851992
 30
0.0
 10
57.93870281276276
 20
38.03502048851992
 30
0.0
 10
54.2910357120683
 20
38.03502048851992
 30
0.0
 10
54.2910357120683
 20
38.03502048851992
 30
0.0
 10
54.2910357120683
 20
38.03502048851992
 30
0.0
 10
54.2910357120683
 20
38.4184596161241
 30
0.0
 10
54.2910357120683
 20
38.4184596161241
 30
0.0
 10
54.2910357120683
 20
38.4184596161241
 30
0.0
 10
57.36819500026276
 20
38.4184596161241
 30
0.0
 10
57.41435927977665
 20
38.4184596161241
 30
0.0
 10
57.41435927977665
 20
38.46117880015187
 30
0.0
 10
57.41435927977665
 20
39.13676202497825
 30
0.0
 10
57.41435927977665
 20
39.17982571855464
 30
0.0
 10
57.36819500026276
 20
39.17982571855464
 30
0.0
 10
54.2910357120683
 20
39.17982571855464
 30
0.0
 10
54.2910357120683
 20
39.17982571855464
 30
0.0
 10
54.2910357120683
 20
39.17982571855464
 30
0.0
 10
54.2910357120683
 20
39.56326484615882
 30
0.0
 10
54.2910357120683
 20
39.56326484615882
 30
0.0
 10
54.2910357120683
 20
39.56326484615882
 30
0.0
 10
57.62037598984609
 20
39.56326484615882
 30
0.0
 10
57.66654026935999
 20
39.56326484615882
 30
0.0
 10
57.66654026935999
 20
39.6063285397352
 30
0.0
 10
57.66654026935999
 20
40.41558146942271
 30
0.0
 10
57.66654026935999
 20
40.45898967254768
 30
0.0
 10
57.62140951849192
 20
40.45898967254768
 30
0.0
 10
55.77759441432526
 20
40.45898967254768
 30
0.0
 10
55.77759441432526
 20
40.45898967254768
 30
0.0
 10
55.77759441432526
 20
40.45898967254768
 30
0.0
 10
55.77759441432526
 20
40.48241632185325
 30
0.0
 10
55.77759441432526
 20
40.48241632185325
 30
0.0
 10
55.77759441432526
 20
40.50033081838103
 30
0.0
 10
55.94605958359609
 20
40.91684286265186
 30
0.0
 10
55.94812664088776
 20
40.92097697723519
 30
0.0
 10
55.94812664088776
 20
40.92097697723519
 30
0.0
 10
55.95432781276276
 20
40.93475735917964
 30
0.0
 10
55.95432781276276
 20
40.93475735917964
 30
0.0
 10
55.95432781276276
 20
40.93475735917964
 30
0.0
 10
57.93904732231136
 20
40.93475735917964
 30
0.0
 10
57.98452258272803
 20
40.93475735917964
 30
0.0
 10
57.98452258272803
 20
40.97816556230464
 30
0.0
 10
57.98452258272803
 20
41.88801528018657
 30
0.0
 10
57.98452258272803
 20
41.93176799286018
 30
0.0
 10
57.9400808509572
 20
41.93176799286018
 30
0.0
 10
56.83489421901274
 20
41.93176799286018
 30
0.0
 10
56.83489421901274
 20
41.93176799286018
 30
0.0
 10
56.83489421901274
 20
41.93176799286018
 30
0.0
 10
56.85659832057526
 20
41.96725247636714
 30
0.0
 10
56.85659832057526
 20
41.96725247636714
 30
0.0
 10
57.00645997422109
 20
42.21254327497825
 30
0.0
 10
57.1370290931447
 20
42.49883070987407
 30
0.0
 10
57.22625706623498
 20
42.70243585310325
 30
0.0
 10
57.17044651935998
 20
42.71208212046436
 30
0.0
 10
55.96707466606137
 20
42.91534275414489
 30
0.0
 10
55.92952312526275
 20
42.92154392601992
 30
0.0
 10
55.85993219644332
 20
42.69141154754769
 30
0.0
 10
55.69697917995025
 20
42.24079305796435
 30
0.0
 10
55.53195910616555
 20
41.94382582706157
 30
0.0
 10
55.53195910616555
 20
41.94382582706157
 30
0.0
 10
55.52506891519332
 20
41.93176799286018
 30
0.0
 10
55.52506891519332
 20
41.93176799286018
 30
0.0
 10
55.52506891519332
 20
41.93176799286018
 30
0.0
 10
55.11372451415165
 20
41.93176799286018
 30
0.0
 10
55.11372451415165
 20
41.93176799286018
 30
0.0
 10
55.11372451415165
 20
41.93176799286018
 30
0.0
 10
55.11372451415165
 20
42.85470907358936
 30
0.0
 10
55.11372451415165
 20
42.89949531490881
 30
0.0
 10
55.06997180147804
 20
42.89949531490881
 30
0.0
 10
53.96168458359611
 20
42.89949531490881
 30
0.0
 10
53.91724285182526
 20
42.89949531490881
 30
0.0
 10
53.91724285182526
 20
42.85470907358936
 30
0.0
 10
53.91724285182526
 20
41.93176799286018
 30
0.0
 10
53.91724285182526
 20
41.93176799286018
 30
0.0
 10
53.91724285182526
 20
41.93176799286018
 30
0.0
 10
53.34639052977665
 20
41.93176799286018
 30
0.0
 10
53.34639052977665
 20
41.93176799286018
 30
0.0
 10
53.34639052977665
 20
41.93176799286018
 30
0.0
 10
53.34639052977665
 20
42.85470907358936
 30
0.0
 10
53.34639052977665
 20
42.89949531490881
 30
0.0
 10
53.30229330755443
 20
42.89949531490881
 30
0.0
 10
52.20330784748497
 20
42.89949531490881
 30
0.0
 10
52.15921062526276
 20
42.89949531490881
 30
0.0
 10
52.15921062526276
 20
42.85470907358936
 30
0.0
 10
52.15921062526276
 20
41.93176799286018
 30
0.0
 10
52.15921062526276
 20
41.93176799286018
 30
0.0
 10
52.15921062526276
 20
41.93176799286018
 30
0.0
 10
51.72616212265859
 20
41.93176799286018
 30
0.0
 10
51.72616212265859
 20
41.93176799286018
 30
0.0
 10
51.72616212265859
 20
41.93176799286018
 30
0.0
 10
51.72099447942943
 20
41.94795994164493
 30
0.0
 10
51.72099447942943
 20
41.94795994164493
 30
0.0
 10
51.57836752630442
 20
42.40064548851992
 30
0.0
 10
51.46467937526274
 20
42.65007040171435
 30
0.0
 10
51.31860732665165
 20
42.92188843556853
 30
0.0
 10
51.28691244817943
 20
42.91672079233936
 30
0.0
 10
50.08422961397805
 20
42.7138046682074
 30
0.0
 10
50.02221789522804
 20
42.70346938174909
 30
0.0
  0
SPLINE
  5
E3B
330
E1F
100
AcDbEntity
  8
WAKU
100
AcDbSpline
210
0.0
220
0.0
230
1.0
 70
     9
 71
     3
 72
    41
 73
    37
 74
     0
 42
0.000000001
 43
0.0000000001
 40
0.0
 40
0.0
 40
0.0
 40
0.0
 40
1.0
 40
1.0
 40
1.0
 40
2.0
 40
2.0
 40
2.0
 40
3.0
 40
3.0
 40
3.0
 40
4.0
 40
4.0
 40
4.0
 40
5.0
 40
5.0
 40
5.0
 40
6.0
 40
6.0
 40
6.0
 40
7.0
 40
7.0
 40
7.0
 40
8.0
 40
8.0
 40
8.0
 40
9.0
 40
9.0
 40
9.0
 40
10.0
 40
10.0
 40
10.0
 40
11.0
 40
11.0
 40
11.0
 40
12.0
 40
12.0
 40
12.0
 40
12.0
 10
40.24538141519331
 20
42.52087932098517
 30
0.0
 10
40.24538141519331
 20
42.47678209876297
 30
0.0
 10
40.24538141519331
 20
41.33232137827685
 30
0.0
 10
40.24538141519331
 20
41.28822415605464
 30
0.0
 10
40.2912011851586
 20
41.28822415605464
 30
0.0
 10
43.54647190998497
 20
41.28822415605464
 30
0.0
 10
43.54647190998497
 20
41.28822415605464
 30
0.0
 10
43.54647190998497
 20
41.28822415605464
 30
0.0
 10
43.54647190998497
 20
36.63011054928381
 30
0.0
 10
43.54647190998497
 20
36.63011054928381
 30
0.0
 10
43.54647190998497
 20
36.63011054928381
 30
0.0
 10
39.91740832491553
 20
36.63011054928381
 30
0.0
 10
39.87124404540166
 20
36.63011054928381
 30
0.0
 10
39.87124404540166
 20
36.58566881751298
 30
0.0
 10
39.87124404540166
 20
35.43293986786022
 30
0.0
 10
39.87124404540166
 20
35.38884264563797
 30
0.0
 10
39.91775283446415
 20
35.38884264563797
 30
0.0
 10
48.60525012179054
 20
35.38884264563797
 30
0.0
 10
48.65141440130443
 20
35.38884264563797
 30
0.0
 10
48.65141440130443
 20
35.43293986786022
 30
0.0
 10
48.65141440130443
 20
36.58566881751298
 30
0.0
 10
48.65141440130443
 20
36.63011054928381
 30
0.0
 10
48.60525012179054
 20
36.63011054928381
 30
0.0
 10
44.9765310462697
 20
36.63011054928381
 30
0.0
 10
44.9765310462697
 20
36.63011054928381
 30
0.0
 10
44.9765310462697
 20
36.63011054928381
 30
0.0
 10
44.9765310462697
 20
41.28822415605464
 30
0.0
 10
44.9765310462697
 20
41.28822415605464
 30
0.0
 10
44.9765310462697
 20
41.28822415605464
 30
0.0
 10
48.24075901935998
 20
41.28822415605464
 30
0.0
 10
48.28692329887386
 20
41.28822415605464
 30
0.0
 10
48.28692329887386
 20
41.33232137827685
 30
0.0
 10
48.28692329887386
 20
42.47678209876297
 30
0.0
 10
48.28692329887386
 20
42.52087932098517
 30
0.0
 10
48.24041450981138
 20
42.52087932098517
 30
0.0
 10
40.29154569470721
 20
42.52087932098517
 30
0.0
 10
40.24538141519331
 20
42.52087932098517
 30
0.0
  0
SPLINE
  5
E3C
330
E1F
100
AcDbEntity
  8
WAKU
100
AcDbSpline
210
0.0
220
0.0
230
1.0
 70
     9
 71
     3
 72
    17
 73
    13
 74
     0
 42
0.000000001
 43
0.0000000001
 40
0.0
 40
0.0
 40
0.0
 40
0.0
 40
1.0
 40
1.0
 40
1.0
 40
2.0
 40
2.0
 40
2.0
 40
3.0
 40
3.0
 40
3.0
 40
4.0
 40
4.0
 40
4.0
 40
4.0
 10
22.23166613741554
 20
36.78789592254771
 30
0.0
 10
25.25198135008916
 20
37.05695788001297
 30
0.0
 10
27.22498753498499
 20
37.56200887827687
 30
0.0
 10
28.49691678845721
 20
41.30717218122825
 30
0.0
 10
28.49691678845721
 20
41.30717218122825
 30
0.0
 10
29.86186362005443
 20
40.66741794945742
 30
0.0
 10
29.86186362005443
 20
40.66741794945742
 30
0.0
 10
28.41251194904748
 20
36.82992608747826
 30
0.0
 10
26.33684191866554
 20
35.7860621551866
 30
0.0
 10
22.65265680581832
 20
35.3488795379991
 30
0.0
 10
22.65265680581832
 20
35.3488795379991
 30
0.0
 10
22.23166613741554
 20
36.78789592254771
 30
0.0
 10
22.23166613741554
 20
36.78789592254771
 30
0.0
  0
SPLINE
  5
E3D
330
E1F
100
AcDbEntity
  8
WAKU
100
AcDbSpline
210
0.0
220
0.0
230
1.0
 70
     9
 71
     3
 72
    17
 73
    13
 74
     0
 42
0.000000001
 43
0.0000000001
 40
0.0
 40
0.0
 40
0.0
 40
0.0
 40
1.0
 40
1.0
 40
1.0
 40
2.0
 40
2.0
 40
2.0
 40
3.0
 40
3.0
 40
3.0
 40
4.0
 40
4.0
 40
4.0
 40
4.0
 10
24.45719782144332
 20
38.40364570553381
 30
0.0
 10
23.34443197942943
 20
38.92523316213104
 30
0.0
 10
22.37188152370026
 20
39.2029078583116
 30
0.0
 10
21.70801162352665
 20
39.3799857662977
 30
0.0
 10
21.70801162352665
 20
39.3799857662977
 30
0.0
 10
22.20341635442943
 20
40.52444648678378
 30
0.0
 10
22.20341635442943
 20
40.52444648678378
 30
0.0
 10
22.75532065130443
 20
40.40662422115882
 30
0.0
 10
24.08306045165165
 20
40.06969388261715
 30
0.0
 10
25.00875760876971
 20
39.63216675588103
 30
0.0
 10
25.00875760876971
 20
39.63216675588103
 30
0.0
 10
24.45719782144332
 20
38.40364570553381
 30
0.0
 10
24.45719782144332
 20
38.40364570553381
 30
0.0
  0
SPLINE
  5
E3E
330
E1F
100
AcDbEntity
  8
WAKU
100
AcDbSpline
210
0.0
220
0.0
230
1.0
 70
     9
 71
     3
 72
    17
 73
    13
 74
     0
 42
0.000000001
 43
0.0000000001
 40
0.0
 40
0.0
 40
0.0
 40
0.0
 40
1.0
 40
1.0
 40
1.0
 40
2.0
 40
2.0
 40
2.0
 40
3.0
 40
3.0
 40
3.0
 40
4.0
 40
4.0
 40
4.0
 40
4.0
 10
29.31960559054054
 20
41.70266914303382
 30
0.0
 10
29.24484701849193
 20
42.03925497202686
 30
0.0
 10
29.09532987439471
 20
42.53569323157547
 30
0.0
 10
28.90826118949887
 20
42.92292196421437
 30
0.0
 10
28.90826118949887
 20
42.92292196421437
 30
0.0
 10
29.72130372422109
 20
43.04074422983936
 30
0.0
 10
29.72130372422109
 20
43.04074422983936
 30
0.0
 10
29.96487197508915
 20
42.56945516733935
 30
0.0
 10
30.13299263481137
 20
41.92970093556853
 30
0.0
 10
30.15159615043637
 20
41.85425334442268
 30
0.0
 10
30.15159615043637
 20
41.85425334442268
 30
0.0
 10
29.31960559054054
 20
41.70266914303382
 30
0.0
 10
29.31960559054054
 20
41.70266914303382
 30
0.0
  0
SPLINE
  5
E3F
330
E1F
100
AcDbEntity
  8
WAKU
100
AcDbSpline
210
0.0
220
0.0
230
1.0
 70
     9
 71
     3
 72
    17
 73
    13
 74
     0
 42
0.000000001
 43
0.0000000001
 40
0.0
 40
0.0
 40
0.0
 40
0.0
 40
1.0
 40
1.0
 40
1.0
 40
2.0
 40
2.0
 40
2.0
 40
3.0
 40
3.0
 40
3.0
 40
4.0
 40
4.0
 40
4.0
 40
4.0
 10
27.95431424939471
 20
41.50905477671435
 30
0.0
 10
27.91710721814471
 20
41.70266914303382
 30
0.0
 10
27.78584908012387
 20
42.36722806230464
 30
0.0
 10
27.58982314696415
 20
42.83851712480464
 30
0.0
 10
27.58982314696415
 20
42.83851712480464
 30
0.0
 10
28.42181370685999
 20
42.94772665171436
 30
0.0
 10
28.42181370685999
 20
42.94772665171436
 30
0.0
 10
28.5058740367211
 20
42.75445679494352
 30
0.0
 10
28.63678766519332
 20
42.48505032792964
 30
0.0
 10
28.83315810790165
 20
41.66890720726992
 30
0.0
 10
28.83315810790165
 20
41.66890720726992
 30
0.0
 10
27.95431424939471
 20
41.50905477671435
 30
0.0
 10
27.95431424939471
 20
41.50905477671435
 30
0.0
  0
SPLINE
  5
E40
330
E1F
100
AcDbEntity
  8
WAKU
100
AcDbSpline
210
0.0
220
0.0
230
1.0
 70
     9
 71
     3
 72
    17
 73
    13
 74
     0
 42
0.000000001
 43
0.0000000001
 40
0.0
 40
0.0
 40
0.0
 40
0.0
 40
1.0
 40
1.0
 40
1.0
 40
2.0
 40
2.0
 40
2.0
 40
3.0
 40
3.0
 40
3.0
 40
4.0
 40
4.0
 40
4.0
 40
4.0
 10
25.27988662352665
 20
40.4403861569227
 30
0.0
 10
24.27012913654749
 20
40.88618151282547
 30
0.0
 10
23.50359539088776
 20
41.11355781490881
 30
0.0
 10
22.45594185356138
 20
41.35747057532547
 30
0.0
 10
22.45594185356138
 20
41.35747057532547
 30
0.0
 10
22.98924263481137
 20
42.49366306664492
 30
0.0
 10
22.98924263481137
 20
42.49366306664492
 30
0.0
 10
24.05481066866554
 20
42.28316773244353
 30
0.0
 10
24.84993870685999
 20
42.06440416907547
 30
0.0
 10
25.86899795165165
 20
41.66890720726992
 30
0.0
 10
25.86899795165165
 20
41.66890720726992
 30
0.0
 10
25.27988662352665
 20
40.4403861569227
 30
0.0
 10
25.27988662352665
 20
40.4403861569227
 30
0.0
  0
SPLINE
  5
E41
330
E1F
100
AcDbEntity
  8
WAKU
100
AcDbSpline
210
0.0
220
0.0
230
1.0
 70
    11
 71
     3
 72
    32
 73
    28
 74
     0
 42
0.000000001
 43
0.0000000001
 40
0.0
 40
0.0
 40
0.0
 40
0.0
 40
1.0
 40
1.0
 40
1.0
 40
2.0
 40
2.0
 40
2.0
 40
3.0
 40
3.0
 40
3.0
 40
4.0
 40
4.0
 40
4.0
 40
5.0
 40
5.0
 40
5.0
 40
6.0
 40
6.0
 40
6.0
 40
7.0
 40
7.0
 40
7.0
 40
8.0
 40
8.0
 40
8.0
 40
9.0
 40
9.0
 40
9.0
 40
9.0
 10
17.82917861571415
 20
35.36541599633242
 30
0.0
 10
17.82917861571415
 20
35.36541599633242
 30
0.0
 10
16.24891331623498
 20
35.36541599633242
 30
0.0
 10
16.24891331623498
 20
35.36541599633242
 30
0.0
 10
16.24891331623498
 20
35.36541599633242
 30
0.0
 10
16.24891331623498
 20
38.79914266733937
 30
0.0
 10
16.24891331623498
 20
38.79914266733937
 30
0.0
 10
14.98663033012387
 20
38.13423923851992
 30
0.0
 10
13.86421822074886
 20
37.77250421247825
 30
0.0
 10
13.12558974852665
 20
37.54512791039493
 30
0.0
 10
13.12558974852665
 20
37.54512791039493
 30
0.0
 10
12.30290094644331
 20
38.68132040171437
 30
0.0
 10
12.30290094644331
 20
38.68132040171437
 30
0.0
 10
13.72400283446415
 20
39.04305542775603
 30
0.0
 10
15.06138890217249
 20
39.64077949459632
 30
0.0
 10
16.2864648570336
 20
40.3811305145616
 30
0.0
 10
17.63280817300582
 20
41.19761814476992
 30
0.0
 10
18.52129829887387
 20
42.06440416907547
 30
0.0
 10
19.20377171467248
 20
42.77133776282545
 30
0.0
 10
19.20377171467248
 20
42.77133776282545
 30
0.0
 10
20.54081327283221
 20
41.93831367428381
 30
0.0
 10
20.54081327283221
 20
41.93831367428381
 30
0.0
 10
19.74602974418637
 20
41.16385620900604
 30
0.0
 10
19.02600478758914
 20
40.5582084225477
 30
0.0
 10
17.82917861571415
 20
39.74998902150603
 30
0.0
 10
17.82917861571415
 20
39.74998902150603
 30
0.0
 10
17.82917861571415
 20
35.36541599633242
 30
0.0
 10
17.82917861571415
 20
35.36541599633242
 30
0.0
  0
SPLINE
  5
E42
330
E1F
100
AcDbEntity
  8
WAKU
100
AcDbSpline
210
0.0
220
0.0
230
1.0
 70
     9
 71
     3
 72
    41
 73
    37
 74
     0
 42
0.000000001
 43
0.0000000001
 40
0.0
 40
0.0
 40
0.0
 40
0.0
 40
1.0
 40
1.0
 40
1.0
 40
2.0
 40
2.0
 40
2.0
 40
3.0
 40
3.0
 40
3.0
 40
4.0
 40
4.0
 40
4.0
 40
5.0
 40
5.0
 40
5.0
 40
6.0
 40
6.0
 40
6.0
 40
7.0
 40
7.0
 40
7.0
 40
8.0
 40
8.0
 40
8.0
 40
9.0
 40
9.0
 40
9.0
 40
10.0
 40
10.0
 40
10.0
 40
11.0
 40
11.0
 40
11.0
 40
12.0
 40
12.0
 40
12.0
 40
12.0
 10
3.74907336397804
 20
36.2914576629991
 30
0.0
 10
4.515951619186372
 20
36.56051962046436
 30
0.0
 10
6.133423949915536
 20
37.12448175154076
 30
0.0
 10
6.526509344880821
 20
38.98448880449215
 30
0.0
 10
6.666724731165542
 20
39.62389852671437
 30
0.0
 10
6.657078463804432
 20
40.14548598331159
 30
0.0
 10
6.648121215540541
 20
40.58335761959629
 30
0.0
 10
6.648121215540541
 20
40.58335761959629
 30
0.0
 10
8.2094384898461
 20
40.57508939042963
 30
0.0
 10
8.2094384898461
 20
40.57508939042963
 30
0.0
 10
8.200136732033596
 20
40.21300985483935
 30
0.0
 10
8.190834974221097
 20
39.94360338782548
 30
0.0
 10
8.134335408248871
 20
39.48919529320742
 30
0.0
 10
8.836101358769711
 20
39.78375095726992
 30
0.0
 10
9.54682455755443
 20
40.21300985483935
 30
0.0
 10
9.9767724742211
 20
41.1473197506727
 30
0.0
 10
9.9767724742211
 20
41.1473197506727
 30
0.0
 10
3.67431479192943
 20
41.1473197506727
 30
0.0
 10
3.67431479192943
 20
41.1473197506727
 30
0.0
 10
3.67431479192943
 20
41.1473197506727
 30
0.0
 10
3.67431479192943
 20
42.43440742428381
 30
0.0
 10
3.67431479192943
 20
42.43440742428381
 30
0.0
 10
3.67431479192943
 20
42.43440742428381
 30
0.0
 10
11.88432184488082
 20
42.43440742428381
 30
0.0
 10
11.88432184488082
 20
42.43440742428381
 30
0.0
 10
11.59458931449887
 20
40.36424954667963
 30
0.0
 10
10.65924589001971
 20
39.27869995900604
 30
0.0
 10
9.097928615714151
 20
38.46255683834632
 30
0.0
 10
9.097928615714151
 20
38.46255683834632
 30
0.0
 10
8.115731892623877
 20
39.3799857662977
 30
0.0
 10
8.115731892623877
 20
39.3799857662977
 30
0.0
 10
7.86355090304054
 20
37.67121840518659
 30
0.0
 10
7.246189791929432
 20
36.34175605709631
 30
0.0
 10
4.721623819707209
 20
35.22244453365882
 30
0.0
 10
4.721623819707209
 20
35.22244453365882
 30
0.0
 10
3.74907336397804
 20
36.2914576629991
 30
0.0
 10
3.74907336397804
 20
36.2914576629991
 30
0.0
  0
ENDBLK
  5
E43
330
E1F
100
AcDbEntity
  8
0
100
AcDbBlockEnd
  0
BLOCK
  5
14C6
330
14C3
100
AcDbEntity
  8
0
100
AcDbBlockBegin
  2
_DotBlank
 70
     0
 10
0.0
 20
0.0
 30
0.0
  3
_DotBlank
  1

  0
CIRCLE
  5
14C4
330
14C3
100
AcDbEntity
  8
0
  6
ByBlock
 62
     0
370
    -2
100
AcDbCircle
 10
0.0
 20
0.0
 30
0.0
 40
0.5
  0
LINE
  5
14C5
330
14C3
100
AcDbEntity
  8
0
  6
ByBlock
 62
     0
370
    -2
100
AcDbLine
 10
-0.5
 20
0.0
 30
0.0
 11
-1.0
 21
0.0
 31
0.0
  0
ENDBLK
  5
14C7
330
14C3
100
AcDbEntity
  8
0
100
AcDbBlockEnd
  0
BLOCK
  5
2643
330
2639
100
AcDbEntity
  8
0
100
AcDbBlockBegin
  2
*D3
 70
     1
 10
0.0
 20
0.0
 30
0.0
  3
*D3
  1

  0
LINE
  5
5848
330
2639
100
AcDbEntity
  8
SUNPOU
 62
     0
440
 16777216
370
    -2
100
AcDbLine
 10
319.2159822653851
 20
140.239591335725
 30
0.0
 11
319.2159822653851
 21
115.239591335725
 31
0.0
  0
LINE
  5
5849
330
2639
100
AcDbEntity
  8
SUNPOU
 62
     0
440
 16777216
370
    -2
100
AcDbLine
 10
394.2159822653869
 20
140.239591335725
 30
0.0
 11
394.2159822653869
 21
115.239591335725
 31
0.0
  0
LINE
  5
584A
330
2639
100
AcDbEntity
  8
SUNPOU
 62
     0
440
 16777216
370
    -2
100
AcDbLine
 10
320.7159822653852
 20
115.239591335725
 30
0.0
 11
392.7159822653869
 21
115.239591335725
 31
0.0
  0
INSERT
  5
584B
330
2639
100
AcDbEntity
  8
SUNPOU
 62
     0
440
 16777216
370
    -2
100
AcDbBlockReference
  2
_DotBlank
 10
319.2159822653851
 20
115.239591335725
 30
0.0
 41
1.5
 42
1.5
 43
1.5
 50
180.0
  0
INSERT
  5
584C
330
2639
100
AcDbEntity
  8
SUNPOU
 62
     0
440
 16777216
370
    -2
100
AcDbBlockReference
  2
_DotBlank
 10
394.2159822653869
 20
115.239591335725
 30
0.0
 41
1.5
 42
1.5
 43
1.5
  0
MTEXT
  5
584D
330
2639
100
AcDbEntity
  8
SUNPOU
 62
     0
440
 16777216
100
AcDbMText
 10
356.7159822653861
 20
118.364591335725
 30
0.0
 40
5.0
 41
0.0
 46
0.0
 71
     5
 72
     1
  1
\A1;75
 73
     1
 44
1.0
  0
POINT
  5
584E
330
2639
100
AcDbEntity
  8
DEFPOINTS
 62
     0
440
 16777216
100
AcDbPoint
 10
319.2159822653851
 20
145.239591335725
 30
-0.0000000000013329
  0
POINT
  5
584F
330
2639
100
AcDbEntity
  8
DEFPOINTS
 62
     0
440
 16777216
100
AcDbPoint
 10
394.2159822653869
 20
145.239591335725
 30
-0.000000000000003
  0
POINT
  5
5850
330
2639
100
AcDbEntity
  8
DEFPOINTS
 62
     0
440
 16777216
100
AcDbPoint
 10
394.2159822653869
 20
115.239591335725
 30
0.0
  0
ENDBLK
  5
2644
330
2639
100
AcDbEntity
  8
0
100
AcDbBlockEnd
  0
BLOCK
  5
264F
330
2645
100
AcDbEntity
  8
0
100
AcDbBlockBegin
  2
*D4
 70
     1
 10
0.0
 20
0.0
 30
0.0
  3
*D4
  1

  0
LINE
  5
4DEF
330
2645
100
AcDbEntity
  8
SUNPOU
 62
     0
440
 16777216
370
    -2
100
AcDbLine
 10
394.3159822653869
 20
140.239591335725
 30
0.0
 11
394.3159822653869
 21
115.239591335725
 31
0.0
  0
LINE
  5
4DF0
330
2645
100
AcDbEntity
  8
SUNPOU
 62
     0
440
 16777216
370
    -2
100
AcDbLine
 10
494.3159822653869
 20
140.239591335725
 30
0.0
 11
494.3159822653869
 21
115.239591335725
 31
0.0
  0
LINE
  5
4DF1
330
2645
100
AcDbEntity
  8
SUNPOU
 62
     0
440
 16777216
370
    -2
100
AcDbLine
 10
395.8159822653869
 20
115.239591335725
 30
0.0
 11
492.8159822653868
 21
115.239591335725
 31
0.0
  0
INSERT
  5
4DF2
330
2645
100
AcDbEntity
  8
SUNPOU
 62
     0
440
 16777216
370
    -2
100
AcDbBlockReference
  2
_DotBlank
 10
394.3159822653869
 20
115.239591335725
 30
0.0
 41
1.5
 42
1.5
 43
1.5
 50
180.0
  0
INSERT
  5
4DF3
330
2645
100
AcDbEntity
  8
SUNPOU
 62
     0
440
 16777216
370
    -2
100
AcDbBlockReference
  2
_DotBlank
 10
494.3159822653869
 20
115.239591335725
 30
0.0
 41
1.5
 42
1.5
 43
1.5
  0
MTEXT
  5
4DF4
330
2645
100
AcDbEntity
  8
SUNPOU
 62
     0
440
 16777216
100
AcDbMText
 10
444.3159822653869
 20
118.364591335725
 30
0.0
 40
5.0
 41
0.0
 46
0.0
 71
     5
 72
     1
  1
\A1;100
 73
     1
 44
1.0
  0
POINT
  5
4DF5
330
2645
100
AcDbEntity
  8
DEFPOINTS
 62
     0
440
 16777216
100
AcDbPoint
 10
394.3159822653869
 20
145.239591335725
 30
-0.0000000000000031
  0
POINT
  5
4DF6
330
2645
100
AcDbEntity
  8
DEFPOINTS
 62
     0
440
 16777216
100
AcDbPoint
 10
494.3159822653869
 20
145.239591335725
 30
-0.0000000000012575
  0
POINT
  5
4DF7
330
2645
100
AcDbEntity
  8
DEFPOINTS
 62
     0
440
 16777216
100
AcDbPoint
 10
494.3159822653869
 20
115.239591335725
 30
0.0
  0
ENDBLK
  5
2650
330
2645
100
AcDbEntity
  8
0
100
AcDbBlockEnd
  0
BLOCK
  5
2A1A
330
2A19
100
AcDbEntity
  8
0
 48
0.5
100
AcDbBlockBegin
  2
_Dot
 70
     0
 10
0.0
 20
0.0
 30
0.0
  3
_Dot
  1

  0
LWPOLYLINE
  5
2A1B
330
2A19
100
AcDbEntity
  8
0
  6
ByBlock
 62
     0
100
AcDbPolyline
 90
        2
 70
     1
 43
0.5
 10
-0.25
 20
0.0
 42
1.0
 10
0.25
 20
0.0
 42
1.0
  0
LINE
  5
2A1C
330
2A19
100
AcDbEntity
  8
0
  6
ByBlock
 62
     0
370
    -2
100
AcDbLine
 10
-0.5
 20
0.0
 30
0.0
 11
-1.0
 21
0.0
 31
0.0
  0
ENDBLK
  5
2A1D
330
2A19
100
AcDbEntity
  8
0
 48
0.5
100
AcDbBlockEnd
  0
BLOCK
  5
4B57
330
4B56
100
AcDbEntity
  8
0
100
AcDbBlockBegin
  2
*D6
 70
     1
 10
0.0
 20
0.0
 30
0.0
  3
*D6
  1

  0
LINE
  5
5851
330
4B56
100
AcDbEntity
  8
SUNPOU
 62
     0
440
 16777216
370
    -2
100
AcDbLine
 10
325.4159824670805
 20
345.2395911725809
 30
0.0
 11
359.9712167465721
 21
345.2395911725809
 31
0.0
  0
LINE
  5
5852
330
4B56
100
AcDbEntity
  8
SUNPOU
 62
     0
440
 16777216
370
    -2
100
AcDbLine
 10
340.7159822653852
 20
340.2395916562579
 30
0.0
 11
359.9712167465721
 21
340.2395916562579
 31
0.0
  0
LINE
  5
5853
330
4B56
100
AcDbEntity
  8
SUNPOU
 62
     0
440
 16777216
370
    -2
100
AcDbLine
 10
359.9712167465721
 20
343.7395911725809
 30
0.0
 11
359.9712167465721
 21
341.7395916562579
 31
0.0
  0
LINE
  5
5854
330
4B56
100
AcDbEntity
  8
SUNPOU
 62
     0
440
 16777216
370
    -2
100
AcDbLine
 10
359.9712167465721
 20
333.8804951316816
 30
0.0
 11
359.9712167465721
 21
340.2395916562579
 31
0.0
  0
MTEXT
  5
5855
330
4B56
100
AcDbEntity
  8
SUNPOU
 62
     0
440
 16777216
100
AcDbMText
 10
356.8462167465721
 20
336.1721617983483
 30
0.0
 40
5.0
 41
0.0
 46
0.0
 71
     5
 72
     1
  1
\A1;5
 11
0.0000000000000001
 21
1.0
 31
0.0
 73
     1
 44
1.0
  0
INSERT
  5
5856
330
4B56
100
AcDbEntity
  8
SUNPOU
 62
     0
440
 16777216
370
    -2
100
AcDbBlockReference
  2
_DotBlank
 10
359.9712167465721
 20
345.2395911725809
 30
0.0
 41
1.5
 42
1.5
 43
1.5
 50
90.0
  0
INSERT
  5
5857
330
4B56
100
AcDbEntity
  8
SUNPOU
 62
     0
440
 16777216
370
    -2
100
AcDbBlockReference
  2
_DotBlank
 10
359.9712167465721
 20
340.2395916562579
 30
0.0
 41
1.5
 42
1.5
 43
1.5
 50
270.0
  0
POINT
  5
5858
330
4B56
100
AcDbEntity
  8
DEFPOINTS
 62
     0
440
 16777216
100
AcDbPoint
 10
320.4159824670805
 20
345.2395911725809
 30
-0.0000000000013329
  0
POINT
  5
5859
330
4B56
100
AcDbEntity
  8
DEFPOINTS
 62
     0
440
 16777216
100
AcDbPoint
 10
335.7159822653851
 20
340.2395916562579
 30
-0.0000000000052732
  0
POINT
  5
585A
330
4B56
100
AcDbEntity
  8
DEFPOINTS
 62
     0
440
 16777216
100
AcDbPoint
 10
359.9712167465721
 20
340.2395916562579
 30
0.0
  0
ENDBLK
  5
4B58
330
4B56
100
AcDbEntity
  8
0
100
AcDbBlockEnd
  0
ENDSEC
  0
SECTION
  2
ENTITIES
  0
LINE
  5
E15
330
1A
100
AcDbEntity
  8
WAKU
100
AcDbLine
 10
20.0
 20
10.0
 30
0.0
 11
800.0
 21
10.0
 31
0.0
  0
LINE
  5
E16
330
1A
100
AcDbEntity
  8
WAKU
100
AcDbLine
 10
800.0
 20
10.0
 30
0.0
 11
800.0
 21
560.0
 31
0.0
  0
LINE
  5
E17
330
1A
100
AcDbEntity
  8
WAKU
100
AcDbLine
 10
800.0
 20
560.0
 30
0.0
 11
20.0
 21
560.0
 31
0.0
  0
LINE
  5
E18
330
1A
100
AcDbEntity
  8
WAKU
100
AcDbLine
 10
20.0
 20
560.0
 30
0.0
 11
20.0
 21
10.0
 31
0.0
  0
LINE
  5
E1D
330
1A
100
AcDbEntity
  8
WAKU
100
AcDbLine
 10
20.0
 20
30.0
 30
0.0
 11
800.0
 21
30.0
 31
0.0
  0
LINE
  5
E1E
330
1A
100
AcDbEntity
  8
WAKU
100
AcDbLine
 10
120.0
 20
30.0
 30
0.0
 11
120.0
 21
10.0
 31
0.0
  0
LINE
  5
E4F
330
1A
100
AcDbEntity
  8
WAKU
100
AcDbLine
 10
22.0
 20
28.0
 30
0.0
 11
118.0
 21
28.0
 31
0.0
  0
LINE
  5
E50
330
1A
100
AcDbEntity
  8
WAKU
100
AcDbLine
 10
22.0
 20
28.0
 30
0.0
 11
22.0
 21
12.0
 31
0.0
  0
LINE
  5
E51
330
1A
100
AcDbEntity
  8
WAKU
100
AcDbLine
 10
22.0
 20
12.0
 30
0.0
 11
118.0
 21
12.0
 31
0.0
  0
LINE
  5
E52
330
1A
100
AcDbEntity
  8
WAKU
100
AcDbLine
 10
118.0
 20
28.0
 30
0.0
 11
118.0
 21
12.0
 31
0.0
  0
LINE
  5
E59
330
1A
100
AcDbEntity
  8
WAKU
100
AcDbLine
 10
260.0
 20
30.0
 30
0.0
 11
260.0
 21
10.0
 31
0.0
  0
LINE
  5
E5A
330
1A
100
AcDbEntity
  8
WAKU
100
AcDbLine
 10
270.0
 20
30.0
 30
0.0
 11
270.0
 21
10.0
 31
0.0
  0
MTEXT
  5
E5B
330
1A
100
AcDbEntity
  8
WAKU
100
AcDbMText
 10
261.8186178625299
 20
27.72724847366113
 30
0.0
 40
5.0
 41
10.0
 46
0.0
 71
     1
 72
     5
  1
名称
  7
WAKU
 73
     1
 44
1.0
  0
LINE
  5
E5C
330
1A
100
AcDbEntity
  8
WAKU
100
AcDbLine
 10
20.0
 20
30.0
 30
0.0
 11
20.0
 21
10.0
 31
0.0
  0
LINE
  5
E5E
330
1A
100
AcDbEntity
  8
WAKU
100
AcDbLine
 10
520.0
 20
30.0
 30
0.0
 11
520.0
 21
10.0
 31
0.0
  0
LINE
  5
E6C
330
1A
100
AcDbEntity
  8
WAKU
100
AcDbLine
 10
530.0
 20
30.0
 30
0.0
 11
530.0
 21
10.0
 31
0.0
  0
MTEXT
  5
E6D
330
1A
100
AcDbEntity
  8
WAKU
100
AcDbMText
 10
521.8186178625296
 20
27.72724847366113
 30
0.0
 40
5.0
 41
10.0
 46
0.0
 71
     1
 72
     5
  1
縮尺
  7
WAKU
 73
     1
 44
1.0
  0
MTEXT
  5
E6F
330
1A
100
AcDbEntity
  8
WAKU
100
AcDbMText
 10
539.3245405690056
 20
23.21985646788335
 30
0.0
 40
5.0
 41
190.5002997985425
 46
0.0
 71
     1
 72
     5
  1
1/2（A3）
  7
WAKU
 73
     1
 44
1.0
  0
MTEXT
  5
E71
330
1A
100
AcDbEntity
  8
WAKU
100
AcDbMText
 10
581.8186178625299
 20
27.72724847366113
 30
0.0
 40
5.0
 41
10.0
 46
0.0
 71
     1
 72
     5
  1
図番
  7
WAKU
 73
     1
 44
1.0
  0
LINE
  5
E72
330
1A
100
AcDbEntity
  8
WAKU
100
AcDbLine
 10
590.0
 20
30.0
 30
0.0
 11
590.0
 21
10.0
 31
0.0
  0
LINE
  5
E73
330
1A
100
AcDbEntity
  8
WAKU
100
AcDbLine
 10
580.0
 20
30.0
 30
0.0
 11
580.0
 21
10.0
 31
0.0
  0
LINE
  5
E78
330
1A
100
AcDbEntity
  8
WAKU
100
AcDbLine
 10
660.0
 20
30.0
 30
0.0
 11
660.0
 21
10.0
 31
0.0
  0
LINE
  5
E79
330
1A
100
AcDbEntity
  8
WAKU
100
AcDbLine
 10
670.0
 20
30.0
 30
0.0
 11
670.0
 21
10.0
 31
0.0
  0
MTEXT
  5
E7A
330
1A
100
AcDbEntity
  8
WAKU
100
AcDbMText
 10
661.8186178625299
 20
27.72724847366113
 30
0.0
 40
5.0
 41
10.0
 46
0.0
 71
     1
 72
     5
  1
特記
  7
WAKU
 73
     1
 44
1.0
  0
LINE
  5
E7B
330
1A
100
AcDbEntity
  8
WAKU
  6
DASHED2
 48
0.5
100
AcDbLine
 10
670.0
 20
20.0
 30
0.0
 11
800.0
 21
20.0
 31
0.0
  0
LINE
  5
E8B
330
1A
100
AcDbEntity
  8
WAKU
100
AcDbLine
 10
470.0
 20
10.0
 30
0.0
 11
470.0
 21
30.0
 31
0.0
  0
MTEXT
  5
E8C
330
1A
100
AcDbEntity
  8
WAKU
100
AcDbMText
 10
496.3674469153243
 20
23.21985646788335
 30
0.0
 40
5.0
 41
190.5002997985425
 46
0.0
 71
     1
 72
     5
  1
mm
  7
WAKU
 73
     1
 44
1.0
  0
MTEXT
  5
E8D
330
1A
100
AcDbEntity
  8
WAKU
100
AcDbMText
 10
471.8186178625298
 20
27.72724847366113
 30
0.0
 40
5.0
 41
10.0
 46
0.0
 71
     1
 72
     5
  1
単位
  7
WAKU
 73
     1
 44
1.0
  0
LINE
  5
E8E
330
1A
100
AcDbEntity
  8
WAKU
100
AcDbLine
 10
480.0
 20
30.0
 30
0.0
 11
480.0
 21
10.0
 31
0.0
  0
MTEXT
  5
1703
102
{ACAD_XDICTIONARY
360
5D8C
102
}
330
1A
100
AcDbEntity
  8
WAKU
100
AcDbMText
 10
274.3245405690059
 20
23.21985646788335
 30
0.0
 40
5.0
 41
190.4834854329754
 46
0.0
 71
     1
 72
     5
  1
\pi46.91687;耐火ヴァンドＲＺ７５Ｖ　笠木部
  7
WAKU
 73
     1
 44
1.0
  0
MTEXT
  5
1705
330
1A
100
AcDbEntity
  8
WAKU
100
AcDbMText
 10
604.3245405690059
 20
23.21985646788335
 30
0.0
 40
5.0
 41
190.4834854329754
 46
0.0
 71
     1
 72
     5
  1
IGRZV7501_03
  7
WAKU
 73
     1
 44
1.0
  0
HATCH
  5
24E3
330
1A
100
AcDbEntity
  8
SEALING
  6
DASHED2
 48
0.5
370
     9
100
AcDbHatch
 10
0.0
 20
0.0
 30
-0.0000000000001568
210
0.0
220
0.0
230
1.0
  2
ANSI37
 70
     0
 71
     0
 91
        1
 92
        1
 93
        4
 72
     1
 10
319.2159792194542
 20
295.2395916562578
 11
331.7159822653871
 21
295.2395916562577
 72
     1
 10
331.7159822653871
 20
295.2395916562577
 11
331.7159822653866
 21
315.2395916562578
 72
     1
 10
331.7159822653866
 20
315.2395916562578
 11
319.2159792194541
 21
315.2395916562579
 72
     1
 10
319.2159792194541
 20
315.2395916562579
 11
319.2159792194542
 21
295.2395916562578
 97
        0
 75
     0
 76
     1
 52
0.0
 41
1.0
 77
     0
 78
     2
 53
45.0
 43
-9456.054343166995
 44
87.78408644660137
 45
-2.245064030267287
 46
2.245064030267287
 79
     0
 53
135.0
 43
-9456.054343166995
 44
87.78408644660137
 45
-2.245064030267287
 46
-2.245064030267287
 79
     0
 98
        2
 10
327.0426161574886
 20
294.1972512624722
 10
322.6002686852406
 20
293.2829179154721
1001
ACAD
1010
0.0
1020
0.0
1030
0.0
  0
HATCH
  5
24E4
330
1A
100
AcDbEntity
  8
PACKING
  6
DASHED2
 48
0.5
370
     9
100
AcDbHatch
 10
0.0
 20
0.0
 30
0.0
210
0.0
220
0.0
230
1.0
  2
ANSI31
 70
     0
 71
     0
 91
        1
 92
        1
 93
        7
 72
     1
 10
331.7159822653871
 20
329.7395916562578
 11
335.7159822653847
 21
329.7395916562578
 72
     1
 10
335.7159822653847
 20
329.7395916562578
 11
335.715982265387
 21
339.7395916562578
 72
     1
 10
335.715982265387
 20
339.7395916562578
 11
320.4159822653858
 21
339.7395916562577
 72
     1
 10
320.4159822653858
 20
339.7395916562577
 11
319.7159822653852
 21
339.0395916562606
 72
     1
 10
319.7159822653852
 20
339.0395916562606
 11
319.7159822653887
 21
315.2395916562578
 72
     1
 10
319.7159822653887
 20
315.2395916562578
 11
331.715982265387
 21
315.2395916562578
 72
     1
 10
331.715982265387
 20
315.2395916562578
 11
331.7159822653871
 21
329.7395916562578
 97
        0
 75
     0
 76
     1
 52
0.0
 41
1.0
 77
     0
 78
     1
 53
45.0
 43
-9456.054340121065
 44
97.28395766027986
 45
-2.245064030267287
 46
2.245064030267287
 79
     0
 98
        1
 10
327.9572195617551
 20
323.9430794206635
1001
ACAD
1010
0.0
1020
0.0
1030
0.0
  0
HATCH
  5
24E5
330
1A
100
AcDbEntity
  8
SEIHIN
370
     9
100
AcDbHatch
 10
0.0
 20
0.0
 30
0.0
210
0.0
220
0.0
230
1.0
  2
ANSI35
 70
     0
 71
     0
 91
        1
 92
        1
 93
        4
 72
     1
 10
393.7159822653853
 20
320.2395916562579
 11
319.7159822653862
 21
320.2395916562579
 72
     1
 10
319.7159822653862
 20
320.2395916562579
 11
319.7159822653862
 21
145.239591194245
 72
     1
 10
319.7159822653862
 20
145.239591194245
 11
393.7159822653852
 21
145.2395913346197
 72
     1
 10
393.7159822653852
 20
145.2395913346197
 11
393.7159822653853
 21
320.2395916562579
 97
        0
 75
     0
 76
     1
 52
0.0
 41
5.0
 77
     0
 78
     2
 53
45.0
 43
-9456.054340121065
 44
102.2839576602798
 45
-22.45064030267288
 46
22.45064030267288
 79
     0
 53
45.0
 43
-9433.603690121065
 44
102.2839576602798
 45
-22.45064030267288
 46
22.45064030267288
 79
     4
 49
39.6875
 49
-7.9375
 49
0.0
 49
-7.9375
 98
       23
 10
359.6027537963259
 20
190.9972591691125
 10
325.8116957430633
 20
180.8149570795833
 10
322.6809586348486
 20
181.1905360254254
 10
391.7886221096927
 20
286.6042762267966
 10
390.3502099386809
 20
289.5908755045834
 10
382.8262055619365
 20
288.7059568318248
 10
382.1623240064804
 20
287.7104242126668
 10
330.7549137370883
 20
286.7707482276902
 10
330.8621365123711
 20
289.2897408241056
 10
329.8971351934364
 20
289.128954334607
 10
329.7363010305129
 20
287.6014805539016
 10
329.8703285849628
 20
284.4661390375854
 10
329.7094944220412
 20
292.6126658680139
 10
328.7981044907469
 20
291.2995740733066
 10
328.1547696683559
 20
285.6720398392937
 10
327.1093503533069
 20
286.0472083147902
 10
326.9217114112146
 20
289.1825498311066
 10
324.9112889479278
 20
290.0668762335048
 10
333.1460617493633
 20
295.1699245268831
 10
327.6641743424156
 20
305.8630491496979
 10
323.1281354503411
 20
305.7010951632305
 10
325.8817745177296
 20
321.4247710626533
 10
322.911749009127
 20
320.7769551167833
1001
ACAD
1010
0.0
1020
0.0
1030
0.0
  0
LINE
  5
24E6
330
1A
100
AcDbEntity
  8
SEIHIN
100
AcDbLine
 10
319.7159822653869
 20
145.2395911710335
 30
-0.0000000000001015
 11
319.7159822653853
 21
339.0395916562606
 31
0.0000000000016764
  0
LINE
  5
24E7
330
1A
100
AcDbEntity
  8
SEIHIN
  6
DASHED2
100
AcDbLine
 10
328.7159822653853
 20
145.239591194245
 30
-0.0000000000000018
 11
328.7159822653872
 21
320.2395916562579
 31
-0.0000000000000018
  0
LINE
  5
24EA
330
1A
100
AcDbEntity
  8
SEIHIN
100
AcDbLine
 10
394.2159822653852
 20
145.239591335725
 30
-0.0000000000000027
 11
394.2159822653869
 21
320.2395916562579
 31
-0.0000000000000022
  0
LINE
  5
24EB
330
1A
100
AcDbEntity
  8
SEIHIN
100
AcDbLine
 10
393.7159822653852
 20
145.2395913346197
 30
-0.000000000000003
 11
393.7159822653869
 21
320.2395916562579
 31
-0.000000000000003
  0
LINE
  5
24EC
330
1A
100
AcDbEntity
  8
SEIHIN
100
AcDbLine
 10
319.7159822653869
 20
320.2395916562579
 30
-0.0000000000000015
 11
394.2159822653869
 21
320.2395916562579
 31
-0.0000000000000046
  0
LINE
  5
24ED
330
1A
100
AcDbEntity
  8
SEIHIN
100
AcDbLine
 10
320.4159822653858
 20
339.7395916562577
 30
-0.0000000000000013
 11
335.715982265387
 21
339.7395916562578
 31
-0.0000000000000022
  0
LINE
  5
24EE
330
1A
100
AcDbEntity
  8
SEIHIN
100
AcDbLine
 10
320.4159822653858
 20
340.2395916562578
 30
-0.0000000000000013
 11
335.7159822653851
 21
340.2395916562579
 31
-0.0000000000000022
  0
ARC
  5
24EF
330
1A
100
AcDbEntity
  8
SEIHIN
100
AcDbCircle
 10
320.4159822653858
 20
339.0395916562606
 30
0.0000000000016764
 40
1.199999999999999
100
AcDbArc
 50
90.0
 51
180.0
  0
ARC
  5
24F0
330
1A
100
AcDbEntity
  8
SEIHIN
100
AcDbCircle
 10
320.4159822653858
 20
339.0395916562606
 30
0.0000000000016764
 40
0.7
100
AcDbArc
 50
90.0
 51
180.0
  0
LINE
  5
24F2
330
1A
100
AcDbEntity
  8
SEIHIN
100
AcDbLine
 10
319.2159822653851
 20
145.2395911699281
 30
-0.0000000000001021
 11
319.2159822862
 21
339.0398151596291
 31
0.0000000000016764
  0
LINE
  5
24F3
330
1A
100
AcDbEntity
  8
SEIHIN
100
AcDbLine
 10
335.7159822653851
 20
339.7395916562578
 30
0.000000000001656
 11
335.7159822653851
 21
340.2395916562578
 31
0.0000000000016607
  0
LINE
  5
2506
330
1A
100
AcDbEntity
  8
SITAJI
100
AcDbLine
 10
494.3159822653869
 20
285.2395916562657
 30
-0.0000000000000022
 11
494.3159822653869
 21
340.2395916562653
 31
-0.0000000000000022
  0
LINE
  5
250B
330
1A
100
AcDbEntity
  8
SUTEITA
100
AcDbLine
 10
514.315982265387
 20
345.7395916562663
 30
-0.0000000000000022
 11
514.315982265387
 21
306.7395916562663
 31
-0.0000000000000022
  0
LINE
  5
250F
330
1A
100
AcDbEntity
  8
SUTEITA
100
AcDbLine
 10
309.8159792194528
 20
345.2395916562648
 30
-0.0000000000000022
 11
513.815982265387
 21
345.2395916562658
 31
-0.0000000000000022
  0
LINE
  5
2510
330
1A
100
AcDbEntity
  8
SUTEITA
100
AcDbLine
 10
513.815982265387
 20
345.2395916562663
 30
-0.0000000000000022
 11
513.815982265387
 21
306.7395916562663
 31
-0.0000000000000022
  0
LINE
  5
2512
330
1A
100
AcDbEntity
  8
SUTEITA
100
AcDbLine
 10
512.8159822653867
 20
315.7395916562663
 30
-0.0000000000000022
 11
512.8159822653867
 21
306.7395916562663
 31
-0.0000000000000022
  0
LINE
  5
2513
330
1A
100
AcDbEntity
  8
SUTEITA
100
AcDbLine
 10
512.3159822653867
 20
315.7395916562663
 30
-0.0000000000000022
 11
512.3159822653867
 21
306.7395916562663
 31
-0.0000000000000022
  0
ARC
  5
2514
330
1A
100
AcDbEntity
  8
SUTEITA
100
AcDbCircle
 10
513.315982265387
 20
306.7395916562663
 30
-0.0000000000000022
 40
0.5
100
AcDbArc
 50
180.0
 51
0.0
  0
ARC
  5
2515
330
1A
100
AcDbEntity
  8
SUTEITA
100
AcDbCircle
 10
513.315982265387
 20
306.7395916562663
 30
-0.0000000000000022
 40
1.0
100
AcDbArc
 50
180.0
 51
0.0
  0
LINE
  5
2516
330
1A
100
AcDbEntity
  8
SUTEITA
100
AcDbLine
 10
512.3159822653867
 20
315.7395916562663
 30
-0.0000000000000022
 11
512.8159822653867
 21
315.7395916562663
 31
-0.0000000000000022
  0
LINE
  5
251E
330
1A
100
AcDbEntity
  8
TEKUSU
100
AcDbLine
 10
391.3179278438051
 20
351.7395916562659
 30
-0.0000000000000022
 11
416.3179278438013
 21
351.7395916562659
 31
-0.0000000000000022
  0
LINE
  5
251F
330
1A
100
AcDbEntity
  8
TEKUSU
100
AcDbLine
 10
391.3179278438051
 20
350.7395916562659
 30
-0.0000000000000022
 11
391.3179278438051
 21
351.7395916562659
 31
-0.0000000000000022
  0
LINE
  5
2520
330
1A
100
AcDbEntity
  8
TEKUSU
100
AcDbLine
 10
416.3179278438013
 20
351.7395916562659
 30
-0.0000000000000022
 11
416.3179278438013
 21
350.7395916562659
 31
-0.0000000000000022
  0
LINE
  5
2522
330
1A
100
AcDbEntity
  8
SUTEITA
100
AcDbLine
 10
514.3159822653869
 20
345.7397492720747
 30
0.0000000000002539
 11
309.3159792194527
 21
345.7404971290443
 31
0.0000000000016726
  0
LINE
  5
258A
330
1A
100
AcDbEntity
  8
TEKUSU
100
AcDbLine
 10
457.317927843805
 20
351.7395916562659
 30
-0.0000000000000022
 11
482.3179278438013
 21
351.7395916562659
 31
-0.0000000000000022
  0
LINE
  5
258B
330
1A
100
AcDbEntity
  8
TEKUSU
100
AcDbLine
 10
457.317927843805
 20
350.7395916562659
 30
-0.0000000000000022
 11
457.317927843805
 21
351.7395916562659
 31
-0.0000000000000022
  0
LINE
  5
258C
330
1A
100
AcDbEntity
  8
TEKUSU
100
AcDbLine
 10
482.3179278438013
 20
351.7395916562659
 30
-0.0000000000000022
 11
482.3179278438013
 21
350.7395916562659
 31
-0.0000000000000022
  0
LINE
  5
25AA
330
1A
100
AcDbEntity
  8
SITAJI
100
AcDbLine
 10
494.3159822653869
 20
340.2395916562653
 30
-0.0000000000000022
 11
494.3159822653869
 21
250.2395916562652
 31
-0.0000000000000022
  0
LINE
  5
25AD
330
1A
100
AcDbEntity
  8
SITAJI
100
AcDbLine
 10
399.3159822653869
 20
342.939591656266
 30
-0.0000000000000022
 11
489.3159822653869
 21
342.9395916562651
 31
0.0000000000007368
  0
LINE
  5
25AE
330
1A
100
AcDbEntity
  8
SITAJI
100
AcDbLine
 10
399.3159822653869
 20
345.2395916562652
 30
-0.0000000000000022
 11
489.3159822653869
 21
345.2395916562652
 31
-0.0000000000000022
  0
DIMENSION
  5
25B1
330
1A
100
AcDbEntity
  8
SUNPOU
100
AcDbDimension
280
     0
  2
*D3
 10
394.2159822653869
 20
115.239591335725
 30
0.0000000000034791
 11
356.7159822653861
 21
115.239591335725
 31
0.0000000000034791
 70
   160
 71
     5
 42
75.00000000000176
 73
     0
 74
     0
 75
     0
  3
STANDARD
100
AcDbAlignedDimension
 13
319.2159822653851
 23
145.239591335725
 33
0.0000000000021462
 14
394.2159822653869
 24
145.239591335725
 34
0.0000000000034761
100
AcDbRotatedDimension
  0
LINE
  5
25B4
330
1A
100
AcDbEntity
  8
SEALING
  6
DASHED2
 48
0.5
100
AcDbLine
 10
331.7159822653871
 20
295.2395916562579
 30
-0.000000000000002
 11
331.7159822653871
 21
315.2395916562579
 31
-0.0000000000000018
  0
LINE
  5
25B6
330
1A
100
AcDbEntity
  8
SEIHIN
100
AcDbLine
 10
319.7159822653869
 20
325.2395916562579
 30
-0.0000000000000015
 11
319.7159822653869
 21
305.2395916562578
 31
-0.0000000000000015
  0
LINE
  5
25B7
330
1A
100
AcDbEntity
  8
PACKING
  6
DASHED2
 48
0.5
100
AcDbLine
 10
331.7159822653871
 20
315.2395916562579
 30
-0.0000000000000018
 11
331.7159822653871
 21
329.7395916562578
 31
-0.0000000000000018
  0
LINE
  5
25B8
330
1A
100
AcDbEntity
  8
SEALING
  6
DASHED2
 48
0.5
100
AcDbLine
 10
331.7159822653866
 20
315.2395916562582
 30
-0.0000000000009238
 11
319.2159792194541
 21
315.2395916562575
 31
0.0000000000009206
  0
LINE
  5
25B9
330
1A
100
AcDbEntity
  8
PACKING
  6
DASHED2
 48
0.5
100
AcDbLine
 10
335.715982265387
 20
339.7395916562578
 30
-0.0000000000000022
 11
320.415982265386
 21
339.7395916562607
 31
0.0000000000016764
  0
ARC
  5
25BF
330
1A
100
AcDbEntity
  8
SITAJI
100
AcDbCircle
 10
489.3159822653869
 20
340.2395916562653
 30
0.0000000000007368
 40
2.7
100
AcDbArc
 50
0.0
 51
90.0
  0
ARC
  5
25C0
330
1A
100
AcDbEntity
  8
SITAJI
100
AcDbCircle
 10
489.3159822653869
 20
340.2395916562653
 30
0.0000000000007368
 40
5.0
100
AcDbArc
 50
0.0
 51
90.0
  0
LINE
  5
25C1
330
1A
100
AcDbEntity
  8
SITAJI
100
AcDbLine
 10
494.3159822653869
 20
340.2395916562653
 30
-0.0000000000000022
 11
494.3159822653869
 21
250.2395916562652
 31
-0.0000000000000022
  0
LINE
  5
25C2
330
1A
100
AcDbEntity
  8
SITAJI
100
AcDbLine
 10
492.015982265384
 20
340.2395916562653
 30
-0.0000000000000022
 11
492.015982265384
 21
250.2395916562652
 31
-0.0000000000000022
  0
ARC
  5
25C7
330
1A
100
AcDbEntity
  8
SITAJI
100
AcDbCircle
 10
399.3159822653869
 20
340.2395916562653
 30
0.0000000000007368
 40
2.7
100
AcDbArc
 50
90.0
 51
180.0
  0
ARC
  5
25C8
330
1A
100
AcDbEntity
  8
SITAJI
100
AcDbCircle
 10
399.3159822653869
 20
340.2395916562653
 30
0.0000000000007368
 40
5.0
100
AcDbArc
 50
90.0
 51
180.0
  0
LINE
  5
25C9
330
1A
100
AcDbEntity
  8
SITAJI
100
AcDbLine
 10
396.6159822653826
 20
340.2395916562653
 30
-0.0000000000000022
 11
396.6159822653826
 21
250.2395916562652
 31
-0.0000000000000022
  0
LINE
  5
25CA
330
1A
100
AcDbEntity
  8
SITAJI
100
AcDbLine
 10
394.3159822653869
 20
340.2395916562653
 30
-0.0000000000000022
 11
394.3159822653869
 21
250.2395916562652
 31
-0.0000000000000022
  0
ARC
  5
25D1
330
1A
100
AcDbEntity
  8
SITAJI
100
AcDbCircle
 10
399.3159822653869
 20
250.2395916562652
 30
0.0000000000003957
 40
2.7
100
AcDbArc
 50
180.0
 51
270.0
  0
ARC
  5
25D2
330
1A
100
AcDbEntity
  8
SITAJI
100
AcDbCircle
 10
399.3159822653869
 20
250.2395916562652
 30
0.0000000000003957
 40
5.0
100
AcDbArc
 50
180.0
 51
270.0
  0
LINE
  5
25D3
330
1A
100
AcDbEntity
  8
SITAJI
100
AcDbLine
 10
399.3159822653869
 20
247.5395916562645
 30
-0.0000000000000022
 11
489.3159822653869
 21
247.5395916562654
 31
0.0000000000003957
  0
LINE
  5
25D4
330
1A
100
AcDbEntity
  8
SITAJI
100
AcDbLine
 10
399.3159822653869
 20
245.2395916562652
 30
-0.0000000000000022
 11
489.3159822653869
 21
245.2395916562652
 31
-0.0000000000000022
  0
ARC
  5
25D5
330
1A
100
AcDbEntity
  8
SITAJI
100
AcDbCircle
 10
489.3159822653869
 20
250.2395916562652
 30
0.0000000000003957
 40
2.7
100
AcDbArc
 50
270.0
 51
0.0
  0
ARC
  5
25D6
330
1A
100
AcDbEntity
  8
SITAJI
100
AcDbCircle
 10
489.3159822653869
 20
250.2395916562652
 30
0.0000000000003957
 40
5.0
100
AcDbArc
 50
270.0
 51
0.0
  0
LINE
  5
25DB
330
1A
100
AcDbEntity
  8
SITAJI
100
AcDbLine
 10
399.3159822653869
 20
342.939591656266
 30
-0.0000000000000022
 11
489.3159822653869
 21
342.9395916562651
 31
0.0000000000007368
  0
LINE
  5
25DC
330
1A
100
AcDbEntity
  8
SITAJI
100
AcDbLine
 10
399.3159822653869
 20
345.2395916562652
 30
-0.0000000000000022
 11
489.3159822653869
 21
345.2395916562652
 31
-0.0000000000000022
  0
DIMENSION
  5
25ED
330
1A
100
AcDbEntity
  8
SUNPOU
100
AcDbDimension
280
     0
  2
*D4
 10
494.3159822653869
 20
115.239591335725
 30
0.0000000000034791
 11
444.3159822653869
 21
115.239591335725
 31
0.0000000000034791
 70
   160
 71
     5
 42
100.0
 73
     0
 74
     0
 75
     0
  3
STANDARD
100
AcDbAlignedDimension
 13
394.3159822653869
 23
145.239591335725
 33
0.0000000000034761
 14
494.3159822653869
 24
145.239591335725
 34
0.0000000000022216
100
AcDbRotatedDimension
  0
LINE
  5
25EE
330
1A
100
AcDbEntity
  8
TEKUSU
  6
DASHED2
 48
0.5
100
AcDbLine
 10
467.3663827869563
 20
337.9395916562653
 30
0.0
 11
467.3663827869563
 21
351.7395916562659
 31
0.0
  0
LINE
  5
25EF
330
1A
100
AcDbEntity
  8
TEKUSU
  6
DASHED2
 48
0.5
100
AcDbLine
 10
472.1663827869553
 20
337.9395916562653
 30
0.0
 11
472.1663827869553
 21
351.7395916562659
 31
0.0
  0
HATCH
  5
25F0
330
1A
100
AcDbEntity
  8
TEKUSU
370
     9
100
AcDbHatch
 10
0.0
 20
0.0
 30
0.0
210
0.0
220
0.0
230
1.0
  2
ANSI31
 70
     0
 71
     0
 91
        1
 92
        1
 93
        5
 72
     1
 10
464.3663827869563
 20
352.0395916562658
 11
464.3663827869563
 21
351.7538446562668
 72
     1
 10
464.3663827869563
 20
351.7538446562668
 11
464.3806367869578
 21
351.7395916562656
 72
     1
 10
464.3806367869578
 20
351.7395916562656
 11
475.1663827869553
 21
351.7395916562658
 72
     1
 10
475.1663827869553
 20
351.7395916562658
 11
475.1663827869553
 21
352.0395916562659
 72
     1
 10
475.1663827869553
 20
352.0395916562659
 11
464.3663827869563
 21
352.0395916562658
 97
        0
 75
     0
 76
     1
 52
0.0
 41
0.5
 77
     0
 78
     1
 53
45.0
 43
-5.308306490919733
 44
-4.999999999999828
 45
-1.122532015133643
 46
1.122532015133643
 79
     0
 98
        2
 10
468.1066773033284
 20
351.931511766259
 10
471.3267686816428
 20
351.8137290658505
  0
LINE
  5
25F1
330
1A
100
AcDbEntity
  8
TEKUSU
100
AcDbLine
 10
464.380636786956
 20
351.7395916562659
 30
0.0
 11
464.3663827869563
 21
351.7538446562659
 31
0.0
  0
LINE
  5
25F2
330
1A
100
AcDbEntity
  8
TEKUSU
100
AcDbLine
 10
464.3663827869563
 20
352.0395916562658
 30
0.0
 11
464.3663827869563
 21
351.7395916562659
 31
0.0
  0
LINE
  5
25F3
330
1A
100
AcDbEntity
  8
TEKUSU
100
AcDbLine
 10
475.1663827869553
 20
352.0395916562658
 30
0.0
 11
475.1663827869553
 21
351.7395916562659
 31
0.0
  0
LINE
  5
25F4
330
1A
100
AcDbEntity
  8
TEKUSU
100
AcDbLine
 10
465.1663827869556
 20
353.4721436562658
 30
0.0
 11
465.1663827869556
 21
356.139591656266
 31
0.0
  0
LINE
  5
25F5
330
1A
100
AcDbEntity
  8
TEKUSU
100
AcDbLine
 10
467.4569817869555
 20
353.2395916562659
 30
0.0
 11
467.4569817869555
 21
356.139591656266
 31
0.0
  0
ARC
  5
25F6
330
1A
100
AcDbEntity
  8
TEKUSU
100
AcDbCircle
 10
466.3116827869557
 20
355.9183186562659
 30
0.0
 40
1.166479
100
AcDbArc
 50
10.93485999998617
 51
169.0651400000137
  0
LINE
  5
25F7
330
1A
100
AcDbEntity
  8
TEKUSU
100
AcDbLine
 10
465.9730337869564
 20
357.139591656266
 30
0.0
 11
465.5853237869552
 21
356.831047656266
 31
0.0
  0
LINE
  5
25F8
330
1A
100
AcDbEntity
  8
TEKUSU
100
AcDbLine
 10
472.0757837869562
 20
353.2395916562659
 30
0.0
 11
472.0757837869562
 21
356.139591656266
 31
0.0
  0
ARC
  5
25F9
330
1A
100
AcDbEntity
  8
TEKUSU
100
AcDbCircle
 10
469.7663827869559
 20
344.5007026562659
 30
0.0
 40
9.038888999999999
100
AcDbArc
 50
75.19701500003559
 51
104.8029849999644
  0
ARC
  5
25FA
330
1A
100
AcDbEntity
  8
TEKUSU
100
AcDbCircle
 10
469.7663827869559
 20
353.8478266562658
 30
0.0
 40
3.25354
100
AcDbArc
 50
44.78038799996182
 51
135.2196120000381
  0
ARC
  5
25FB
330
1A
100
AcDbEntity
  8
TEKUSU
100
AcDbCircle
 10
465.911682786956
 20
349.4159466562659
 30
0.0
 40
4.124101
100
AcDbArc
 50
67.99424299997465
 51
112.0057570000252
  0
LINE
  5
25FC
330
1A
100
AcDbEntity
  8
TEKUSU
100
AcDbLine
 10
464.3663827869563
 20
353.2395916562659
 30
0.0
 11
464.3663827869563
 21
352.0395916562658
 31
0.0
  0
LINE
  5
25FD
330
1A
100
AcDbEntity
  8
TEKUSU
100
AcDbLine
 10
474.3663827869561
 20
353.4721436562658
 30
0.0
 11
474.3663827869561
 21
356.139591656266
 31
0.0
  0
LINE
  5
25FE
330
1A
100
AcDbEntity
  8
TEKUSU
100
AcDbLine
 10
473.5597327869558
 20
357.139591656266
 30
0.0
 11
473.9474427869549
 21
356.831047656266
 31
0.0
  0
LINE
  5
25FF
330
1A
100
AcDbEntity
  8
TEKUSU
100
AcDbLine
 10
475.1663827869553
 20
353.2395916562659
 30
0.0
 11
475.1663827869553
 21
352.0395916562658
 31
0.0
  0
ARC
  5
2600
330
1A
100
AcDbEntity
  8
TEKUSU
100
AcDbCircle
 10
473.6210837869561
 20
349.4159466562659
 30
0.0
 40
4.124101
100
AcDbArc
 50
67.99424299997465
 51
112.0057570000252
  0
ARC
  5
2601
330
1A
100
AcDbEntity
  8
TEKUSU
100
AcDbCircle
 10
473.2210837869565
 20
355.9183186562659
 30
0.0
 40
1.166479
100
AcDbArc
 50
10.93485999998617
 51
169.0651400000137
  0
LINE
  5
2602
330
1A
100
AcDbEntity
  8
TEKUSU
100
AcDbLine
 10
464.3663827869563
 20
353.2395916562659
 30
0.0
 11
475.1663827869553
 21
353.2395916562659
 31
0.0
  0
LINE
  5
2603
330
1A
100
AcDbEntity
  8
TEKUSU
100
AcDbLine
 10
465.9730337869564
 20
357.139591656266
 30
0.0
 11
473.5597327869558
 21
357.139591656266
 31
0.0
  0
LINE
  5
2604
330
1A
100
AcDbEntity
  8
TEKUSU
100
AcDbLine
 10
464.3663827869563
 20
352.339591656266
 30
0.0
 11
475.1663827869553
 21
352.339591656266
 31
0.0
  0
LINE
  5
2605
330
1A
100
AcDbEntity
  8
TEKUSU
100
AcDbLine
 10
464.3663827869563
 20
352.0395916562658
 30
0.0
 11
475.1663827869553
 21
352.0395916562658
 31
0.0
  0
LINE
  5
2606
330
1A
100
AcDbEntity
  8
TEKUSU
100
AcDbLine
 10
467.8663827869563
 20
324.0395916562658
 30
0.0
 11
467.8663827869563
 21
318.9395916562659
 31
0.0
  0
ARC
  5
2607
330
1A
100
AcDbEntity
  8
TEKUSU
100
AcDbCircle
 10
468.9071927869547
 20
318.4299186562659
 30
0.0
 40
1.158902
100
AcDbArc
 50
36.80170700002559
 51
153.9095449999898
  0
LINE
  5
2608
330
1A
100
AcDbEntity
  8
TEKUSU
100
AcDbLine
 10
469.7663827869559
 20
317.0395916562658
 30
0.0
 11
471.6663827869553
 21
318.9395916562659
 31
0.0
  0
LINE
  5
2609
330
1A
100
AcDbEntity
  8
TEKUSU
100
AcDbLine
 10
471.6663827869553
 20
324.0395916562658
 30
0.0
 11
471.6663827869553
 21
318.9395916562659
 31
0.0
  0
LINE
  5
260A
330
1A
100
AcDbEntity
  8
TEKUSU
100
AcDbLine
 10
469.7663827869559
 20
317.0395916562658
 30
0.0
 11
467.8663827869563
 21
318.9395916562659
 31
0.0
  0
LINE
  5
260B
330
1A
100
AcDbEntity
  8
TEKUSU
100
AcDbLine
 10
471.6663827869553
 20
324.0395916562658
 30
0.0
 11
469.2506677869546
 21
317.5553056562659
 31
0.0
  0
LINE
  5
260C
330
1A
100
AcDbEntity
  8
TEKUSU
100
AcDbLine
 10
472.1663827869553
 20
324.0395916562658
 30
0.0
 11
467.3663827869563
 21
324.0395916562658
 31
0.0
  0
LINE
  5
260D
330
1A
100
AcDbEntity
  8
TEKUSU
100
AcDbLine
 10
467.3663827869563
 20
337.9395916562653
 30
0.0
 11
467.3663827869563
 21
324.0395916562658
 31
0.0
  0
LINE
  5
260E
330
1A
100
AcDbEntity
  8
TEKUSU
100
AcDbLine
 10
472.1663827869553
 20
337.9395916562653
 30
0.0
 11
472.1663827869553
 21
324.0395916562658
 31
0.0
  0
LINE
  5
260F
330
1A
100
AcDbEntity
  8
TEKUSU
  6
CENTER2
370
     5
100
AcDbLine
 10
469.7663827869559
 20
361.1395946562658
 30
0.0
 11
469.7663827869559
 21
313.006925656266
 31
0.0
  0
LINE
  5
2610
330
1A
100
AcDbEntity
  8
TEKUSU
100
AcDbLine
 10
464.3663827869563
 20
351.7395916562659
 30
0.0
 11
475.1663827869553
 21
351.7395916562659
 31
0.0
  0
LINE
  5
2611
330
1A
100
AcDbEntity
  8
TEKUSU
  6
DASHED2
 48
0.5
100
AcDbLine
 10
401.4098004344281
 20
337.9395916562653
 30
0.0
 11
401.4098004344281
 21
351.7395916562659
 31
0.0
  0
LINE
  5
2612
330
1A
100
AcDbEntity
  8
TEKUSU
  6
DASHED2
 48
0.5
100
AcDbLine
 10
406.2098004344273
 20
337.9395916562653
 30
0.0
 11
406.2098004344273
 21
351.7395916562659
 31
0.0
  0
HATCH
  5
2613
330
1A
100
AcDbEntity
  8
TEKUSU
370
     9
100
AcDbHatch
 10
0.0
 20
0.0
 30
0.0
210
0.0
220
0.0
230
1.0
  2
ANSI31
 70
     0
 71
     0
 91
        1
 92
        1
 93
        5
 72
     1
 10
398.4098004344282
 20
352.0395916562659
 11
398.4098004344282
 21
351.7538446562668
 72
     1
 10
398.4098004344282
 20
351.7538446562668
 11
398.4240544344297
 21
351.7395916562657
 72
     1
 10
398.4240544344297
 20
351.7395916562657
 11
409.2098004344273
 21
351.7395916562658
 72
     1
 10
409.2098004344273
 20
351.7395916562658
 11
409.2098004344273
 21
352.039591656266
 72
     1
 10
409.2098004344273
 20
352.039591656266
 11
398.4098004344282
 21
352.0395916562659
 97
        0
 75
     0
 76
     1
 52
0.0
 41
0.5
 77
     0
 78
     1
 53
45.0
 43
-1.119752380663214
 44
-4.999999999999771
 45
-1.122532015133643
 46
1.122532015133643
 79
     0
 98
        2
 10
402.1500949508003
 20
351.931511766259
 10
405.3701863291149
 20
351.8137290658506
  0
LINE
  5
2614
330
1A
100
AcDbEntity
  8
TEKUSU
100
AcDbLine
 10
398.4240544344279
 20
351.7395916562659
 30
0.0
 11
398.4098004344282
 21
351.7538446562661
 31
0.0
  0
LINE
  5
2615
330
1A
100
AcDbEntity
  8
TEKUSU
100
AcDbLine
 10
398.4098004344282
 20
352.0395916562659
 30
0.0
 11
398.4098004344282
 21
351.7395916562659
 31
0.0
  0
LINE
  5
2616
330
1A
100
AcDbEntity
  8
TEKUSU
100
AcDbLine
 10
409.2098004344273
 20
352.0395916562659
 30
0.0
 11
409.2098004344273
 21
351.7395916562659
 31
0.0
  0
LINE
  5
2617
330
1A
100
AcDbEntity
  8
TEKUSU
100
AcDbLine
 10
399.2098004344273
 20
353.4721436562659
 30
0.0
 11
399.2098004344273
 21
356.139591656266
 31
0.0
  0
LINE
  5
2618
330
1A
100
AcDbEntity
  8
TEKUSU
100
AcDbLine
 10
401.5003994344273
 20
353.2395916562659
 30
0.0
 11
401.5003994344273
 21
356.139591656266
 31
0.0
  0
ARC
  5
2619
330
1A
100
AcDbEntity
  8
TEKUSU
100
AcDbCircle
 10
400.3551004344275
 20
355.9183186562659
 30
0.0
 40
1.166479
100
AcDbArc
 50
10.93485999998617
 51
169.0651400000137
  0
LINE
  5
261A
330
1A
100
AcDbEntity
  8
TEKUSU
100
AcDbLine
 10
400.0164514344281
 20
357.139591656266
 30
0.0
 11
399.6287414344274
 21
356.831047656266
 31
0.0
  0
LINE
  5
261B
330
1A
100
AcDbEntity
  8
TEKUSU
100
AcDbLine
 10
406.1192014344282
 20
353.2395916562659
 30
0.0
 11
406.1192014344282
 21
356.139591656266
 31
0.0
  0
ARC
  5
261C
330
1A
100
AcDbEntity
  8
TEKUSU
100
AcDbCircle
 10
403.8098004344278
 20
344.500702656266
 30
0.0
 40
9.038888999999999
100
AcDbArc
 50
75.19701500003559
 51
104.8029849999644
  0
ARC
  5
261D
330
1A
100
AcDbEntity
  8
TEKUSU
100
AcDbCircle
 10
403.8098004344278
 20
353.8478266562659
 30
0.0
 40
3.25354
100
AcDbArc
 50
44.78038799996182
 51
135.2196120000382
  0
ARC
  5
261E
330
1A
100
AcDbEntity
  8
TEKUSU
100
AcDbCircle
 10
399.9551004344279
 20
349.415946656266
 30
0.0
 40
4.124101
100
AcDbArc
 50
67.99424299997465
 51
112.0057570000252
  0
LINE
  5
261F
330
1A
100
AcDbEntity
  8
TEKUSU
100
AcDbLine
 10
398.4098004344282
 20
353.2395916562659
 30
0.0
 11
398.4098004344282
 21
352.0395916562659
 31
0.0
  0
LINE
  5
2620
330
1A
100
AcDbEntity
  8
TEKUSU
100
AcDbLine
 10
408.4098004344282
 20
353.4721436562659
 30
0.0
 11
408.4098004344282
 21
356.139591656266
 31
0.0
  0
LINE
  5
2621
330
1A
100
AcDbEntity
  8
TEKUSU
100
AcDbLine
 10
407.6031504344276
 20
357.139591656266
 30
0.0
 11
407.9908604344266
 21
356.831047656266
 31
0.0
  0
LINE
  5
2622
330
1A
100
AcDbEntity
  8
TEKUSU
100
AcDbLine
 10
409.2098004344273
 20
353.2395916562659
 30
0.0
 11
409.2098004344273
 21
352.0395916562659
 31
0.0
  0
ARC
  5
2623
330
1A
100
AcDbEntity
  8
TEKUSU
100
AcDbCircle
 10
407.664501434428
 20
349.415946656266
 30
0.0
 40
4.124101
100
AcDbArc
 50
67.99424299997465
 51
112.0057570000252
  0
ARC
  5
2624
330
1A
100
AcDbEntity
  8
TEKUSU
100
AcDbCircle
 10
407.2645014344283
 20
355.9183186562659
 30
0.0
 40
1.166479
100
AcDbArc
 50
10.93485999998617
 51
169.0651400000137
  0
LINE
  5
2625
330
1A
100
AcDbEntity
  8
TEKUSU
100
AcDbLine
 10
398.4098004344282
 20
353.2395916562659
 30
0.0
 11
409.2098004344273
 21
353.2395916562659
 31
0.0
  0
LINE
  5
2626
330
1A
100
AcDbEntity
  8
TEKUSU
100
AcDbLine
 10
400.0164514344281
 20
357.139591656266
 30
0.0
 11
407.6031504344276
 21
357.139591656266
 31
0.0
  0
LINE
  5
2627
330
1A
100
AcDbEntity
  8
TEKUSU
100
AcDbLine
 10
398.4098004344282
 20
352.3395916562661
 30
0.0
 11
409.2098004344273
 21
352.3395916562661
 31
0.0
  0
LINE
  5
2628
330
1A
100
AcDbEntity
  8
TEKUSU
100
AcDbLine
 10
398.4098004344282
 20
352.0395916562659
 30
0.0
 11
409.2098004344273
 21
352.0395916562659
 31
0.0
  0
LINE
  5
2629
330
1A
100
AcDbEntity
  8
TEKUSU
100
AcDbLine
 10
401.909800434428
 20
324.0395916562659
 30
0.0
 11
401.909800434428
 21
318.939591656266
 31
0.0
  0
ARC
  5
262A
330
1A
100
AcDbEntity
  8
TEKUSU
100
AcDbCircle
 10
402.9506104344267
 20
318.429918656266
 30
0.0
 40
1.158902
100
AcDbArc
 50
36.80170700002789
 51
153.9095449999898
  0
LINE
  5
262B
330
1A
100
AcDbEntity
  8
TEKUSU
100
AcDbLine
 10
403.8098004344278
 20
317.0395916562659
 30
0.0
 11
405.7098004344273
 21
318.939591656266
 31
0.0
  0
LINE
  5
262C
330
1A
100
AcDbEntity
  8
TEKUSU
100
AcDbLine
 10
405.7098004344273
 20
324.0395916562659
 30
0.0
 11
405.7098004344273
 21
318.939591656266
 31
0.0
  0
LINE
  5
262D
330
1A
100
AcDbEntity
  8
TEKUSU
100
AcDbLine
 10
403.8098004344278
 20
317.0395916562659
 30
0.0
 11
401.909800434428
 21
318.939591656266
 31
0.0
  0
LINE
  5
262E
330
1A
100
AcDbEntity
  8
TEKUSU
100
AcDbLine
 10
405.7098004344273
 20
324.0395916562659
 30
0.0
 11
403.2940854344263
 21
317.555305656266
 31
0.0
  0
LINE
  5
262F
330
1A
100
AcDbEntity
  8
TEKUSU
100
AcDbLine
 10
406.2098004344273
 20
324.0395916562659
 30
0.0
 11
401.4098004344281
 21
324.0395916562659
 31
0.0
  0
LINE
  5
2630
330
1A
100
AcDbEntity
  8
TEKUSU
100
AcDbLine
 10
401.4098004344281
 20
337.9395916562653
 30
0.0
 11
401.4098004344281
 21
324.0395916562659
 31
0.0
  0
LINE
  5
2631
330
1A
100
AcDbEntity
  8
TEKUSU
100
AcDbLine
 10
406.2098004344273
 20
337.9395916562653
 30
0.0
 11
406.2098004344273
 21
324.0395916562659
 31
0.0
  0
LINE
  5
2632
330
1A
100
AcDbEntity
  8
TEKUSU
  6
CENTER2
370
     5
100
AcDbLine
 10
403.8098004344278
 20
361.1395946562658
 30
0.0
 11
403.8098004344278
 21
313.0069256562661
 31
0.0
  0
LINE
  5
2633
330
1A
100
AcDbEntity
  8
TEKUSU
100
AcDbLine
 10
398.4098004344282
 20
351.7395916562659
 30
0.0
 11
409.2098004344273
 21
351.7395916562659
 31
0.0
  0
LINE
  5
26B5
330
1A
100
AcDbEntity
  8
PACKING
  6
DASHED2
 48
0.5
100
AcDbLine
 10
319.7159822653858
 20
339.0395916562606
 30
0.0000000000016764
 11
319.7159822653899
 21
305.7397204425793
 31
-0.0000000000006716
  0
LINE
  5
26B6
330
1A
100
AcDbEntity
  8
SEALING
  6
DASHED2
 48
0.5
100
AcDbLine
 10
319.2159792194543
 20
305.7397204425793
 30
-0.0000000000001068
 11
319.2159792194542
 21
295.7397204425794
 31
0.0000000000013067
  0
LINE
  5
27AC
330
1A
100
AcDbEntity
  8
PACKING
  6
DASHED2
 48
0.5
100
AcDbLine
 10
335.7159822653851
 20
339.7395916562578
 30
-0.0000000000000022
 11
335.7159822653847
 21
329.7395916562578
 31
0.000000000001962
  0
LINE
  5
27AD
330
1A
100
AcDbEntity
  8
PACKING
  6
DASHED2
 48
0.5
100
AcDbLine
 10
335.7159822653847
 20
329.7395916562578
 30
0.000000000001962
 11
331.7159822653871
 21
329.7395916562578
 31
-0.0000000000000018
  0
ARC
  5
27AE
330
1A
100
AcDbEntity
  8
PACKING
  6
DASHED2
 48
0.5
100
AcDbCircle
 10
320.4159822653858
 20
339.0395916562606
 30
0.0000000000119569
 40
0.7
100
AcDbArc
 50
89.99999999998937
 51
180.0000000000069
  0
LINE
  5
28F9
330
1A
100
AcDbEntity
  8
PACKING
  6
DASHED2
 48
0.5
100
AcDbLine
 10
331.4659807424186
 20
315.2395916562578
 30
0.0000000000000654
 11
319.465980742422
 21
315.2395916562578
 31
-0.0000000000000686
  0
LINE
  5
493D
330
1A
100
AcDbEntity
  8
KASAGI
100
AcDbLine
 10
520.0356725010037
 20
349.7395916562659
 30
-0.0000000000000022
 11
495.7179278438013
 21
349.7395916562659
 31
-0.0000000000000022
  0
LINE
  5
493E
330
1A
100
AcDbEntity
  8
KASAGI
100
AcDbLine
 10
317.8179278438014
 20
368.9468076562659
 30
-0.0000000000000022
 11
531.6524040174016
 21
359.895445656266
 31
0.0000000000002539
  0
LINE
  5
493F
102
{ACAD_REACTORS
330
499C
102
}
330
1A
100
AcDbEntity
  8
KASAGI
100
AcDbLine
 10
316.8314038438015
 20
366.6806396562658
 30
-0.0000000000000022
 11
528.5417865497061
 21
357.7052957087914
 31
-0.0000000000000022
  0
LINE
  5
4940
330
1A
100
AcDbEntity
  8
KASAGI
100
AcDbLine
 10
519.3159822653869
 20
345.739591656266
 30
-0.0000000000000022
 11
302.7364375958164
 21
345.739591656266
 31
-0.0000000000000022
  0
LINE
  5
4942
330
1A
100
AcDbEntity
  8
KASAGI
100
AcDbLine
 10
346.4179278438014
 20
361.0395916562658
 30
-0.0000000000000022
 11
346.4179278438014
 21
365.6218056562658
 31
-0.0000000000000022
  0
LINE
  5
4943
330
1A
100
AcDbEntity
  8
KASAGI
100
AcDbLine
 10
334.4179278438015
 20
361.0395916562658
 30
-0.0000000000000022
 11
334.4179278438015
 21
366.0512576562657
 31
-0.0000000000000022
  0
LINE
  5
4944
330
1A
100
AcDbEntity
  8
KASAGI
100
AcDbLine
 10
288.3179278438014
 20
369.7010739917979
 30
-0.0000000000000022
 11
288.3179278438015
 21
300.2391356562659
 31
-0.0000000000000022
  0
LINE
  5
4945
330
1A
100
AcDbEntity
  8
KASAGI
100
AcDbLine
 10
290.6179278438015
 20
366.5094784415475
 30
-0.0000000000000022
 11
290.6179278438015
 21
314.7391356562659
 31
-0.0000000000000022
  0
ARC
  5
4946
330
1A
100
AcDbEntity
  8
KASAGI
100
AcDbCircle
 10
290.4179278438014
 20
300.2391356562659
 30
-0.0000000000000022
 40
0.5
100
AcDbArc
 50
270.0
 51
0.0
  0
ARC
  5
4947
330
1A
100
AcDbEntity
  8
KASAGI
100
AcDbCircle
 10
288.8179278438014
 20
300.2391356562659
 30
-0.0000000000000022
 40
0.5
100
AcDbArc
 50
180.0
 51
270.0
  0
LINE
  5
4948
330
1A
100
AcDbEntity
  8
KASAGI
100
AcDbLine
 10
290.4179278438014
 20
299.7391356562659
 30
-0.0000000000000022
 11
288.8179278438014
 21
299.7391356562659
 31
-0.0000000000000022
  0
LINE
  5
4949
330
1A
100
AcDbEntity
  8
KASAGI
100
AcDbLine
 10
302.0167473601995
 20
349.739591656266
 30
-0.0000000000000022
 11
337.9179278438015
 21
349.7395916562659
 31
-0.0000000000000022
  0
LINE
  5
494A
330
1A
100
AcDbEntity
  8
KASAGI
100
AcDbLine
 10
290.9179278438015
 20
314.739591656266
 30
-0.0000000000000022
 11
297.1138378950946
 21
345.720141898214
 31
-0.0000000000000022
  0
LINE
  5
494B
330
1A
100
AcDbEntity
  8
KASAGI
100
AcDbLine
 10
293.5239278438015
 20
309.921591656266
 30
-0.0000000000000022
 11
300.2849775402644
 21
343.7298401606315
 31
-0.0000000000000022
  0
ARC
  5
494C
330
1A
100
AcDbEntity
  8
KASAGI
100
AcDbCircle
 10
294.4179278438014
 20
309.279799656266
 30
-0.0000000000000022
 40
1.5
100
AcDbArc
 50
283.0993609999983
 51
0.0
  0
LINE
  5
494D
330
1A
100
AcDbEntity
  8
KASAGI
100
AcDbLine
 10
294.7578878438015
 20
307.8188336562659
 30
-0.0000000000000022
 11
290.9179278438015
 21
306.7391356562659
 31
-0.0000000000000022
  0
LINE
  5
494E
330
1A
100
AcDbEntity
  8
KASAGI
100
AcDbLine
 10
290.9179278438015
 20
300.2391356562659
 30
-0.0000000000000022
 11
290.9179278438015
 21
306.7391356562659
 31
-0.0000000000000022
  0
LINE
  5
494F
330
1A
100
AcDbEntity
  8
KASAGI
100
AcDbLine
 10
291.4528495159086
 20
309.7765865130796
 30
-0.0000000000000022
 11
293.5239278438015
 21
309.921591656266
 31
-0.0000000000000022
  0
LINE
  5
4950
330
1A
100
AcDbEntity
  8
KASAGI
100
AcDbLine
 10
291.4528058438015
 20
309.7765376562659
 30
-0.0000000000000022
 11
295.3830498438015
 21
310.0513656562659
 31
-0.0000000000000022
  0
LINE
  5
4951
330
1A
100
AcDbEntity
  8
KASAGI
100
AcDbLine
 10
290.6179278438015
 20
314.7391356562659
 30
-0.0000000000000022
 11
290.9179278438015
 21
314.7391356562659
 31
-0.0000000000000022
  0
ARC
  5
4953
330
1A
100
AcDbEntity
  8
KASAGI
100
AcDbCircle
 10
291.4179278438015
 20
310.2753196562659
 30
-0.0000000000000022
 40
0.5
100
AcDbArc
 50
180.0
 51
274.000000000003
  0
LINE
  5
4954
330
1A
100
AcDbEntity
  8
KASAGI
100
AcDbLine
 10
290.9179278438015
 20
310.2753654990215
 30
-0.0000000000000022
 11
290.9179278438015
 21
314.739591656266
 31
-0.0000000000000022
  0
LINE
  5
4955
330
1A
100
AcDbEntity
  8
KASAGI
100
AcDbLine
 10
290.9179278438015
 20
314.7391356562659
 30
-0.0000000000000022
 11
290.9179278438015
 21
310.2753196562659
 31
-0.0000000000000022
  0
ARC
  5
4956
330
1A
100
AcDbEntity
  8
KASAGI
100
AcDbCircle
 10
295.4179278438015
 20
309.552583656266
 30
-0.0000000000000022
 40
0.5
100
AcDbArc
 50
0.0
 51
94.00000000000302
  0
LINE
  5
4957
330
1A
100
AcDbEntity
  8
KASAGI
100
AcDbLine
 10
295.9179278438015
 20
309.552583656266
 30
-0.0000000000000022
 11
295.9179278438015
 21
309.279799656266
 31
-0.0000000000000022
  0
LINE
  5
495A
330
1A
100
AcDbEntity
  8
KASAGI
100
AcDbLine
 10
338.9179278438015
 20
350.7395916562659
 30
-0.0000000000000022
 11
338.9179278438015
 21
359.5395916562658
 31
-0.0000000000000022
  0
ARC
  5
495B
330
1A
100
AcDbEntity
  8
KASAGI
100
AcDbCircle
 10
337.9179278438015
 20
350.7395916562659
 30
-0.0000000000000022
 40
1.0
100
AcDbArc
 50
270.0
 51
0.0
  0
LINE
  5
495C
330
1A
100
AcDbEntity
  8
KASAGI
100
AcDbLine
 10
334.9179278438015
 20
360.5395916562658
 30
-0.0000000000000022
 11
337.9179278438015
 21
360.5395916562658
 31
-0.0000000000000022
  0
ARC
  5
495D
330
1A
100
AcDbEntity
  8
KASAGI
100
AcDbCircle
 10
334.9179278438015
 20
361.0395916562658
 30
-0.0000000000000022
 40
0.5
100
AcDbArc
 50
180.0
 51
270.0
  0
ARC
  5
495E
330
1A
100
AcDbEntity
  8
KASAGI
100
AcDbCircle
 10
337.9179278438015
 20
359.5395916562658
 30
-0.0000000000000022
 40
1.0
100
AcDbArc
 50
0.0
 51
90.0
  0
LINE
  5
495F
330
1A
100
AcDbEntity
  8
KASAGI
  6
DASHED2
 48
0.5
100
AcDbLine
 10
360.3179278438013
 20
350.7395916562659
 30
-0.0000000000000022
 11
360.3179278438013
 21
345.739591656266
 31
-0.0000000000000022
  0
LINE
  5
4960
330
1A
100
AcDbEntity
  8
KASAGI
100
AcDbLine
 10
341.9179278438015
 20
359.5395916562658
 30
-0.0000000000000022
 11
341.9179278438015
 21
350.7395916562659
 31
-0.0000000000000022
  0
LINE
  5
4961
330
1A
100
AcDbEntity
  8
KASAGI
100
AcDbLine
 10
342.9179278438015
 20
349.7395916562659
 30
-0.0000000000000022
 11
350.3179278438015
 21
349.7395916562659
 31
-0.0000000000000022
  0
ARC
  5
4962
330
1A
100
AcDbEntity
  8
KASAGI
100
AcDbCircle
 10
342.9179278438015
 20
350.7395916562659
 30
-0.0000000000000022
 40
1.0
100
AcDbArc
 50
180.0
 51
270.0
  0
LINE
  5
4963
330
1A
100
AcDbEntity
  8
KASAGI
100
AcDbLine
 10
350.3179278438015
 20
349.7395916562659
 30
-0.0000000000000022
 11
351.3179278438013
 21
350.7395916562659
 31
-0.0000000000000022
  0
ARC
  5
4964
330
1A
100
AcDbEntity
  8
KASAGI
100
AcDbCircle
 10
345.9179278438015
 20
361.0395916562658
 30
-0.0000000000000022
 40
0.5
100
AcDbArc
 50
270.0
 51
0.0
  0
LINE
  5
4965
330
1A
100
AcDbEntity
  8
KASAGI
100
AcDbLine
 10
345.9179278438015
 20
360.5395916562658
 30
-0.0000000000000022
 11
342.9179278438015
 21
360.5395916562658
 31
-0.0000000000000022
  0
ARC
  5
4966
330
1A
100
AcDbEntity
  8
KASAGI
100
AcDbCircle
 10
342.9179278438015
 20
359.5395916562658
 30
-0.0000000000000022
 40
1.0
100
AcDbArc
 50
90.0
 51
180.0
  0
LINE
  5
4967
330
1A
100
AcDbEntity
  8
KASAGI
100
AcDbLine
 10
288.3179278438015
 20
369.7010739917979
 30
-0.0000000000000022
 11
290.5398812247346
 21
371.9230273727313
 31
-0.0000000000000022
  0
LINE
  5
4968
330
1A
100
AcDbEntity
  8
KASAGI
100
AcDbLine
 10
315.7436958438015
 20
371.0210396562658
 30
-0.0000000000000022
 11
317.8179278438014
 21
368.9468076562659
 31
-0.0000000000000022
  0
LINE
  5
4969
330
1A
100
AcDbEntity
  8
KASAGI
100
AcDbLine
 10
314.7571702383779
 20
368.7548732616894
 30
-0.0000000000000022
 11
316.8314038438015
 21
366.6806396562658
 31
-0.0000000000000022
  0
LINE
  5
496A
330
1A
100
AcDbEntity
  8
KASAGI
100
AcDbLine
 10
345.9179278438015
 20
363.0395916562658
 30
-0.0000000000000022
 11
334.9179278438015
 21
363.0395916562658
 31
-0.0000000000000022
  0
ARC
  5
496B
330
1A
100
AcDbEntity
  8
KASAGI
100
AcDbCircle
 10
334.9179278438015
 20
362.5395916562658
 30
-0.0000000000000022
 40
0.5
100
AcDbArc
 50
90.0
 51
180.0
  0
ARC
  5
496C
330
1A
100
AcDbEntity
  8
KASAGI
100
AcDbCircle
 10
345.9179278438015
 20
362.5395916562658
 30
-0.0000000000000022
 40
0.5
100
AcDbArc
 50
0.0
 51
90.0
  0
LINE
  5
496E
330
1A
100
AcDbEntity
  8
KASAGI
  6
DASHED2
 48
0.5
100
AcDbLine
 10
410.3179278438013
 20
350.7395916562659
 30
-0.0000000000000022
 11
410.3179278438013
 21
345.739591656266
 31
-0.0000000000000022
  0
LINE
  5
496F
330
1A
100
AcDbEntity
  8
KASAGI
100
AcDbLine
 10
416.3179278438013
 20
350.7395916562659
 30
-0.0000000000000022
 11
416.8179278438013
 21
350.2395916562659
 31
-0.0000000000000022
  0
LINE
  5
4970
330
1A
100
AcDbEntity
  8
KASAGI
100
AcDbLine
 10
417.3179278438013
 20
350.7395916562659
 30
-0.0000000000000022
 11
416.8179278438013
 21
350.2395916562659
 31
-0.0000000000000022
  0
LINE
  5
4973
330
1A
100
AcDbEntity
  8
KASAGI
100
AcDbLine
 10
498.7179278438015
 20
356.139591656266
 30
-0.0000000000000022
 11
487.7179278438013
 21
356.139591656266
 31
-0.0000000000000022
  0
ARC
  5
4974
330
1A
100
AcDbEntity
  8
KASAGI
100
AcDbCircle
 10
487.7179278438013
 20
354.139591656266
 30
-0.0000000000000022
 40
0.5
100
AcDbArc
 50
180.0
 51
270.0
  0
LINE
  5
4975
330
1A
100
AcDbEntity
  8
KASAGI
100
AcDbLine
 10
483.3179278438013
 20
349.7395916562659
 30
-0.0000000000000022
 11
490.7179278438015
 21
349.7395916562659
 31
-0.0000000000000022
  0
LINE
  5
4976
330
1A
100
AcDbEntity
  8
KASAGI
100
AcDbLine
 10
482.3179278438013
 20
350.7395916562659
 30
-0.0000000000000022
 11
483.3179278438013
 21
349.7395916562659
 31
-0.0000000000000022
  0
LINE
  5
4977
330
1A
100
AcDbEntity
  8
KASAGI
100
AcDbLine
 10
487.7179278438013
 20
353.639591656266
 30
-0.0000000000000022
 11
490.7179278438015
 21
353.639591656266
 31
-0.0000000000000022
  0
ARC
  5
4978
330
1A
100
AcDbEntity
  8
KASAGI
100
AcDbCircle
 10
490.7179278438015
 20
350.7395916562659
 30
-0.0000000000000022
 40
1.0
100
AcDbArc
 50
270.0
 51
0.0
  0
ARC
  5
4979
330
1A
100
AcDbEntity
  8
KASAGI
100
AcDbCircle
 10
490.7179278438015
 20
352.6395916562659
 30
-0.0000000000000022
 40
1.0
100
AcDbArc
 50
0.0
 51
90.0
  0
LINE
  5
497A
330
1A
100
AcDbEntity
  8
KASAGI
100
AcDbLine
 10
491.7179278438013
 20
352.6395916562659
 30
-0.0000000000000022
 11
491.7179278438013
 21
350.7395916562659
 31
-0.0000000000000022
  0
LINE
  5
497B
330
1A
100
AcDbEntity
  8
KASAGI
100
AcDbLine
 10
487.2179278438014
 20
354.139591656266
 30
-0.0000000000000022
 11
487.2179278438014
 21
359.4571977193676
 31
-0.0000000000000022
  0
ARC
  5
497C
330
1A
100
AcDbEntity
  8
KASAGI
100
AcDbCircle
 10
487.7179278438013
 20
355.639591656266
 30
-0.0000000000000022
 40
0.5
100
AcDbArc
 50
90.0
 51
180.0
  0
ARC
  5
497D
330
1A
100
AcDbEntity
  8
KASAGI
100
AcDbCircle
 10
498.7179278438015
 20
354.139591656266
 30
-0.0000000000000022
 40
0.5
100
AcDbArc
 50
270.0
 51
0.0
  0
LINE
  5
497E
330
1A
100
AcDbEntity
  8
KASAGI
100
AcDbLine
 10
498.7179278438015
 20
353.639591656266
 30
-0.0000000000000022
 11
495.7179278438013
 21
353.639591656266
 31
-0.0000000000000022
  0
ARC
  5
497F
330
1A
100
AcDbEntity
  8
KASAGI
100
AcDbCircle
 10
495.7179278438013
 20
352.6395916562659
 30
-0.0000000000000022
 40
1.0
100
AcDbArc
 50
90.0
 51
180.0
  0
ARC
  5
4980
330
1A
100
AcDbEntity
  8
KASAGI
100
AcDbCircle
 10
495.7179278438013
 20
350.7395916562659
 30
-0.0000000000000022
 40
1.0
100
AcDbArc
 50
180.0
 51
270.0
  0
LINE
  5
4981
330
1A
100
AcDbEntity
  8
KASAGI
100
AcDbLine
 10
494.7179278438015
 20
350.7395916562659
 30
-0.0000000000000022
 11
494.7179278438015
 21
352.6395916562659
 31
-0.0000000000000022
  0
LINE
  5
4982
330
1A
100
AcDbEntity
  8
KASAGI
100
AcDbLine
 10
499.2179278438015
 20
354.139591656266
 30
-0.0000000000000022
 11
499.2179278438015
 21
358.9484643922954
 31
-0.0000000000000022
  0
ARC
  5
4983
330
1A
100
AcDbEntity
  8
KASAGI
100
AcDbCircle
 10
498.7179278438015
 20
355.639591656266
 30
-0.0000000000000022
 40
0.5
100
AcDbArc
 50
0.0
 51
90.0
  0
ARC
  5
4984
330
1A
100
AcDbEntity
  8
KASAGI
100
AcDbCircle
 10
533.2344920174016
 20
300.2391356562659
 30
0.0000000000002539
 40
0.5
100
AcDbArc
 50
270.0
 51
0.0
  0
ARC
  5
4985
330
1A
100
AcDbEntity
  8
KASAGI
100
AcDbCircle
 10
531.6344920174016
 20
300.2391356562659
 30
0.0000000000002539
 40
0.5
100
AcDbArc
 50
180.0
 51
270.0
  0
LINE
  5
4986
330
1A
100
AcDbEntity
  8
KASAGI
100
AcDbLine
 10
531.6344920174016
 20
299.7391356562659
 30
0.0000000000002539
 11
533.2344920174016
 21
299.7391356562659
 31
0.0000000000002539
  0
LINE
  5
4987
330
1A
100
AcDbEntity
  8
KASAGI
100
AcDbLine
 10
531.4344920174017
 20
354.7072150088539
 30
0.0000000000002539
 11
531.4344920174017
 21
314.7391356562659
 31
0.0000000000002539
  0
LINE
  5
4988
330
1A
100
AcDbEntity
  8
KASAGI
100
AcDbLine
 10
533.7344920174016
 20
300.2391356562659
 30
0.0000000000002539
 11
533.7344920174016
 21
357.8133796562658
 31
0.0000000000002539
  0
LINE
  5
4989
330
1A
100
AcDbEntity
  8
KASAGI
100
AcDbLine
 10
531.1344920174016
 20
314.739591656266
 30
0.0000000000002539
 11
524.9385819661084
 21
345.7201418982139
 31
0.0000000000002539
  0
LINE
  5
498A
330
1A
100
AcDbEntity
  8
KASAGI
100
AcDbLine
 10
528.5284920174015
 20
309.921591656266
 30
0.0000000000002539
 11
521.7674423209389
 21
343.7298401606315
 31
0.0000000000002539
  0
ARC
  5
498B
330
1A
100
AcDbEntity
  8
KASAGI
100
AcDbCircle
 10
527.6344877554903
 20
309.2797981700126
 30
0.0000000000002539
 40
1.49999573808935
100
AcDbArc
 50
179.9999432291435
 51
256.9007944396619
  0
LINE
  5
498C
330
1A
100
AcDbEntity
  8
KASAGI
100
AcDbLine
 10
527.2945320174017
 20
307.8188336562659
 30
0.0000000000002539
 11
531.1344920174016
 21
306.7391356562659
 31
0.0000000000002539
  0
LINE
  5
498D
330
1A
100
AcDbEntity
  8
KASAGI
100
AcDbLine
 10
531.1344920174016
 20
300.2391356562659
 30
0.0000000000002539
 11
531.1344920174016
 21
306.7391356562659
 31
0.0000000000002539
  0
LINE
  5
498E
330
1A
100
AcDbEntity
  8
KASAGI
100
AcDbLine
 10
530.5995702635956
 20
309.7765861778989
 30
0.0000000000002539
 11
528.5284920174015
 21
309.921591656266
 31
0.0000000000002539
  0
LINE
  5
498F
330
1A
100
AcDbEntity
  8
KASAGI
100
AcDbLine
 10
530.5996140174016
 20
309.7765376562659
 30
0.0000000000002539
 11
526.6693700174016
 21
310.0513656562659
 31
0.0000000000002539
  0
ARC
  5
4990
330
1A
100
AcDbEntity
  8
KASAGI
100
AcDbCircle
 10
526.6344920174016
 20
309.552583656266
 30
0.0000000000002539
 40
0.5
100
AcDbArc
 50
85.99999999999697
 51
180.0
  0
LINE
  5
4991
330
1A
100
AcDbEntity
  8
KASAGI
100
AcDbLine
 10
526.1344920174016
 20
309.552583656266
 30
0.0000000000002539
 11
526.1344920174016
 21
309.279799656266
 31
0.0000000000002539
  0
LINE
  5
4992
330
1A
100
AcDbEntity
  8
KASAGI
100
AcDbLine
 10
531.4344920174017
 20
314.7391356562659
 30
0.0000000000002539
 11
531.1344920174016
 21
314.7391356562659
 31
0.0000000000002539
  0
ARC
  5
4994
330
1A
100
AcDbEntity
  8
KASAGI
100
AcDbCircle
 10
530.6344920174016
 20
310.2753196562659
 30
0.0000000000002539
 40
0.5
100
AcDbArc
 50
265.999999999997
 51
0.0
  0
LINE
  5
4995
330
1A
100
AcDbEntity
  8
KASAGI
100
AcDbLine
 10
531.1344920174016
 20
310.2753196562659
 30
0.0000000000002539
 11
531.1344920174016
 21
314.739591656266
 31
0.0000000000002539
  0
LINE
  5
4996
330
1A
100
AcDbEntity
  8
KASAGI
100
AcDbLine
 10
531.1344920174016
 20
314.7391356562659
 30
0.0000000000002539
 11
531.1344920174016
 21
310.2753651581207
 31
0.0000000000002539
  0
LINE
  5
499A
330
1A
100
AcDbEntity
  8
KASAGI
100
AcDbLine
 10
531.6524040174016
 20
359.895445656266
 30
0.0000000000002539
 11
533.7344920174016
 21
357.8133796562658
 31
0.0000000000002539
  0
HATCH
  5
499B
330
1A
100
AcDbEntity
  8
KASAGI
370
     9
100
AcDbHatch
 10
0.0
 20
0.0
 30
-0.0000000000000022
210
0.0
220
0.0
230
1.0
  2
ANSI31
 70
     0
 71
     0
 91
        1
 92
        7
 72
     1
 73
     1
 93
        6
 10
345.9179278438015
 20
363.0395916562658
 42
-0.4142135623730951
 10
346.4179278438014
 20
362.5395916562658
 42
0.0
 10
346.4179278438014
 20
365.6218048306538
 42
0.0
 10
334.4179278438015
 20
366.0512577095166
 42
0.0
 10
334.4179278438015
 20
362.5395916562658
 42
-0.4142135623730951
 10
334.9179278438015
 20
363.0395916562658
 42
0.0
 97
        0
 75
     0
 76
     1
 52
0.0
 41
0.5
 77
     0
 78
     1
 53
45.0
 43
37.68477379777535
 44
-30.24522127337519
 45
-1.122532015133643
 46
1.122532015133643
 79
     0
 47
0.0454572263698491
 98
        1
 10
342.2032611411901
 20
363.716407003217
  0
HATCH
  5
499C
330
1A
100
AcDbEntity
  8
KASAGI
370
     9
100
AcDbHatch
 10
0.0
 20
0.0
 30
-0.0000000000000022
210
0.0
220
0.0
230
1.0
  2
ANSI31
 70
     0
 71
     0
 91
        1
 92
        1
 93
        6
 72
     1
 10
499.2179278438015
 20
358.9484643922954
 11
487.2179278438014
 21
359.4571977193676
 72
     1
 10
487.2179278438014
 20
359.4571977193676
 11
487.2179278438014
 21
355.639591656266
 72
     2
 10
487.7179278438013
 20
355.639591656266
 40
0.5
 50
180.0
 51
270.0
 73
     0
 72
     1
 10
487.7179278438013
 20
356.139591656266
 11
498.7179278438015
 21
356.139591656266
 72
     2
 10
498.7179278438015
 20
355.639591656266
 40
0.5
 50
270.0
 51
360.0
 73
     0
 72
     1
 10
499.2179278438015
 20
355.639591656266
 11
499.2179278438015
 21
358.9484643922954
 97
        0
 75
     0
 76
     1
 52
0.0
 41
0.5
 77
     0
 78
     1
 53
45.0
 43
0.6847737977752786
 44
-30.24522127337519
 45
-1.122532015133643
 46
1.122532015133643
 79
     0
 98
        1
 10
492.5406564488739
 20
357.490393545547
  0
LINE
  5
499D
330
1A
100
AcDbEntity
  8
KASAGI
100
AcDbLine
 10
290.5398812247346
 20
371.9230273727314
 30
-0.0000000000000022
 11
315.7436958438015
 21
371.0210396562658
 31
-0.0000000000000022
  0
LINE
  5
499E
330
1A
100
AcDbEntity
  8
KASAGI
100
AcDbLine
 10
293.7252223761058
 20
369.5075591414849
 30
-0.0000000000000022
 11
314.7571702383779
 21
368.7548732616894
 31
-0.0000000000000022
  0
LINE
  5
49C7
330
1A
100
AcDbEntity
  8
SEALING
  6
DASHED2
 48
0.5
100
AcDbLine
 10
331.7159822653871
 20
295.2395916562578
 30
-0.0000000000005924
 11
319.2159792194542
 21
295.2395916562578
 31
0.0000000000005892
  0
LINE
  5
4A79
330
1A
100
AcDbEntity
  8
SEIHIN
  6
DASHED2
100
AcDbLine
 10
390.2159822653852
 20
145.2395913268825
 30
-0.0000000000000027
 11
390.2159822653869
 21
320.2395916562579
 31
-0.0000000000000022
  0
DIMENSION
  5
4B55
330
1A
100
AcDbEntity
  8
SUNPOU
100
AcDbDimension
280
     0
  2
*D6
 10
359.9712167465721
 20
340.2395916562579
 30
0.0000000000069339
 11
357.3085996420963
 21
336.1721617983483
 31
0.0000000000069339
 70
   160
 71
     5
 42
4.999999516322986
 73
     0
 74
     0
 75
     0
  3
STANDARD
100
AcDbAlignedDimension
 13
320.4159824670805
 23
345.2395911725809
 33
0.000000000005601
 14
335.7159822653851
 24
340.2395916562579
 34
0.0000000000016607
 50
270.0
100
AcDbRotatedDimension
1001
ACAD
1000
DSTYLE
1002
{
1070
   279
1070
     1
1002
}
  0
ARC
  5
4CC6
330
1A
100
AcDbEntity
  8
KASAGI
100
AcDbCircle
 10
528.4344920174016
 20
354.7072150088539
 30
0.0000000000002539
 40
3.0
100
AcDbArc
 50
0.0
 51
87.95038826829715
  0
ARC
  5
4CC7
330
1A
100
AcDbEntity
  8
KASAGI
100
AcDbCircle
 10
520.0356725010037
 20
344.7395916562659
 30
0.0000000000002539
 40
5.0
100
AcDbArc
 50
11.309576822724
 51
90.0
  0
ARC
  5
4CC8
330
1A
100
AcDbEntity
  8
KASAGI
100
AcDbCircle
 10
519.3159822653869
 20
343.239591656266
 30
0.0000000000002539
 40
2.5
100
AcDbArc
 50
11.30895473590423
 51
90.0
  0
ARC
  5
4CC9
330
1A
100
AcDbEntity
  8
KASAGI
100
AcDbCircle
 10
293.6179278438015
 20
366.5094784415475
 30
-0.0000000000000022
 40
3.0
100
AcDbArc
 50
87.9503882682969
 51
180.0
  0
ARC
  5
4CCA
330
1A
100
AcDbEntity
  8
KASAGI
100
AcDbCircle
 10
302.0167473601995
 20
344.7395916562661
 30
-0.0000000000000022
 40
5.0
100
AcDbArc
 50
89.99999999999982
 51
168.6904231772762
  0
ARC
  5
4CCB
330
1A
100
AcDbEntity
  8
KASAGI
100
AcDbCircle
 10
302.7364375958164
 20
343.239591656266
 30
-0.0000000000000022
 40
2.5
100
AcDbArc
 50
90.0
 51
168.6910452640955
  0
ARC
  5
4CCC
330
1A
100
AcDbEntity
  8
KASAGI
100
AcDbCircle
 10
530.6344920174016
 20
310.2753651581207
 30
0.0000000000002539
 40
0.5
100
AcDbArc
 50
265.9950011344939
 51
0.0
  0
ARC
  5
4CCD
330
1A
100
AcDbEntity
  8
KASAGI
100
AcDbCircle
 10
291.4179278438015
 20
310.2753654990215
 30
-0.0000000000000022
 40
0.5
100
AcDbArc
 50
180.0
 51
274.0049894805893
  0
LINE
  5
4D03
330
1A
100
AcDbEntity
  8
SITAJI
370
     9
100
AcDbLine
 10
453.0205167422463
 20
345.2395916562655
 30
0.0000000000003673
 11
450.7205167422433
 21
342.9395916562658
 31
0.0000000000003673
  0
LINE
  5
4D04
330
1A
100
AcDbEntity
  8
SITAJI
370
     9
100
AcDbLine
 10
400.5753507381848
 20
247.5395916562657
 30
0.0000000000003673
 11
398.3663576542676
 21
245.3305985723473
 31
0.0000000000003673
  0
LINE
  5
4D05
330
1A
100
AcDbEntity
  8
SITAJI
370
     9
100
AcDbLine
 10
398.0579280789243
 20
247.8505961217515
 30
0.0000000000003673
 11
396.3914324642829
 21
246.184100507111
 31
0.0000000000003673
  0
LINE
  5
4D06
330
1A
100
AcDbEntity
  8
SITAJI
370
     9
100
AcDbLine
 10
443.5017576093778
 20
247.5395916562657
 30
0.0000000000003673
 11
441.2017576093783
 21
245.2395916562655
 31
0.0000000000003673
  0
LINE
  5
4D07
330
1A
100
AcDbEntity
  8
SITAJI
370
     9
100
AcDbLine
 10
440.6733304846309
 20
247.5395916562657
 30
0.0000000000003673
 11
438.3733304846319
 21
245.2395916562655
 31
0.0000000000003673
  0
LINE
  5
4D08
330
1A
100
AcDbEntity
  8
SITAJI
370
     9
100
AcDbLine
 10
396.6159822653862
 20
286.0066300546573
 30
0.0000000000003673
 11
394.3159822653869
 21
283.7066300546571
 31
0.0000000000003673
  0
LINE
  5
4D09
330
1A
100
AcDbEntity
  8
SITAJI
370
     9
100
AcDbLine
 10
396.6159822653862
 20
288.8350571794063
 30
0.0000000000003673
 11
394.3159822653869
 21
286.5350571794065
 31
0.0000000000003673
  0
LINE
  5
4D0A
330
1A
100
AcDbEntity
  8
SITAJI
370
     9
100
AcDbLine
 10
396.6159822653862
 20
331.261464050599
 30
0.0000000000003673
 11
394.3159822653869
 21
328.9614640505992
 31
0.0000000000003673
  0
LINE
  5
4D0B
330
1A
100
AcDbEntity
  8
SITAJI
370
     9
100
AcDbLine
 10
396.6159822653862
 20
328.4330369258528
 30
0.0000000000003673
 11
394.3159822653869
 21
326.133036925853
 31
0.0000000000003673
  0
LINE
  5
4D0C
330
1A
100
AcDbEntity
  8
SITAJI
370
     9
100
AcDbLine
 10
410.5941098710536
 20
345.2395916562655
 30
0.0000000000003673
 11
408.2941098710507
 21
342.9395916562653
 31
0.0000000000003673
  0
LINE
  5
4D0D
330
1A
100
AcDbEntity
  8
SITAJI
370
     9
100
AcDbLine
 10
413.4225369958003
 20
345.2395916562655
 30
0.0000000000003673
 11
411.1225369957973
 21
342.9395916562653
 31
0.0000000000003673
  0
LINE
  5
4D0E
330
1A
100
AcDbEntity
  8
SITAJI
370
     9
100
AcDbLine
 10
485.4281644805706
 20
247.5395916562657
 30
0.0000000000003673
 11
483.1281644805712
 21
245.2395916562655
 31
0.0000000000003673
  0
LINE
  5
4D0F
330
1A
100
AcDbEntity
  8
SITAJI
370
     9
100
AcDbLine
 10
482.5997373558238
 20
247.5395916562657
 30
0.0000000000003673
 11
480.2997373558246
 21
245.2395916562655
 31
0.0000000000003673
  0
LINE
  5
4D10
330
1A
100
AcDbEntity
  8
SITAJI
370
     9
100
AcDbLine
 10
494.3159822653869
 20
259.2558365658279
 30
0.0000000000003673
 11
492.0159822653876
 21
256.9558365658277
 31
0.0000000000003673
  0
LINE
  5
4D11
330
1A
100
AcDbEntity
  8
SITAJI
370
     9
100
AcDbLine
 10
494.3159822653869
 20
256.4274094410816
 30
0.0000000000003673
 11
492.0159822653876
 21
254.1274094410815
 31
0.0000000000003673
  0
LINE
  5
4D12
330
1A
100
AcDbEntity
  8
SITAJI
370
     9
100
AcDbLine
 10
494.3159822653869
 20
298.8538163122748
 30
0.0000000000003673
 11
492.0159822653876
 21
296.5538163122742
 31
0.0000000000003673
  0
LINE
  5
4D13
330
1A
100
AcDbEntity
  8
SITAJI
370
     9
100
AcDbLine
 10
494.3159822653869
 20
301.6822434370206
 30
0.0000000000003673
 11
492.0159822653876
 21
299.3822434370204
 31
0.0000000000003673
  0
LINE
  5
4D14
330
1A
100
AcDbEntity
  8
SITAJI
370
     9
100
AcDbLine
 10
455.848943866993
 20
345.2395916562655
 30
0.0000000000003673
 11
453.5489438669901
 21
342.9395916562653
 31
0.0000000000003673
  0
LINE
  5
4D15
330
1A
100
AcDbEntity
  8
SITAJI
370
     9
100
AcDbLine
 10
493.3714734145396
 20
343.1641414573678
 30
0.0000000000003673
 11
491.7049777998982
 21
341.4976458427272
 31
0.0000000000003673
  0
LINE
  5
4D16
330
1A
100
AcDbEntity
  8
SITAJI
370
     9
100
AcDbLine
 10
494.2249753493051
 20
341.1892162673853
 30
0.0000000000003673
 11
492.0159822653876
 21
338.9802231834674
 31
0.0000000000003673
  0
LINE
  5
51C3
330
1A
100
AcDbEntity
  8
SEALING
100
AcDbLine
 10
311.3159789783215
 20
296.7397228646417
 30
0.0000000000012157
 11
311.3159789783215
 21
305.7397228646417
 31
0.0000000000012157
  0
LINE
  5
51C4
330
1A
100
AcDbEntity
  8
SEALING
100
AcDbLine
 10
311.3159789783215
 20
305.7397228646417
 30
0.0000000000012157
 11
309.8159789783216
 21
305.7397228646417
 31
0.0000000000012157
  0
LINE
  5
51C5
330
1A
100
AcDbEntity
  8
SUTEITA
100
AcDbLine
 10
309.3159792194528
 20
296.7404173158208
 30
0.000000000003013
 11
309.3159792194527
 21
345.7397336649805
 31
0.000000000003013
  0
ARC
  5
51C6
330
1A
100
AcDbEntity
  8
SUTEITA
100
AcDbCircle
 10
310.3159789783215
 20
296.7397228646415
 30
0.0000000000012157
 40
1.0
100
AcDbArc
 50
179.9999999999935
 51
0.0000000000065138
  0
LINE
  5
51C7
330
1A
100
AcDbEntity
  8
SUTEITA
100
AcDbLine
 10
309.8159792194528
 20
296.741007402127
 30
0.0000000000046534
 11
309.8159792194528
 21
345.239646692388
 31
0.0000000000046534
  0
ARC
  5
51C8
330
1A
100
AcDbEntity
  8
SUTEITA
100
AcDbCircle
 10
310.3159789783215
 20
296.7405163510171
 30
0.000000000002856
 40
0.5
100
AcDbArc
 50
180.0
 51
0.0
  0
LINE
  5
51C9
330
1A
100
AcDbEntity
  8
SUTEITA
100
AcDbLine
 10
310.8159789783215
 20
296.7405163510171
 30
0.0000000000012157
 11
310.8159789783215
 21
305.7397228646417
 31
0.0000000000012157
  0
LINE
  5
51CA
330
1A
100
AcDbEntity
  8
SUTEITA
100
AcDbLine
 10
311.3159789783215
 20
296.7397228646417
 30
0.0000000000012157
 11
311.3159789783215
 21
305.7397228646417
 31
0.0000000000012157
  0
LINE
  5
51CB
330
1A
100
AcDbEntity
  8
SUTEITA
100
AcDbLine
 10
310.8159789783215
 20
305.7397228646417
 30
0.0000000000012157
 11
311.3159789783215
 21
305.7397228646417
 31
0.0000000000012157
  0
HATCH
  5
51CC
330
1A
100
AcDbEntity
  8
PACKING
370
     9
100
AcDbHatch
 10
0.0
 20
0.0
 30
0.0000000000040585
210
0.0
220
0.0
230
1.0
  2
ANSI31
 70
     0
 71
     0
 91
        1
 92
        1
 93
        8
 72
     2
 10
313.5951165040585
 20
314.4727933586198
 40
2.999999999999943
 50
179.9999999999989
 51
270.0000000000011
 73
     1
 72
     1
 10
313.5951165040586
 20
311.4727933586199
 11
315.5951165040586
 21
311.4727933586199
 72
     2
 10
315.5951165040587
 20
314.4727933586198
 40
2.999999999999943
 50
269.9999999999978
 51
360.0
 73
     1
 72
     1
 10
318.5951165040586
 20
314.4727933586199
 11
318.5951165040586
 21
316.4727933586199
 72
     2
 10
315.5951165040587
 20
316.47279335862
 40
2.999999999999943
 50
359.9999999999988
 51
450.0000000000011
 73
     1
 72
     1
 10
315.5951165040586
 20
319.4727933586199
 11
313.5951165040586
 21
319.4727933586199
 72
     2
 10
313.5951165040585
 20
316.47279335862
 40
2.999999999999943
 50
89.99999999999783
 51
180.0
 73
     1
 72
     1
 10
310.5951165040586
 20
316.4727933586199
 11
310.5951165040586
 21
314.4727933586199
 97
        0
 75
     1
 76
     1
 52
0.0
 41
1.0
 77
     0
 78
     1
 53
45.0
 43
-9.298862503022688
 44
-20.12498485218646
 45
-2.245064030267287
 46
2.245064030267287
 79
     0
 98
        1
 10
311.6009859101903
 20
318.0508085213264
1001
GradientColor1ACI
1070
     5
1001
GradientColor2ACI
1070
     2
1001
ACAD
1010
0.0
1020
0.0
1030
0.0
  0
LINE
  5
51CD
330
1A
100
AcDbEntity
  8
PACKING
100
AcDbLine
 10
313.5951165040586
 20
319.4727933586199
 30
0.0000000000033254
 11
315.5951165040586
 21
319.4727933586199
 31
0.0000000000033254
  0
ARC
  5
51CE
330
1A
100
AcDbEntity
  8
PACKING
100
AcDbCircle
 10
313.5951165040586
 20
316.4727933586199
 30
0.0000000000033254
 40
3.0
100
AcDbArc
 50
90.0
 51
180.0
  0
LINE
  5
51CF
330
1A
100
AcDbEntity
  8
PACKING
100
AcDbLine
 10
318.5951165040586
 20
316.4727933586199
 30
0.0000000000033254
 11
318.5951165040586
 21
314.4727933586199
 31
0.0000000000033254
  0
ARC
  5
51D0
330
1A
100
AcDbEntity
  8
PACKING
100
AcDbCircle
 10
315.5951165040586
 20
314.4727933586199
 30
0.0000000000033254
 40
3.0
100
AcDbArc
 50
270.0
 51
0.0
  0
ARC
  5
51D1
330
1A
100
AcDbEntity
  8
PACKING
100
AcDbCircle
 10
315.5951165040586
 20
316.4727933586199
 30
0.0000000000033254
 40
3.0
100
AcDbArc
 50
0.0
 51
90.0
  0
LINE
  5
51D2
330
1A
100
AcDbEntity
  8
PACKING
100
AcDbLine
 10
310.5951165040586
 20
316.4727933586199
 30
0.0000000000033254
 11
310.5951165040586
 21
314.4727933586199
 31
0.0000000000033254
  0
ARC
  5
51D3
330
1A
100
AcDbEntity
  8
PACKING
100
AcDbCircle
 10
313.5951165040586
 20
314.4727933586199
 30
0.0000000000033254
 40
3.0
100
AcDbArc
 50
180.0
 51
270.0
  0
LINE
  5
51D4
330
1A
100
AcDbEntity
  8
PACKING
100
AcDbLine
 10
313.5890986192628
 20
311.4727993944489
 30
0.0000000000033254
 11
315.5890986192627
 21
311.4727993944489
 31
0.0000000000033254
  0
HATCH
  5
51D6
330
1A
100
AcDbEntity
  8
SEALING
370
     9
100
AcDbHatch
 10
0.0
 20
0.0
 30
0.0000000000027668
210
0.0
220
0.0
230
1.0
  2
ANSI37
 70
     0
 71
     0
 91
        1
 92
        1
 93
        7
 72
     1
 10
319.2159822831604
 20
310.7397228646415
 11
309.8159789783214
 21
310.7397228646416
 72
     1
 10
309.8159789783214
 20
310.7397228646416
 11
309.8159789783216
 21
305.7397204689187
 72
     1
 10
309.8159789783216
 20
305.7397204689187
 11
311.3159789783215
 21
305.7397228646418
 72
     1
 10
311.3159789783215
 20
305.7397228646418
 11
311.3159789783215
 21
296.7397228646415
 72
     2
 10
310.315978978321
 20
296.739722864642
 40
1.00000000000051
 50
0.000000000029312
 51
89.99999999997069
 73
     0
 72
     2
 10
314.8159750765127
 20
280.7709483132031
 40
15.63055265995179
 50
253.2678793790246
 51
286.3497634436618
 73
     0
 72
     1
 10
319.2159792194542
 20
295.7694195685552
 11
319.2159822831604
 21
310.7397228646415
 97
        0
 75
     0
 76
     1
 52
0.0
 41
1.0
 77
     0
 78
     2
 53
45.0
 43
8.184769760709343
 44
-40.24509246072222
 45
-2.245064030267287
 46
2.245064030267287
 79
     0
 53
135.0
 43
8.184769760709343
 44
-40.24509246072222
 45
-2.245064030267287
 46
-2.245064030267287
 79
     0
 98
        1
 10
320.2808189732217
 20
312.0627332178214
1001
ACAD
1010
0.0
1020
0.0
1030
0.0
  0
ARC
  5
51D7
330
1A
100
AcDbEntity
  8
SEALING
100
AcDbCircle
 10
314.8159750705218
 20
280.7709501086588
 30
0.0000000000011247
 40
15.63055093878872
100
AcDbArc
 50
73.65022298503156
 51
106.7321224947336
  0
LINE
  5
51D8
330
1A
100
AcDbEntity
  8
SEALING
100
AcDbLine
 10
319.2159822831604
 20
310.7397228646415
 30
0.0000000000010919
 11
309.8159789783216
 21
310.7397228646416
 31
0.0000000000011582
  0
LINE
  5
55F7
330
1A
100
AcDbEntity
  8
0
100
AcDbLine
 10
494.3159822653869
 20
145.2395913268825
 30
-0.0000000000000022
 11
494.3159822653869
 21
345.2395916562656
 31
-0.0000000000000022
  0
HATCH
  5
55F8
330
1A
100
AcDbEntity
  8
PACKING
  6
DASHED2
 48
0.5
370
     9
100
AcDbHatch
 10
0.0
 20
0.0
 30
-0.0000000000000022
210
0.0
220
0.0
230
1.0
  2
ANSI31
 70
     0
 71
     0
 91
        2
 92
        7
 72
     0
 73
     1
 93
        4
 10
505.3159822653868
 20
316.7395916562663
 10
494.3159822653869
 20
316.7395916562663
 10
494.3159822653869
 20
306.7395916562663
 10
505.3159822653868
 20
306.7395916562663
 97
        0
 92
        7
 72
     0
 73
     1
 93
        4
 10
509.3159822653868
 20
316.7395916562663
 10
505.3159822653868
 20
316.7395916562663
 10
505.3159822653868
 20
306.7395916562663
 10
509.3159822653868
 20
306.7395916562663
 97
        0
 75
     1
 76
     1
 52
0.0
 41
1.0
 77
     0
 78
     1
 53
45.0
 43
34.31598226538694
 44
-29.24522127337496
 45
-2.245064030267287
 46
2.245064030267287
 79
     0
 47
0.048240201561553
 98
        2
 10
499.3319141582495
 20
310.7609726411149
 10
506.8597603862777
 20
311.6292956429835
1001
GradientColor1ACI
1070
     5
1001
GradientColor2ACI
1070
     2
1001
ACAD
1010
0.0
1020
0.0
1030
0.0
  0
HATCH
  5
55F9
330
1A
100
AcDbEntity
  8
PACKING
370
     9
100
AcDbHatch
 10
0.0
 20
0.0
 30
-0.0000000000000022
210
0.0
220
0.0
230
1.0
  2
ANSI31
 70
     0
 71
     0
 91
        1
 92
        7
 72
     0
 73
     1
 93
        4
 10
512.3159822653867
 20
316.7395916562663
 10
509.3159822653868
 20
316.7395916562663
 10
509.3159822653868
 20
306.7395916562663
 10
512.3159822653867
 20
306.7395916562663
 97
        0
 75
     1
 76
     1
 52
0.0
 41
1.0
 77
     0
 78
     1
 53
45.0
 43
34.31598226538694
 44
-29.24522127337496
 45
-2.245064030267287
 46
2.245064030267287
 79
     0
 47
0.048240201561553
 98
        1
 10
511.1062357135146
 20
310.5680107948428
1001
GradientColor1ACI
1070
     5
1001
GradientColor2ACI
1070
     2
1001
ACAD
1010
0.0
1020
0.0
1030
0.0
  0
LINE
  5
55FA
330
1A
100
AcDbEntity
  8
0
100
AcDbLine
 10
509.3159822653868
 20
145.2395913268825
 30
-0.0000000000000022
 11
509.3159822653868
 21
345.2395916562656
 31
-0.0000000000000022
  0
LINE
  5
55FB
330
1A
100
AcDbEntity
  8
0
  6
DASHED2
100
AcDbLine
 10
505.3159822653868
 20
145.2395913268825
 30
-0.0000000000000022
 11
505.3159822653868
 21
345.2395916562656
 31
-0.0000000000000022
  0
LINE
  5
55FC
330
1A
100
AcDbEntity
  8
0
100
AcDbLine
 10
494.3159822653869
 20
345.2395916562656
 30
-0.0000000000000022
 11
509.3159822653868
 21
345.2395916562656
 31
-0.0000000000000022
  0
LINE
  5
55FD
330
1A
100
AcDbEntity
  8
PACKING
  6
DASHED2
 48
0.5
100
AcDbLine
 10
494.3159822653869
 20
306.7395916562663
 30
-0.0000000000000022
 11
512.3159822653867
 21
306.7395916562663
 31
-0.0000000000000022
  0
LINE
  5
55FE
330
1A
100
AcDbEntity
  8
PACKING
  6
DASHED2
 48
0.5
100
AcDbLine
 10
494.3159822653869
 20
316.7395916562663
 30
-0.0000000000000022
 11
512.3159822653867
 21
316.7395916562663
 31
-0.0000000000000022
  0
LINE
  5
55FF
330
1A
100
AcDbEntity
  8
PACKING
100
AcDbLine
 10
512.3159822653867
 20
316.7395916562663
 30
-0.0000000000000022
 11
512.3159822653867
 21
306.7395916562663
 31
-0.0000000000000022
  0
LINE
  5
567B
330
1A
100
AcDbEntity
  8
KASAGI
100
AcDbLine
 10
351.3179278438013
 20
350.7395916562659
 30
-0.0000000000000022
 11
416.3179278438013
 21
350.7395916562659
 31
-0.0000000000000022
  0
LINE
  5
5684
330
1A
100
AcDbEntity
  8
KASAGI
  6
DASHED2
 48
0.5
100
AcDbLine
 10
471.1048309106117
 20
350.7395916562659
 30
-0.0000000000000022
 11
471.1048309106117
 21
345.739591656266
 31
-0.0000000000000022
  0
LINE
  5
5685
330
1A
100
AcDbEntity
  8
KASAGI
  6
DASHED2
 48
0.5
100
AcDbLine
 10
423.3179278438013
 20
350.7395916562659
 30
-0.0000000000000022
 11
423.3179278438013
 21
345.739591656266
 31
-0.0000000000000022
  0
LINE
  5
5686
330
1A
100
AcDbEntity
  8
KASAGI
100
AcDbLine
 10
482.3179278438013
 20
350.7395916562659
 30
-0.0000000000000022
 11
417.3179278438013
 21
350.7395916562659
 31
-0.0000000000000022
  0
MULTILEADER
  5
57C6
330
1A
100
AcDbEntity
  8
HIKIDASI
160
               568
310
38020000150000000C00000016000000000000C00C00000033000000000000000C00000013000000993A0000E000000026000000334DD843AEA37D40B6E44C5F94E87740000000000000000000000000000000000000000000000000000000000000F03F000000000000F03F00000000000000000000000000000000686366
310
30207B286708FF25521490E55D8B4E09FF000008400A000000010000000000000000001440000000000000F03F0000000000000000000000000000F03F000000000000000000000000000000000000000000000000000000000100000000000000000000007400780074002E00730068007800000065007800740066006F00
310
6E0074002E0073006800780000000C00000033000000000000000C00000010000000070000000C00000016000000000000C00C00000012000000FF7F00000C00000013000000010000000C00000013000000891300003C0000000600000002000000964AACF899107C40D7A70AFDD69B75400000000000000000B139A0C29A
310
7B7D40B6E44C5F9410784000000000000000000C00000013000000112700003C0000000600000002000000B139A0C29A7B7D40B6E44C5F9410784000000000000000004BD3395C34857D40B6E44C5F9410784000000000000000000C00000016000000000000C00C00000012000000FF7F00000C0000001700000000000000
310
0C000000130000009A3A00000C00000016000000000000C00C00000012000000FF7F00000C00000017000000FFFFFFFF0C0000003300000000000000
100
AcDbMLeader
270
     2
300
CONTEXT_DATA{
 40
1.0
 10
472.3252832659533
 20
385.0362236980103
 30
0.0
 41
5.0
140
0.0
145
2.0
174
     1
175
     3
176
     0
177
     0
290
     1
304
捨て笠木（別途工事）
 11
0.0
 21
0.0
 31
1.0
340
10
 12
474.3252832659534
 22
387.5362236980103
 32
0.0
 13
1.0
 23
0.0
 33
0.0
 42
0.0
 43
0.0
 44
0.0
 45
1.0
170
     1
 90
-1073741824
171
     1
172
     5
 91
-1073741824
141
0.0
 92
        0
291
     0
292
     0
173
     0
293
     0
142
0.0
143
0.0
294
     0
295
     0
296
     0
110
449.0375906686908
120
345.7399874130473
130
0.0
111
1.0
121
0.0
131
0.0
112
0.0
122
1.0
132
0.0
297
     0
302
LEADER{
290
     1
291
     1
 10
471.7252832659533
 20
385.0362236980103
 30
0.0
 11
1.0
 21
0.0
 31
0.0
 90
        0
 40
0.6
304
LEADER_LINE{
 10
449.0375906686908
 20
345.7399874130473
 30
0.0
 91
        0
305
}
271
     0
303
}
272
     9
273
     9
301
}
340
2708
 90
   279552
170
     1
 91
-1056964608
341
14
171
    -2
290
     1
291
     1
 41
0.6
342
B0
 42
0.0
172
     2
343
10
173
     1
 95
        3
174
     1
175
     0
 92
-1056964608
292
     0
 93
-1056964608
 10
1.0
 20
1.0
 30
1.0
 43
0.0
176
     0
293
     0
294
     0
178
     0
179
     1
 45
1.0
271
     0
272
     9
273
     9
  0
MULTILEADER
  5
57C8
330
1A
100
AcDbEntity
  8
HIKIDASI
160
               568
310
38020000150000000C00000016000000000000C00C00000033000000000000000C00000013000000993A0000E00000002600000006BBD40527D17740D729F8A67C867840E3EB3762FD452D3D00000000000000000000000000000000000000000000F03F000000000000F03F00000000000000000000000000000000A230EB
310
30DF30207B286708FF25521490E55D8B4E09FF00000B000000010000000000000000001440000000000000F03F0000000000000000000000000000F03F000000000000000000000000000000000000000000000000000000000100000000000000000000007400780074002E00730068007800000065007800740066006F00
310
6E0074002E0073006800780000000C00000033000000000000000C00000010000000070000000C00000016000000000000C00C00000012000000FF7F00000C00000013000000010000000C00000013000000891300003C00000006000000020000003E3E1914BDB07640B2291A8184F07640E3EB3762FD452D3D17CCE51638
310
B27740D429F8A67CAE7840E3EB3762FD452D3D0C00000013000000112700003C000000060000000200000017CCE51638B27740D429F8A67CAE7840E3EB3762FD452D3DB1657FB0D1BB7740D429F8A67CAE7840E3EB3762FD452D3D0C00000016000000000000C00C00000012000000FF7F00000C0000001700000000000000
310
0C000000130000009A3A00000C00000016000000000000C00C00000012000000FF7F00000C00000017000000FFFFFFFF0C0000003300000000000000
100
AcDbMLeader
270
     2
300
CONTEXT_DATA{
 40
1.0
 10
379.7386937118964
 20
394.9054326719172
 30
0.000000000000052
 41
5.0
140
0.0
145
2.0
174
     1
175
     3
176
     0
177
     0
290
     1
304
アルミ笠木（別途工事）
 11
0.0
 21
0.0
 31
1.0
340
10
 12
381.7386937118964
 22
397.4054326719174
 32
0.000000000000052
 13
1.0
 23
0.0
 33
0.0
 42
0.0
 43
0.0
 44
0.0
 45
1.0
170
     1
 90
-1073741824
171
     1
172
     5
 91
-1073741824
141
0.0
 92
        0
291
     0
292
     0
173
     0
293
     0
142
0.0
143
0.0
294
     0
295
     0
296
     0
110
363.0461617456493
120
367.0323496839511
130
0.000000000000052
111
1.0
121
0.0
131
0.0
112
0.0
122
1.0
132
0.0
297
     0
302
LEADER{
290
     1
291
     1
 10
379.1386937118963
 20
394.9054326719172
 30
0.000000000000052
 11
1.0
 21
0.0
 31
0.0
 90
        0
 40
0.6
304
LEADER_LINE{
 10
363.0461617456493
 20
367.0323496839511
 30
0.000000000000052
 91
        0
305
}
271
     0
303
}
272
     9
273
     9
301
}
340
2708
 90
   279552
170
     1
 91
-1056964608
341
14
171
    -2
290
     1
291
     1
 41
0.6
342
B0
 42
0.0
172
     2
343
10
173
     1
 95
        3
174
     1
175
     0
 92
-1056964608
292
     0
 93
-1056964608
 10
1.0
 20
1.0
 30
1.0
 43
0.0
176
     0
293
     0
294
     0
178
     0
179
     1
 45
1.0
271
     0
272
     9
273
     9
  0
MULTILEADER
  5
57C9
330
1A
100
AcDbEntity
  8
HIKIDASI
160
               572
310
3C020000150000000C00000016000000000000C00C00000033000000000000000C00000013000000993A0000E40000002600000009260D5B5ABA8040C6C0590012C96F40000000000000000000000000000000000000000000000000000000000000F03F000000000000F03F00000000000000000000000000000000B130DF
310
30AB30EB306297386208FF25521490E55D8B4E09FF000000000C000000010000000000000000001440000000000000F03F0000000000000000000000000000F03F000000000000000000000000000000000000000000000000000000000100000000000000000000007400780074002E007300680078000000650078007400
310
66006F006E0074002E0073006800780000000C00000033000000000000000C00000010000000070000000C00000016000000000000C00C00000012000000FF7F00000C00000013000000010000000C00000013000000891300003C0000000600000002000000770321BD435D7F40CC57CE5B5E767340000000000000000090
310
AE95E3E2AA804063E02C00890C704000000000000000000C00000013000000112700003C000000060000000200000090AE95E3E2AA804063E02C00890C704000000000000000005D7B62B0AFAF804063E02C00890C704000000000000000000C00000016000000000000C00C00000012000000FF7F00000C00000017000000
310
000000000C000000130000009A3A00000C00000016000000000000C00C00000012000000FF7F00000C00000017000000FFFFFFFF0C0000003300000000000000
100
AcDbMLeader
270
     2
300
CONTEXT_DATA{
 40
1.0
 10
533.9607856458567
 20
256.783447432803
 30
0.0
 41
5.0
140
0.0
145
2.0
174
     1
175
     3
176
     0
177
     0
290
     1
304
ケミカル面戸（別途工事）
 11
0.0
 21
0.0
 31
1.0
340
10
 12
535.9607856458567
 22
259.283447432803
 32
0.0
 13
1.0
 23
0.0
 33
0.0
 42
0.0
 43
0.0
 44
0.0
 45
1.0
170
     1
 90
-1073741824
171
     1
172
     5
 91
-1073741824
141
0.0
 92
        0
291
     0
292
     0
173
     0
293
     0
142
0.0
143
0.0
294
     0
295
     0
296
     0
110
501.8290377893058
120
311.3980367718002
130
0.0
111
1.0
121
0.0
131
0.0
112
0.0
122
1.0
132
0.0
297
     0
302
LEADER{
290
     1
291
     1
 10
533.3607856458566
 20
256.783447432803
 30
0.0
 11
1.0
 21
0.0
 31
0.0
 90
        0
 40
0.6
304
LEADER_LINE{
 10
501.8290377893058
 20
311.3980367718002
 30
0.0
 91
        0
305
}
271
     0
303
}
272
     9
273
     9
301
}
340
2708
 90
   279552
170
     1
 91
-1056964608
341
14
171
    -2
290
     1
291
     1
 41
0.6
342
B0
 42
0.0
172
     2
343
10
173
     1
 95
        3
174
     1
175
     0
 92
-1056964608
292
     0
 93
-1056964608
 10
1.0
 20
1.0
 30
1.0
 43
0.0
176
     0
293
     0
294
     0
178
     0
179
     1
 45
1.0
271
     0
272
     9
273
     9
  0
MULTILEADER
  5
57CA
330
1A
100
AcDbEntity
  8
HIKIDASI
160
               576
310
40020000150000000C00000016000000000000C00C00000033000000000000000C00000013000000993A0000E800000026000000D082D2C7F7C58040A76EC6141DD36B40000000000000000000000000000000000000000000000000000000000000F03F000000000000F03F00000000000000000000000000000000A12531
310
0030003000D700310030003000D70032002E003300E54E0A4E000000000E000000010000000000000000001440000000000000F03F0000000000000000000000000000F03F000000000000000000000000000000000000000000000000000000000100000000000000000000007400780074002E0073006800780000006500
310
7800740066006F006E0074002E0073006800780000000C00000033000000000000000C00000010000000070000000C00000016000000000000C00C00000012000000FF7F00000C00000013000000010000000C00000013000000891300003C00000006000000020000003E7F6B430EE57E40DB800F5ED57372400000000000
310
000000590B5B5080B68040A76EC6141D236C4000000000000000000C00000013000000112700003C0000000600000002000000590B5B5080B68040A76EC6141D236C40000000000000000026D8271D4DBB8040A76EC6141D236C4000000000000000000C00000016000000000000C00C00000012000000FF7F00000C000000
310
17000000000000000C000000130000009A3A00000C00000016000000000000C00C00000012000000FF7F00000C00000017000000FFFFFFFF0C0000003300000000000000
100
AcDbMLeader
270
     2
300
CONTEXT_DATA{
 40
1.0
 10
535.4126532662236
 20
225.0972999454145
 30
0.0
 41
5.0
140
0.0
145
2.0
174
     1
175
     3
176
     0
177
     0
290
     1
304
□100×100×2.3以上
 11
0.0
 21
0.0
 31
1.0
340
10
 12
537.4126532662236
 22
227.5972999454145
 32
0.0
 13
1.0
 23
0.0
 33
0.0
 42
0.0
 43
0.0
 44
0.0
 45
1.0
170
     1
 90
-1073741824
171
     1
172
     5
 91
-1073741824
141
0.0
 92
        0
291
     0
292
     0
173
     0
293
     0
142
0.0
143
0.0
294
     0
295
     0
296
     0
110
494.3159822653869
120
295.2395916562652
130
0.0
111
1.0
121
0.0
131
0.0
112
0.0
122
1.0
132
0.0
297
     0
302
LEADER{
290
     1
291
     1
 10
534.8126532662237
 20
225.0972999454145
 30
0.0
 11
1.0
 21
0.0
 31
0.0
 90
        0
 40
0.6
304
LEADER_LINE{
 10
494.3159822653869
 20
295.2395916562652
 30
0.0
 91
        0
305
}
271
     0
303
}
272
     9
273
     9
301
}
340
2708
 90
   279552
170
     1
 91
-1056964608
341
14
171
    -2
290
     1
291
     1
 41
0.6
342
B0
 42
0.0
172
     2
343
10
173
     1
 95
        3
174
     1
175
     0
 92
-1056964608
292
     0
 93
-1056964608
 10
1.0
 20
1.0
 30
1.0
 43
0.0
176
     0
293
     0
294
     0
178
     0
179
     1
 45
1.0
271
     0
272
     9
273
     9
  0
MULTILEADER
  5
57CB
330
1A
100
AcDbEntity
  8
HIKIDASI
160
               564
310
34020000150000000C00000016000000000000C00C00000033000000000000000C00000013000000993A0000DC0000002600000064B369C8E4848040D175424F2CC66440000000000000000000000000000000000000000000000000000000000000F03F000000000000F03F00000000000000000000000000000000D289E2
310
6C08FF25521490E55D8B4E09FF0000320008000000010000000000000000001440000000000000F03F0000000000000000000000000000F03F000000000000000000000000000000000000000000000000000000000100000000000000000000007400780074002E00730068007800000065007800740066006F006E007400
310
2E0073006800780000000C00000033000000000000000C00000010000000070000000C00000016000000000000C00C00000012000000FF7F00000C00000013000000010000000C00000013000000891300003C0000000600000002000000182C7FB30CBD7F40761044D62D1969400000000000000000429147A6C2728040CD
310
75424F2C16654000000000000000000C00000013000000112700003C0000000600000002000000429147A6C2728040CD75424F2C16654000000000000000000F5E14738F778040CD75424F2C16654000000000000000000C00000016000000000000C00C00000012000000FF7F00000C00000017000000000000000C000000
310
130000009A3A00000C00000016000000000000C00C00000012000000FF7F00000C00000017000000FFFFFFFF0C0000003300000000000000
100
AcDbMLeader
270
     2
300
CONTEXT_DATA{
 40
1.0
 10
526.9450437155918
 20
168.6929088876772
 30
0.0
 41
5.0
140
0.0
145
2.0
174
     1
175
     3
176
     0
177
     0
290
     1
304
角波（別途工事）
 11
0.0
 21
0.0
 31
1.0
340
10
 12
528.9450437155919
 22
171.1929088876773
 32
0.0
 13
1.0
 23
0.0
 33
0.0
 42
0.0
 43
0.0
 44
0.0
 45
1.0
170
     1
 90
-1073741824
171
     1
172
     5
 91
-1073741824
141
0.0
 92
        0
291
     0
292
     0
173
     0
293
     0
142
0.0
143
0.0
294
     0
295
     0
296
     0
110
507.8156008689561
120
200.786845333994
130
0.0
111
1.0
121
0.0
131
0.0
112
0.0
122
1.0
132
0.0
297
     0
302
LEADER{
290
     1
291
     1
 10
526.3450437155918
 20
168.6929088876772
 30
0.0
 11
1.0
 21
0.0
 31
0.0
 90
        0
 40
0.6
304
LEADER_LINE{
 10
507.8156008689561
 20
200.786845333994
 30
0.0
 91
        0
305
}
271
     0
303
}
272
     9
273
     9
301
}
340
2708
 90
   279552
170
     1
 91
-1056964608
341
14
171
    -2
290
     1
291
     1
 41
0.6
342
B0
 42
0.0
172
     2
343
10
173
     1
 95
        3
174
     1
175
     0
 92
-1056964608
292
     0
 93
-1056964608
 10
1.0
 20
1.0
 30
1.0
 43
0.0
176
     0
293
     0
294
     0
178
     0
179
     1
 45
1.0
271
     0
272
     9
273
     9
  0
MULTILEADER
  5
57CC
330
1A
100
AcDbEntity
  8
HIKIDASI
160
               572
310
3C020000150000000C00000016000000000000C00C00000033000000000000000C00000013000000993A0000E400000026000000735FBF6433796840ABD533A9192D7840000000000000000000000000000000000000000000000000000000000000F03F000000000000F03F00000000000000000000000000000000D030C3
310
30AF30A230C330D730506708FF25521490E55D8B4E09FF00000D000000010000000000000000001440000000000000F03F0000000000000000000000000000F03F000000000000000000000000000000000000000000000000000000000100000000000000000000007400780074002E007300680078000000650078007400
310
66006F006E0074002E0073006800780000000C00000033000000000000000C00000010000000070000000C00000016000000000000C00C00000012000000FF7F00000C00000013000000010000000C00000013000000891300003C00000006000000020000009FFEFC1E2FAC734068F7E4788FB573400000000000000000FE
310
F3A3F6DD007140ABD533A91955784000000000000000000C00000013000000112700003C0000000600000002000000FEF3A3F6DD007140ABD533A9195578400000000000000000645A0A5D44F77040ABD533A91955784000000000000000000C00000016000000000000C00C00000012000000FF7F00000C00000017000000
310
000000000C000000130000009A3A00000C00000016000000000000C00C00000012000000FF7F00000C00000017000000FFFFFFFF0C0000003300000000000000
100
AcDbMLeader
270
     2
300
CONTEXT_DATA{
 40
1.0
 10
194.4541902927797
 20
389.3187648796835
 30
0.0
 41
5.0
140
0.0
145
2.0
174
     1
175
     3
176
     2
177
     0
290
     1
304
バックアップ材（別途工事）
 11
0.0
 21
0.0
 31
1.0
340
10
 12
269.4541902927797
 22
391.8187648796835
 32
0.0
 13
1.0
 23
0.0
 33
0.0
 42
0.0
 43
0.0
 44
0.0
 45
1.0
170
     1
 90
-1073741824
171
     3
172
     5
 91
-1073741824
141
0.0
 92
        0
291
     0
292
     0
173
     0
293
     0
142
0.0
143
0.0
294
     0
295
     0
296
     0
110
314.7615041620829
120
315.3475274032594
130
0.0
111
1.0
121
0.0
131
0.0
112
0.0
122
1.0
132
0.0
297
     0
302
LEADER{
290
     1
291
     1
 10
272.0541902927797
 20
389.3187648796835
 30
0.0
 11
-1.0
 21
0.0
 31
0.0
 90
        0
 40
0.6
304
LEADER_LINE{
 10
314.7615041620829
 20
315.3475274032594
 30
0.0
 91
        0
305
}
271
     0
303
}
272
     9
273
     9
301
}
340
2708
 90
   279552
170
     1
 91
-1056964608
341
14
171
    -2
290
     1
291
     1
 41
0.6
342
B0
 42
0.0
172
     2
343
10
173
     1
 95
        3
174
     1
175
     2
 92
-1056964608
292
     0
 93
-1056964608
 10
1.0
 20
1.0
 30
1.0
 43
0.0
176
     0
293
     0
294
     0
178
     0
179
     3
 45
1.0
271
     0
272
     9
273
     9
  0
MULTILEADER
  5
57CF
330
1A
100
AcDbEntity
  8
HIKIDASI
160
               568
310
38020000150000000C00000016000000000000C00C00000033000000000000000C00000013000000993A0000E00000002600000076295617779A6D40796E26EBDD486540000000000000000000000000000000000000000000000000000000000000F03F000000000000F03F0000000000000000000000000000000010806B
310
70F430A130F330C93032FF3AFF17FF15FF36FF00000B000000010000000000000000001440000000000000F03F0000000000000000000000000000F03F000000000000000000000000000000000000000000000000000000000100000000000000000000007400780074002E00730068007800000065007800740066006F00
310
6E0074002E0073006800780000000C00000033000000000000000C00000010000000070000000C00000016000000000000C00C00000012000000FF7F00000C00000013000000010000000C00000013000000891300003C000000060000000200000086E5D1A974F373402531B4A0FA036940000000000000000055AE4425D5
310
F67240796E26EBDD98654000000000000000000C00000013000000112700003C000000060000000200000055AE4425D5F67240796E26EBDD9865400000000000000000BB14AB8B3BED7240796E26EBDD98654000000000000000000C00000016000000000000C00C00000012000000FF7F00000C0000001700000000000000
310
0C000000130000009A3A00000C00000016000000000000C00C00000012000000FF7F00000C00000017000000FFFFFFFF0C0000003300000000000000
100
AcDbMLeader
270
     2
300
CONTEXT_DATA{
 40
1.0
 10
234.8270374949313
 20
172.777089667379
 30
0.0
 41
5.0
140
0.0
145
2.0
174
     1
175
     3
176
     2
177
     0
290
     1
304
耐火ヴァンドＲＺ７５Ｖ
 11
0.0
 21
0.0
 31
1.0
340
10
 12
300.8270374949313
 22
175.277089667379
 32
0.0
 13
1.0
 23
0.0
 33
0.0
 42
0.0
 43
0.0
 44
0.0
 45
1.0
170
     1
 90
-1073741824
171
     3
172
     5
 91
-1073741824
141
0.0
 92
        0
291
     0
292
     0
173
     0
293
     0
142
0.0
143
0.0
294
     0
295
     0
296
     0
110
319.2159822653851
120
200.124344207704
130
0.0
111
1.0
121
0.0
131
0.0
112
0.0
122
1.0
132
0.0
297
     0
302
LEADER{
290
     1
291
     1
 10
303.4270374949313
 20
172.777089667379
 30
0.0
 11
-1.0
 21
0.0
 31
0.0
 90
        0
 40
0.6
304
LEADER_LINE{
 10
319.2159822653851
 20
200.124344207704
 30
0.0
 91
        0
305
}
271
     0
303
}
272
     9
273
     9
301
}
340
2708
 90
   279552
170
     1
 91
-1056964608
341
14
171
    -2
290
     1
291
     1
 41
0.6
342
B0
 42
0.0
172
     2
343
10
173
     1
 95
        3
174
     1
175
     2
 92
-1056964608
292
     0
 93
-1056964608
 10
1.0
 20
1.0
 30
1.0
 43
0.0
176
     0
293
     0
294
     0
178
     0
179
     3
 45
1.0
271
     0
272
     9
273
     9
  0
MULTILEADER
  5
57D0
330
1A
100
AcDbEntity
  8
HIKIDASI
160
               572
310
3C020000150000000C00000016000000000000C00C00000033000000000000000C00000013000000993A0000E400000026000000180774AE6D816940207181621F616C40000000000000000000000000000000000000000000000000000000000000F03F000000000000F03F0000000000000000000000000000000039544D
310
300A4E4C308A303296626BB730FC30EA30F330B0303B2000000D000000010000000000000000001440000000000000F03F0000000000000000000000000000F03F000000000000000000000000000000000000000000000000000000000100000000000000000000007400780074002E007300680078000000650078007400
310
66006F006E0074002E0073006800780000000C00000033000000000000000C00000010000000070000000C00000016000000000000C00C00000012000000FF7F00000C00000013000000010000000C00000013000000891300003C00000006000000020000002F4C32900C3B74405B5C930A4CD372400000000000000000D0
310
477E1BFBA471401C7181621FB16C4000000000000000000C00000013000000112700003C0000000600000002000000D0477E1BFBA471401C7181621FB16C40000000000000000036AEE481619B71401C7181621FB16C4000000000000000000C00000016000000000000C00C00000012000000FF7F00000C00000017000000
310
000000000C000000130000009A3A00000C00000016000000000000C00C00000012000000FF7F00000C00000017000000FFFFFFFF0C0000003300000000000000
100
AcDbMLeader
270
     2
300
CONTEXT_DATA{
 40
1.0
 10
202.0446388498464
 20
229.5350811508332
 30
0.0
 41
5.0
140
0.0
145
2.0
174
     1
175
     3
176
     2
177
     0
290
     1
304
吹き上がり防止シーリング※
 11
0.0
 21
0.0
 31
1.0
340
10
 12
279.7113055165131
 22
232.0350811508333
 32
0.0
 13
1.0
 23
0.0
 33
0.0
 42
0.0
 43
0.0
 44
0.0
 45
1.0
170
     1
 90
-1073741824
171
     3
172
     5
 91
-1073741824
141
0.0
 92
        0
291
     0
292
     0
173
     0
293
     0
142
0.0
143
0.0
294
     0
295
     0
296
     0
110
323.6905672039747
120
301.2060647732048
130
0.0
111
1.0
121
0.0
131
0.0
112
0.0
122
1.0
132
0.0
297
     0
302
LEADER{
290
     1
291
     1
 10
282.3113055165131
 20
229.5350811508332
 30
0.0
 11
-1.0
 21
0.0
 31
0.0
 90
        0
 40
0.6
304
LEADER_LINE{
 10
323.6905672039747
 20
301.2060647732048
 30
0.0
 91
        0
305
}
271
     0
303
}
272
     9
273
     9
301
}
340
2708
 90
   279552
170
     1
 91
-1056964608
341
14
171
    -2
290
     1
291
     1
 41
0.6
342
B0
 42
0.0
172
     2
343
10
173
     1
 95
        3
174
     1
175
     2
 92
-1056964608
292
     0
 93
-1056964608
 10
1.0
 20
1.0
 30
1.0
 43
0.0
176
     0
293
     0
294
     0
178
     0
179
     3
 45
1.0
271
     0
272
     9
273
     9
  0
MULTILEADER
  5
5834
330
1A
100
AcDbEntity
  8
HIKIDASI
160
               564
310
34020000150000000C00000016000000000000C00C00000033000000000000000C00000013000000993A0000DC00000026000000222AC79F0B0B6C40958EDFEF327A7940000000000000000000000000000000000000000000000000000000000000F03F000000000000F03F000000000000000000000000000000004B3093
310
300854E890D130C330AD30F33033FF000009000000010000000000000000001440000000000000F03F0000000000000000000000000000F03F000000000000000000000000000000000000000000000000000000000100000000000000000000007400780074002E00730068007800000065007800740066006F006E007400
310
2E0073006800780000000C00000033000000000000000C00000010000000070000000C00000016000000000000C00C00000012000000FF7F00000C00000013000000010000000C00000013000000891300003C000000060000000200000007EE2C3CE35074401FC78B455AA474400000000000000000AC2E7D691F6F714095
310
8EDFEF32A2794000000000000000000C00000013000000112700003C0000000600000002000000AC2E7D691F6F7140958EDFEF32A2794000000000000000001295E3CF85657140958EDFEF32A2794000000000000000000C00000016000000000000C00C00000012000000FF7F00000C00000017000000000000000C000000
310
130000009A3A00000C00000016000000000000C00C00000012000000FF7F00000C00000017000000FFFFFFFF0C0000003300000000000000
100
AcDbMLeader
270
     2
300
CONTEXT_DATA{
 40
1.0
 10
222.3451689615187
 20
410.1374357922262
 30
0.0
 41
5.0
140
0.0
145
2.0
174
     1
175
     3
176
     2
177
     0
290
     1
304
かん合部パッキンＳ
 11
0.0
 21
0.0
 31
1.0
340
10
 12
276.3451689615187
 22
412.6374357922261
 32
0.0
 13
1.0
 23
0.0
 33
0.0
 42
0.0
 43
0.0
 44
0.0
 45
1.0
170
     1
 90
-1073741824
171
     3
172
     5
 91
-1073741824
141
0.0
 92
        0
291
     0
292
     0
173
     0
293
     0
142
0.0
143
0.0
294
     0
295
     0
296
     0
110
325.0554773097105
120
330.2720389804908
130
0.0
111
1.0
121
0.0
131
0.0
112
0.0
122
1.0
132
0.0
297
     0
302
LEADER{
290
     1
291
     1
 10
278.9451689615187
 20
410.1374357922262
 30
0.0
 11
-1.0
 21
0.0
 31
0.0
 90
        0
 40
0.6
304
LEADER_LINE{
 10
325.0554773097105
 20
330.2720389804908
 30
0.0
 91
        0
305
}
271
     0
303
}
272
     9
273
     9
301
}
340
2708
 90
   279552
170
     1
 91
-1056964608
341
14
171
    -2
290
     1
291
     1
 41
0.6
342
B0
 42
0.0
172
     2
343
10
173
     1
 95
        3
174
     1
175
     2
 92
-1056964608
292
     0
 93
-1056964608
 10
1.0
 20
1.0
 30
1.0
 43
0.0
176
     0
293
     0
294
     0
178
     0
179
     3
 45
1.0
271
     0
272
     9
273
     9
  0
MULTILEADER
  5
5836
330
1A
100
AcDbEntity
  8
HIKIDASI
160
               568
310
38020000150000000C00000016000000000000C00C00000033000000000000000C00000013000000993A0000E00000002600000047DE7F2C396E6C400C409F6B68597040000000000000000000000000000000000000000000000000000000000000F03F000000000000F03F00000000000000000000000000000000B730FC
310
30EA30F330B03008FF25521490E55D8B4E09FF00000B000000010000000000000000001440000000000000F03F0000000000000000000000000000F03F000000000000000000000000000000000000000000000000000000000100000000000000000000007400780074002E00730068007800000065007800740066006F00
310
6E0074002E0073006800780000000C00000033000000000000000C00000010000000070000000C00000016000000000000C00C00000012000000FF7F00000C00000013000000010000000C00000013000000891300003C0000000600000002000000208C49930BB473409F95D566D00D73400000000000000000683384DA60
310
3B72400A409F6B6881704000000000000000000C00000013000000112700003C0000000600000002000000683384DA603B72400A409F6B688170400000000000000000CE99EA40C73172400A409F6B6881704000000000000000000C00000016000000000000C00C00000012000000FF7F00000C0000001700000000000000
310
0C000000130000009A3A00000C00000016000000000000C00C00000012000000FF7F00000C00000017000000FFFFFFFF0C0000003300000000000000
100
AcDbMLeader
270
     2
300
CONTEXT_DATA{
 40
1.0
 10
226.1111458934874
 20
264.0879932614049
 30
0.0
 41
5.0
140
0.0
145
2.0
174
     1
175
     3
176
     2
177
     0
290
     1
304
シーリング（別途工事）
 11
0.0
 21
0.0
 31
1.0
340
10
 12
289.1111458934873
 22
266.587993261405
 32
0.0
 13
1.0
 23
0.0
 33
0.0
 42
0.0
 43
0.0
 44
0.0
 45
1.0
170
     1
 90
-1073741824
171
     3
172
     5
 91
-1073741824
141
0.0
 92
        0
291
     0
292
     0
173
     0
293
     0
142
0.0
143
0.0
294
     0
295
     0
296
     0
110
315.2528260109848
120
304.8633793204444
130
0.0
111
1.0
121
0.0
131
0.0
112
0.0
122
1.0
132
0.0
297
     0
302
LEADER{
290
     1
291
     1
 10
291.7111458934873
 20
264.0879932614049
 30
0.0
 11
-1.0
 21
0.0
 31
0.0
 90
        0
 40
0.6
304
LEADER_LINE{
 10
315.2528260109848
 20
304.8633793204444
 30
0.0
 91
        0
305
}
271
     0
303
}
272
     9
273
     9
301
}
340
2708
 90
   279552
170
     1
 91
-1056964608
341
14
171
    -2
290
     1
291
     1
 41
0.6
342
B0
 42
0.0
172
     2
343
10
173
     1
 95
        3
174
     1
175
     2
 92
-1056964608
292
     0
 93
-1056964608
 10
1.0
 20
1.0
 30
1.0
 43
0.0
176
     0
293
     0
294
     0
178
     0
179
     3
 45
1.0
271
     0
272
     9
273
     9
  0
MULTILEADER
  5
5837
330
1A
100
AcDbEntity
  8
HIKIDASI
160
               572
310
3C020000150000000C00000016000000000000C00C00000033000000000000000C00000013000000993A0000E40000002600000010F417F7F3796B4064C84DC7D9CD6840000000000000000000000000000000000000000000000000000000000000F03F000000000000F03F00000000000000000000000000000000025C28
310
75D330B930003034FF37FF2CFF16FF19FF10FF2EFF000000000C000000010000000000000000001440000000000000F03F0000000000000000000000000000F03F000000000000000000000000000000000000000000000000000000000100000000000000000000007400780074002E007300680078000000650078007400
310
66006F006E0074002E0073006800780000000C00000033000000000000000C00000010000000070000000C00000016000000000000C00C00000012000000FF7F00000C00000013000000010000000C00000013000000891300003C000000060000000200000006BD5F4E5D3975406FD6E6A841AA71400000000000000000A2
310
9325959346724064C84DC7D91D694000000000000000000C00000013000000112700003C0000000600000002000000A29325959346724064C84DC7D91D6940000000000000000008FA8BFBF93C724064C84DC7D91D694000000000000000000C00000016000000000000C00C00000012000000FF7F00000C00000017000000
310
000000000C000000130000009A3A00000C00000016000000000000C00C00000012000000FF7F00000C00000017000000FFFFFFFF0C0000003300000000000000
100
AcDbMLeader
270
     2
300
CONTEXT_DATA{
 40
1.0
 10
217.8110309093322
 20
200.9328342932887
 30
0.0
 41
5.0
140
0.0
145
2.0
174
     1
175
     3
176
     2
177
     0
290
     1
304
専用ビス　ＴＷＬ６９０Ｎ
 11
0.0
 21
0.0
 31
1.0
340
10
 12
289.8110309093322
 22
203.4328342932887
 32
0.0
 13
1.0
 23
0.0
 33
0.0
 42
0.0
 43
0.0
 44
0.0
 45
1.0
170
     1
 90
-1073741824
171
     3
172
     5
 91
-1073741824
141
0.0
 92
        0
291
     0
292
     0
173
     0
293
     0
142
0.0
143
0.0
294
     0
295
     0
296
     0
110
339.5852798213749
120
282.6410302178473
130
0.0
111
1.0
121
0.0
131
0.0
112
0.0
122
1.0
132
0.0
297
     0
302
LEADER{
290
     1
291
     1
 10
292.4110309093322
 20
200.9328342932887
 30
0.0
 11
-1.0
 21
0.0
 31
0.0
 90
        0
 40
0.6
304
LEADER_LINE{
 10
339.5852798213749
 20
282.6410302178473
 30
0.0
 91
        0
305
}
271
     0
303
}
272
     9
273
     9
301
}
340
2708
 90
   279552
170
     1
 91
-1056964608
341
14
171
    -2
290
     1
291
     1
 41
0.6
342
B0
 42
0.0
172
     2
343
10
173
     1
 95
        3
174
     1
175
     2
 92
-1056964608
292
     0
 93
-1056964608
 10
1.0
 20
1.0
 30
1.0
 43
0.0
176
     0
293
     0
294
     0
178
     0
179
     3
 45
1.0
271
     0
272
     9
273
     9
  0
MTEXT
  5
5BD0
102
{ACAD_XDICTIONARY
360
5BD1
102
}
330
1A
100
AcDbEntity
  8
WAKU
100
AcDbMText
 10
124.3245405690059
 20
23.21985646788335
 30
0.0
 40
5.0
 41
130.7517663064795
 46
0.0
 71
     1
 72
     5
  1
\pi17.11446;アイジーヴァンド参考ディテール
  7
WAKU
 73
     1
 44
1.0
  0
MTEXT
  5
5BD2
102
{ACAD_XDICTIONARY
360
5BD3
102
}
330
1A
100
AcDbEntity
  8
WAKU
100
AcDbMText
 10
34.05004475349506
 20
23.21985646788335
 30
0.0
 40
5.0
 41
71.82723587241572
 46
0.0
 71
     1
 72
     5
  1
\pi3.9593;アイジー工業株式会社
  7
WAKU
 73
     1
 44
1.0
  0
LINE
  5
5C0A
330
1A
100
AcDbEntity
  8
TEKUSU
  6
CENTER2
370
     5
100
AcDbLine
 10
320.8123327653839
 20
283.7447493714835
 30
-0.0000000000000019
 11
420.900377572395
 21
283.7447493714835
 31
-0.0000000000000019
  0
LINE
  5
5C0B
330
1A
100
AcDbEntity
  8
TEKUSU
  6
Continuous
100
AcDbLine
 10
328.215982265384
 20
291.2447493714835
 30
-0.0000000000000019
 11
328.7159822653885
 21
291.2447493714835
 31
-0.0000000000000019
  0
LINE
  5
5C0C
330
1A
100
AcDbEntity
  8
TEKUSU
  6
Continuous
100
AcDbLine
 10
328.215982265384
 20
276.2447493714871
 30
-0.0000000000000019
 11
328.715982265383
 21
276.2447493714871
 31
-0.0000000000000019
  0
LINE
  5
5C0D
330
1A
100
AcDbEntity
  8
TEKUSU
  6
DASHED2
 48
0.5
100
AcDbLine
 10
330.1031484617188
 20
286.3147493714832
 30
-0.0000000000000019
 11
360.8555496941463
 21
286.3147493714878
 31
-0.0000000000000019
  0
LINE
  5
5C0E
330
1A
100
AcDbEntity
  8
TEKUSU
  6
DASHED2
 48
0.5
100
AcDbLine
 10
326.465982265384
 20
276.2447493714835
 30
-0.0000000000000019
 11
326.465982265384
 21
291.2447493714835
 31
-0.0000000000000019
  0
LINE
  5
5C0F
330
1A
100
AcDbEntity
  8
TEKUSU
  6
DASHED2
 48
0.5
100
AcDbLine
 10
327.7159822653839
 20
275.7447493714835
 30
-0.0000000000000019
 11
326.965982265384
 21
275.7447493714835
 31
-0.0000000000000019
  0
LINE
  5
5C10
330
1A
100
AcDbEntity
  8
TEKUSU
  6
DASHED2
 48
0.5
100
AcDbLine
 10
327.7159822653839
 20
291.7447493714835
 30
-0.0000000000000019
 11
326.965982265384
 21
291.7447493714835
 31
-0.0000000000000019
  0
LINE
  5
5C11
330
1A
100
AcDbEntity
  8
TEKUSU
  6
DASHED2
 48
0.5
100
AcDbLine
 10
328.215982265384
 20
276.2447493714835
 30
-0.0000000000000019
 11
328.215982265384
 21
291.2447493714835
 31
-0.0000000000000019
  0
ARC
  5
5C12
330
1A
100
AcDbEntity
  8
TEKUSU
  6
DASHED2
 48
0.5
100
AcDbCircle
 10
338.1547753688311
 20
283.7447493714872
 30
-0.0000000000000019
 40
13.13879310344826
100
AcDbArc
 50
152.8280175842386
 51
207.1719824157614
  0
ARC
  5
5C13
330
1A
100
AcDbEntity
  8
TEKUSU
  6
DASHED2
 48
0.5
100
AcDbCircle
 10
327.7159822653839
 20
291.2447493714881
 30
-0.0000000000000019
 40
0.5
100
AcDbArc
 50
0.0
 51
90.0
1001
GENIUS_GENOBJ-N-FIL_13
1002
{
1000
OWNER
1000
GEN
1002
}
1001
GENIUS_GENODEF_13
1002
{
1000
HIER
1070
     0
1002
}
1002
{
1000
MANEDIT
1070
     0
1002
}
1002
{
1000
NOSEL
1070
     0
1002
}
1002
{
1000
BEHIND
1070
     0
1002
}
1002
{
1000
OTHER
1070
     0
1002
}
1002
{
1000
REACTOR
1002
}
  0
ARC
  5
5C14
330
1A
100
AcDbEntity
  8
TEKUSU
  6
DASHED2
 48
0.5
100
AcDbCircle
 10
327.7159822653839
 20
276.2447493714871
 30
-0.0000000000000019
 40
0.5
100
AcDbArc
 50
270.0
 51
0.0
1001
GENIUS_GENOBJ-N-FIL_13
1002
{
1000
OWNER
1000
GEN
1002
}
1001
GENIUS_GENODEF_13
1002
{
1000
HIER
1070
     0
1002
}
1002
{
1000
MANEDIT
1070
     0
1002
}
1002
{
1000
NOSEL
1070
     0
1002
}
1002
{
1000
BEHIND
1070
     0
1002
}
1002
{
1000
OTHER
1070
     0
1002
}
1002
{
1000
REACTOR
1002
}
  0
ARC
  5
5C15
330
1A
100
AcDbEntity
  8
TEKUSU
  6
DASHED2
 48
0.5
100
AcDbCircle
 10
326.965982265384
 20
276.2447493714871
 30
-0.0000000000000019
 40
0.5
100
AcDbArc
 50
180.0
 51
270.0
1001
GENIUS_GENODEF_13
1002
{
1000
HIER
1070
     0
1002
}
1002
{
1000
MANEDIT
1070
     0
1002
}
1002
{
1000
NOSEL
1070
     0
1002
}
1002
{
1000
BEHIND
1070
     0
1002
}
1002
{
1000
OTHER
1070
     0
1002
}
1002
{
1000
REACTOR
1002
}
1001
GENIUS_GENOBJ-N-FIL_13
1002
{
1000
OWNER
1000
GEN
1002
}
  0
ARC
  5
5C16
330
1A
100
AcDbEntity
  8
TEKUSU
  6
DASHED2
 48
0.5
100
AcDbCircle
 10
326.965982265384
 20
291.2447493714881
 30
-0.0000000000000019
 40
0.5
100
AcDbArc
 50
90.0
 51
180.0
1001
GENIUS_GENOBJ-N-FIL_13
1002
{
1000
OWNER
1000
GEN
1002
}
1001
GENIUS_GENODEF_13
1002
{
1000
HIER
1070
     0
1002
}
1002
{
1000
MANEDIT
1070
     0
1002
}
1002
{
1000
NOSEL
1070
     0
1002
}
1002
{
1000
BEHIND
1070
     0
1002
}
1002
{
1000
OTHER
1070
     0
1002
}
1002
{
1000
REACTOR
1002
}
  0
LINE
  5
5C17
330
1A
100
AcDbEntity
  8
TEKUSU
  6
DASHED2
 48
0.5
100
AcDbLine
 10
330.1031484617188
 20
281.1747493714847
 30
-0.0000000000000019
 11
360.8555496941463
 21
281.1747493714884
 31
-0.0000000000000019
  0
LINE
  5
5C18
330
1A
100
AcDbEntity
  8
TEKUSU
  6
DASHED2
 48
0.5
100
AcDbLine
 10
328.2159823716711
 20
280.2947493714828
 30
-0.0000000000000019
 11
330.1031484617188
 21
281.1747493714847
 31
-0.0000000000000019
  0
LINE
  5
5C19
330
1A
100
AcDbEntity
  8
TEKUSU
  6
DASHED2
 48
0.5
100
AcDbLine
 10
328.2159823716711
 20
287.1947493714842
 30
-0.0000000000000019
 11
330.1031484617188
 21
286.3147493714832
 31
-0.0000000000000019
  0
LINE
  5
5C1A
330
1A
100
AcDbEntity
  8
TEKUSU
  6
DASHED2
 48
0.5
100
AcDbLine
 10
330.1031484617188
 20
286.3147493714832
 30
-0.0000000000000019
 11
330.1031484617188
 21
281.1747493714847
 31
-0.0000000000000019
  0
LINE
  5
5C1B
330
1A
100
AcDbEntity
  8
TEKUSU
100
AcDbLine
 10
411.7159822653839
 20
280.4947493714835
 30
-0.0000000000000019
 11
411.7159822653839
 21
286.9947493714835
 31
-0.0000000000000019
  0
LINE
  5
5C1C
330
1A
100
AcDbEntity
  8
TEKUSU
  6
DASHED2
 48
0.5
100
AcDbLine
 10
360.8555496941463
 20
280.4947493714835
 30
-0.0000000000000019
 11
360.8555496941463
 21
286.9947493714835
 31
-0.0000000000000019
  0
LINE
  5
5C1D
330
1A
100
AcDbEntity
  8
TEKUSU
100
AcDbLine
 10
416.1158493716712
 20
286.3947493714822
 30
-0.0000000000000019
 11
411.7159822653849
 21
286.3947493714822
 31
-0.0000000000000019
  0
LINE
  5
5C1E
330
1A
100
AcDbEntity
  8
TEKUSU
100
AcDbLine
 10
418.3394632900409
 20
283.7447493714835
 30
-0.0000000000000019
 11
416.1158493716712
 21
286.3947493714822
 31
-0.0000000000000019
  0
LINE
  5
5C1F
330
1A
100
AcDbEntity
  8
TEKUSU
100
AcDbLine
 10
416.1158493716712
 20
281.0947493714821
 30
-0.0000000000000019
 11
411.7159822653849
 21
281.0947493714821
 31
-0.0000000000000019
  0
LINE
  5
5C20
330
1A
100
AcDbEntity
  8
TEKUSU
100
AcDbLine
 10
416.1158493716712
 20
281.0947493714821
 30
-0.0000000000000019
 11
418.3394632900409
 21
283.7447493714835
 31
-0.0000000000000019
  0
LINE
  5
5C21
330
1A
100
AcDbEntity
  8
TEKUSU
  6
DASHED2
 48
0.5
100
AcDbLine
 10
399.0159855959701
 20
286.9947493714835
 30
-0.0000000000000019
 11
360.8555496941463
 21
286.9947493714835
 31
-0.0000000000000019
  0
LINE
  5
5C22
330
1A
100
AcDbEntity
  8
TEKUSU
  6
DASHED2
 48
0.5
100
AcDbLine
 10
399.0159855959701
 20
280.4947493714835
 30
-0.0000000000000019
 11
360.8555496941463
 21
280.4947493714835
 31
-0.0000000000000019
  0
LINE
  5
5C23
330
1A
100
AcDbEntity
  8
TEKUSU
100
AcDbLine
 10
411.7159822653839
 20
285.1574393335241
 30
-0.0000000000000019
 11
418.3394632900389
 21
283.7447493714835
 31
-0.0000000000000019
  0
LINE
  5
5C24
330
1A
100
AcDbEntity
  8
TEKUSU
100
AcDbLine
 10
328.7159822653885
 20
276.2447493714871
 30
-0.0000000000000019
 11
328.7159822653885
 21
291.2447493714835
 31
-0.0000000000000019
  0
LINE
  5
5C25
330
1A
100
AcDbEntity
  8
TEKUSU
100
AcDbLine
 10
399.0159855959701
 20
286.9947493714835
 30
-0.0000000000000019
 11
411.7159822653839
 21
286.9947493714835
 31
-0.0000000000000019
  0
LINE
  5
5C26
330
1A
100
AcDbEntity
  8
TEKUSU
100
AcDbLine
 10
399.0159855959701
 20
280.4947493714835
 30
-0.0000000000000019
 11
411.7159822653839
 21
280.4947493714831
 31
-0.0000000000000019
  0
MTEXT
  5
5D39
330
1A
100
AcDbEntity
  8
0
100
AcDbMText
 10
571.9382612843236
 20
51.59550985241631
 30
0.0
 40
5.0
 41
0.0
 46
0.0
 71
     4
 72
     1
  1
※　吹き上がり防止シーリングは捨て笠木とつながるように施してください。
 73
     1
 44
1.0
  0
VIEWPORT
  5
22
330
17
100
AcDbEntity
 67
     1
  8
0
348
26D8
100
AcDbViewport
 10
261.5176991150442
 20
154.7242978687078
 30
0.0
 40
523.0353982300885
 41
309.4485957374157
 68
     1
 69
     1
 12
261.5176991150442
 22
154.7242978687078
 13
0.0
 23
0.0
 14
1.0
 24
1.0
 15
10.0
 25
10.0
 16
0.0
 26
0.0
 36
1.0
 17
0.0
 27
0.0
 37
0.0
 42
50.0
 43
0.0
 44
0.0
 45
309.4485957374157
 50
0.0
 51
0.0
 72
   100
 90
    32768
  1

281
     0
 71
     1
 74
     0
110
0.0
120
0.0
130
0.0
111
1.0
121
0.0
131
0.0
112
0.0
122
1.0
132
0.0
 79
     0
146
0.0
170
     0
 61
     5
292
     1
282
     1
141
0.0
142
0.0
 63
   250
421
  3355443
  0
ENDSEC
  0
SECTION
  2
OBJECTS
  0
DICTIONARY
  5
C
330
0
100
AcDbDictionary
281
     1
  3
ACAD_CIP_PREVIOUS_PRODUCT_INFO
350
27A4
  3
ACAD_COLOR
350
3B0
  3
ACAD_DETAILVIEWSTYLE
350
286F
  3
ACAD_GROUP
350
D
  3
ACAD_LAYOUT
350
3B1
  3
ACAD_MATERIAL
350
3AF
  3
ACAD_MLEADERSTYLE
350
2707
  3
ACAD_MLINESTYLE
350
E
  3
ACAD_PLOTSETTINGS
350
3B2
  3
ACAD_PLOTSTYLENAME
350
3AD
  3
ACAD_SCALELIST
350
26E5
  3
ACAD_SECTIONVIEWSTYLE
350
286D
  3
ACAD_TABLESTYLE
350
26E3
  3
ACAD_VISUALSTYLE
350
26D2
  3
AcadDim
350
D85
  3
ACDB_RECOMPOSE_DATA
350
5DE0
  3
AcDbVariableDictionary
350
16B3
  0
DICTIONARY
  5
2728
330
8
100
AcDbDictionary
280
     1
281
     1
  0
DICTIONARY
  5
16F6
330
2
100
AcDbDictionary
280
     1
281
     1
  3
ACAD_LAYERFILTERS
360
20B3
  3
ACAD_LAYERSTATES
360
16F7
  0
DICTIONARY
  5
2718
330
F
100
AcDbDictionary
280
     1
281
     1
  3
ADSK_XREC_LAYER_RECONCILED
360
2719
  0
DICTIONARY
  5
271A
330
87
100
AcDbDictionary
280
     1
281
     1
  3
ADSK_XREC_LAYER_RECONCILED
360
271B
  0
DICTIONARY
  5
271C
330
1502
100
AcDbDictionary
280
     1
281
     1
  3
ADSK_XREC_LAYER_RECONCILED
360
271D
  0
DICTIONARY
  5
2369
330
2368
100
AcDbDictionary
280
     1
281
     1
  3
ADSK_XREC_LAYER_RECONCILED
360
236B
  0
DICTIONARY
  5
236D
330
236C
100
AcDbDictionary
280
     1
281
     1
  3
ADSK_XREC_LAYER_RECONCILED
360
236F
  0
DICTIONARY
  5
2371
330
2370
100
AcDbDictionary
280
     1
281
     1
  3
ADSK_XREC_LAYER_RECONCILED
360
2373
  0
DICTIONARY
  5
2375
330
2374
100
AcDbDictionary
280
     1
281
     1
  3
ADSK_XREC_LAYER_RECONCILED
360
2377
  0
DICTIONARY
  5
2720
330
2378
100
AcDbDictionary
280
     1
281
     1
  3
ADSK_XREC_LAYER_RECONCILED
360
2721
  0
DICTIONARY
  5
2722
330
237B
100
AcDbDictionary
280
     1
281
     1
  3
ADSK_XREC_LAYER_RECONCILED
360
2723
  0
DICTIONARY
  5
237F
330
237E
100
AcDbDictionary
280
     1
281
     1
  3
ADSK_XREC_LAYER_RECONCILED
360
2381
  0
DICTIONARY
  5
2383
330
2382
100
AcDbDictionary
280
     1
281
     1
  3
ADSK_XREC_LAYER_RECONCILED
360
2385
  0
DICTIONARY
  5
58DF
330
58DE
100
AcDbDictionary
280
     1
281
     1
  0
DICTIONARY
  5
27AF
330
1A
100
AcDbDictionary
280
     1
281
     1
  3
ACAD_SORTENTS
360
27B0
  0
DICTIONARY
  5
5D8C
330
1703
100
AcDbDictionary
280
     1
281
     1
  3
ACAD_MTEXT_2008_RT
360
5DDC
  0
DICTIONARY
  5
5BD1
330
5BD0
100
AcDbDictionary
280
     1
281
     1
  3
ACAD_MTEXT_2008_RT
360
5DDE
  0
DICTIONARY
  5
5BD3
330
5BD2
100
AcDbDictionary
280
     1
281
     1
  3
ACAD_MTEXT_2008_RT
360
5DDF
  0
XRECORD
  5
27A4
102
{ACAD_REACTORS
330
C
102
}
330
C
100
AcDbXrecord
280
     1
300
ACDLT
300
2017
300
86604ACDLT_2017_0F
  0
DICTIONARY
  5
3B0
102
{ACAD_REACTORS
330
C
102
}
330
C
100
AcDbDictionary
281
     1
  0
DICTIONARY
  5
286F
102
{ACAD_REACTORS
330
C
102
}
330
C
100
AcDbDictionary
281
     1
  3
Metric50
350
2870
  0
DICTIONARY
  5
D
102
{ACAD_REACTORS
330
C
102
}
330
C
100
AcDbDictionary
281
     1
  0
DICTIONARY
  5
3B1
102
{ACAD_REACTORS
330
C
102
}
330
C
100
AcDbDictionary
281
     1
  3
Model
350
3B3
  3
レイアウト1
350
3B4
  0
DICTIONARY
  5
3AF
102
{ACAD_REACTORS
330
C
102
}
330
C
100
AcDbDictionary
281
     1
  3
ByBlock
350
26CA
  3
ByLayer
350
26C2
  3
Global
350
16F3
  0
DICTIONARY
  5
2707
102
{ACAD_REACTORS
330
C
102
}
330
C
100
AcDbDictionary
281
     1
  3
Standard
350
2708
  0
DICTIONARY
  5
E
102
{ACAD_REACTORS
330
C
102
}
330
C
100
AcDbDictionary
281
     1
  3
STANDARD
350
13
  0
DICTIONARY
  5
3B2
102
{ACAD_REACTORS
330
C
102
}
330
C
100
AcDbDictionary
281
     1
  0
ACDBDICTIONARYWDFLT
  5
3AD
102
{ACAD_REACTORS
330
C
102
}
330
C
100
AcDbDictionary
281
     1
  3
Normal
350
3AE
100
AcDbDictionaryWithDefault
340
3AE
  0
DICTIONARY
  5
26E5
102
{ACAD_REACTORS
330
C
102
}
330
C
100
AcDbDictionary
281
     1
  3
A0
350
26E6
  3
A1
350
26E7
  3
A2
350
26E8
  3
A3
350
26E9
  3
A4
350
26EA
  3
A5
350
26EB
  3
A6
350
26EC
  3
A7
350
26ED
  3
A8
350
26EE
  3
A9
350
26EF
  3
B0
350
26F0
  3
B1
350
26F1
  3
B2
350
26F2
  3
B3
350
26F3
  3
B4
350
26F4
  3
B5
350
26F5
  3
B6
350
26F6
  3
B7
350
26F7
  3
B8
350
26F8
  3
B9
350
26F9
  3
C0
350
26FA
  3
C1
350
26FB
  3
C2
350
26FC
  3
C3
350
26FD
  3
C4
350
26FE
  3
C5
350
26FF
  3
C6
350
2700
  3
C7
350
2701
  3
C8
350
2702
  3
C9
350
2703
  3
D0
350
2704
  3
D1
350
2705
  3
D2
350
2706
  0
DICTIONARY
  5
286D
102
{ACAD_REACTORS
330
C
102
}
330
C
100
AcDbDictionary
281
     1
  3
Metric50
350
286E
  0
DICTIONARY
  5
26E3
102
{ACAD_REACTORS
330
C
102
}
330
C
100
AcDbDictionary
281
     1
  3
Standard
350
26E4
  0
DICTIONARY
  5
26D2
102
{ACAD_REACTORS
330
C
102
}
330
C
100
AcDbDictionary
281
     1
  3
2dWireframe
350
26D8
  3
3D Hidden
350
26DA
  3
3dWireframe
350
26D9
  3
Basic
350
26D7
  3
Brighten
350
26DE
  3
ColorChange
350
26E2
  3
Conceptual
350
26DB
  3
Dim
350
26DD
  3
EdgeColorOff
350
279E
  3
Facepattern
350
26E1
  3
Flat
350
26D3
  3
FlatWithEdges
350
26D4
  3
Gouraud
350
26D5
  3
GouraudWithEdges
350
26D6
  3
Hidden
350
2796
  3
JitterOff
350
279C
  3
Linepattern
350
26E0
  3
OverhangOff
350
279D
  3
Realistic
350
26DC
  3
Shaded
350
279B
  3
Shaded with edges
350
279A
  3
Shades of Gray
350
2797
  3
Sketchy
350
2798
  3
Thicken
350
26DF
  3
Wireframe
350
2795
  3
X-Ray
350
2799
  0
XRECORD
  5
D85
102
{ACAD_REACTORS
330
C
102
}
330
C
100
AcDbXrecord
280
     1
 90
   990106
  3
NONE
 60
     0
 61
     0
 62
     1
 63
     3
 64
     0
 65
     0
 66
     0
 67
     3
 68
     1
 69
     0
 70
     4
 71
     4
 72
     0
 40
0.0
170
     1
340
0
  0
XRECORD
  5
5DE0
102
{ACAD_REACTORS
330
C
102
}
330
C
100
AcDbXrecord
280
     1
 90
        1
330
1703
330
26E4
330
5BD0
330
5BD2
  0
DICTIONARY
  5
16B3
102
{ACAD_REACTORS
330
C
102
}
330
C
100
AcDbDictionary
281
     1
  3
CANNOSCALE
350
2745
  3
CMLEADERSTYLE
350
2744
  3
CTABLESTYLE
350
2743
  3
CVIEWDETAILSTYLE
350
28EA
  3
CVIEWSECTIONSTYLE
350
28EB
  3
DIMASSOC
350
16B4
  3
INDEXCTL
350
2747
  3
LAYEREVAL
350
4E61
  3
LAYERNOTIFY
350
4E62
  3
LIGHTINGUNITS
350
4E60
  3
MSLTSCALE
350
4E5F
  3
PROJECTNAME
350
16B5
  3
SORTENTS
350
2746
  0
DICTIONARY
  5
20B3
102
{ACAD_REACTORS
330
16F6
102
}
330
16F6
100
AcDbDictionary
281
     1
  0
DICTIONARY
  5
16F7
102
{ACAD_REACTORS
330
16F6
102
}
330
16F6
100
AcDbDictionary
281
     1
  0
XRECORD
  5
2719
102
{ACAD_REACTORS
330
2718
102
}
330
2718
100
AcDbXrecord
280
     1
290
     1
  0
XRECORD
  5
271B
102
{ACAD_REACTORS
330
271A
102
}
330
271A
100
AcDbXrecord
280
     1
290
     1
  0
XRECORD
  5
271D
102
{ACAD_REACTORS
330
271C
102
}
330
271C
100
AcDbXrecord
280
     1
290
     1
  0
XRECORD
  5
236B
102
{ACAD_REACTORS
330
2369
102
}
330
2369
100
AcDbXrecord
280
     1
290
     1
  0
XRECORD
  5
236F
102
{ACAD_REACTORS
330
236D
102
}
330
236D
100
AcDbXrecord
280
     1
290
     1
  0
XRECORD
  5
2373
102
{ACAD_REACTORS
330
2371
102
}
330
2371
100
AcDbXrecord
280
     1
290
     1
  0
XRECORD
  5
2377
102
{ACAD_REACTORS
330
2375
102
}
330
2375
100
AcDbXrecord
280
     1
290
     1
  0
XRECORD
  5
2721
102
{ACAD_REACTORS
330
2720
102
}
330
2720
100
AcDbXrecord
280
     1
290
     1
  0
XRECORD
  5
2723
102
{ACAD_REACTORS
330
2722
102
}
330
2722
100
AcDbXrecord
280
     1
290
     1
  0
XRECORD
  5
2381
102
{ACAD_REACTORS
330
237F
102
}
330
237F
100
AcDbXrecord
280
     1
290
     1
  0
XRECORD
  5
2385
102
{ACAD_REACTORS
330
2383
102
}
330
2383
100
AcDbXrecord
280
     1
290
     1
  0
SORTENTSTABLE
  5
27B0
102
{ACAD_REACTORS
330
27AF
102
}
330
27AF
100
AcDbSortentsTable
330
1A
331
24EB
  5
4966
331
24EF
  5
25D6
331
24E3
  5
25CC
331
258A
  5
25FF
331
24E7
  5
4963
331
496B
  5
4998
331
496F
  5
499F
331
4963
  5
4990
331
4967
  5
4994
331
5C18
  5
24F2
331
5C1C
  5
24F7
331
5C10
  5
24E9
331
5C14
  5
24ED
331
2629
  5
494F
331
262D
  5
4953
331
2621
  5
4947
331
25D2
  5
2614
331
2625
  5
494B
331
25D6
  5
2618
331
4A79
  5
4965
331
51D0
  5
5836
331
51D4
  5
5C0A
331
51C8
  5
57C8
331
51CC
  5
57CC
331
25EE
  5
261C
331
2522
  5
25FE
331
1703
  5
25C6
331
251E
  5
25FB
331
495C
  5
4989
331
4950
  5
4980
331
4954
  5
4983
331
5C0C
  5
E4F
331
5BD0
  5
5C76
331
261A
  5
29A4
331
261E
  5
4942
331
2612
  5
287E
331
2616
  5
289C
331
25C7
  5
260F
331
51C5
  5
5685
331
4D11
  5
55FB
331
5684
  5
5C19
331
4D15
  5
55FF
331
25B7
  5
2608
331
E7A
  5
25BD
331
E1E
  5
2514
331
2513
  5
25ED
331
E8C
  5
25C2
331
250B
  5
25E0
331
250F
  5
5C17
331
4948
  5
4974
331
494C
  5
497B
331
498B
  5
4D13
331
498F
  5
51C3
331
4940
  5
2502
331
4983
  5
4D0A
331
4944
  5
496E
331
4987
  5
4D0E
331
260A
  5
2638
331
260E
  5
27AD
331
25BF
  5
260B
331
2602
  5
2630
331
2606
  5
2634
331
4D09
  5
E16
331
4D0D
  5
51FA
331
55F8
  5
5C10
331
55FC
  5
5C14
331
4D05
  5
51D3
331
27AE
  5
250A
331
E6C
  5
2595
331
E5C
  5
2525
331
24F3
  5
25DE
331
4978
  5
49A7
331
497C
  5
4D03
331
499D
  5
51CE
331
4970
  5
49A0
331
4974
  5
49A2
331
493D
  5
4968
331
57C9
  5
5C1E
331
5C20
  5
24FB
331
5C24
  5
24FF
331
25FB
  5
2629
331
25FF
  5
262D
331
2632
  5
4958
331
25F3
  5
2621
331
25F7
  5
2625
331
4CCA
  5
4976
331
4CC6
  5
4D0F
331
E51
  5
2519
331
24EC
  5
25CD
331
24E4
  5
250B
331
258B
  5
2600
331
28F9
  5
250C
331
4968
  5
4995
331
496C
  5
4999
331
4960
  5
498D
331
4964
  5
4991
331
26B5
  5
495B
331
5C19
  5
24F3
331
5C1D
  5
24F8
331
5C11
  5
24EA
331
5C15
  5
24EE
331
25DB
  5
2619
331
262A
  5
4950
331
262E
  5
4954
331
2622
  5
4948
331
25D3
  5
2615
331
2626
  5
494C
331
51D1
  5
5837
331
51C9
  5
57C9
331
51CD
  5
57CF
331
E15
  5
250D
331
25EF
  5
261D
331
251F
  5
25FC
331
495D
  5
498A
331
4990
  5
51C4
331
4951
  5
4981
331
4994
  5
51C7
331
4955
  5
4984
331
5C0D
  5
E50
331
25C8
  5
2610
331
261B
  5
29A5
331
261F
  5
4943
331
25C0
  5
260C
331
2613
  5
2880
331
2617
  5
28F9
331
51C6
  5
5686
331
4D12
  5
55FC
331
5685
  5
5C1A
331
4D16
  5
5609
331
25B4
  5
2606
331
E7B
  5
25BE
331
2510
  5
25E3
331
2514
  5
25EE
331
E8D
  5
25C3
331
E71
  5
2598
331
4949
  5
4975
331
4988
  5
4D10
331
498C
  5
4D14
331
494D
  5
497C
331
4980
  5
4D07
331
4984
  5
4D0B
331
4945
  5
496F
331
5836
  5
5C25
331
25B8
  5
2609
331
260B
  5
26B5
331
260F
  5
27BA
331
2603
  5
2631
331
2607
  5
2635
331
4D0A
  5
51D7
331
4D0E
  5
55F8
331
55F9
  5
5C11
331
55FD
  5
5C15
331
4D06
  5
51D4
331
E6D
  5
2596
331
24F0
  5
25DD
331
E59
  5
251C
331
4979
  5
49A8
331
499A
  5
51CB
331
497D
  5
4D04
331
499E
  5
51CF
331
493E
  5
496A
331
4975
  5
49A3
331
57CA
  5
5C1F
331
5C21
  5
24FC
331
5C25
  5
2500
331
25F8
  5
2626
331
57C6
  5
5C1C
331
25FC
  5
262A
331
25F0
  5
261E
331
2633
  5
495A
331
25F4
  5
2622
331
4CCB
  5
2507
331
4CC7
  5
4969
331
E52
  5
251B
331
24ED
  5
25CE
331
24E5
  5
4961
331
258C
  5
2601
331
4969
  5
4996
331
4961
  5
498E
331
4965
  5
4992
331
26B6
  5
495C
331
5C1A
  5
24F5
331
5C1E
  5
24F9
331
5C12
  5
24EB
331
5C16
  5
24F0
331
25DC
  5
261A
331
262B
  5
4951
331
262F
  5
4955
331
2623
  5
4949
331
25D4
  5
2616
331
2627
  5
494D
331
51D2
  5
5BD0
331
51D6
  5
5C0B
331
51CA
  5
57CA
331
51CE
  5
57D0
331
49C7
  5
260A
331
E16
  5
250E
331
2520
  5
25FD
331
1705
  5
25CB
331
495A
  5
4987
331
495E
  5
498B
331
4991
  5
51C5
331
4995
  5
51C8
331
4956
  5
4985
331
5C0A
  5
E17
331
5C0E
  5
24E6
331
5BD2
  5
5C77
331
25C9
  5
2611
331
2618
  5
28FE
331
261C
  5
29DD
331
2610
  5
27BB
331
25C1
  5
260D
331
2614
  5
2882
331
51C3
  5
567B
331
51C7
  5
57C6
331
4D13
  5
55FD
331
5686
  5
5C1B
331
25B1
  5
2605
331
E18
  5
2511
331
E78
  5
259B
331
2515
  5
25F3
331
E8E
  5
25C5
331
E72
  5
2599
331
494A
  5
4977
331
4989
  5
4D11
331
498D
  5
4D15
331
494E
  5
497D
331
4981
  5
4D08
331
4942
  5
496C
331
4985
  5
4D0C
331
4946
  5
4971
331
5837
  5
5C26
331
25B9
  5
2509
331
2608
  5
2636
331
260C
  5
26B6
331
2600
  5
262E
331
2604
  5
2632
331
25AD
  5
2603
331
4D0B
  5
51D8
331
4D0F
  5
55F9
331
55FA
  5
5C12
331
4D03
  5
51D1
331
55FE
  5
5C16
331
4D07
  5
51D6
331
27AC
  5
495E
331
E5A
  5
251D
331
E5E
  5
2528
331
497A
  5
49A9
331
499B
  5
51CC
331
497E
  5
4D05
331
493F
  5
496B
331
4976
  5
49A5
331
57CB
  5
5C20
331
57CF
  5
5C22
331
5C22
  5
24FD
331
25F9
  5
2627
331
5C26
  5
2501
331
25FD
  5
262B
331
2630
  5
4956
331
25F1
  5
261F
331
25F5
  5
2623
331
4CC8
  5
2508
331
4CCC
  5
51C9
331
55F7
  5
5C0F
331
24EA
  5
4964
331
24EE
  5
25D3
331
24E6
  5
4962
331
496A
  5
4997
331
496E
  5
499C
331
4962
  5
498F
331
4966
  5
4993
331
5C1B
  5
24F6
331
5C1F
  5
24FA
331
5C13
  5
24EC
331
2628
  5
494E
331
5C17
  5
24F1
331
262C
  5
4952
331
2620
  5
4946
331
25D1
  5
2613
331
2624
  5
494A
331
25D5
  5
2617
331
51D3
  5
5BD2
331
51D7
  5
5C0C
331
51CB
  5
57CB
331
51CF
  5
5834
331
E4F
  5
2516
331
E17
  5
250F
331
4B55
  5
51D0
331
25ED
  5
261B
331
495B
  5
4988
331
495F
  5
498C
331
4992
  5
51C6
331
4953
  5
4982
331
4996
  5
51CA
331
4957
  5
4986
331
5C0B
  5
E4C
331
5C0F
  5
24E7
331
25CA
  5
2612
331
2619
  5
28FF
331
261D
  5
4265
331
2611
  5
27CF
331
25C2
  5
260E
331
2615
  5
288D
331
51C4
  5
5684
331
4D10
  5
55FA
331
4D14
  5
55FE
331
25B6
  5
2607
331
E79
  5
25BC
331
E1D
  5
2512
331
2512
  5
25E4
331
E8B
  5
25BF
331
2516
  5
25FA
331
E73
  5
259A
331
494B
  5
497A
331
498A
  5
4D12
331
498E
  5
4D16
331
494F
  5
497E
331
4982
  5
4D09
331
4943
  5
496D
331
4986
  5
4D0D
331
4947
  5
4972
331
5834
  5
5C24
331
57D0
  5
5C23
331
2609
  5
2637
331
260D
  5
27AC
331
2601
  5
262F
331
25AA
  5
2602
331
2605
  5
2633
331
25AE
  5
2604
331
4D08
  5
E15
331
4D0C
  5
51ED
331
567B
  5
5C18
331
55FB
  5
5C13
331
4D04
  5
51D2
331
55FF
  5
2503
331
27AD
  5
4960
331
2506
  5
25DF
331
E6F
  5
2597
331
E5B
  5
2522
331
24F2
  5
4967
331
497B
  5
4CCD
331
499C
  5
51CD
331
497F
  5
4D06
331
4973
  5
49A1
331
4977
  5
49A6
331
57C8
  5
5C1D
331
57CC
  5
5C21
331
5C23
  5
24FE
331
25FA
  5
2628
331
25FE
  5
262C
331
2631
  5
4957
331
25F2
  5
2620
331
25F6
  5
2624
331
4CC9
  5
4970
331
4CCD
  5
497F
331
51D8
  5
5C0D
331
E50
  5
2518
  0
XRECORD
  5
5DDC
102
{ACAD_REACTORS
330
5D8C
102
}
330
5D8C
100
AcDbXrecord
280
     1
 40
11288435.0
  1
\pxqc;耐火ヴァンドＲＺ７５Ｖ　笠木部
  0
XRECORD
  5
5DDE
102
{ACAD_REACTORS
330
5BD1
102
}
330
5BD1
100
AcDbXrecord
280
     1
 40
4386876.0
  1
\pxqc;アイジーヴァンド参考ディテール
  0
XRECORD
  5
5DDF
102
{ACAD_REACTORS
330
5BD3
102
}
330
5BD3
100
AcDbXrecord
280
     1
 40
3316594.0
  1
\pxqc;アイジー工業株式会社
  0
ACDBDETAILVIEWSTYLE
  5
2870
102
{ACAD_XDICTIONARY
360
5E17
102
}
102
{ACAD_REACTORS
330
286F
102
}
330
286F
100
AcDbModelDocViewStyle
 70
     0
  3
Metric50
290
     0
100
AcDbDetailViewStyle
 70
     0
 71
     0
 90
        3
 71
     1
340
10
 62
   256
 40
5.0
340
0
 62
   256
 40
5.0
300

 40
0.0
280
     1
 71
     2
340
16
 90
       25
 62
   256
 71
     3
340
10
 62
   256
 40
5.0
 90
        0
 40
15.0
 90
        1
300
%<\AcVar ViewDetailId>% (%<\AcVar ViewScale \f "%sn">%)
 71
     4
340
16
 90
       25
 62
   256
340
16
 90
       25
 62
   256
280
     0
1001
ACAD
1000
AcRTDxfName
1000
ACDBDETAILVIEWSTYLE
1000
AcRTDxfName
1000
ACDBDETAILVIEWSTYLE
1000
AcRTDxfName
1000
ACDBDETAILVIEWSTYLE
1000
AcRTDxfName
1000
ACDBDETAILVIEWSTYLE
1000
AcRTDxfName
1000
ACDBDETAILVIEWSTYLE
1000
AcRTDxfName
1000
ACDBDETAILVIEWSTYLE
1000
AcRTDxfName
1000
ACDBDETAILVIEWSTYLE
1000
AcRTDxfName
1000
ACDBDETAILVIEWSTYLE
1000
AcRTDxfName
1000
ACDBDETAILVIEWSTYLE
1000
AcRTDxfName
1000
ACDBDETAILVIEWSTYLE
1000
AcRTDxfName
1000
ACDBDETAILVIEWSTYLE
  0
LAYOUT
  5
3B3
102
{ACAD_REACTORS
330
3B1
102
}
330
3B1
100
AcDbPlotSettings
  1

  2
none_device
  4
ISO_A3_(420.00_x_297.00_MM)
  6

 40
7.5
 41
20.0
 42
7.5
 43
20.0
 44
420.0
 45
297.0
 46
0.0
 47
0.0
 48
0.0
 49
0.0
140
0.0
141
0.0
142
1.0
143
2.0
 70
 11904
 72
     1
 73
     0
 74
     2
  7

 75
     0
147
0.4326599326599327
 76
     0
 77
     2
 78
   300
148
0.0
149
0.0
100
AcDbLayout
  1
Model
 70
     1
 71
     0
 10
0.0
 20
0.0
 11
12.0
 21
9.0
 12
0.0
 22
0.0
 32
0.0
 14
0.0
 24
0.0
 34
0.0
 15
0.0
 25
0.0
 35
0.0
146
0.0
 13
0.0
 23
0.0
 33
0.0
 16
1.0
 26
0.0
 36
0.0
 17
0.0
 27
1.0
 37
0.0
 76
     0
330
1A
331
274D
1001
ACAD_PSEXT
1000
なし
1000
なし
1000
適切ではありません
1000
新しいプロッタ環境設定名を選択しない限り、レイアウトは印刷されません。
1070
     0
  0
LAYOUT
  5
3B4
102
{ACAD_REACTORS
330
3B1
102
}
330
3B1
100
AcDbPlotSettings
  1

  2
DocuCentre Color 400 (FAX)
  4

  6

 40
0.0
 41
0.0
 42
0.0
 43
0.0
 44
0.0
 45
0.0
 46
0.0
 47
0.0
 48
0.0
 49
0.0
140
0.0
141
0.0
142
1.0
143
1.0
 70
   688
 72
     0
 73
     0
 74
     5
  7
Screening 100%.ctb
 75
    16
147
1.0
 76
     0
 77
     2
 78
   300
148
0.0
149
0.0
100
AcDbLayout
  1
レイアウト1
 70
     1
 71
     1
 10
0.0
 20
0.0
 11
420.0
 21
297.0
 12
0.0
 22
0.0
 32
0.0
 14
1.000000000000000E+20
 24
1.000000000000000E+20
 34
1.000000000000000E+20
 15
-1.000000000000000E+20
 25
-1.000000000000000E+20
 35
-1.000000000000000E+20
146
0.0
 13
0.0
 23
0.0
 33
0.0
 16
1.0
 26
0.0
 36
0.0
 17
0.0
 27
1.0
 37
0.0
 76
     0
330
17
331
22
  0
MATERIAL
  5
26CA
102
{ACAD_XDICTIONARY
360
26CB
102
}
102
{ACAD_REACTORS
330
3AF
102
}
330
3AF
100
AcDbMaterial
  1
ByBlock
 72
     0
 43
0.0208333333333333
 43
0.0
 43
0.0
 43
0.0
 43
0.0
 43
0.0208333333333333
 43
0.0
 43
0.0
 43
0.0
 43
0.0
 43
1.0
 43
0.0
 43
0.0
 43
0.0
 43
0.0
 43
1.0
 77
     0
 47
0.0208333333333333
 47
0.0
 47
0.0
 47
0.0
 47
0.0
 47
0.0208333333333333
 47
0.0
 47
0.0
 47
0.0
 47
0.0
 47
1.0
 47
0.0
 47
0.0
 47
0.0
 47
0.0
 47
1.0
171
     0
 49
0.0208333333333333
 49
0.0
 49
0.0
 49
0.0
 49
0.0
 49
0.0208333333333333
 49
0.0
 49
0.0
 49
0.0
 49
0.0
 49
1.0
 49
0.0
 49
0.0
 49
0.0
 49
0.0
 49
1.0
175
     0
142
0.0208333333333333
142
0.0
142
0.0
142
0.0
142
0.0
142
0.0208333333333333
142
0.0
142
0.0
142
0.0
142
0.0
142
1.0
142
0.0
142
0.0
142
0.0
142
0.0
142
1.0
179
     0
144
0.0208333333333333
144
0.0
144
0.0
144
0.0
144
0.0
144
0.0208333333333333
144
0.0
144
0.0
144
0.0
144
0.0
144
1.0
144
0.0
144
0.0
144
0.0
144
0.0
144
1.0
147
0.0208333333333333
147
0.0
147
0.0
147
0.0
147
0.0
147
0.0208333333333333
147
0.0
147
0.0
147
0.0
147
0.0
147
1.0
147
0.0
147
0.0
147
0.0
147
0.0
147
1.0
  0
MATERIAL
  5
26C2
102
{ACAD_XDICTIONARY
360
26C3
102
}
102
{ACAD_REACTORS
330
3AF
102
}
330
3AF
100
AcDbMaterial
  1
ByLayer
 72
     0
 43
0.0208333333333333
 43
0.0
 43
0.0
 43
0.0
 43
0.0
 43
0.0208333333333333
 43
0.0
 43
0.0
 43
0.0
 43
0.0
 43
1.0
 43
0.0
 43
0.0
 43
0.0
 43
0.0
 43
1.0
 77
     0
 47
0.0208333333333333
 47
0.0
 47
0.0
 47
0.0
 47
0.0
 47
0.0208333333333333
 47
0.0
 47
0.0
 47
0.0
 47
0.0
 47
1.0
 47
0.0
 47
0.0
 47
0.0
 47
0.0
 47
1.0
171
     0
 49
0.0208333333333333
 49
0.0
 49
0.0
 49
0.0
 49
0.0
 49
0.0208333333333333
 49
0.0
 49
0.0
 49
0.0
 49
0.0
 49
1.0
 49
0.0
 49
0.0
 49
0.0
 49
0.0
 49
1.0
175
     0
142
0.0208333333333333
142
0.0
142
0.0
142
0.0
142
0.0
142
0.0208333333333333
142
0.0
142
0.0
142
0.0
142
0.0
142
1.0
142
0.0
142
0.0
142
0.0
142
0.0
142
1.0
179
     0
144
0.0208333333333333
144
0.0
144
0.0
144
0.0
144
0.0
144
0.0208333333333333
144
0.0
144
0.0
144
0.0
144
0.0
144
1.0
144
0.0
144
0.0
144
0.0
144
0.0
144
1.0
147
0.0208333333333333
147
0.0
147
0.0
147
0.0
147
0.0
147
0.0208333333333333
147
0.0
147
0.0
147
0.0
147
0.0
147
1.0
147
0.0
147
0.0
147
0.0
147
0.0
147
1.0
  0
MATERIAL
  5
16F3
102
{ACAD_XDICTIONARY
360
577E
102
}
102
{ACAD_REACTORS
330
3AF
102
}
330
3AF
100
AcDbMaterial
  1
Global
 73
     1
 78
     1
172
     1
176
     1
270
     1
274
     1
  0
MLEADERSTYLE
  5
2708
102
{ACAD_REACTORS
330
2707
330
57C6
330
57C8
330
57C9
330
57CA
330
57CB
330
57CC
330
57CF
330
57D0
330
5834
330
5836
330
5837
102
}
330
2707
100
AcDbMLeaderStyle
179
     2
170
     2
171
     1
172
     0
 90
        2
 40
0.5235987755982988
 41
0.0
173
     1
 91
-1056964608
340
14
 92
       -2
290
     1
 42
2.0
291
     1
 43
0.6
  3
Standard
341
B0
 44
0.0
300

342
10
174
     1
178
     3
175
     1
176
     0
 93
-1056964608
 45
5.0
292
     0
297
     0
 46
4.0
 94
-1056964608
 47
1.0
 49
1.0
140
1.0
293
     1
141
0.0
294
     1
177
     0
142
1.0
295
     0
296
     0
143
0.2
271
     0
272
     9
273
     9
1001
ACAD
1000
AcRTDxfName
1000
MLEADERSTYLE
1001
ACAD_MLEADERVER
1070
     2
  0
MLINESTYLE
  5
13
102
{ACAD_REACTORS
330
E
102
}
330
E
100
AcDbMlineStyle
  2
STANDARD
 70
     0
  3

 62
     0
 51
90.0
 52
90.0
 71
     2
 49
0.5
 62
   256
  6
BYLAYER
 49
-0.5
 62
   256
  6
BYLAYER
  0
ACDBPLACEHOLDER
  5
3AE
102
{ACAD_REACTORS
330
3AD
102
}
330
3AD
  0
SCALE
  5
26E6
102
{ACAD_REACTORS
330
26E5
102
}
330
26E5
100
AcDbScale
 70
     0
300
1:1
140
1.0
141
1.0
290
     1
1001
ACAD
1000
AcRTDxfName
1000
SCALE
  0
SCALE
  5
26E7
102
{ACAD_REACTORS
330
26E5
102
}
330
26E5
100
AcDbScale
 70
     0
300
1:2
140
1.0
141
2.0
290
     0
1001
ACAD
1000
AcRTDxfName
1000
SCALE
  0
SCALE
  5
26E8
102
{ACAD_REACTORS
330
26E5
102
}
330
26E5
100
AcDbScale
 70
     0
300
1:4
140
1.0
141
4.0
290
     0
1001
ACAD
1000
AcRTDxfName
1000
SCALE
  0
SCALE
  5
26E9
102
{ACAD_REACTORS
330
26E5
102
}
330
26E5
100
AcDbScale
 70
     0
300
1:5
140
1.0
141
5.0
290
     0
1001
ACAD
1000
AcRTDxfName
1000
SCALE
  0
SCALE
  5
26EA
102
{ACAD_REACTORS
330
26E5
102
}
330
26E5
100
AcDbScale
 70
     0
300
1:8
140
1.0
141
8.0
290
     0
1001
ACAD
1000
AcRTDxfName
1000
SCALE
  0
SCALE
  5
26EB
102
{ACAD_REACTORS
330
26E5
102
}
330
26E5
100
AcDbScale
 70
     0
300
1:10
140
1.0
141
10.0
290
     0
1001
ACAD
1000
AcRTDxfName
1000
SCALE
  0
SCALE
  5
26EC
102
{ACAD_REACTORS
330
26E5
102
}
330
26E5
100
AcDbScale
 70
     0
300
1:16
140
1.0
141
16.0
290
     0
1001
ACAD
1000
AcRTDxfName
1000
SCALE
  0
SCALE
  5
26ED
102
{ACAD_REACTORS
330
26E5
102
}
330
26E5
100
AcDbScale
 70
     0
300
1:20
140
1.0
141
20.0
290
     0
1001
ACAD
1000
AcRTDxfName
1000
SCALE
  0
SCALE
  5
26EE
102
{ACAD_REACTORS
330
26E5
102
}
330
26E5
100
AcDbScale
 70
     0
300
1:30
140
1.0
141
30.0
290
     0
1001
ACAD
1000
AcRTDxfName
1000
SCALE
  0
SCALE
  5
26EF
102
{ACAD_REACTORS
330
26E5
102
}
330
26E5
100
AcDbScale
 70
     0
300
1:40
140
1.0
141
40.0
290
     0
1001
ACAD
1000
AcRTDxfName
1000
SCALE
  0
SCALE
  5
26F0
102
{ACAD_REACTORS
330
26E5
102
}
330
26E5
100
AcDbScale
 70
     0
300
1:50
140
1.0
141
50.0
290
     0
1001
ACAD
1000
AcRTDxfName
1000
SCALE
  0
SCALE
  5
26F1
102
{ACAD_REACTORS
330
26E5
102
}
330
26E5
100
AcDbScale
 70
     0
300
1:100
140
1.0
141
100.0
290
     0
1001
ACAD
1000
AcRTDxfName
1000
SCALE
  0
SCALE
  5
26F2
102
{ACAD_REACTORS
330
26E5
102
}
330
26E5
100
AcDbScale
 70
     0
300
2:1
140
2.0
141
1.0
290
     0
1001
ACAD
1000
AcRTDxfName
1000
SCALE
  0
SCALE
  5
26F3
102
{ACAD_REACTORS
330
26E5
102
}
330
26E5
100
AcDbScale
 70
     0
300
4:1
140
4.0
141
1.0
290
     0
1001
ACAD
1000
AcRTDxfName
1000
SCALE
  0
SCALE
  5
26F4
102
{ACAD_REACTORS
330
26E5
102
}
330
26E5
100
AcDbScale
 70
     0
300
8:1
140
8.0
141
1.0
290
     0
1001
ACAD
1000
AcRTDxfName
1000
SCALE
  0
SCALE
  5
26F5
102
{ACAD_REACTORS
330
26E5
102
}
330
26E5
100
AcDbScale
 70
     0
300
10:1
140
10.0
141
1.0
290
     0
1001
ACAD
1000
AcRTDxfName
1000
SCALE
  0
SCALE
  5
26F6
102
{ACAD_REACTORS
330
26E5
102
}
330
26E5
100
AcDbScale
 70
     0
300
100:1
140
100.0
141
1.0
290
     0
1001
ACAD
1000
AcRTDxfName
1000
SCALE
  0
SCALE
  5
26F7
102
{ACAD_REACTORS
330
26E5
102
}
330
26E5
100
AcDbScale
 70
     0
300
1/128" = 1'-0"
140
0.0078125
141
12.0
290
     0
1001
ACAD
1000
AcRTDxfName
1000
SCALE
  0
SCALE
  5
26F8
102
{ACAD_REACTORS
330
26E5
102
}
330
26E5
100
AcDbScale
 70
     0
300
1/64" = 1'-0"
140
0.015625
141
12.0
290
     0
1001
ACAD
1000
AcRTDxfName
1000
SCALE
  0
SCALE
  5
26F9
102
{ACAD_REACTORS
330
26E5
102
}
330
26E5
100
AcDbScale
 70
     0
300
1/32" = 1'-0"
140
0.03125
141
12.0
290
     0
1001
ACAD
1000
AcRTDxfName
1000
SCALE
  0
SCALE
  5
26FA
102
{ACAD_REACTORS
330
26E5
102
}
330
26E5
100
AcDbScale
 70
     0
300
1/16" = 1'-0"
140
0.0625
141
12.0
290
     0
1001
ACAD
1000
AcRTDxfName
1000
SCALE
  0
SCALE
  5
26FB
102
{ACAD_REACTORS
330
26E5
102
}
330
26E5
100
AcDbScale
 70
     0
300
3/32" = 1'-0"
140
0.09375
141
12.0
290
     0
1001
ACAD
1000
AcRTDxfName
1000
SCALE
  0
SCALE
  5
26FC
102
{ACAD_REACTORS
330
26E5
102
}
330
26E5
100
AcDbScale
 70
     0
300
1/8" = 1'-0"
140
0.125
141
12.0
290
     0
1001
ACAD
1000
AcRTDxfName
1000
SCALE
  0
SCALE
  5
26FD
102
{ACAD_REACTORS
330
26E5
102
}
330
26E5
100
AcDbScale
 70
     0
300
3/16" = 1'-0"
140
0.1875
141
12.0
290
     0
1001
ACAD
1000
AcRTDxfName
1000
SCALE
  0
SCALE
  5
26FE
102
{ACAD_REACTORS
330
26E5
102
}
330
26E5
100
AcDbScale
 70
     0
300
1/4" = 1'-0"
140
0.25
141
12.0
290
     0
1001
ACAD
1000
AcRTDxfName
1000
SCALE
  0
SCALE
  5
26FF
102
{ACAD_REACTORS
330
26E5
102
}
330
26E5
100
AcDbScale
 70
     0
300
3/8" = 1'-0"
140
0.375
141
12.0
290
     0
1001
ACAD
1000
AcRTDxfName
1000
SCALE
  0
SCALE
  5
2700
102
{ACAD_REACTORS
330
26E5
102
}
330
26E5
100
AcDbScale
 70
     0
300
1/2" = 1'-0"
140
0.5
141
12.0
290
     0
1001
ACAD
1000
AcRTDxfName
1000
SCALE
  0
SCALE
  5
2701
102
{ACAD_REACTORS
330
26E5
102
}
330
26E5
100
AcDbScale
 70
     0
300
3/4" = 1'-0"
140
0.75
141
12.0
290
     0
1001
ACAD
1000
AcRTDxfName
1000
SCALE
  0
SCALE
  5
2702
102
{ACAD_REACTORS
330
26E5
102
}
330
26E5
100
AcDbScale
 70
     0
300
1" = 1'-0"
140
1.0
141
12.0
290
     0
1001
ACAD
1000
AcRTDxfName
1000
SCALE
  0
SCALE
  5
2703
102
{ACAD_REACTORS
330
26E5
102
}
330
26E5
100
AcDbScale
 70
     0
300
1-1/2" = 1'-0"
140
1.5
141
12.0
290
     0
1001
ACAD
1000
AcRTDxfName
1000
SCALE
  0
SCALE
  5
2704
102
{ACAD_REACTORS
330
26E5
102
}
330
26E5
100
AcDbScale
 70
     0
300
3" = 1'-0"
140
3.0
141
12.0
290
     0
1001
ACAD
1000
AcRTDxfName
1000
SCALE
  0
SCALE
  5
2705
102
{ACAD_REACTORS
330
26E5
102
}
330
26E5
100
AcDbScale
 70
     0
300
6" = 1'-0"
140
6.0
141
12.0
290
     0
1001
ACAD
1000
AcRTDxfName
1000
SCALE
  0
SCALE
  5
2706
102
{ACAD_REACTORS
330
26E5
102
}
330
26E5
100
AcDbScale
 70
     0
300
1'-0" = 1'-0"
140
12.0
141
12.0
290
     0
1001
ACAD
1000
AcRTDxfName
1000
SCALE
  0
ACDBSECTIONVIEWSTYLE
  5
286E
102
{ACAD_XDICTIONARY
360
5E15
102
}
102
{ACAD_REACTORS
330
286D
102
}
330
286D
100
AcDbModelDocViewStyle
 70
     0
  3
Metric50
290
     0
100
AcDbSectionViewStyle
 70
     0
 71
     0
 90
      102
 71
     1
340
10
 62
   256
 40
5.0
340
0
340
0
 62
   256
 40
5.0
300
I, O, Q, S, X, Z
 40
10.0
 90
        0
 40
2.5
 90
        0
 71
     2
340
16
 90
       25
 62
   256
340
16
 90
       50
 62
   256
 40
5.0
 40
2.5
 40
5.0
 71
     3
340
10
 62
   256
 40
5.0
 90
        0
 40
15.0
 90
        1
300
%<\AcVar ViewSectionStartId>%-%<\AcVar ViewSectionEndId>% (%<\AcVar ViewScale \f "%sn">%)
 71
     4
 62
   256
 62
   257
300
ANSI31
 40
1.0
 90
        0
290
     0
290
     0
 90
        6
 40
0.0
 40
1.570796326794896
 40
0.2617993877991494
 40
1.308996938995747
 40
-0.2617993877991494
 40
1.832595714594044
1001
ACAD
1000
AcRTDxfName
1000
ACDBSECTIONVIEWSTYLE
1000
AcRTDxfName
1000
ACDBSECTIONVIEWSTYLE
1000
AcRTDxfName
1000
ACDBSECTIONVIEWSTYLE
1000
AcRTDxfName
1000
ACDBSECTIONVIEWSTYLE
1000
AcRTDxfName
1000
ACDBSECTIONVIEWSTYLE
1000
AcRTDxfName
1000
ACDBSECTIONVIEWSTYLE
1000
AcRTDxfName
1000
ACDBSECTIONVIEWSTYLE
1000
AcRTDxfName
1000
ACDBSECTIONVIEWSTYLE
1000
AcRTDxfName
1000
ACDBSECTIONVIEWSTYLE
1000
AcRTDxfName
1000
ACDBSECTIONVIEWSTYLE
1000
AcRTDxfName
1000
ACDBSECTIONVIEWSTYLE
  0
TABLESTYLE
  5
26E4
102
{ACAD_XDICTIONARY
360
2724
102
}
102
{ACAD_REACTORS
330
26E3
102
}
330
26E3
100
AcDbTableStyle
280
     0
  3
Standard
 70
     0
 71
     0
 40
1.5
 41
1.5
280
     0
281
     0
  7
STANDARD
140
4.5
170
     2
 62
     0
 63
     7
283
     0
 90
      512
 91
        0
  1

274
    -2
284
     1
 64
     0
275
    -2
285
     1
 65
     0
276
    -2
286
     1
 66
     0
277
    -2
287
     1
 67
     0
278
    -2
288
     1
 68
     0
279
    -2
289
     1
 69
     0
  7
STANDARD
140
6.0
170
     5
 62
     0
 63
     7
283
     0
 90
      512
 91
        0
  1

274
    -2
284
     1
 64
     0
275
    -2
285
     1
 65
     0
276
    -2
286
     1
 66
     0
277
    -2
287
     1
 67
     0
278
    -2
288
     1
 68
     0
279
    -2
289
     1
 69
     0
  7
STANDARD
140
4.5
170
     5
 62
     0
 63
     7
283
     0
 90
      512
 91
        0
  1

274
    -2
284
     1
 64
     0
275
    -2
285
     1
 65
     0
276
    -2
286
     1
 66
     0
277
    -2
287
     1
 67
     0
278
    -2
288
     1
 68
     0
279
    -2
289
     1
 69
     0
1001
ACAD
1000
AcRTDxfName
1000
TABLESTYLE
  0
VISUALSTYLE
  5
26D8
102
{ACAD_XDICTIONARY
360
5DEB
102
}
102
{ACAD_REACTORS
330
26D2
102
}
330
26D2
100
AcDbVisualStyle
  2

 70
     4
177
     2
291
     0
 71
     0
176
     1
 72
     2
176
     1
 73
     0
176
     1
 90
        0
176
     1
 40
0.6
176
     1
 41
30.0
176
     1
 63
     7
176
     1
 74
     1
176
     1
 91
        4
176
     1
 64
     7
176
     1
 65
   257
176
     1
 75
     1
176
     1
175
     1
176
     1
 42
1.0
176
     1
 92
        0
176
     1
 66
   257
176
     1
 43
1.0
176
     1
 76
     1
176
     1
 77
     6
176
     1
 78
     2
176
     1
 67
     7
176
     1
 79
     5
176
     1
170
     0
176
     1
171
     0
176
     1
290
     0
176
     1
 93
        1
176
     1
 44
0.0
176
     1
173
     0
176
     1
1001
ACAD
1000
AcRTDxfName
1000
VISUALSTYLE
1000
AcDbSavedByObjectVersion
1070
     0
  0
VISUALSTYLE
  5
26DA
102
{ACAD_XDICTIONARY
360
5DEF
102
}
102
{ACAD_REACTORS
330
26D2
102
}
330
26D2
100
AcDbVisualStyle
  2

 70
     6
177
     2
291
     0
 71
     1
176
     1
 72
     2
176
     1
 73
     2
176
     1
 90
        0
176
     1
 40
0.6
176
     1
 41
30.0
176
     1
 63
     7
176
     1
 74
     2
176
     1
 91
        2
176
     1
 64
     7
176
     1
 65
   257
176
     1
 75
     2
176
     1
175
     1
176
     1
 42
40.0
176
     1
 92
        0
176
     1
 66
   257
176
     1
 43
1.0
176
     1
 76
     1
176
     1
 77
     6
176
     1
 78
     2
176
     1
 67
     7
176
     1
 79
     3
176
     1
170
     0
176
     1
171
     0
176
     1
290
     0
176
     1
 93
        1
176
     1
 44
0.0
176
     1
173
     0
176
     1
1001
ACAD
1000
AcRTDxfName
1000
VISUALSTYLE
1000
AcDbSavedByObjectVersion
1070
     0
  0
VISUALSTYLE
  5
26D9
102
{ACAD_XDICTIONARY
360
5DED
102
}
102
{ACAD_REACTORS
330
26D2
102
}
330
26D2
100
AcDbVisualStyle
  2

 70
     5
177
     2
291
     0
 71
     0
176
     1
 72
     2
176
     1
 73
     0
176
     1
 90
        0
176
     1
 40
0.6
176
     1
 41
30.0
176
     1
 63
     7
176
     1
 74
     1
176
     1
 91
        4
176
     1
 64
     7
176
     1
 65
   257
176
     1
 75
     1
176
     1
175
     1
176
     1
 42
1.0
176
     1
 92
        0
176
     1
 66
   257
176
     1
 43
1.0
176
     1
 76
     1
176
     1
 77
     6
176
     1
 78
     2
176
     1
 67
     7
176
     1
 79
     5
176
     1
170
     0
176
     1
171
     0
176
     1
290
     0
176
     1
 93
        1
176
     1
 44
0.0
176
     1
173
     0
176
     1
1001
ACAD
1000
AcRTDxfName
1000
VISUALSTYLE
1000
AcDbSavedByObjectVersion
1070
     0
  0
VISUALSTYLE
  5
26D7
102
{ACAD_XDICTIONARY
360
5DE9
102
}
102
{ACAD_REACTORS
330
26D2
102
}
330
26D2
100
AcDbVisualStyle
  2

 70
     7
177
     2
291
     1
 71
     1
176
     1
 72
     0
176
     1
 73
     1
176
     1
 90
        0
176
     1
 40
0.6
176
     1
 41
30.0
176
     1
 63
     7
176
     1
 74
     0
176
     1
 91
        4
176
     1
 64
     7
176
     1
 65
   257
176
     1
 75
     1
176
     1
175
     1
176
     1
 42
1.0
176
     1
 92
        8
176
     1
 66
     7
176
     1
 43
1.0
176
     1
 76
     1
176
     1
 77
     6
176
     1
 78
     2
176
     1
 67
     7
176
     1
 79
     5
176
     1
170
     0
176
     1
171
     0
176
     1
290
     0
176
     1
 93
        1
176
     1
 44
0.0
176
     1
173
     0
176
     1
1001
ACAD
1000
AcRTDxfName
1000
VISUALSTYLE
1000
AcDbSavedByObjectVersion
1070
     0
  0
VISUALSTYLE
  5
26DE
102
{ACAD_XDICTIONARY
360
5DF7
102
}
102
{ACAD_REACTORS
330
26D2
102
}
330
26D2
100
AcDbVisualStyle
  2

 70
    12
177
     2
291
     1
 71
     2
176
     1
 72
     2
176
     1
 73
     0
176
     1
 90
        0
176
     1
 40
0.6
176
     1
 41
30.0
176
     1
 63
     7
176
     1
 74
     1
176
     1
 91
        4
176
     1
 64
     7
176
     1
 65
   257
176
     1
 75
     1
176
     1
175
     1
176
     1
 42
1.0
176
     1
 92
        8
176
     1
 66
     7
176
     1
 43
1.0
176
     1
 76
     1
176
     1
 77
     6
176
     1
 78
     2
176
     1
 67
     7
176
     1
 79
     5
176
     1
170
     0
176
     1
171
     0
176
     1
290
     0
176
     1
 93
        1
176
     1
 44
50.0
176
     1
173
     0
176
     1
1001
ACAD
1000
AcRTDxfName
1000
VISUALSTYLE
1000
AcDbSavedByObjectVersion
1070
     0
  0
VISUALSTYLE
  5
26E2
102
{ACAD_XDICTIONARY
360
5DFF
102
}
102
{ACAD_REACTORS
330
26D2
102
}
330
26D2
100
AcDbVisualStyle
  2

 70
    16
177
     2
291
     1
 71
     2
176
     1
 72
     2
176
     1
 73
     3
176
     1
 90
        0
176
     1
 40
0.6
176
     1
 41
30.0
176
     1
 63
     8
176
     1
 74
     1
176
     1
 91
        4
176
     1
 64
     7
176
     1
 65
   257
176
     1
 75
     1
176
     1
175
     1
176
     1
 42
1.0
176
     1
 92
        8
176
     1
 66
     8
176
     1
 43
1.0
176
     1
 76
     1
176
     1
 77
     6
176
     1
 78
     2
176
     1
 67
     7
176
     1
 79
     5
176
     1
170
     0
176
     1
171
     0
176
     1
290
     0
176
     1
 93
        1
176
     1
 44
0.0
176
     1
173
     0
176
     1
1001
ACAD
1000
AcRTDxfName
1000
VISUALSTYLE
1000
AcDbSavedByObjectVersion
1070
     0
  0
VISUALSTYLE
  5
26DB
102
{ACAD_XDICTIONARY
360
5DF1
102
}
102
{ACAD_REACTORS
330
26D2
102
}
330
26D2
100
AcDbVisualStyle
  2

 70
     9
177
     2
291
     0
 71
     3
176
     1
 72
     2
176
     1
 73
     0
176
     1
 90
        0
176
     1
 40
0.6
176
     1
 41
30.0
176
     1
 63
     7
176
     1
 74
     2
176
     1
 91
        2
176
     1
 64
     7
176
     1
 65
   257
176
     1
 75
     1
176
     1
175
     1
176
     1
 42
40.0
176
     1
 92
        8
176
     1
 66
     7
176
     1
 43
1.0
176
     1
 76
     1
176
     1
 77
     6
176
     1
 78
     2
176
     1
 67
     7
176
     1
 79
     3
176
     1
170
     0
176
     1
171
     0
176
     1
290
     0
176
     1
 93
        1
176
     1
 44
0.0
176
     1
173
     0
176
     1
1001
ACAD
1000
AcRTDxfName
1000
VISUALSTYLE
1000
AcDbSavedByObjectVersion
1070
     0
  0
VISUALSTYLE
  5
26DD
102
{ACAD_XDICTIONARY
360
5DF5
102
}
102
{ACAD_REACTORS
330
26D2
102
}
330
26D2
100
AcDbVisualStyle
  2

 70
    11
177
     2
291
     1
 71
     2
176
     1
 72
     2
176
     1
 73
     0
176
     1
 90
        0
176
     1
 40
0.6
176
     1
 41
30.0
176
     1
 63
     7
176
     1
 74
     1
176
     1
 91
        4
176
     1
 64
     7
176
     1
 65
   257
176
     1
 75
     1
176
     1
175
     1
176
     1
 42
1.0
176
     1
 92
        8
176
     1
 66
     7
176
     1
 43
1.0
176
     1
 76
     1
176
     1
 77
     6
176
     1
 78
     2
176
     1
 67
     7
176
     1
 79
     5
176
     1
170
     0
176
     1
171
     0
176
     1
290
     0
176
     1
 93
        1
176
     1
 44
-50.0
176
     1
173
     0
176
     1
1001
ACAD
1000
AcRTDxfName
1000
VISUALSTYLE
1000
AcDbSavedByObjectVersion
1070
     0
  0
VISUALSTYLE
  5
279E
102
{ACAD_XDICTIONARY
360
5E13
102
}
102
{ACAD_REACTORS
330
26D2
102
}
330
26D2
100
AcDbVisualStyle
  2

 70
    22
177
     2
291
     1
 71
     2
176
     0
 72
     2
176
     0
 73
     0
176
     0
 90
        0
176
     0
 40
0.6
176
     0
 41
30.0
176
     0
 63
     7
176
     0
 74
     1
176
     0
 91
        4
176
     0
 64
     7
176
     0
 65
   257
176
     0
 75
     1
176
     0
175
     1
176
     0
 42
1.0
176
     0
 92
        8
176
     2
 66
     7
176
     0
 43
1.0
176
     0
 76
     1
176
     0
 77
     6
176
     0
 78
     2
176
     0
 67
     7
176
     0
 79
     5
176
     0
170
     0
176
     0
171
     0
176
     0
290
     0
176
     0
 93
        1
176
     0
 44
0.0
176
     0
173
     0
176
     0
1001
ACAD
1000
AcDbSavedByObjectVersion
1070
     0
  0
VISUALSTYLE
  5
26E1
102
{ACAD_XDICTIONARY
360
5DFD
102
}
102
{ACAD_REACTORS
330
26D2
102
}
330
26D2
100
AcDbVisualStyle
  2

 70
    15
177
     2
291
     1
 71
     2
176
     1
 72
     2
176
     1
 73
     0
176
     1
 90
        0
176
     1
 40
0.6
176
     1
 41
30.0
176
     1
 63
     7
176
     1
 74
     1
176
     1
 91
        4
176
     1
 64
     7
176
     1
 65
   257
176
     1
 75
     1
176
     1
175
     1
176
     1
 42
1.0
176
     1
 92
        8
176
     1
 66
     7
176
     1
 43
1.0
176
     1
 76
     1
176
     1
 77
     6
176
     1
 78
     2
176
     1
 67
     7
176
     1
 79
     5
176
     1
170
     0
176
     1
171
     0
176
     1
290
     0
176
     1
 93
        1
176
     1
 44
0.0
176
     1
173
     0
176
     1
1001
ACAD
1000
AcRTDxfName
1000
VISUALSTYLE
1000
AcDbSavedByObjectVersion
1070
     0
  0
VISUALSTYLE
  5
26D3
102
{ACAD_XDICTIONARY
360
5DE1
102
}
102
{ACAD_REACTORS
330
26D2
102
}
330
26D2
100
AcDbVisualStyle
  2

 70
     0
177
     2
291
     1
 71
     2
176
     1
 72
     1
176
     1
 73
     1
176
     1
 90
        2
176
     1
 40
0.6
176
     1
 41
30.0
176
     1
 63
     7
176
     1
 74
     0
176
     1
 91
        4
176
     1
 64
     7
176
     1
 65
   257
176
     1
 75
     1
176
     1
175
     1
176
     1
 42
1.0
176
     1
 92
        8
176
     1
 66
     7
176
     1
 43
1.0
176
     1
 76
     1
176
     1
 77
     6
176
     1
 78
     2
176
     1
 67
     7
176
     1
 79
     5
176
     1
170
     0
176
     1
171
     0
176
     1
290
     0
176
     1
 93
       13
176
     1
 44
0.0
176
     1
173
     0
176
     1
1001
ACAD
1000
AcRTDxfName
1000
VISUALSTYLE
1000
AcDbSavedByObjectVersion
1070
     0
  0
VISUALSTYLE
  5
26D4
102
{ACAD_XDICTIONARY
360
5DE3
102
}
102
{ACAD_REACTORS
330
26D2
102
}
330
26D2
100
AcDbVisualStyle
  2

 70
     1
177
     2
291
     1
 71
     2
176
     1
 72
     1
176
     1
 73
     1
176
     1
 90
        2
176
     1
 40
0.6
176
     1
 41
30.0
176
     1
 63
     7
176
     1
 74
     1
176
     1
 91
        4
176
     1
 64
     7
176
     1
 65
   257
176
     1
 75
     1
176
     1
175
     1
176
     1
 42
1.0
176
     1
 92
        0
176
     1
 66
   257
176
     1
 43
1.0
176
     1
 76
     1
176
     1
 77
     6
176
     1
 78
     2
176
     1
 67
     7
176
     1
 79
     5
176
     1
170
     0
176
     1
171
     0
176
     1
290
     0
176
     1
 93
       13
176
     1
 44
0.0
176
     1
173
     0
176
     1
1001
ACAD
1000
AcRTDxfName
1000
VISUALSTYLE
1000
AcDbSavedByObjectVersion
1070
     0
  0
VISUALSTYLE
  5
26D5
102
{ACAD_XDICTIONARY
360
5DE5
102
}
102
{ACAD_REACTORS
330
26D2
102
}
330
26D2
100
AcDbVisualStyle
  2

 70
     2
177
     2
291
     1
 71
     2
176
     1
 72
     2
176
     1
 73
     1
176
     1
 90
        2
176
     1
 40
0.6
176
     1
 41
30.0
176
     1
 63
     7
176
     1
 74
     0
176
     1
 91
        4
176
     1
 64
     7
176
     1
 65
   257
176
     1
 75
     1
176
     1
175
     1
176
     1
 42
1.0
176
     1
 92
        0
176
     1
 66
     7
176
     1
 43
1.0
176
     1
 76
     1
176
     1
 77
     6
176
     1
 78
     2
176
     1
 67
     7
176
     1
 79
     5
176
     1
170
     0
176
     1
171
     0
176
     1
290
     0
176
     1
 93
       13
176
     1
 44
0.0
176
     1
173
     0
176
     1
1001
ACAD
1000
AcRTDxfName
1000
VISUALSTYLE
1000
AcDbSavedByObjectVersion
1070
     0
  0
VISUALSTYLE
  5
26D6
102
{ACAD_XDICTIONARY
360
5DE7
102
}
102
{ACAD_REACTORS
330
26D2
102
}
330
26D2
100
AcDbVisualStyle
  2

 70
     3
177
     2
291
     1
 71
     2
176
     1
 72
     2
176
     1
 73
     1
176
     1
 90
        2
176
     1
 40
0.6
176
     1
 41
30.0
176
     1
 63
     7
176
     1
 74
     1
176
     1
 91
        4
176
     1
 64
     7
176
     1
 65
   257
176
     1
 75
     1
176
     1
175
     1
176
     1
 42
1.0
176
     1
 92
        0
176
     1
 66
   257
176
     1
 43
1.0
176
     1
 76
     1
176
     1
 77
     6
176
     1
 78
     2
176
     1
 67
     7
176
     1
 79
     5
176
     1
170
     0
176
     1
171
     0
176
     1
290
     0
176
     1
 93
       13
176
     1
 44
0.0
176
     1
173
     0
176
     1
1001
ACAD
1000
AcRTDxfName
1000
VISUALSTYLE
1000
AcDbSavedByObjectVersion
1070
     0
  0
VISUALSTYLE
  5
2796
102
{ACAD_XDICTIONARY
360
5E03
102
}
102
{ACAD_REACTORS
330
26D2
102
}
330
26D2
100
AcDbVisualStyle
  2

 70
     6
177
     2
291
     0
 71
     1
176
     1
 72
     2
176
     1
 73
     2
176
     1
 90
        0
176
     1
 40
0.6
176
     1
 41
30.0
176
     1
 63
     7
176
     1
 74
     2
176
     1
 91
        2
176
     1
 64
     7
176
     1
 65
   257
176
     1
 75
     2
176
     1
175
     1
176
     1
 42
40.0
176
     1
 92
        0
176
     1
 66
   257
176
     1
 43
1.0
176
     1
 76
     1
176
     1
 77
     6
176
     1
 78
     2
176
     1
 67
     7
176
     1
 79
     3
176
     1
170
     0
176
     1
171
     0
176
     1
290
     0
176
     1
 93
        1
176
     1
 44
0.0
176
     1
173
     0
176
     1
1001
ACAD
1000
AcDbSavedByObjectVersion
1070
     0
  0
VISUALSTYLE
  5
279C
102
{ACAD_XDICTIONARY
360
5E0F
102
}
102
{ACAD_REACTORS
330
26D2
102
}
330
26D2
100
AcDbVisualStyle
  2

 70
    20
177
     2
291
     1
 71
     2
176
     0
 72
     2
176
     0
 73
     0
176
     0
 90
        0
176
     0
 40
0.6
176
     0
 41
30.0
176
     0
 63
     7
176
     0
 74
     1
176
     0
 91
        4
176
     0
 64
     7
176
     0
 65
   257
176
     0
 75
     1
176
     0
175
     1
176
     0
 42
1.0
176
     0
 92
       10
176
     2
 66
     7
176
     0
 43
1.0
176
     0
 76
     1
176
     0
 77
     6
176
     0
 78
     2
176
     0
 67
     7
176
     0
 79
     5
176
     0
170
     0
176
     0
171
     0
176
     0
290
     0
176
     0
 93
        1
176
     0
 44
0.0
176
     0
173
     0
176
     0
1001
ACAD
1000
AcDbSavedByObjectVersion
1070
     0
  0
VISUALSTYLE
  5
26E0
102
{ACAD_XDICTIONARY
360
5DFB
102
}
102
{ACAD_REACTORS
330
26D2
102
}
330
26D2
100
AcDbVisualStyle
  2

 70
    14
177
     2
291
     1
 71
     2
176
     1
 72
     2
176
     1
 73
     0
176
     1
 90
        0
176
     1
 40
0.6
176
     1
 41
30.0
176
     1
 63
     7
176
     1
 74
     1
176
     1
 91
        4
176
     1
 64
     7
176
     1
 65
   257
176
     1
 75
     7
176
     1
175
     7
176
     1
 42
1.0
176
     1
 92
        8
176
     1
 66
     7
176
     1
 43
1.0
176
     1
 76
     1
176
     1
 77
     6
176
     1
 78
     2
176
     1
 67
     7
176
     1
 79
     5
176
     1
170
     0
176
     1
171
     0
176
     1
290
     0
176
     1
 93
        1
176
     1
 44
0.0
176
     1
173
     0
176
     1
1001
ACAD
1000
AcRTDxfName
1000
VISUALSTYLE
1000
AcDbSavedByObjectVersion
1070
     0
  0
VISUALSTYLE
  5
279D
102
{ACAD_XDICTIONARY
360
5E11
102
}
102
{ACAD_REACTORS
330
26D2
102
}
330
26D2
100
AcDbVisualStyle
  2

 70
    21
177
     2
291
     1
 71
     2
176
     0
 72
     2
176
     0
 73
     0
176
     0
 90
        0
176
     0
 40
0.6
176
     0
 41
30.0
176
     0
 63
     7
176
     0
 74
     1
176
     0
 91
        4
176
     0
 64
     7
176
     0
 65
   257
176
     0
 75
     1
176
     0
175
     1
176
     0
 42
1.0
176
     0
 92
        9
176
     2
 66
     7
176
     0
 43
1.0
176
     0
 76
     1
176
     0
 77
     6
176
     0
 78
     2
176
     0
 67
     7
176
     0
 79
     5
176
     0
170
     0
176
     0
171
     0
176
     0
290
     0
176
     0
 93
        1
176
     0
 44
0.0
176
     0
173
     0
176
     0
1001
ACAD
1000
AcDbSavedByObjectVersion
1070
     0
  0
VISUALSTYLE
  5
26DC
102
{ACAD_XDICTIONARY
360
5DF3
102
}
102
{ACAD_REACTORS
330
26D2
102
}
330
26D2
100
AcDbVisualStyle
  2

 70
     8
177
     2
291
     0
 71
     2
176
     1
 72
     2
176
     1
 73
     0
176
     1
 90
        0
176
     1
 40
0.6
176
     1
 41
30.0
176
     1
 63
     7
176
     1
 74
     1
176
     1
 91
        0
176
     1
 64
     7
176
     1
 65
   257
176
     1
 75
     1
176
     1
175
     1
176
     1
 42
1.0
176
     1
 92
        8
176
     1
 66
     8
176
     1
 43
1.0
176
     1
 76
     1
176
     1
 77
     6
176
     1
 78
     2
176
     1
 67
     7
176
     1
 79
     5
176
     1
170
     0
176
     1
171
     0
176
     1
290
     0
176
     1
 93
       13
176
     1
 44
0.0
176
     1
173
     0
176
     1
1001
ACAD
1000
AcRTDxfName
1000
VISUALSTYLE
1000
AcDbSavedByObjectVersion
1070
     0
  0
VISUALSTYLE
  5
279B
102
{ACAD_XDICTIONARY
360
5E0D
102
}
102
{ACAD_REACTORS
330
26D2
102
}
330
26D2
100
AcDbVisualStyle
  2

 70
    27
177
     2
291
     0
 71
     2
176
     1
 72
     2
176
     1
 73
     1
176
     1
 90
        2
176
     1
 40
0.6
176
     1
 41
30.0
176
     1
 63
     7
176
     1
 74
     0
176
     1
 91
        4
176
     1
 64
     7
176
     1
 65
   257
176
     1
 75
     1
176
     1
175
     1
176
     1
 42
1.0
176
     1
 92
        8
176
     1
 66
   257
176
     1
 43
1.0
176
     1
 76
     1
176
     1
 77
     6
176
     1
 78
     2
176
     1
 67
     8
176
     1
 79
     3
176
     1
170
     0
176
     1
171
     0
176
     1
290
     0
176
     1
 93
        5
176
     1
 44
0.0
176
     1
173
     0
176
     1
1001
ACAD
1000
AcDbSavedByObjectVersion
1070
     0
  0
VISUALSTYLE
  5
279A
102
{ACAD_XDICTIONARY
360
5E0B
102
}
102
{ACAD_REACTORS
330
26D2
102
}
330
26D2
100
AcDbVisualStyle
  2

 70
    26
177
     2
291
     0
 71
     2
176
     1
 72
     2
176
     1
 73
     1
176
     1
 90
        2
176
     1
 40
0.6
176
     1
 41
30.0
176
     1
 63
     7
176
     1
 74
     1
176
     1
 91
        2
176
     1
 64
     7
176
     1
 65
   257
176
     1
 75
     2
176
     1
175
     1
176
     1
 42
1.0
176
     1
 92
        8
176
     1
 66
   257
176
     1
 43
1.0
176
     1
 76
     1
176
     1
 77
     6
176
     1
 78
     2
176
     1
 67
     7
176
     1
 79
     3
176
     1
170
     0
176
     1
171
     0
176
     1
290
     0
176
     1
 93
        5
176
     1
 44
0.0
176
     1
173
     0
176
     1
1001
ACAD
1000
AcDbSavedByObjectVersion
1070
     0
  0
VISUALSTYLE
  5
2797
102
{ACAD_XDICTIONARY
360
5E05
102
}
102
{ACAD_REACTORS
330
26D2
102
}
330
26D2
100
AcDbVisualStyle
  2

 70
    23
177
     2
291
     0
 71
     2
176
     1
 72
     2
176
     1
 73
     3
176
     1
 90
        0
176
     1
 40
0.6
176
     1
 41
30.0
176
     1
 63
     7
176
     1
 74
     2
176
     1
 91
        2
176
     1
 64
     7
176
     1
 65
     7
176
     1
 75
     1
176
     1
175
     1
176
     1
 42
40.0
176
     1
 92
        8
176
     1
 66
     7
176
     1
 43
1.0
176
     1
 76
     1
176
     1
 77
     6
176
     1
 78
     2
176
     1
 67
     7
176
     1
 79
     3
176
     1
170
     0
176
     1
171
     0
176
     1
290
     0
176
     1
 93
        1
176
     1
 44
0.0
176
     1
173
     0
176
     1
1001
ACAD
1000
AcDbSavedByObjectVersion
1070
     0
  0
VISUALSTYLE
  5
2798
102
{ACAD_XDICTIONARY
360
5E07
102
}
102
{ACAD_REACTORS
330
26D2
102
}
330
26D2
100
AcDbVisualStyle
  2

 70
    24
177
     2
291
     0
 71
     1
176
     1
 72
     2
176
     1
 73
     2
176
     1
 90
        0
176
     1
 40
0.6
176
     1
 41
30.0
176
     1
 63
     7
176
     1
 74
     2
176
     1
 91
        2
176
     1
 64
     7
176
     1
 65
     7
176
     1
 75
     1
176
     1
175
     1
176
     1
 42
40.0
176
     1
 92
       11
176
     1
 66
     7
176
     1
 43
1.0
176
     1
 76
     1
176
     1
 77
     6
176
     1
 78
     2
176
     1
 67
     7
176
     1
 79
     6
176
     1
170
     0
176
     1
171
     0
176
     1
290
     0
176
     1
 93
        1
176
     1
 44
0.0
176
     1
173
     0
176
     1
1001
ACAD
1000
AcDbSavedByObjectVersion
1070
     0
  0
VISUALSTYLE
  5
26DF
102
{ACAD_XDICTIONARY
360
5DF9
102
}
102
{ACAD_REACTORS
330
26D2
102
}
330
26D2
100
AcDbVisualStyle
  2

 70
    13
177
     2
291
     1
 71
     2
176
     1
 72
     2
176
     1
 73
     0
176
     1
 90
        0
176
     1
 40
0.6
176
     1
 41
30.0
176
     1
 63
     7
176
     1
 74
     1
176
     1
 91
        4
176
     1
 64
     7
176
     1
 65
   257
176
     1
 75
     1
176
     1
175
     1
176
     1
 42
1.0
176
     1
 92
       12
176
     1
 66
     7
176
     1
 43
1.0
176
     1
 76
     1
176
     1
 77
     6
176
     1
 78
     2
176
     1
 67
     7
176
     1
 79
     5
176
     1
170
     0
176
     1
171
     0
176
     1
290
     0
176
     1
 93
        1
176
     1
 44
0.0
176
     1
173
     0
176
     1
1001
ACAD
1000
AcRTDxfName
1000
VISUALSTYLE
1000
AcDbSavedByObjectVersion
1070
     0
  0
VISUALSTYLE
  5
2795
102
{ACAD_XDICTIONARY
360
5E01
102
}
102
{ACAD_REACTORS
330
26D2
102
}
330
26D2
100
AcDbVisualStyle
  2

 70
     5
177
     2
291
     0
 71
     0
176
     1
 72
     2
176
     1
 73
     0
176
     1
 90
        0
176
     1
 40
0.6
176
     1
 41
30.0
176
     1
 63
     7
176
     1
 74
     1
176
     1
 91
        4
176
     1
 64
     7
176
     1
 65
   257
176
     1
 75
     1
176
     1
175
     1
176
     1
 42
1.0
176
     1
 92
        0
176
     1
 66
   257
176
     1
 43
1.0
176
     1
 76
     1
176
     1
 77
     6
176
     1
 78
     2
176
     1
 67
     7
176
     1
 79
     3
176
     1
170
     0
176
     1
171
     0
176
     1
290
     0
176
     1
 93
        1
176
     1
 44
0.0
176
     1
173
     0
176
     1
1001
ACAD
1000
AcDbSavedByObjectVersion
1070
     0
  0
VISUALSTYLE
  5
2799
102
{ACAD_XDICTIONARY
360
5E09
102
}
102
{ACAD_REACTORS
330
26D2
102
}
330
26D2
100
AcDbVisualStyle
  2

 70
    25
177
     2
291
     0
 71
     2
176
     1
 72
     2
176
     1
 73
     1
176
     1
 90
        1
176
     1
 40
0.5
176
     1
 41
30.0
176
     1
 63
     7
176
     1
 74
     1
176
     1
 91
        0
176
     1
 64
     7
176
     1
 65
   257
176
     1
 75
     1
176
     1
175
     1
176
     1
 42
1.0
176
     1
 92
        8
176
     1
 66
     7
176
     1
 43
1.0
176
     1
 76
     1
176
     1
 77
     6
176
     1
 78
     2
176
     1
 67
     7
176
     1
 79
     3
176
     1
170
     0
176
     1
171
     0
176
     1
290
     0
176
     1
 93
       13
176
     1
 44
0.0
176
     1
173
     0
176
     1
1001
ACAD
1000
AcDbSavedByObjectVersion
1070
     0
  0
DICTIONARYVAR
  5
2745
102
{ACAD_REACTORS
330
16B3
102
}
330
16B3
100
DictionaryVariables
280
     0
  1
1:2
  0
DICTIONARYVAR
  5
2744
102
{ACAD_REACTORS
330
16B3
102
}
330
16B3
100
DictionaryVariables
280
     0
  1
STANDARD
  0
DICTIONARYVAR
  5
2743
102
{ACAD_REACTORS
330
16B3
102
}
330
16B3
100
DictionaryVariables
280
     0
  1
STANDARD
  0
DICTIONARYVAR
  5
28EA
102
{ACAD_REACTORS
330
16B3
102
}
330
16B3
100
DictionaryVariables
280
     0
  1
Metric50
  0
DICTIONARYVAR
  5
28EB
102
{ACAD_REACTORS
330
16B3
102
}
330
16B3
100
DictionaryVariables
280
     0
  1
Metric50
  0
DICTIONARYVAR
  5
16B4
102
{ACAD_REACTORS
330
16B3
102
}
330
16B3
100
DictionaryVariables
280
     0
  1
1
  0
DICTIONARYVAR
  5
2747
102
{ACAD_REACTORS
330
16B3
102
}
330
16B3
100
DictionaryVariables
280
     0
  1
0
  0
DICTIONARYVAR
  5
4E61
102
{ACAD_REACTORS
330
16B3
102
}
330
16B3
100
DictionaryVariables
280
     0
  1
1
  0
DICTIONARYVAR
  5
4E62
102
{ACAD_REACTORS
330
16B3
102
}
330
16B3
100
DictionaryVariables
280
     0
  1
15
  0
DICTIONARYVAR
  5
4E60
102
{ACAD_REACTORS
330
16B3
102
}
330
16B3
100
DictionaryVariables
280
     0
  1
0
  0
DICTIONARYVAR
  5
4E5F
102
{ACAD_REACTORS
330
16B3
102
}
330
16B3
100
DictionaryVariables
280
     0
  1
0
  0
DICTIONARYVAR
  5
16B5
102
{ACAD_REACTORS
330
16B3
102
}
330
16B3
100
DictionaryVariables
280
     0
  1

  0
DICTIONARYVAR
  5
2746
102
{ACAD_REACTORS
330
16B3
102
}
330
16B3
100
DictionaryVariables
280
     0
  1
127
  0
DICTIONARY
  5
5E17
330
2870
100
AcDbDictionary
280
     1
281
     1
  3
ACAD_XREC_ROUNDTRIP
360
5E18
  0
DICTIONARY
  5
26CB
330
26CA
100
AcDbDictionary
280
     1
281
     1
  3
ACAD_XREC_ROUNDTRIP
360
5781
  3
BUMPTILE
360
26CD
  3
DIFFUSETILE
360
26CC
  3
OPACITYTILE
360
26D0
  3
REFLECTIONTILE
360
26CF
  3
REFRACTIONTILE
360
26D1
  3
SPECULARTILE
360
26CE
  0
DICTIONARY
  5
26C3
330
26C2
100
AcDbDictionary
280
     1
281
     1
  3
ACAD_XREC_ROUNDTRIP
360
5780
  3
BUMPTILE
360
26C5
  3
DIFFUSETILE
360
26C4
  3
OPACITYTILE
360
26C8
  3
REFLECTIONTILE
360
26C7
  3
REFRACTIONTILE
360
26C9
  3
SPECULARTILE
360
26C6
  0
DICTIONARY
  5
577E
330
16F3
100
AcDbDictionary
280
     1
281
     1
  3
ACAD_XREC_ROUNDTRIP
360
577F
  0
DICTIONARY
  5
5E15
330
286E
100
AcDbDictionary
280
     1
281
     1
  3
ACAD_XREC_ROUNDTRIP
360
5E16
  0
DICTIONARY
  5
2724
330
26E4
100
AcDbDictionary
280
     1
281
     1
  3
ACAD_ROUNDTRIP_2008_TABLESTYLE_CELLSTYLEMAP
360
5DDD
  0
DICTIONARY
  5
5DEB
330
26D8
100
AcDbDictionary
280
     1
281
     1
  3
ACAD_XREC_ROUNDTRIP
360
5DEC
  0
DICTIONARY
  5
5DEF
330
26DA
100
AcDbDictionary
280
     1
281
     1
  3
ACAD_XREC_ROUNDTRIP
360
5DF0
  0
DICTIONARY
  5
5DED
330
26D9
100
AcDbDictionary
280
     1
281
     1
  3
ACAD_XREC_ROUNDTRIP
360
5DEE
  0
DICTIONARY
  5
5DE9
330
26D7
100
AcDbDictionary
280
     1
281
     1
  3
ACAD_XREC_ROUNDTRIP
360
5DEA
  0
DICTIONARY
  5
5DF7
330
26DE
100
AcDbDictionary
280
     1
281
     1
  3
ACAD_XREC_ROUNDTRIP
360
5DF8
  0
DICTIONARY
  5
5DFF
330
26E2
100
AcDbDictionary
280
     1
281
     1
  3
ACAD_XREC_ROUNDTRIP
360
5E00
  0
DICTIONARY
  5
5DF1
330
26DB
100
AcDbDictionary
280
     1
281
     1
  3
ACAD_XREC_ROUNDTRIP
360
5DF2
  0
DICTIONARY
  5
5DF5
330
26DD
100
AcDbDictionary
280
     1
281
     1
  3
ACAD_XREC_ROUNDTRIP
360
5DF6
  0
DICTIONARY
  5
5E13
330
279E
100
AcDbDictionary
280
     1
281
     1
  3
ACAD_XREC_ROUNDTRIP
360
5E14
  0
DICTIONARY
  5
5DFD
330
26E1
100
AcDbDictionary
280
     1
281
     1
  3
ACAD_XREC_ROUNDTRIP
360
5DFE
  0
DICTIONARY
  5
5DE1
330
26D3
100
AcDbDictionary
280
     1
281
     1
  3
ACAD_XREC_ROUNDTRIP
360
5DE2
  0
DICTIONARY
  5
5DE3
330
26D4
100
AcDbDictionary
280
     1
281
     1
  3
ACAD_XREC_ROUNDTRIP
360
5DE4
  0
DICTIONARY
  5
5DE5
330
26D5
100
AcDbDictionary
280
     1
281
     1
  3
ACAD_XREC_ROUNDTRIP
360
5DE6
  0
DICTIONARY
  5
5DE7
330
26D6
100
AcDbDictionary
280
     1
281
     1
  3
ACAD_XREC_ROUNDTRIP
360
5DE8
  0
DICTIONARY
  5
5E03
330
2796
100
AcDbDictionary
280
     1
281
     1
  3
ACAD_XREC_ROUNDTRIP
360
5E04
  0
DICTIONARY
  5
5E0F
330
279C
100
AcDbDictionary
280
     1
281
     1
  3
ACAD_XREC_ROUNDTRIP
360
5E10
  0
DICTIONARY
  5
5DFB
330
26E0
100
AcDbDictionary
280
     1
281
     1
  3
ACAD_XREC_ROUNDTRIP
360
5DFC
  0
DICTIONARY
  5
5E11
330
279D
100
AcDbDictionary
280
     1
281
     1
  3
ACAD_XREC_ROUNDTRIP
360
5E12
  0
DICTIONARY
  5
5DF3
330
26DC
100
AcDbDictionary
280
     1
281
     1
  3
ACAD_XREC_ROUNDTRIP
360
5DF4
  0
DICTIONARY
  5
5E0D
330
279B
100
AcDbDictionary
280
     1
281
     1
  3
ACAD_XREC_ROUNDTRIP
360
5E0E
  0
DICTIONARY
  5
5E0B
330
279A
100
AcDbDictionary
280
     1
281
     1
  3
ACAD_XREC_ROUNDTRIP
360
5E0C
  0
DICTIONARY
  5
5E05
330
2797
100
AcDbDictionary
280
     1
281
     1
  3
ACAD_XREC_ROUNDTRIP
360
5E06
  0
DICTIONARY
  5
5E07
330
2798
100
AcDbDictionary
280
     1
281
     1
  3
ACAD_XREC_ROUNDTRIP
360
5E08
  0
DICTIONARY
  5
5DF9
330
26DF
100
AcDbDictionary
280
     1
281
     1
  3
ACAD_XREC_ROUNDTRIP
360
5DFA
  0
DICTIONARY
  5
5E01
330
2795
100
AcDbDictionary
280
     1
281
     1
  3
ACAD_XREC_ROUNDTRIP
360
5E02
  0
DICTIONARY
  5
5E09
330
2799
100
AcDbDictionary
280
     1
281
     1
  3
ACAD_XREC_ROUNDTRIP
360
5E0A
  0
XRECORD
  5
5E18
102
{ACAD_REACTORS
330
5E17
102
}
330
5E17
100
AcDbXrecord
280
     1
102
DISPLAYNAME
  1
Metric50
102
FLAGS
 90
        0
  0
XRECORD
  5
5781
102
{ACAD_REACTORS
330
26CB
102
}
330
26CB
100
AcDbXrecord
280
     1
102
MATERIAL
148
0.0
149
0.0
149
0.0
 93
        0
 94
      127
282
     0
 72
     0
 77
     0
171
     0
175
     0
179
     0
273
     0
  0
XRECORD
  5
26CD
102
{ACAD_REACTORS
330
26CB
102
}
330
26CB
100
AcDbXrecord
280
     1
270
     1
271
     1
  0
XRECORD
  5
26CC
102
{ACAD_REACTORS
330
26CB
102
}
330
26CB
100
AcDbXrecord
280
     1
270
     1
271
     1
  0
XRECORD
  5
26D0
102
{ACAD_REACTORS
330
26CB
102
}
330
26CB
100
AcDbXrecord
280
     1
270
     1
271
     1
  0
XRECORD
  5
26CF
102
{ACAD_REACTORS
330
26CB
102
}
330
26CB
100
AcDbXrecord
280
     1
270
     1
271
     1
  0
XRECORD
  5
26D1
102
{ACAD_REACTORS
330
26CB
102
}
330
26CB
100
AcDbXrecord
280
     1
270
     1
271
     1
  0
XRECORD
  5
26CE
102
{ACAD_REACTORS
330
26CB
102
}
330
26CB
100
AcDbXrecord
280
     1
270
     1
271
     1
  0
XRECORD
  5
5780
102
{ACAD_REACTORS
330
26C3
102
}
330
26C3
100
AcDbXrecord
280
     1
102
MATERIAL
148
0.0
149
0.0
149
0.0
 93
        0
 94
      127
282
     0
 72
     0
 77
     0
171
     0
175
     0
179
     0
273
     0
  0
XRECORD
  5
26C5
102
{ACAD_REACTORS
330
26C3
102
}
330
26C3
100
AcDbXrecord
280
     1
270
     1
271
     1
  0
XRECORD
  5
26C4
102
{ACAD_REACTORS
330
26C3
102
}
330
26C3
100
AcDbXrecord
280
     1
270
     1
271
     1
  0
XRECORD
  5
26C8
102
{ACAD_REACTORS
330
26C3
102
}
330
26C3
100
AcDbXrecord
280
     1
270
     1
271
     1
  0
XRECORD
  5
26C7
102
{ACAD_REACTORS
330
26C3
102
}
330
26C3
100
AcDbXrecord
280
     1
270
     1
271
     1
  0
XRECORD
  5
26C9
102
{ACAD_REACTORS
330
26C3
102
}
330
26C3
100
AcDbXrecord
280
     1
270
     1
271
     1
  0
XRECORD
  5
26C6
102
{ACAD_REACTORS
330
26C3
102
}
330
26C3
100
AcDbXrecord
280
     1
270
     1
271
     1
  0
XRECORD
  5
577F
102
{ACAD_REACTORS
330
577E
102
}
330
577E
100
AcDbXrecord
280
     1
102
MATERIAL
148
0.0
149
0.0
149
0.0
 93
        0
 94
       63
282
     0
 72
     1
 77
     1
171
     1
175
     1
179
     1
273
     0
  0
XRECORD
  5
5E16
102
{ACAD_REACTORS
330
5E15
102
}
330
5E15
100
AcDbXrecord
280
     1
102
DISPLAYNAME
  1
Metric50
102
FLAGS
 90
        0
  0
CELLSTYLEMAP
  5
5DDD
102
{ACAD_REACTORS
330
2724
102
}
330
2724
100
AcDbCellStyleMap
 90
        3
300
CELLSTYLE
  1
TABLEFORMAT_BEGIN
 90
        5
170
     1
 91
        0
 92
    32768
 62
   257
 93
        1
300
CONTENTFORMAT
  1
CONTENTFORMAT_BEGIN
 90
        0
 91
        0
 92
      512
 93
        0
300

 40
0.0
140
1.0
 94
        5
 62
     0
340
10
144
6.0
309
CONTENTFORMAT_END
171
     1
301
MARGIN
  1
CELLMARGIN_BEGIN
 40
1.5
 40
1.5
 40
1.5
 40
1.5
 40
0.18
 40
0.18
309
CELLMARGIN_END
 94
        6
 95
        1
302
GRIDFORMAT
  1
GRIDFORMAT_BEGIN
 90
        0
 91
        1
 62
     0
 92
       -2
340
0
 93
        0
 40
1.125
309
GRIDFORMAT_END
 95
        2
302
GRIDFORMAT
  1
GRIDFORMAT_BEGIN
 90
        0
 91
        1
 62
     0
 92
       -2
340
0
 93
        0
 40
1.125
309
GRIDFORMAT_END
 95
        4
302
GRIDFORMAT
  1
GRIDFORMAT_BEGIN
 90
        0
 91
        1
 62
     0
 92
       -2
340
0
 93
        0
 40
1.125
309
GRIDFORMAT_END
 95
        8
302
GRIDFORMAT
  1
GRIDFORMAT_BEGIN
 90
        0
 91
        1
 62
     0
 92
       -2
340
0
 93
        0
 40
1.125
309
GRIDFORMAT_END
 95
       16
302
GRIDFORMAT
  1
GRIDFORMAT_BEGIN
 90
        0
 91
        1
 62
     0
 92
       -2
340
0
 93
        0
 40
1.125
309
GRIDFORMAT_END
 95
       32
302
GRIDFORMAT
  1
GRIDFORMAT_BEGIN
 90
        0
 91
        1
 62
     0
 92
       -2
340
0
 93
        0
 40
1.125
309
GRIDFORMAT_END
309
TABLEFORMAT_END
  1
CELLSTYLE_BEGIN
 90
        1
 91
        1
300
_TITLE
309
CELLSTYLE_END
300
CELLSTYLE
  1
TABLEFORMAT_BEGIN
 90
        5
170
     1
 91
        0
 92
        0
 62
   257
 93
        1
300
CONTENTFORMAT
  1
CONTENTFORMAT_BEGIN
 90
        0
 91
        0
 92
      512
 93
        0
300

 40
0.0
140
1.0
 94
        5
 62
     0
340
10
144
4.5
309
CONTENTFORMAT_END
171
     1
301
MARGIN
  1
CELLMARGIN_BEGIN
 40
1.5
 40
1.5
 40
1.5
 40
1.5
 40
0.18
 40
0.18
309
CELLMARGIN_END
 94
        6
 95
        1
302
GRIDFORMAT
  1
GRIDFORMAT_BEGIN
 90
        0
 91
        1
 62
     0
 92
       -2
340
0
 93
        0
 40
1.125
309
GRIDFORMAT_END
 95
        2
302
GRIDFORMAT
  1
GRIDFORMAT_BEGIN
 90
        0
 91
        1
 62
     0
 92
       -2
340
0
 93
        0
 40
1.125
309
GRIDFORMAT_END
 95
        4
302
GRIDFORMAT
  1
GRIDFORMAT_BEGIN
 90
        0
 91
        1
 62
     0
 92
       -2
340
0
 93
        0
 40
1.125
309
GRIDFORMAT_END
 95
        8
302
GRIDFORMAT
  1
GRIDFORMAT_BEGIN
 90
        0
 91
        1
 62
     0
 92
       -2
340
0
 93
        0
 40
1.125
309
GRIDFORMAT_END
 95
       16
302
GRIDFORMAT
  1
GRIDFORMAT_BEGIN
 90
        0
 91
        1
 62
     0
 92
       -2
340
0
 93
        0
 40
1.125
309
GRIDFORMAT_END
 95
       32
302
GRIDFORMAT
  1
GRIDFORMAT_BEGIN
 90
        0
 91
        1
 62
     0
 92
       -2
340
0
 93
        0
 40
1.125
309
GRIDFORMAT_END
309
TABLEFORMAT_END
  1
CELLSTYLE_BEGIN
 90
        2
 91
        1
300
_HEADER
309
CELLSTYLE_END
300
CELLSTYLE
  1
TABLEFORMAT_BEGIN
 90
        5
170
     1
 91
        0
 92
        0
 62
   257
 93
        1
300
CONTENTFORMAT
  1
CONTENTFORMAT_BEGIN
 90
        0
 91
        0
 92
      512
 93
        0
300

 40
0.0
140
1.0
 94
        2
 62
     0
340
10
144
4.5
309
CONTENTFORMAT_END
171
     1
301
MARGIN
  1
CELLMARGIN_BEGIN
 40
1.5
 40
1.5
 40
1.5
 40
1.5
 40
0.18
 40
0.18
309
CELLMARGIN_END
 94
        6
 95
        1
302
GRIDFORMAT
  1
GRIDFORMAT_BEGIN
 90
        0
 91
        1
 62
     0
 92
       -2
340
0
 93
        0
 40
1.125
309
GRIDFORMAT_END
 95
        2
302
GRIDFORMAT
  1
GRIDFORMAT_BEGIN
 90
        0
 91
        1
 62
     0
 92
       -2
340
0
 93
        0
 40
1.125
309
GRIDFORMAT_END
 95
        4
302
GRIDFORMAT
  1
GRIDFORMAT_BEGIN
 90
        0
 91
        1
 62
     0
 92
       -2
340
0
 93
        0
 40
1.125
309
GRIDFORMAT_END
 95
        8
302
GRIDFORMAT
  1
GRIDFORMAT_BEGIN
 90
        0
 91
        1
 62
     0
 92
       -2
340
0
 93
        0
 40
1.125
309
GRIDFORMAT_END
 95
       16
302
GRIDFORMAT
  1
GRIDFORMAT_BEGIN
 90
        0
 91
        1
 62
     0
 92
       -2
340
0
 93
        0
 40
1.125
309
GRIDFORMAT_END
 95
       32
302
GRIDFORMAT
  1
GRIDFORMAT_BEGIN
 90
        0
 91
        1
 62
     0
 92
       -2
340
0
 93
        0
 40
1.125
309
GRIDFORMAT_END
309
TABLEFORMAT_END
  1
CELLSTYLE_BEGIN
 90
        3
 91
        2
300
_DATA
309
CELLSTYLE_END
  0
XRECORD
  5
5DEC
102
{ACAD_REACTORS
330
5DEB
102
}
330
5DEB
100
AcDbXrecord
280
     1
102
RTVSPost2010Prop28
280
     1
102
RTVSPost2010PropOp28
 70
     1
102
RTVSPost2010Prop29
280
     1
102
RTVSPost2010PropOp29
 70
     1
102
RTVSPost2010Prop30
280
     0
102
RTVSPost2010PropOp30
 70
     1
102
RTVSPost2010Prop31
280
     0
102
RTVSPost2010PropOp31
 70
     1
102
RTVSPost2010Prop32
280
     0
102
RTVSPost2010PropOp32
 70
     1
102
RTVSPost2010Prop33
280
     0
102
RTVSPost2010PropOp33
 70
     1
102
RTVSPost2010Prop34
280
     0
102
RTVSPost2010PropOp34
 70
     1
102
RTVSPost2010Prop35
280
     0
102
RTVSPost2010PropOp35
 70
     1
102
RTVSPost2010Prop36
280
     0
102
RTVSPost2010PropOp36
 70
     1
102
RTVSPost2010Prop37
 90
       50
102
RTVSPost2010PropOp37
 70
     1
102
RTVSPost2010Prop38
140
0.0
102
RTVSPost2010PropOp38
 70
     1
102
RTVSPost2010Prop39
140
1.0
102
RTVSPost2010PropOp39
 70
     1
102
RTVSPost2010Prop40
 90
        0
102
RTVSPost2010PropOp40
 70
     1
102
RTVSPost2010Prop41ColorIndex
 90
       18
102
RTVSPost2010Prop41ColorRGB
 90
        0
102
RTVSPost2010PropOp41
 70
     1
102
RTVSPost2010Prop42
 90
       50
102
RTVSPost2010PropOp42
 70
     1
102
RTVSPost2010Prop43
 90
        3
102
RTVSPost2010PropOp43
 70
     1
102
RTVSPost2010Prop44ColorIndex
 90
        5
102
RTVSPost2010Prop44ColorRGB
 90
      255
102
RTVSPost2010PropOp44
 70
     1
102
RTVSPost2010Prop45
280
     0
102
RTVSPost2010PropOp45
 70
     1
102
RTVSPost2010Prop46
 90
       50
102
RTVSPost2010PropOp46
 70
     1
102
RTVSPost2010Prop47
 90
       50
102
RTVSPost2010PropOp47
 70
     1
102
RTVSPost2010Prop48
 90
       50
102
RTVSPost2010PropOp48
 70
     1
102
RTVSPost2010Prop49
280
     0
102
RTVSPost2010PropOp49
 70
     1
102
RTVSPost2010Prop50
 90
       50
102
RTVSPost2010PropOp50
 70
     1
102
RTVSPost2010Prop51ColorIndex
 90
      256
102
RTVSPost2010Prop51ColorRGB
 90
-16777216
102
RTVSPost2010PropOp51
 70
     0
102
RTVSPost2010Prop52
140
1.0
102
RTVSPost2010PropOp52
 70
     0
102
RTVSPost2010Prop53
 90
        2
102
RTVSPost2010PropOp53
 70
     1
102
RTVSPost2010Prop54
  1
strokes_ogs.tif
102
RTVSPost2010PropOp54
 70
     1
102
RTVSPost2010Prop55
280
     0
102
RTVSPost2010PropOp55
 70
     1
102
RTVSPost2010Prop56
140
1.0
102
RTVSPost2010PropOp56
 70
     1
102
RTVSPost2010Prop57
140
1.0
102
RTVSPost2010PropOp57
 70
     1
  0
XRECORD
  5
5DF0
102
{ACAD_REACTORS
330
5DEF
102
}
330
5DEF
100
AcDbXrecord
280
     1
102
RTVSPost2010Prop28
280
     0
102
RTVSPost2010PropOp28
 70
     1
102
RTVSPost2010Prop29
280
     1
102
RTVSPost2010PropOp29
 70
     1
102
RTVSPost2010Prop30
280
     1
102
RTVSPost2010PropOp30
 70
     1
102
RTVSPost2010Prop31
280
     0
102
RTVSPost2010PropOp31
 70
     1
102
RTVSPost2010Prop32
280
     0
102
RTVSPost2010PropOp32
 70
     1
102
RTVSPost2010Prop33
280
     0
102
RTVSPost2010PropOp33
 70
     1
102
RTVSPost2010Prop34
280
     0
102
RTVSPost2010PropOp34
 70
     1
102
RTVSPost2010Prop35
280
     0
102
RTVSPost2010PropOp35
 70
     1
102
RTVSPost2010Prop36
280
     0
102
RTVSPost2010PropOp36
 70
     1
102
RTVSPost2010Prop37
 90
       50
102
RTVSPost2010PropOp37
 70
     1
102
RTVSPost2010Prop38
140
0.0
102
RTVSPost2010PropOp38
 70
     1
102
RTVSPost2010Prop39
140
1.0
102
RTVSPost2010PropOp39
 70
     1
102
RTVSPost2010Prop40
 90
        0
102
RTVSPost2010PropOp40
 70
     1
102
RTVSPost2010Prop41ColorIndex
 90
       18
102
RTVSPost2010Prop41ColorRGB
 90
        0
102
RTVSPost2010PropOp41
 70
     1
102
RTVSPost2010Prop42
 90
       50
102
RTVSPost2010PropOp42
 70
     1
102
RTVSPost2010Prop43
 90
        3
102
RTVSPost2010PropOp43
 70
     1
102
RTVSPost2010Prop44ColorIndex
 90
        5
102
RTVSPost2010Prop44ColorRGB
 90
      255
102
RTVSPost2010PropOp44
 70
     1
102
RTVSPost2010Prop45
280
     0
102
RTVSPost2010PropOp45
 70
     1
102
RTVSPost2010Prop46
 90
       50
102
RTVSPost2010PropOp46
 70
     1
102
RTVSPost2010Prop47
 90
       50
102
RTVSPost2010PropOp47
 70
     1
102
RTVSPost2010Prop48
 90
       50
102
RTVSPost2010PropOp48
 70
     1
102
RTVSPost2010Prop49
280
     0
102
RTVSPost2010PropOp49
 70
     1
102
RTVSPost2010Prop50
 90
       50
102
RTVSPost2010PropOp50
 70
     1
102
RTVSPost2010Prop51ColorIndex
 90
      256
102
RTVSPost2010Prop51ColorRGB
 90
-16777216
102
RTVSPost2010PropOp51
 70
     0
102
RTVSPost2010Prop52
140
1.0
102
RTVSPost2010PropOp52
 70
     0
102
RTVSPost2010Prop53
 90
        2
102
RTVSPost2010PropOp53
 70
     1
102
RTVSPost2010Prop54
  1
strokes_ogs.tif
102
RTVSPost2010PropOp54
 70
     1
102
RTVSPost2010Prop55
280
     0
102
RTVSPost2010PropOp55
 70
     1
102
RTVSPost2010Prop56
140
1.0
102
RTVSPost2010PropOp56
 70
     1
102
RTVSPost2010Prop57
140
1.0
102
RTVSPost2010PropOp57
 70
     1
  0
XRECORD
  5
5DEE
102
{ACAD_REACTORS
330
5DED
102
}
330
5DED
100
AcDbXrecord
280
     1
102
RTVSPost2010Prop28
280
     0
102
RTVSPost2010PropOp28
 70
     1
102
RTVSPost2010Prop29
280
     1
102
RTVSPost2010PropOp29
 70
     1
102
RTVSPost2010Prop30
280
     1
102
RTVSPost2010PropOp30
 70
     1
102
RTVSPost2010Prop31
280
     0
102
RTVSPost2010PropOp31
 70
     1
102
RTVSPost2010Prop32
280
     0
102
RTVSPost2010PropOp32
 70
     1
102
RTVSPost2010Prop33
280
     0
102
RTVSPost2010PropOp33
 70
     1
102
RTVSPost2010Prop34
280
     0
102
RTVSPost2010PropOp34
 70
     1
102
RTVSPost2010Prop35
280
     0
102
RTVSPost2010PropOp35
 70
     1
102
RTVSPost2010Prop36
280
     0
102
RTVSPost2010PropOp36
 70
     1
102
RTVSPost2010Prop37
 90
       50
102
RTVSPost2010PropOp37
 70
     1
102
RTVSPost2010Prop38
140
0.0
102
RTVSPost2010PropOp38
 70
     1
102
RTVSPost2010Prop39
140
1.0
102
RTVSPost2010PropOp39
 70
     1
102
RTVSPost2010Prop40
 90
        0
102
RTVSPost2010PropOp40
 70
     1
102
RTVSPost2010Prop41ColorIndex
 90
       18
102
RTVSPost2010Prop41ColorRGB
 90
        0
102
RTVSPost2010PropOp41
 70
     1
102
RTVSPost2010Prop42
 90
       50
102
RTVSPost2010PropOp42
 70
     1
102
RTVSPost2010Prop43
 90
        3
102
RTVSPost2010PropOp43
 70
     1
102
RTVSPost2010Prop44ColorIndex
 90
        5
102
RTVSPost2010Prop44ColorRGB
 90
      255
102
RTVSPost2010PropOp44
 70
     1
102
RTVSPost2010Prop45
280
     0
102
RTVSPost2010PropOp45
 70
     1
102
RTVSPost2010Prop46
 90
       50
102
RTVSPost2010PropOp46
 70
     1
102
RTVSPost2010Prop47
 90
       50
102
RTVSPost2010PropOp47
 70
     1
102
RTVSPost2010Prop48
 90
       50
102
RTVSPost2010PropOp48
 70
     1
102
RTVSPost2010Prop49
280
     0
102
RTVSPost2010PropOp49
 70
     1
102
RTVSPost2010Prop50
 90
       50
102
RTVSPost2010PropOp50
 70
     1
102
RTVSPost2010Prop51ColorIndex
 90
      256
102
RTVSPost2010Prop51ColorRGB
 90
-16777216
102
RTVSPost2010PropOp51
 70
     0
102
RTVSPost2010Prop52
140
1.0
102
RTVSPost2010PropOp52
 70
     0
102
RTVSPost2010Prop53
 90
        2
102
RTVSPost2010PropOp53
 70
     1
102
RTVSPost2010Prop54
  1
strokes_ogs.tif
102
RTVSPost2010PropOp54
 70
     1
102
RTVSPost2010Prop55
280
     0
102
RTVSPost2010PropOp55
 70
     1
102
RTVSPost2010Prop56
140
1.0
102
RTVSPost2010PropOp56
 70
     1
102
RTVSPost2010Prop57
140
1.0
102
RTVSPost2010PropOp57
 70
     1
  0
XRECORD
  5
5DEA
102
{ACAD_REACTORS
330
5DE9
102
}
330
5DE9
100
AcDbXrecord
280
     1
102
RTVSPost2010Prop28
280
     0
102
RTVSPost2010PropOp28
 70
     1
102
RTVSPost2010Prop29
280
     1
102
RTVSPost2010PropOp29
 70
     1
102
RTVSPost2010Prop30
280
     1
102
RTVSPost2010PropOp30
 70
     1
102
RTVSPost2010Prop31
280
     0
102
RTVSPost2010PropOp31
 70
     1
102
RTVSPost2010Prop32
280
     0
102
RTVSPost2010PropOp32
 70
     1
102
RTVSPost2010Prop33
280
     0
102
RTVSPost2010PropOp33
 70
     1
102
RTVSPost2010Prop34
280
     0
102
RTVSPost2010PropOp34
 70
     1
102
RTVSPost2010Prop35
280
     0
102
RTVSPost2010PropOp35
 70
     1
102
RTVSPost2010Prop36
280
     0
102
RTVSPost2010PropOp36
 70
     1
102
RTVSPost2010Prop37
 90
       50
102
RTVSPost2010PropOp37
 70
     1
102
RTVSPost2010Prop38
140
0.0
102
RTVSPost2010PropOp38
 70
     1
102
RTVSPost2010Prop39
140
1.0
102
RTVSPost2010PropOp39
 70
     1
102
RTVSPost2010Prop40
 90
        0
102
RTVSPost2010PropOp40
 70
     1
102
RTVSPost2010Prop41ColorIndex
 90
       18
102
RTVSPost2010Prop41ColorRGB
 90
        0
102
RTVSPost2010PropOp41
 70
     1
102
RTVSPost2010Prop42
 90
       50
102
RTVSPost2010PropOp42
 70
     1
102
RTVSPost2010Prop43
 90
        3
102
RTVSPost2010PropOp43
 70
     1
102
RTVSPost2010Prop44ColorIndex
 90
        5
102
RTVSPost2010Prop44ColorRGB
 90
      255
102
RTVSPost2010PropOp44
 70
     1
102
RTVSPost2010Prop45
280
     0
102
RTVSPost2010PropOp45
 70
     1
102
RTVSPost2010Prop46
 90
       50
102
RTVSPost2010PropOp46
 70
     1
102
RTVSPost2010Prop47
 90
       50
102
RTVSPost2010PropOp47
 70
     1
102
RTVSPost2010Prop48
 90
       50
102
RTVSPost2010PropOp48
 70
     1
102
RTVSPost2010Prop49
280
     0
102
RTVSPost2010PropOp49
 70
     1
102
RTVSPost2010Prop50
 90
       50
102
RTVSPost2010PropOp50
 70
     1
102
RTVSPost2010Prop51ColorIndex
 90
      256
102
RTVSPost2010Prop51ColorRGB
 90
-16777216
102
RTVSPost2010PropOp51
 70
     0
102
RTVSPost2010Prop52
140
1.0
102
RTVSPost2010PropOp52
 70
     0
102
RTVSPost2010Prop53
 90
        2
102
RTVSPost2010PropOp53
 70
     1
102
RTVSPost2010Prop54
  1
strokes_ogs.tif
102
RTVSPost2010PropOp54
 70
     1
102
RTVSPost2010Prop55
280
     0
102
RTVSPost2010PropOp55
 70
     1
102
RTVSPost2010Prop56
140
1.0
102
RTVSPost2010PropOp56
 70
     1
102
RTVSPost2010Prop57
140
1.0
102
RTVSPost2010PropOp57
 70
     1
  0
XRECORD
  5
5DF8
102
{ACAD_REACTORS
330
5DF7
102
}
330
5DF7
100
AcDbXrecord
280
     1
102
RTVSPost2010Prop28
280
     0
102
RTVSPost2010PropOp28
 70
     1
102
RTVSPost2010Prop29
280
     1
102
RTVSPost2010PropOp29
 70
     1
102
RTVSPost2010Prop30
280
     1
102
RTVSPost2010PropOp30
 70
     1
102
RTVSPost2010Prop31
280
     0
102
RTVSPost2010PropOp31
 70
     1
102
RTVSPost2010Prop32
280
     0
102
RTVSPost2010PropOp32
 70
     1
102
RTVSPost2010Prop33
280
     0
102
RTVSPost2010PropOp33
 70
     1
102
RTVSPost2010Prop34
280
     0
102
RTVSPost2010PropOp34
 70
     1
102
RTVSPost2010Prop35
280
     0
102
RTVSPost2010PropOp35
 70
     1
102
RTVSPost2010Prop36
280
     0
102
RTVSPost2010PropOp36
 70
     1
102
RTVSPost2010Prop37
 90
       50
102
RTVSPost2010PropOp37
 70
     1
102
RTVSPost2010Prop38
140
0.0
102
RTVSPost2010PropOp38
 70
     1
102
RTVSPost2010Prop39
140
1.0
102
RTVSPost2010PropOp39
 70
     1
102
RTVSPost2010Prop40
 90
        0
102
RTVSPost2010PropOp40
 70
     1
102
RTVSPost2010Prop41ColorIndex
 90
       18
102
RTVSPost2010Prop41ColorRGB
 90
        0
102
RTVSPost2010PropOp41
 70
     1
102
RTVSPost2010Prop42
 90
       50
102
RTVSPost2010PropOp42
 70
     1
102
RTVSPost2010Prop43
 90
        3
102
RTVSPost2010PropOp43
 70
     1
102
RTVSPost2010Prop44ColorIndex
 90
        5
102
RTVSPost2010Prop44ColorRGB
 90
      255
102
RTVSPost2010PropOp44
 70
     1
102
RTVSPost2010Prop45
280
     0
102
RTVSPost2010PropOp45
 70
     1
102
RTVSPost2010Prop46
 90
       50
102
RTVSPost2010PropOp46
 70
     1
102
RTVSPost2010Prop47
 90
       50
102
RTVSPost2010PropOp47
 70
     1
102
RTVSPost2010Prop48
 90
       50
102
RTVSPost2010PropOp48
 70
     1
102
RTVSPost2010Prop49
280
     0
102
RTVSPost2010PropOp49
 70
     1
102
RTVSPost2010Prop50
 90
       50
102
RTVSPost2010PropOp50
 70
     1
102
RTVSPost2010Prop51ColorIndex
 90
      256
102
RTVSPost2010Prop51ColorRGB
 90
-16777216
102
RTVSPost2010PropOp51
 70
     0
102
RTVSPost2010Prop52
140
1.0
102
RTVSPost2010PropOp52
 70
     0
102
RTVSPost2010Prop53
 90
        2
102
RTVSPost2010PropOp53
 70
     1
102
RTVSPost2010Prop54
  1
strokes_ogs.tif
102
RTVSPost2010PropOp54
 70
     1
102
RTVSPost2010Prop55
280
     0
102
RTVSPost2010PropOp55
 70
     1
102
RTVSPost2010Prop56
140
1.0
102
RTVSPost2010PropOp56
 70
     1
102
RTVSPost2010Prop57
140
1.0
102
RTVSPost2010PropOp57
 70
     1
  0
XRECORD
  5
5E00
102
{ACAD_REACTORS
330
5DFF
102
}
330
5DFF
100
AcDbXrecord
280
     1
102
RTVSPost2010Prop28
280
     0
102
RTVSPost2010PropOp28
 70
     1
102
RTVSPost2010Prop29
280
     1
102
RTVSPost2010PropOp29
 70
     1
102
RTVSPost2010Prop30
280
     1
102
RTVSPost2010PropOp30
 70
     1
102
RTVSPost2010Prop31
280
     0
102
RTVSPost2010PropOp31
 70
     1
102
RTVSPost2010Prop32
280
     0
102
RTVSPost2010PropOp32
 70
     1
102
RTVSPost2010Prop33
280
     0
102
RTVSPost2010PropOp33
 70
     1
102
RTVSPost2010Prop34
280
     0
102
RTVSPost2010PropOp34
 70
     1
102
RTVSPost2010Prop35
280
     0
102
RTVSPost2010PropOp35
 70
     1
102
RTVSPost2010Prop36
280
     0
102
RTVSPost2010PropOp36
 70
     1
102
RTVSPost2010Prop37
 90
       50
102
RTVSPost2010PropOp37
 70
     1
102
RTVSPost2010Prop38
140
0.0
102
RTVSPost2010PropOp38
 70
     1
102
RTVSPost2010Prop39
140
1.0
102
RTVSPost2010PropOp39
 70
     1
102
RTVSPost2010Prop40
 90
        0
102
RTVSPost2010PropOp40
 70
     1
102
RTVSPost2010Prop41ColorIndex
 90
       18
102
RTVSPost2010Prop41ColorRGB
 90
        0
102
RTVSPost2010PropOp41
 70
     1
102
RTVSPost2010Prop42
 90
       50
102
RTVSPost2010PropOp42
 70
     1
102
RTVSPost2010Prop43
 90
        3
102
RTVSPost2010PropOp43
 70
     1
102
RTVSPost2010Prop44ColorIndex
 90
        5
102
RTVSPost2010Prop44ColorRGB
 90
      255
102
RTVSPost2010PropOp44
 70
     1
102
RTVSPost2010Prop45
280
     0
102
RTVSPost2010PropOp45
 70
     1
102
RTVSPost2010Prop46
 90
       50
102
RTVSPost2010PropOp46
 70
     1
102
RTVSPost2010Prop47
 90
       50
102
RTVSPost2010PropOp47
 70
     1
102
RTVSPost2010Prop48
 90
       50
102
RTVSPost2010PropOp48
 70
     1
102
RTVSPost2010Prop49
280
     0
102
RTVSPost2010PropOp49
 70
     1
102
RTVSPost2010Prop50
 90
       50
102
RTVSPost2010PropOp50
 70
     1
102
RTVSPost2010Prop51ColorIndex
 90
      256
102
RTVSPost2010Prop51ColorRGB
 90
-16777216
102
RTVSPost2010PropOp51
 70
     0
102
RTVSPost2010Prop52
140
1.0
102
RTVSPost2010PropOp52
 70
     0
102
RTVSPost2010Prop53
 90
        2
102
RTVSPost2010PropOp53
 70
     1
102
RTVSPost2010Prop54
  1
strokes_ogs.tif
102
RTVSPost2010PropOp54
 70
     1
102
RTVSPost2010Prop55
280
     0
102
RTVSPost2010PropOp55
 70
     1
102
RTVSPost2010Prop56
140
1.0
102
RTVSPost2010PropOp56
 70
     1
102
RTVSPost2010Prop57
140
1.0
102
RTVSPost2010PropOp57
 70
     1
  0
XRECORD
  5
5DF2
102
{ACAD_REACTORS
330
5DF1
102
}
330
5DF1
100
AcDbXrecord
280
     1
102
RTVSPost2010Prop28
280
     0
102
RTVSPost2010PropOp28
 70
     1
102
RTVSPost2010Prop29
280
     1
102
RTVSPost2010PropOp29
 70
     1
102
RTVSPost2010Prop30
280
     1
102
RTVSPost2010PropOp30
 70
     1
102
RTVSPost2010Prop31
280
     0
102
RTVSPost2010PropOp31
 70
     1
102
RTVSPost2010Prop32
280
     0
102
RTVSPost2010PropOp32
 70
     1
102
RTVSPost2010Prop33
280
     0
102
RTVSPost2010PropOp33
 70
     1
102
RTVSPost2010Prop34
280
     0
102
RTVSPost2010PropOp34
 70
     1
102
RTVSPost2010Prop35
280
     0
102
RTVSPost2010PropOp35
 70
     1
102
RTVSPost2010Prop36
280
     0
102
RTVSPost2010PropOp36
 70
     1
102
RTVSPost2010Prop37
 90
       50
102
RTVSPost2010PropOp37
 70
     1
102
RTVSPost2010Prop38
140
0.0
102
RTVSPost2010PropOp38
 70
     1
102
RTVSPost2010Prop39
140
1.0
102
RTVSPost2010PropOp39
 70
     1
102
RTVSPost2010Prop40
 90
        0
102
RTVSPost2010PropOp40
 70
     1
102
RTVSPost2010Prop41ColorIndex
 90
       18
102
RTVSPost2010Prop41ColorRGB
 90
        0
102
RTVSPost2010PropOp41
 70
     1
102
RTVSPost2010Prop42
 90
       50
102
RTVSPost2010PropOp42
 70
     1
102
RTVSPost2010Prop43
 90
        3
102
RTVSPost2010PropOp43
 70
     1
102
RTVSPost2010Prop44ColorIndex
 90
        5
102
RTVSPost2010Prop44ColorRGB
 90
      255
102
RTVSPost2010PropOp44
 70
     1
102
RTVSPost2010Prop45
280
     0
102
RTVSPost2010PropOp45
 70
     1
102
RTVSPost2010Prop46
 90
       50
102
RTVSPost2010PropOp46
 70
     1
102
RTVSPost2010Prop47
 90
       50
102
RTVSPost2010PropOp47
 70
     1
102
RTVSPost2010Prop48
 90
       50
102
RTVSPost2010PropOp48
 70
     1
102
RTVSPost2010Prop49
280
     0
102
RTVSPost2010PropOp49
 70
     1
102
RTVSPost2010Prop50
 90
       50
102
RTVSPost2010PropOp50
 70
     1
102
RTVSPost2010Prop51ColorIndex
 90
      256
102
RTVSPost2010Prop51ColorRGB
 90
-16777216
102
RTVSPost2010PropOp51
 70
     0
102
RTVSPost2010Prop52
140
1.0
102
RTVSPost2010PropOp52
 70
     0
102
RTVSPost2010Prop53
 90
        2
102
RTVSPost2010PropOp53
 70
     1
102
RTVSPost2010Prop54
  1
strokes_ogs.tif
102
RTVSPost2010PropOp54
 70
     1
102
RTVSPost2010Prop55
280
     0
102
RTVSPost2010PropOp55
 70
     1
102
RTVSPost2010Prop56
140
1.0
102
RTVSPost2010PropOp56
 70
     1
102
RTVSPost2010Prop57
140
1.0
102
RTVSPost2010PropOp57
 70
     1
  0
XRECORD
  5
5DF6
102
{ACAD_REACTORS
330
5DF5
102
}
330
5DF5
100
AcDbXrecord
280
     1
102
RTVSPost2010Prop28
280
     0
102
RTVSPost2010PropOp28
 70
     1
102
RTVSPost2010Prop29
280
     1
102
RTVSPost2010PropOp29
 70
     1
102
RTVSPost2010Prop30
280
     1
102
RTVSPost2010PropOp30
 70
     1
102
RTVSPost2010Prop31
280
     0
102
RTVSPost2010PropOp31
 70
     1
102
RTVSPost2010Prop32
280
     0
102
RTVSPost2010PropOp32
 70
     1
102
RTVSPost2010Prop33
280
     0
102
RTVSPost2010PropOp33
 70
     1
102
RTVSPost2010Prop34
280
     0
102
RTVSPost2010PropOp34
 70
     1
102
RTVSPost2010Prop35
280
     0
102
RTVSPost2010PropOp35
 70
     1
102
RTVSPost2010Prop36
280
     0
102
RTVSPost2010PropOp36
 70
     1
102
RTVSPost2010Prop37
 90
       50
102
RTVSPost2010PropOp37
 70
     1
102
RTVSPost2010Prop38
140
0.0
102
RTVSPost2010PropOp38
 70
     1
102
RTVSPost2010Prop39
140
1.0
102
RTVSPost2010PropOp39
 70
     1
102
RTVSPost2010Prop40
 90
        0
102
RTVSPost2010PropOp40
 70
     1
102
RTVSPost2010Prop41ColorIndex
 90
       18
102
RTVSPost2010Prop41ColorRGB
 90
        0
102
RTVSPost2010PropOp41
 70
     1
102
RTVSPost2010Prop42
 90
       50
102
RTVSPost2010PropOp42
 70
     1
102
RTVSPost2010Prop43
 90
        3
102
RTVSPost2010PropOp43
 70
     1
102
RTVSPost2010Prop44ColorIndex
 90
        5
102
RTVSPost2010Prop44ColorRGB
 90
      255
102
RTVSPost2010PropOp44
 70
     1
102
RTVSPost2010Prop45
280
     0
102
RTVSPost2010PropOp45
 70
     1
102
RTVSPost2010Prop46
 90
       50
102
RTVSPost2010PropOp46
 70
     1
102
RTVSPost2010Prop47
 90
       50
102
RTVSPost2010PropOp47
 70
     1
102
RTVSPost2010Prop48
 90
       50
102
RTVSPost2010PropOp48
 70
     1
102
RTVSPost2010Prop49
280
     0
102
RTVSPost2010PropOp49
 70
     1
102
RTVSPost2010Prop50
 90
       50
102
RTVSPost2010PropOp50
 70
     1
102
RTVSPost2010Prop51ColorIndex
 90
      256
102
RTVSPost2010Prop51ColorRGB
 90
-16777216
102
RTVSPost2010PropOp51
 70
     0
102
RTVSPost2010Prop52
140
1.0
102
RTVSPost2010PropOp52
 70
     0
102
RTVSPost2010Prop53
 90
        2
102
RTVSPost2010PropOp53
 70
     1
102
RTVSPost2010Prop54
  1
strokes_ogs.tif
102
RTVSPost2010PropOp54
 70
     1
102
RTVSPost2010Prop55
280
     0
102
RTVSPost2010PropOp55
 70
     1
102
RTVSPost2010Prop56
140
1.0
102
RTVSPost2010PropOp56
 70
     1
102
RTVSPost2010Prop57
140
1.0
102
RTVSPost2010PropOp57
 70
     1
  0
XRECORD
  5
5E14
102
{ACAD_REACTORS
330
5E13
102
}
330
5E13
100
AcDbXrecord
280
     1
102
RTVSPost2010Prop28
280
     0
102
RTVSPost2010PropOp28
 70
     1
102
RTVSPost2010Prop29
280
     1
102
RTVSPost2010PropOp29
 70
     1
102
RTVSPost2010Prop30
280
     1
102
RTVSPost2010PropOp30
 70
     1
102
RTVSPost2010Prop31
280
     0
102
RTVSPost2010PropOp31
 70
     1
102
RTVSPost2010Prop32
280
     0
102
RTVSPost2010PropOp32
 70
     1
102
RTVSPost2010Prop33
280
     0
102
RTVSPost2010PropOp33
 70
     1
102
RTVSPost2010Prop34
280
     0
102
RTVSPost2010PropOp34
 70
     1
102
RTVSPost2010Prop35
280
     0
102
RTVSPost2010PropOp35
 70
     1
102
RTVSPost2010Prop36
280
     0
102
RTVSPost2010PropOp36
 70
     1
102
RTVSPost2010Prop37
 90
       50
102
RTVSPost2010PropOp37
 70
     1
102
RTVSPost2010Prop38
140
0.0
102
RTVSPost2010PropOp38
 70
     1
102
RTVSPost2010Prop39
140
1.0
102
RTVSPost2010PropOp39
 70
     1
102
RTVSPost2010Prop40
 90
        0
102
RTVSPost2010PropOp40
 70
     1
102
RTVSPost2010Prop41ColorIndex
 90
       18
102
RTVSPost2010Prop41ColorRGB
 90
        0
102
RTVSPost2010PropOp41
 70
     1
102
RTVSPost2010Prop42
 90
       50
102
RTVSPost2010PropOp42
 70
     1
102
RTVSPost2010Prop43
 90
        3
102
RTVSPost2010PropOp43
 70
     1
102
RTVSPost2010Prop44ColorIndex
 90
        5
102
RTVSPost2010Prop44ColorRGB
 90
      255
102
RTVSPost2010PropOp44
 70
     1
102
RTVSPost2010Prop45
280
     0
102
RTVSPost2010PropOp45
 70
     1
102
RTVSPost2010Prop46
 90
       50
102
RTVSPost2010PropOp46
 70
     1
102
RTVSPost2010Prop47
 90
       50
102
RTVSPost2010PropOp47
 70
     1
102
RTVSPost2010Prop48
 90
       50
102
RTVSPost2010PropOp48
 70
     1
102
RTVSPost2010Prop49
280
     0
102
RTVSPost2010PropOp49
 70
     1
102
RTVSPost2010Prop50
 90
       50
102
RTVSPost2010PropOp50
 70
     1
102
RTVSPost2010Prop51ColorIndex
 90
      256
102
RTVSPost2010Prop51ColorRGB
 90
-16777216
102
RTVSPost2010PropOp51
 70
     0
102
RTVSPost2010Prop52
140
1.0
102
RTVSPost2010PropOp52
 70
     0
102
RTVSPost2010Prop53
 90
        2
102
RTVSPost2010PropOp53
 70
     1
102
RTVSPost2010Prop54
  1
strokes_ogs.tif
102
RTVSPost2010PropOp54
 70
     1
102
RTVSPost2010Prop55
280
     0
102
RTVSPost2010PropOp55
 70
     1
102
RTVSPost2010Prop56
140
1.0
102
RTVSPost2010PropOp56
 70
     1
102
RTVSPost2010Prop57
140
1.0
102
RTVSPost2010PropOp57
 70
     1
  0
XRECORD
  5
5DFE
102
{ACAD_REACTORS
330
5DFD
102
}
330
5DFD
100
AcDbXrecord
280
     1
102
RTVSPost2010Prop28
280
     0
102
RTVSPost2010PropOp28
 70
     1
102
RTVSPost2010Prop29
280
     1
102
RTVSPost2010PropOp29
 70
     1
102
RTVSPost2010Prop30
280
     1
102
RTVSPost2010PropOp30
 70
     1
102
RTVSPost2010Prop31
280
     0
102
RTVSPost2010PropOp31
 70
     1
102
RTVSPost2010Prop32
280
     0
102
RTVSPost2010PropOp32
 70
     1
102
RTVSPost2010Prop33
280
     0
102
RTVSPost2010PropOp33
 70
     1
102
RTVSPost2010Prop34
280
     0
102
RTVSPost2010PropOp34
 70
     1
102
RTVSPost2010Prop35
280
     0
102
RTVSPost2010PropOp35
 70
     1
102
RTVSPost2010Prop36
280
     0
102
RTVSPost2010PropOp36
 70
     1
102
RTVSPost2010Prop37
 90
       50
102
RTVSPost2010PropOp37
 70
     1
102
RTVSPost2010Prop38
140
0.0
102
RTVSPost2010PropOp38
 70
     1
102
RTVSPost2010Prop39
140
1.0
102
RTVSPost2010PropOp39
 70
     1
102
RTVSPost2010Prop40
 90
        0
102
RTVSPost2010PropOp40
 70
     1
102
RTVSPost2010Prop41ColorIndex
 90
       18
102
RTVSPost2010Prop41ColorRGB
 90
        0
102
RTVSPost2010PropOp41
 70
     1
102
RTVSPost2010Prop42
 90
       50
102
RTVSPost2010PropOp42
 70
     1
102
RTVSPost2010Prop43
 90
        3
102
RTVSPost2010PropOp43
 70
     1
102
RTVSPost2010Prop44ColorIndex
 90
        5
102
RTVSPost2010Prop44ColorRGB
 90
      255
102
RTVSPost2010PropOp44
 70
     1
102
RTVSPost2010Prop45
280
     0
102
RTVSPost2010PropOp45
 70
     1
102
RTVSPost2010Prop46
 90
       50
102
RTVSPost2010PropOp46
 70
     1
102
RTVSPost2010Prop47
 90
       50
102
RTVSPost2010PropOp47
 70
     1
102
RTVSPost2010Prop48
 90
       50
102
RTVSPost2010PropOp48
 70
     1
102
RTVSPost2010Prop49
280
     0
102
RTVSPost2010PropOp49
 70
     1
102
RTVSPost2010Prop50
 90
       50
102
RTVSPost2010PropOp50
 70
     1
102
RTVSPost2010Prop51ColorIndex
 90
      256
102
RTVSPost2010Prop51ColorRGB
 90
-16777216
102
RTVSPost2010PropOp51
 70
     0
102
RTVSPost2010Prop52
140
1.0
102
RTVSPost2010PropOp52
 70
     0
102
RTVSPost2010Prop53
 90
        2
102
RTVSPost2010PropOp53
 70
     1
102
RTVSPost2010Prop54
  1
strokes_ogs.tif
102
RTVSPost2010PropOp54
 70
     1
102
RTVSPost2010Prop55
280
     0
102
RTVSPost2010PropOp55
 70
     1
102
RTVSPost2010Prop56
140
1.0
102
RTVSPost2010PropOp56
 70
     1
102
RTVSPost2010Prop57
140
1.0
102
RTVSPost2010PropOp57
 70
     1
  0
XRECORD
  5
5DE2
102
{ACAD_REACTORS
330
5DE1
102
}
330
5DE1
100
AcDbXrecord
280
     1
102
RTVSPost2010Prop28
280
     0
102
RTVSPost2010PropOp28
 70
     1
102
RTVSPost2010Prop29
280
     1
102
RTVSPost2010PropOp29
 70
     1
102
RTVSPost2010Prop30
280
     1
102
RTVSPost2010PropOp30
 70
     1
102
RTVSPost2010Prop31
280
     0
102
RTVSPost2010PropOp31
 70
     1
102
RTVSPost2010Prop32
280
     0
102
RTVSPost2010PropOp32
 70
     1
102
RTVSPost2010Prop33
280
     0
102
RTVSPost2010PropOp33
 70
     1
102
RTVSPost2010Prop34
280
     0
102
RTVSPost2010PropOp34
 70
     1
102
RTVSPost2010Prop35
280
     0
102
RTVSPost2010PropOp35
 70
     1
102
RTVSPost2010Prop36
280
     0
102
RTVSPost2010PropOp36
 70
     1
102
RTVSPost2010Prop37
 90
       50
102
RTVSPost2010PropOp37
 70
     1
102
RTVSPost2010Prop38
140
0.0
102
RTVSPost2010PropOp38
 70
     1
102
RTVSPost2010Prop39
140
1.0
102
RTVSPost2010PropOp39
 70
     1
102
RTVSPost2010Prop40
 90
        0
102
RTVSPost2010PropOp40
 70
     1
102
RTVSPost2010Prop41ColorIndex
 90
       18
102
RTVSPost2010Prop41ColorRGB
 90
        0
102
RTVSPost2010PropOp41
 70
     1
102
RTVSPost2010Prop42
 90
       50
102
RTVSPost2010PropOp42
 70
     1
102
RTVSPost2010Prop43
 90
        3
102
RTVSPost2010PropOp43
 70
     1
102
RTVSPost2010Prop44ColorIndex
 90
        5
102
RTVSPost2010Prop44ColorRGB
 90
      255
102
RTVSPost2010PropOp44
 70
     1
102
RTVSPost2010Prop45
280
     0
102
RTVSPost2010PropOp45
 70
     1
102
RTVSPost2010Prop46
 90
       50
102
RTVSPost2010PropOp46
 70
     1
102
RTVSPost2010Prop47
 90
       50
102
RTVSPost2010PropOp47
 70
     1
102
RTVSPost2010Prop48
 90
       50
102
RTVSPost2010PropOp48
 70
     1
102
RTVSPost2010Prop49
280
     0
102
RTVSPost2010PropOp49
 70
     1
102
RTVSPost2010Prop50
 90
       50
102
RTVSPost2010PropOp50
 70
     1
102
RTVSPost2010Prop51ColorIndex
 90
      256
102
RTVSPost2010Prop51ColorRGB
 90
-16777216
102
RTVSPost2010PropOp51
 70
     0
102
RTVSPost2010Prop52
140
1.0
102
RTVSPost2010PropOp52
 70
     0
102
RTVSPost2010Prop53
 90
        2
102
RTVSPost2010PropOp53
 70
     1
102
RTVSPost2010Prop54
  1
strokes_ogs.tif
102
RTVSPost2010PropOp54
 70
     1
102
RTVSPost2010Prop55
280
     0
102
RTVSPost2010PropOp55
 70
     1
102
RTVSPost2010Prop56
140
1.0
102
RTVSPost2010PropOp56
 70
     1
102
RTVSPost2010Prop57
140
1.0
102
RTVSPost2010PropOp57
 70
     1
  0
XRECORD
  5
5DE4
102
{ACAD_REACTORS
330
5DE3
102
}
330
5DE3
100
AcDbXrecord
280
     1
102
RTVSPost2010Prop28
280
     0
102
RTVSPost2010PropOp28
 70
     1
102
RTVSPost2010Prop29
280
     1
102
RTVSPost2010PropOp29
 70
     1
102
RTVSPost2010Prop30
280
     1
102
RTVSPost2010PropOp30
 70
     1
102
RTVSPost2010Prop31
280
     0
102
RTVSPost2010PropOp31
 70
     1
102
RTVSPost2010Prop32
280
     0
102
RTVSPost2010PropOp32
 70
     1
102
RTVSPost2010Prop33
280
     0
102
RTVSPost2010PropOp33
 70
     1
102
RTVSPost2010Prop34
280
     0
102
RTVSPost2010PropOp34
 70
     1
102
RTVSPost2010Prop35
280
     0
102
RTVSPost2010PropOp35
 70
     1
102
RTVSPost2010Prop36
280
     0
102
RTVSPost2010PropOp36
 70
     1
102
RTVSPost2010Prop37
 90
       50
102
RTVSPost2010PropOp37
 70
     1
102
RTVSPost2010Prop38
140
0.0
102
RTVSPost2010PropOp38
 70
     1
102
RTVSPost2010Prop39
140
1.0
102
RTVSPost2010PropOp39
 70
     1
102
RTVSPost2010Prop40
 90
        0
102
RTVSPost2010PropOp40
 70
     1
102
RTVSPost2010Prop41ColorIndex
 90
       18
102
RTVSPost2010Prop41ColorRGB
 90
        0
102
RTVSPost2010PropOp41
 70
     1
102
RTVSPost2010Prop42
 90
       50
102
RTVSPost2010PropOp42
 70
     1
102
RTVSPost2010Prop43
 90
        3
102
RTVSPost2010PropOp43
 70
     1
102
RTVSPost2010Prop44ColorIndex
 90
        5
102
RTVSPost2010Prop44ColorRGB
 90
      255
102
RTVSPost2010PropOp44
 70
     1
102
RTVSPost2010Prop45
280
     0
102
RTVSPost2010PropOp45
 70
     1
102
RTVSPost2010Prop46
 90
       50
102
RTVSPost2010PropOp46
 70
     1
102
RTVSPost2010Prop47
 90
       50
102
RTVSPost2010PropOp47
 70
     1
102
RTVSPost2010Prop48
 90
       50
102
RTVSPost2010PropOp48
 70
     1
102
RTVSPost2010Prop49
280
     0
102
RTVSPost2010PropOp49
 70
     1
102
RTVSPost2010Prop50
 90
       50
102
RTVSPost2010PropOp50
 70
     1
102
RTVSPost2010Prop51ColorIndex
 90
      256
102
RTVSPost2010Prop51ColorRGB
 90
-16777216
102
RTVSPost2010PropOp51
 70
     0
102
RTVSPost2010Prop52
140
1.0
102
RTVSPost2010PropOp52
 70
     0
102
RTVSPost2010Prop53
 90
        2
102
RTVSPost2010PropOp53
 70
     1
102
RTVSPost2010Prop54
  1
strokes_ogs.tif
102
RTVSPost2010PropOp54
 70
     1
102
RTVSPost2010Prop55
280
     0
102
RTVSPost2010PropOp55
 70
     1
102
RTVSPost2010Prop56
140
1.0
102
RTVSPost2010PropOp56
 70
     1
102
RTVSPost2010Prop57
140
1.0
102
RTVSPost2010PropOp57
 70
     1
  0
XRECORD
  5
5DE6
102
{ACAD_REACTORS
330
5DE5
102
}
330
5DE5
100
AcDbXrecord
280
     1
102
RTVSPost2010Prop28
280
     0
102
RTVSPost2010PropOp28
 70
     1
102
RTVSPost2010Prop29
280
     1
102
RTVSPost2010PropOp29
 70
     1
102
RTVSPost2010Prop30
280
     1
102
RTVSPost2010PropOp30
 70
     1
102
RTVSPost2010Prop31
280
     0
102
RTVSPost2010PropOp31
 70
     1
102
RTVSPost2010Prop32
280
     0
102
RTVSPost2010PropOp32
 70
     1
102
RTVSPost2010Prop33
280
     0
102
RTVSPost2010PropOp33
 70
     1
102
RTVSPost2010Prop34
280
     0
102
RTVSPost2010PropOp34
 70
     1
102
RTVSPost2010Prop35
280
     0
102
RTVSPost2010PropOp35
 70
     1
102
RTVSPost2010Prop36
280
     0
102
RTVSPost2010PropOp36
 70
     1
102
RTVSPost2010Prop37
 90
       50
102
RTVSPost2010PropOp37
 70
     1
102
RTVSPost2010Prop38
140
0.0
102
RTVSPost2010PropOp38
 70
     1
102
RTVSPost2010Prop39
140
1.0
102
RTVSPost2010PropOp39
 70
     1
102
RTVSPost2010Prop40
 90
        0
102
RTVSPost2010PropOp40
 70
     1
102
RTVSPost2010Prop41ColorIndex
 90
       18
102
RTVSPost2010Prop41ColorRGB
 90
        0
102
RTVSPost2010PropOp41
 70
     1
102
RTVSPost2010Prop42
 90
       50
102
RTVSPost2010PropOp42
 70
     1
102
RTVSPost2010Prop43
 90
        3
102
RTVSPost2010PropOp43
 70
     1
102
RTVSPost2010Prop44ColorIndex
 90
        5
102
RTVSPost2010Prop44ColorRGB
 90
      255
102
RTVSPost2010PropOp44
 70
     1
102
RTVSPost2010Prop45
280
     0
102
RTVSPost2010PropOp45
 70
     1
102
RTVSPost2010Prop46
 90
       50
102
RTVSPost2010PropOp46
 70
     1
102
RTVSPost2010Prop47
 90
       50
102
RTVSPost2010PropOp47
 70
     1
102
RTVSPost2010Prop48
 90
       50
102
RTVSPost2010PropOp48
 70
     1
102
RTVSPost2010Prop49
280
     0
102
RTVSPost2010PropOp49
 70
     1
102
RTVSPost2010Prop50
 90
       50
102
RTVSPost2010PropOp50
 70
     1
102
RTVSPost2010Prop51ColorIndex
 90
      256
102
RTVSPost2010Prop51ColorRGB
 90
-16777216
102
RTVSPost2010PropOp51
 70
     0
102
RTVSPost2010Prop52
140
1.0
102
RTVSPost2010PropOp52
 70
     0
102
RTVSPost2010Prop53
 90
        2
102
RTVSPost2010PropOp53
 70
     1
102
RTVSPost2010Prop54
  1
strokes_ogs.tif
102
RTVSPost2010PropOp54
 70
     1
102
RTVSPost2010Prop55
280
     0
102
RTVSPost2010PropOp55
 70
     1
102
RTVSPost2010Prop56
140
1.0
102
RTVSPost2010PropOp56
 70
     1
102
RTVSPost2010Prop57
140
1.0
102
RTVSPost2010PropOp57
 70
     1
  0
XRECORD
  5
5DE8
102
{ACAD_REACTORS
330
5DE7
102
}
330
5DE7
100
AcDbXrecord
280
     1
102
RTVSPost2010Prop28
280
     0
102
RTVSPost2010PropOp28
 70
     1
102
RTVSPost2010Prop29
280
     1
102
RTVSPost2010PropOp29
 70
     1
102
RTVSPost2010Prop30
280
     1
102
RTVSPost2010PropOp30
 70
     1
102
RTVSPost2010Prop31
280
     0
102
RTVSPost2010PropOp31
 70
     1
102
RTVSPost2010Prop32
280
     0
102
RTVSPost2010PropOp32
 70
     1
102
RTVSPost2010Prop33
280
     0
102
RTVSPost2010PropOp33
 70
     1
102
RTVSPost2010Prop34
280
     0
102
RTVSPost2010PropOp34
 70
     1
102
RTVSPost2010Prop35
280
     0
102
RTVSPost2010PropOp35
 70
     1
102
RTVSPost2010Prop36
280
     0
102
RTVSPost2010PropOp36
 70
     1
102
RTVSPost2010Prop37
 90
       50
102
RTVSPost2010PropOp37
 70
     1
102
RTVSPost2010Prop38
140
0.0
102
RTVSPost2010PropOp38
 70
     1
102
RTVSPost2010Prop39
140
1.0
102
RTVSPost2010PropOp39
 70
     1
102
RTVSPost2010Prop40
 90
        0
102
RTVSPost2010PropOp40
 70
     1
102
RTVSPost2010Prop41ColorIndex
 90
       18
102
RTVSPost2010Prop41ColorRGB
 90
        0
102
RTVSPost2010PropOp41
 70
     1
102
RTVSPost2010Prop42
 90
       50
102
RTVSPost2010PropOp42
 70
     1
102
RTVSPost2010Prop43
 90
        3
102
RTVSPost2010PropOp43
 70
     1
102
RTVSPost2010Prop44ColorIndex
 90
        5
102
RTVSPost2010Prop44ColorRGB
 90
      255
102
RTVSPost2010PropOp44
 70
     1
102
RTVSPost2010Prop45
280
     0
102
RTVSPost2010PropOp45
 70
     1
102
RTVSPost2010Prop46
 90
       50
102
RTVSPost2010PropOp46
 70
     1
102
RTVSPost2010Prop47
 90
       50
102
RTVSPost2010PropOp47
 70
     1
102
RTVSPost2010Prop48
 90
       50
102
RTVSPost2010PropOp48
 70
     1
102
RTVSPost2010Prop49
280
     0
102
RTVSPost2010PropOp49
 70
     1
102
RTVSPost2010Prop50
 90
       50
102
RTVSPost2010PropOp50
 70
     1
102
RTVSPost2010Prop51ColorIndex
 90
      256
102
RTVSPost2010Prop51ColorRGB
 90
-16777216
102
RTVSPost2010PropOp51
 70
     0
102
RTVSPost2010Prop52
140
1.0
102
RTVSPost2010PropOp52
 70
     0
102
RTVSPost2010Prop53
 90
        2
102
RTVSPost2010PropOp53
 70
     1
102
RTVSPost2010Prop54
  1
strokes_ogs.tif
102
RTVSPost2010PropOp54
 70
     1
102
RTVSPost2010Prop55
280
     0
102
RTVSPost2010PropOp55
 70
     1
102
RTVSPost2010Prop56
140
1.0
102
RTVSPost2010PropOp56
 70
     1
102
RTVSPost2010Prop57
140
1.0
102
RTVSPost2010PropOp57
 70
     1
  0
XRECORD
  5
5E04
102
{ACAD_REACTORS
330
5E03
102
}
330
5E03
100
AcDbXrecord
280
     1
102
RTVSPost2010Prop28
280
     0
102
RTVSPost2010PropOp28
 70
     1
102
RTVSPost2010Prop29
280
     1
102
RTVSPost2010PropOp29
 70
     1
102
RTVSPost2010Prop30
280
     1
102
RTVSPost2010PropOp30
 70
     1
102
RTVSPost2010Prop31
280
     0
102
RTVSPost2010PropOp31
 70
     1
102
RTVSPost2010Prop32
280
     0
102
RTVSPost2010PropOp32
 70
     1
102
RTVSPost2010Prop33
280
     0
102
RTVSPost2010PropOp33
 70
     1
102
RTVSPost2010Prop34
280
     0
102
RTVSPost2010PropOp34
 70
     1
102
RTVSPost2010Prop35
280
     0
102
RTVSPost2010PropOp35
 70
     1
102
RTVSPost2010Prop36
280
     0
102
RTVSPost2010PropOp36
 70
     1
102
RTVSPost2010Prop37
 90
       50
102
RTVSPost2010PropOp37
 70
     1
102
RTVSPost2010Prop38
140
0.0
102
RTVSPost2010PropOp38
 70
     1
102
RTVSPost2010Prop39
140
1.0
102
RTVSPost2010PropOp39
 70
     1
102
RTVSPost2010Prop40
 90
        0
102
RTVSPost2010PropOp40
 70
     1
102
RTVSPost2010Prop41ColorIndex
 90
       18
102
RTVSPost2010Prop41ColorRGB
 90
        0
102
RTVSPost2010PropOp41
 70
     1
102
RTVSPost2010Prop42
 90
       50
102
RTVSPost2010PropOp42
 70
     1
102
RTVSPost2010Prop43
 90
        3
102
RTVSPost2010PropOp43
 70
     1
102
RTVSPost2010Prop44ColorIndex
 90
        5
102
RTVSPost2010Prop44ColorRGB
 90
      255
102
RTVSPost2010PropOp44
 70
     1
102
RTVSPost2010Prop45
280
     0
102
RTVSPost2010PropOp45
 70
     1
102
RTVSPost2010Prop46
 90
       50
102
RTVSPost2010PropOp46
 70
     1
102
RTVSPost2010Prop47
 90
       50
102
RTVSPost2010PropOp47
 70
     1
102
RTVSPost2010Prop48
 90
       50
102
RTVSPost2010PropOp48
 70
     1
102
RTVSPost2010Prop49
280
     0
102
RTVSPost2010PropOp49
 70
     1
102
RTVSPost2010Prop50
 90
       50
102
RTVSPost2010PropOp50
 70
     1
102
RTVSPost2010Prop51ColorIndex
 90
      256
102
RTVSPost2010Prop51ColorRGB
 90
-16777216
102
RTVSPost2010PropOp51
 70
     0
102
RTVSPost2010Prop52
140
1.0
102
RTVSPost2010PropOp52
 70
     0
102
RTVSPost2010Prop53
 90
        2
102
RTVSPost2010PropOp53
 70
     1
102
RTVSPost2010Prop54
  1
strokes_ogs.tif
102
RTVSPost2010PropOp54
 70
     1
102
RTVSPost2010Prop55
280
     0
102
RTVSPost2010PropOp55
 70
     1
102
RTVSPost2010Prop56
140
1.0
102
RTVSPost2010PropOp56
 70
     1
102
RTVSPost2010Prop57
140
1.0
102
RTVSPost2010PropOp57
 70
     1
  0
XRECORD
  5
5E10
102
{ACAD_REACTORS
330
5E0F
102
}
330
5E0F
100
AcDbXrecord
280
     1
102
RTVSPost2010Prop28
280
     0
102
RTVSPost2010PropOp28
 70
     1
102
RTVSPost2010Prop29
280
     1
102
RTVSPost2010PropOp29
 70
     1
102
RTVSPost2010Prop30
280
     1
102
RTVSPost2010PropOp30
 70
     1
102
RTVSPost2010Prop31
280
     0
102
RTVSPost2010PropOp31
 70
     1
102
RTVSPost2010Prop32
280
     0
102
RTVSPost2010PropOp32
 70
     1
102
RTVSPost2010Prop33
280
     0
102
RTVSPost2010PropOp33
 70
     1
102
RTVSPost2010Prop34
280
     0
102
RTVSPost2010PropOp34
 70
     1
102
RTVSPost2010Prop35
280
     0
102
RTVSPost2010PropOp35
 70
     1
102
RTVSPost2010Prop36
280
     0
102
RTVSPost2010PropOp36
 70
     1
102
RTVSPost2010Prop37
 90
       50
102
RTVSPost2010PropOp37
 70
     1
102
RTVSPost2010Prop38
140
0.0
102
RTVSPost2010PropOp38
 70
     1
102
RTVSPost2010Prop39
140
1.0
102
RTVSPost2010PropOp39
 70
     1
102
RTVSPost2010Prop40
 90
        0
102
RTVSPost2010PropOp40
 70
     1
102
RTVSPost2010Prop41ColorIndex
 90
       18
102
RTVSPost2010Prop41ColorRGB
 90
        0
102
RTVSPost2010PropOp41
 70
     1
102
RTVSPost2010Prop42
 90
       50
102
RTVSPost2010PropOp42
 70
     1
102
RTVSPost2010Prop43
 90
        3
102
RTVSPost2010PropOp43
 70
     1
102
RTVSPost2010Prop44ColorIndex
 90
        5
102
RTVSPost2010Prop44ColorRGB
 90
      255
102
RTVSPost2010PropOp44
 70
     1
102
RTVSPost2010Prop45
280
     0
102
RTVSPost2010PropOp45
 70
     1
102
RTVSPost2010Prop46
 90
       50
102
RTVSPost2010PropOp46
 70
     1
102
RTVSPost2010Prop47
 90
       50
102
RTVSPost2010PropOp47
 70
     1
102
RTVSPost2010Prop48
 90
       50
102
RTVSPost2010PropOp48
 70
     1
102
RTVSPost2010Prop49
280
     0
102
RTVSPost2010PropOp49
 70
     1
102
RTVSPost2010Prop50
 90
       50
102
RTVSPost2010PropOp50
 70
     1
102
RTVSPost2010Prop51ColorIndex
 90
      256
102
RTVSPost2010Prop51ColorRGB
 90
-16777216
102
RTVSPost2010PropOp51
 70
     0
102
RTVSPost2010Prop52
140
1.0
102
RTVSPost2010PropOp52
 70
     0
102
RTVSPost2010Prop53
 90
        2
102
RTVSPost2010PropOp53
 70
     1
102
RTVSPost2010Prop54
  1
strokes_ogs.tif
102
RTVSPost2010PropOp54
 70
     1
102
RTVSPost2010Prop55
280
     0
102
RTVSPost2010PropOp55
 70
     1
102
RTVSPost2010Prop56
140
1.0
102
RTVSPost2010PropOp56
 70
     1
102
RTVSPost2010Prop57
140
1.0
102
RTVSPost2010PropOp57
 70
     1
  0
XRECORD
  5
5DFC
102
{ACAD_REACTORS
330
5DFB
102
}
330
5DFB
100
AcDbXrecord
280
     1
102
RTVSPost2010Prop28
280
     0
102
RTVSPost2010PropOp28
 70
     1
102
RTVSPost2010Prop29
280
     1
102
RTVSPost2010PropOp29
 70
     1
102
RTVSPost2010Prop30
280
     1
102
RTVSPost2010PropOp30
 70
     1
102
RTVSPost2010Prop31
280
     0
102
RTVSPost2010PropOp31
 70
     1
102
RTVSPost2010Prop32
280
     0
102
RTVSPost2010PropOp32
 70
     1
102
RTVSPost2010Prop33
280
     0
102
RTVSPost2010PropOp33
 70
     1
102
RTVSPost2010Prop34
280
     0
102
RTVSPost2010PropOp34
 70
     1
102
RTVSPost2010Prop35
280
     0
102
RTVSPost2010PropOp35
 70
     1
102
RTVSPost2010Prop36
280
     0
102
RTVSPost2010PropOp36
 70
     1
102
RTVSPost2010Prop37
 90
       50
102
RTVSPost2010PropOp37
 70
     1
102
RTVSPost2010Prop38
140
0.0
102
RTVSPost2010PropOp38
 70
     1
102
RTVSPost2010Prop39
140
1.0
102
RTVSPost2010PropOp39
 70
     1
102
RTVSPost2010Prop40
 90
        0
102
RTVSPost2010PropOp40
 70
     1
102
RTVSPost2010Prop41ColorIndex
 90
       18
102
RTVSPost2010Prop41ColorRGB
 90
        0
102
RTVSPost2010PropOp41
 70
     1
102
RTVSPost2010Prop42
 90
       50
102
RTVSPost2010PropOp42
 70
     1
102
RTVSPost2010Prop43
 90
        3
102
RTVSPost2010PropOp43
 70
     1
102
RTVSPost2010Prop44ColorIndex
 90
        5
102
RTVSPost2010Prop44ColorRGB
 90
      255
102
RTVSPost2010PropOp44
 70
     1
102
RTVSPost2010Prop45
280
     0
102
RTVSPost2010PropOp45
 70
     1
102
RTVSPost2010Prop46
 90
       50
102
RTVSPost2010PropOp46
 70
     1
102
RTVSPost2010Prop47
 90
       50
102
RTVSPost2010PropOp47
 70
     1
102
RTVSPost2010Prop48
 90
       50
102
RTVSPost2010PropOp48
 70
     1
102
RTVSPost2010Prop49
280
     0
102
RTVSPost2010PropOp49
 70
     1
102
RTVSPost2010Prop50
 90
       50
102
RTVSPost2010PropOp50
 70
     1
102
RTVSPost2010Prop51ColorIndex
 90
      256
102
RTVSPost2010Prop51ColorRGB
 90
-16777216
102
RTVSPost2010PropOp51
 70
     0
102
RTVSPost2010Prop52
140
1.0
102
RTVSPost2010PropOp52
 70
     0
102
RTVSPost2010Prop53
 90
        2
102
RTVSPost2010PropOp53
 70
     1
102
RTVSPost2010Prop54
  1
strokes_ogs.tif
102
RTVSPost2010PropOp54
 70
     1
102
RTVSPost2010Prop55
280
     0
102
RTVSPost2010PropOp55
 70
     1
102
RTVSPost2010Prop56
140
1.0
102
RTVSPost2010PropOp56
 70
     1
102
RTVSPost2010Prop57
140
1.0
102
RTVSPost2010PropOp57
 70
     1
  0
XRECORD
  5
5E12
102
{ACAD_REACTORS
330
5E11
102
}
330
5E11
100
AcDbXrecord
280
     1
102
RTVSPost2010Prop28
280
     0
102
RTVSPost2010PropOp28
 70
     1
102
RTVSPost2010Prop29
280
     1
102
RTVSPost2010PropOp29
 70
     1
102
RTVSPost2010Prop30
280
     1
102
RTVSPost2010PropOp30
 70
     1
102
RTVSPost2010Prop31
280
     0
102
RTVSPost2010PropOp31
 70
     1
102
RTVSPost2010Prop32
280
     0
102
RTVSPost2010PropOp32
 70
     1
102
RTVSPost2010Prop33
280
     0
102
RTVSPost2010PropOp33
 70
     1
102
RTVSPost2010Prop34
280
     0
102
RTVSPost2010PropOp34
 70
     1
102
RTVSPost2010Prop35
280
     0
102
RTVSPost2010PropOp35
 70
     1
102
RTVSPost2010Prop36
280
     0
102
RTVSPost2010PropOp36
 70
     1
102
RTVSPost2010Prop37
 90
       50
102
RTVSPost2010PropOp37
 70
     1
102
RTVSPost2010Prop38
140
0.0
102
RTVSPost2010PropOp38
 70
     1
102
RTVSPost2010Prop39
140
1.0
102
RTVSPost2010PropOp39
 70
     1
102
RTVSPost2010Prop40
 90
        0
102
RTVSPost2010PropOp40
 70
     1
102
RTVSPost2010Prop41ColorIndex
 90
       18
102
RTVSPost2010Prop41ColorRGB
 90
        0
102
RTVSPost2010PropOp41
 70
     1
102
RTVSPost2010Prop42
 90
       50
102
RTVSPost2010PropOp42
 70
     1
102
RTVSPost2010Prop43
 90
        3
102
RTVSPost2010PropOp43
 70
     1
102
RTVSPost2010Prop44ColorIndex
 90
        5
102
RTVSPost2010Prop44ColorRGB
 90
      255
102
RTVSPost2010PropOp44
 70
     1
102
RTVSPost2010Prop45
280
     0
102
RTVSPost2010PropOp45
 70
     1
102
RTVSPost2010Prop46
 90
       50
102
RTVSPost2010PropOp46
 70
     1
102
RTVSPost2010Prop47
 90
       50
102
RTVSPost2010PropOp47
 70
     1
102
RTVSPost2010Prop48
 90
       50
102
RTVSPost2010PropOp48
 70
     1
102
RTVSPost2010Prop49
280
     0
102
RTVSPost2010PropOp49
 70
     1
102
RTVSPost2010Prop50
 90
       50
102
RTVSPost2010PropOp50
 70
     1
102
RTVSPost2010Prop51ColorIndex
 90
      256
102
RTVSPost2010Prop51ColorRGB
 90
-16777216
102
RTVSPost2010PropOp51
 70
     0
102
RTVSPost2010Prop52
140
1.0
102
RTVSPost2010PropOp52
 70
     0
102
RTVSPost2010Prop53
 90
        2
102
RTVSPost2010PropOp53
 70
     1
102
RTVSPost2010Prop54
  1
strokes_ogs.tif
102
RTVSPost2010PropOp54
 70
     1
102
RTVSPost2010Prop55
280
     0
102
RTVSPost2010PropOp55
 70
     1
102
RTVSPost2010Prop56
140
1.0
102
RTVSPost2010PropOp56
 70
     1
102
RTVSPost2010Prop57
140
1.0
102
RTVSPost2010PropOp57
 70
     1
  0
XRECORD
  5
5DF4
102
{ACAD_REACTORS
330
5DF3
102
}
330
5DF3
100
AcDbXrecord
280
     1
102
RTVSPost2010Prop28
280
     0
102
RTVSPost2010PropOp28
 70
     1
102
RTVSPost2010Prop29
280
     1
102
RTVSPost2010PropOp29
 70
     1
102
RTVSPost2010Prop30
280
     1
102
RTVSPost2010PropOp30
 70
     1
102
RTVSPost2010Prop31
280
     0
102
RTVSPost2010PropOp31
 70
     1
102
RTVSPost2010Prop32
280
     0
102
RTVSPost2010PropOp32
 70
     1
102
RTVSPost2010Prop33
280
     0
102
RTVSPost2010PropOp33
 70
     1
102
RTVSPost2010Prop34
280
     0
102
RTVSPost2010PropOp34
 70
     1
102
RTVSPost2010Prop35
280
     0
102
RTVSPost2010PropOp35
 70
     1
102
RTVSPost2010Prop36
280
     0
102
RTVSPost2010PropOp36
 70
     1
102
RTVSPost2010Prop37
 90
       50
102
RTVSPost2010PropOp37
 70
     1
102
RTVSPost2010Prop38
140
0.0
102
RTVSPost2010PropOp38
 70
     1
102
RTVSPost2010Prop39
140
1.0
102
RTVSPost2010PropOp39
 70
     1
102
RTVSPost2010Prop40
 90
        0
102
RTVSPost2010PropOp40
 70
     1
102
RTVSPost2010Prop41ColorIndex
 90
       18
102
RTVSPost2010Prop41ColorRGB
 90
        0
102
RTVSPost2010PropOp41
 70
     1
102
RTVSPost2010Prop42
 90
       50
102
RTVSPost2010PropOp42
 70
     1
102
RTVSPost2010Prop43
 90
        3
102
RTVSPost2010PropOp43
 70
     1
102
RTVSPost2010Prop44ColorIndex
 90
        5
102
RTVSPost2010Prop44ColorRGB
 90
      255
102
RTVSPost2010PropOp44
 70
     1
102
RTVSPost2010Prop45
280
     0
102
RTVSPost2010PropOp45
 70
     1
102
RTVSPost2010Prop46
 90
       50
102
RTVSPost2010PropOp46
 70
     1
102
RTVSPost2010Prop47
 90
       50
102
RTVSPost2010PropOp47
 70
     1
102
RTVSPost2010Prop48
 90
       50
102
RTVSPost2010PropOp48
 70
     1
102
RTVSPost2010Prop49
280
     0
102
RTVSPost2010PropOp49
 70
     1
102
RTVSPost2010Prop50
 90
       50
102
RTVSPost2010PropOp50
 70
     1
102
RTVSPost2010Prop51ColorIndex
 90
      256
102
RTVSPost2010Prop51ColorRGB
 90
-16777216
102
RTVSPost2010PropOp51
 70
     0
102
RTVSPost2010Prop52
140
1.0
102
RTVSPost2010PropOp52
 70
     0
102
RTVSPost2010Prop53
 90
        2
102
RTVSPost2010PropOp53
 70
     1
102
RTVSPost2010Prop54
  1
strokes_ogs.tif
102
RTVSPost2010PropOp54
 70
     1
102
RTVSPost2010Prop55
280
     0
102
RTVSPost2010PropOp55
 70
     1
102
RTVSPost2010Prop56
140
1.0
102
RTVSPost2010PropOp56
 70
     1
102
RTVSPost2010Prop57
140
1.0
102
RTVSPost2010PropOp57
 70
     1
  0
XRECORD
  5
5E0E
102
{ACAD_REACTORS
330
5E0D
102
}
330
5E0D
100
AcDbXrecord
280
     1
102
RTVSPost2010Prop28
280
     0
102
RTVSPost2010PropOp28
 70
     1
102
RTVSPost2010Prop29
280
     1
102
RTVSPost2010PropOp29
 70
     1
102
RTVSPost2010Prop30
280
     1
102
RTVSPost2010PropOp30
 70
     1
102
RTVSPost2010Prop31
280
     0
102
RTVSPost2010PropOp31
 70
     1
102
RTVSPost2010Prop32
280
     0
102
RTVSPost2010PropOp32
 70
     1
102
RTVSPost2010Prop33
280
     0
102
RTVSPost2010PropOp33
 70
     1
102
RTVSPost2010Prop34
280
     0
102
RTVSPost2010PropOp34
 70
     1
102
RTVSPost2010Prop35
280
     0
102
RTVSPost2010PropOp35
 70
     1
102
RTVSPost2010Prop36
280
     0
102
RTVSPost2010PropOp36
 70
     1
102
RTVSPost2010Prop37
 90
       50
102
RTVSPost2010PropOp37
 70
     1
102
RTVSPost2010Prop38
140
0.0
102
RTVSPost2010PropOp38
 70
     1
102
RTVSPost2010Prop39
140
1.0
102
RTVSPost2010PropOp39
 70
     1
102
RTVSPost2010Prop40
 90
        0
102
RTVSPost2010PropOp40
 70
     1
102
RTVSPost2010Prop41ColorIndex
 90
       18
102
RTVSPost2010Prop41ColorRGB
 90
        0
102
RTVSPost2010PropOp41
 70
     1
102
RTVSPost2010Prop42
 90
       50
102
RTVSPost2010PropOp42
 70
     1
102
RTVSPost2010Prop43
 90
        3
102
RTVSPost2010PropOp43
 70
     1
102
RTVSPost2010Prop44ColorIndex
 90
        5
102
RTVSPost2010Prop44ColorRGB
 90
      255
102
RTVSPost2010PropOp44
 70
     1
102
RTVSPost2010Prop45
280
     0
102
RTVSPost2010PropOp45
 70
     1
102
RTVSPost2010Prop46
 90
       50
102
RTVSPost2010PropOp46
 70
     1
102
RTVSPost2010Prop47
 90
       50
102
RTVSPost2010PropOp47
 70
     1
102
RTVSPost2010Prop48
 90
       50
102
RTVSPost2010PropOp48
 70
     1
102
RTVSPost2010Prop49
280
     0
102
RTVSPost2010PropOp49
 70
     1
102
RTVSPost2010Prop50
 90
       50
102
RTVSPost2010PropOp50
 70
     1
102
RTVSPost2010Prop51ColorIndex
 90
      256
102
RTVSPost2010Prop51ColorRGB
 90
-16777216
102
RTVSPost2010PropOp51
 70
     0
102
RTVSPost2010Prop52
140
1.0
102
RTVSPost2010PropOp52
 70
     0
102
RTVSPost2010Prop53
 90
        2
102
RTVSPost2010PropOp53
 70
     1
102
RTVSPost2010Prop54
  1
strokes_ogs.tif
102
RTVSPost2010PropOp54
 70
     1
102
RTVSPost2010Prop55
280
     0
102
RTVSPost2010PropOp55
 70
     1
102
RTVSPost2010Prop56
140
1.0
102
RTVSPost2010PropOp56
 70
     1
102
RTVSPost2010Prop57
140
1.0
102
RTVSPost2010PropOp57
 70
     1
  0
XRECORD
  5
5E0C
102
{ACAD_REACTORS
330
5E0B
102
}
330
5E0B
100
AcDbXrecord
280
     1
102
RTVSPost2010Prop28
280
     0
102
RTVSPost2010PropOp28
 70
     1
102
RTVSPost2010Prop29
280
     1
102
RTVSPost2010PropOp29
 70
     1
102
RTVSPost2010Prop30
280
     1
102
RTVSPost2010PropOp30
 70
     1
102
RTVSPost2010Prop31
280
     0
102
RTVSPost2010PropOp31
 70
     1
102
RTVSPost2010Prop32
280
     0
102
RTVSPost2010PropOp32
 70
     1
102
RTVSPost2010Prop33
280
     0
102
RTVSPost2010PropOp33
 70
     1
102
RTVSPost2010Prop34
280
     0
102
RTVSPost2010PropOp34
 70
     1
102
RTVSPost2010Prop35
280
     0
102
RTVSPost2010PropOp35
 70
     1
102
RTVSPost2010Prop36
280
     0
102
RTVSPost2010PropOp36
 70
     1
102
RTVSPost2010Prop37
 90
       50
102
RTVSPost2010PropOp37
 70
     1
102
RTVSPost2010Prop38
140
0.0
102
RTVSPost2010PropOp38
 70
     1
102
RTVSPost2010Prop39
140
1.0
102
RTVSPost2010PropOp39
 70
     1
102
RTVSPost2010Prop40
 90
        0
102
RTVSPost2010PropOp40
 70
     1
102
RTVSPost2010Prop41ColorIndex
 90
       18
102
RTVSPost2010Prop41ColorRGB
 90
        0
102
RTVSPost2010PropOp41
 70
     1
102
RTVSPost2010Prop42
 90
       50
102
RTVSPost2010PropOp42
 70
     1
102
RTVSPost2010Prop43
 90
        3
102
RTVSPost2010PropOp43
 70
     1
102
RTVSPost2010Prop44ColorIndex
 90
        5
102
RTVSPost2010Prop44ColorRGB
 90
      255
102
RTVSPost2010PropOp44
 70
     1
102
RTVSPost2010Prop45
280
     0
102
RTVSPost2010PropOp45
 70
     1
102
RTVSPost2010Prop46
 90
       50
102
RTVSPost2010PropOp46
 70
     1
102
RTVSPost2010Prop47
 90
       50
102
RTVSPost2010PropOp47
 70
     1
102
RTVSPost2010Prop48
 90
       50
102
RTVSPost2010PropOp48
 70
     1
102
RTVSPost2010Prop49
280
     0
102
RTVSPost2010PropOp49
 70
     1
102
RTVSPost2010Prop50
 90
       50
102
RTVSPost2010PropOp50
 70
     1
102
RTVSPost2010Prop51ColorIndex
 90
      256
102
RTVSPost2010Prop51ColorRGB
 90
-16777216
102
RTVSPost2010PropOp51
 70
     0
102
RTVSPost2010Prop52
140
1.0
102
RTVSPost2010PropOp52
 70
     0
102
RTVSPost2010Prop53
 90
        2
102
RTVSPost2010PropOp53
 70
     1
102
RTVSPost2010Prop54
  1
strokes_ogs.tif
102
RTVSPost2010PropOp54
 70
     1
102
RTVSPost2010Prop55
280
     0
102
RTVSPost2010PropOp55
 70
     1
102
RTVSPost2010Prop56
140
1.0
102
RTVSPost2010PropOp56
 70
     1
102
RTVSPost2010Prop57
140
1.0
102
RTVSPost2010PropOp57
 70
     1
  0
XRECORD
  5
5E06
102
{ACAD_REACTORS
330
5E05
102
}
330
5E05
100
AcDbXrecord
280
     1
102
RTVSPost2010Prop28
280
     0
102
RTVSPost2010PropOp28
 70
     1
102
RTVSPost2010Prop29
280
     1
102
RTVSPost2010PropOp29
 70
     1
102
RTVSPost2010Prop30
280
     1
102
RTVSPost2010PropOp30
 70
     1
102
RTVSPost2010Prop31
280
     0
102
RTVSPost2010PropOp31
 70
     1
102
RTVSPost2010Prop32
280
     0
102
RTVSPost2010PropOp32
 70
     1
102
RTVSPost2010Prop33
280
     0
102
RTVSPost2010PropOp33
 70
     1
102
RTVSPost2010Prop34
280
     0
102
RTVSPost2010PropOp34
 70
     1
102
RTVSPost2010Prop35
280
     0
102
RTVSPost2010PropOp35
 70
     1
102
RTVSPost2010Prop36
280
     0
102
RTVSPost2010PropOp36
 70
     1
102
RTVSPost2010Prop37
 90
       50
102
RTVSPost2010PropOp37
 70
     1
102
RTVSPost2010Prop38
140
0.0
102
RTVSPost2010PropOp38
 70
     1
102
RTVSPost2010Prop39
140
1.0
102
RTVSPost2010PropOp39
 70
     1
102
RTVSPost2010Prop40
 90
        0
102
RTVSPost2010PropOp40
 70
     1
102
RTVSPost2010Prop41ColorIndex
 90
       18
102
RTVSPost2010Prop41ColorRGB
 90
        0
102
RTVSPost2010PropOp41
 70
     1
102
RTVSPost2010Prop42
 90
       50
102
RTVSPost2010PropOp42
 70
     1
102
RTVSPost2010Prop43
 90
        3
102
RTVSPost2010PropOp43
 70
     1
102
RTVSPost2010Prop44ColorIndex
 90
        5
102
RTVSPost2010Prop44ColorRGB
 90
      255
102
RTVSPost2010PropOp44
 70
     1
102
RTVSPost2010Prop45
280
     0
102
RTVSPost2010PropOp45
 70
     1
102
RTVSPost2010Prop46
 90
       50
102
RTVSPost2010PropOp46
 70
     1
102
RTVSPost2010Prop47
 90
       50
102
RTVSPost2010PropOp47
 70
     1
102
RTVSPost2010Prop48
 90
       50
102
RTVSPost2010PropOp48
 70
     1
102
RTVSPost2010Prop49
280
     0
102
RTVSPost2010PropOp49
 70
     1
102
RTVSPost2010Prop50
 90
       50
102
RTVSPost2010PropOp50
 70
     1
102
RTVSPost2010Prop51ColorIndex
 90
      256
102
RTVSPost2010Prop51ColorRGB
 90
-16777216
102
RTVSPost2010PropOp51
 70
     0
102
RTVSPost2010Prop52
140
1.0
102
RTVSPost2010PropOp52
 70
     0
102
RTVSPost2010Prop53
 90
        2
102
RTVSPost2010PropOp53
 70
     1
102
RTVSPost2010Prop54
  1
strokes_ogs.tif
102
RTVSPost2010PropOp54
 70
     1
102
RTVSPost2010Prop55
280
     0
102
RTVSPost2010PropOp55
 70
     1
102
RTVSPost2010Prop56
140
1.0
102
RTVSPost2010PropOp56
 70
     1
102
RTVSPost2010Prop57
140
1.0
102
RTVSPost2010PropOp57
 70
     1
  0
XRECORD
  5
5E08
102
{ACAD_REACTORS
330
5E07
102
}
330
5E07
100
AcDbXrecord
280
     1
102
RTVSPost2010Prop28
280
     0
102
RTVSPost2010PropOp28
 70
     1
102
RTVSPost2010Prop29
280
     1
102
RTVSPost2010PropOp29
 70
     1
102
RTVSPost2010Prop30
280
     1
102
RTVSPost2010PropOp30
 70
     1
102
RTVSPost2010Prop31
280
     0
102
RTVSPost2010PropOp31
 70
     1
102
RTVSPost2010Prop32
280
     0
102
RTVSPost2010PropOp32
 70
     1
102
RTVSPost2010Prop33
280
     0
102
RTVSPost2010PropOp33
 70
     1
102
RTVSPost2010Prop34
280
     0
102
RTVSPost2010PropOp34
 70
     1
102
RTVSPost2010Prop35
280
     0
102
RTVSPost2010PropOp35
 70
     1
102
RTVSPost2010Prop36
280
     0
102
RTVSPost2010PropOp36
 70
     1
102
RTVSPost2010Prop37
 90
       50
102
RTVSPost2010PropOp37
 70
     1
102
RTVSPost2010Prop38
140
0.0
102
RTVSPost2010PropOp38
 70
     1
102
RTVSPost2010Prop39
140
1.0
102
RTVSPost2010PropOp39
 70
     1
102
RTVSPost2010Prop40
 90
        0
102
RTVSPost2010PropOp40
 70
     1
102
RTVSPost2010Prop41ColorIndex
 90
       18
102
RTVSPost2010Prop41ColorRGB
 90
        0
102
RTVSPost2010PropOp41
 70
     1
102
RTVSPost2010Prop42
 90
       50
102
RTVSPost2010PropOp42
 70
     1
102
RTVSPost2010Prop43
 90
        3
102
RTVSPost2010PropOp43
 70
     1
102
RTVSPost2010Prop44ColorIndex
 90
        5
102
RTVSPost2010Prop44ColorRGB
 90
      255
102
RTVSPost2010PropOp44
 70
     1
102
RTVSPost2010Prop45
280
     0
102
RTVSPost2010PropOp45
 70
     1
102
RTVSPost2010Prop46
 90
       50
102
RTVSPost2010PropOp46
 70
     1
102
RTVSPost2010Prop47
 90
       50
102
RTVSPost2010PropOp47
 70
     1
102
RTVSPost2010Prop48
 90
       50
102
RTVSPost2010PropOp48
 70
     1
102
RTVSPost2010Prop49
280
     0
102
RTVSPost2010PropOp49
 70
     1
102
RTVSPost2010Prop50
 90
       50
102
RTVSPost2010PropOp50
 70
     1
102
RTVSPost2010Prop51ColorIndex
 90
      256
102
RTVSPost2010Prop51ColorRGB
 90
-16777216
102
RTVSPost2010PropOp51
 70
     0
102
RTVSPost2010Prop52
140
1.0
102
RTVSPost2010PropOp52
 70
     0
102
RTVSPost2010Prop53
 90
        2
102
RTVSPost2010PropOp53
 70
     1
102
RTVSPost2010Prop54
  1
strokes_ogs.tif
102
RTVSPost2010PropOp54
 70
     1
102
RTVSPost2010Prop55
280
     0
102
RTVSPost2010PropOp55
 70
     1
102
RTVSPost2010Prop56
140
1.0
102
RTVSPost2010PropOp56
 70
     1
102
RTVSPost2010Prop57
140
1.0
102
RTVSPost2010PropOp57
 70
     1
  0
XRECORD
  5
5DFA
102
{ACAD_REACTORS
330
5DF9
102
}
330
5DF9
100
AcDbXrecord
280
     1
102
RTVSPost2010Prop28
280
     0
102
RTVSPost2010PropOp28
 70
     1
102
RTVSPost2010Prop29
280
     1
102
RTVSPost2010PropOp29
 70
     1
102
RTVSPost2010Prop30
280
     1
102
RTVSPost2010PropOp30
 70
     1
102
RTVSPost2010Prop31
280
     0
102
RTVSPost2010PropOp31
 70
     1
102
RTVSPost2010Prop32
280
     0
102
RTVSPost2010PropOp32
 70
     1
102
RTVSPost2010Prop33
280
     0
102
RTVSPost2010PropOp33
 70
     1
102
RTVSPost2010Prop34
280
     0
102
RTVSPost2010PropOp34
 70
     1
102
RTVSPost2010Prop35
280
     0
102
RTVSPost2010PropOp35
 70
     1
102
RTVSPost2010Prop36
280
     0
102
RTVSPost2010PropOp36
 70
     1
102
RTVSPost2010Prop37
 90
       50
102
RTVSPost2010PropOp37
 70
     1
102
RTVSPost2010Prop38
140
0.0
102
RTVSPost2010PropOp38
 70
     1
102
RTVSPost2010Prop39
140
1.0
102
RTVSPost2010PropOp39
 70
     1
102
RTVSPost2010Prop40
 90
        0
102
RTVSPost2010PropOp40
 70
     1
102
RTVSPost2010Prop41ColorIndex
 90
       18
102
RTVSPost2010Prop41ColorRGB
 90
        0
102
RTVSPost2010PropOp41
 70
     1
102
RTVSPost2010Prop42
 90
       50
102
RTVSPost2010PropOp42
 70
     1
102
RTVSPost2010Prop43
 90
        3
102
RTVSPost2010PropOp43
 70
     1
102
RTVSPost2010Prop44ColorIndex
 90
        5
102
RTVSPost2010Prop44ColorRGB
 90
      255
102
RTVSPost2010PropOp44
 70
     1
102
RTVSPost2010Prop45
280
     0
102
RTVSPost2010PropOp45
 70
     1
102
RTVSPost2010Prop46
 90
       50
102
RTVSPost2010PropOp46
 70
     1
102
RTVSPost2010Prop47
 90
       50
102
RTVSPost2010PropOp47
 70
     1
102
RTVSPost2010Prop48
 90
       50
102
RTVSPost2010PropOp48
 70
     1
102
RTVSPost2010Prop49
280
     0
102
RTVSPost2010PropOp49
 70
     1
102
RTVSPost2010Prop50
 90
       50
102
RTVSPost2010PropOp50
 70
     1
102
RTVSPost2010Prop51ColorIndex
 90
      256
102
RTVSPost2010Prop51ColorRGB
 90
-16777216
102
RTVSPost2010PropOp51
 70
     0
102
RTVSPost2010Prop52
140
1.0
102
RTVSPost2010PropOp52
 70
     0
102
RTVSPost2010Prop53
 90
        2
102
RTVSPost2010PropOp53
 70
     1
102
RTVSPost2010Prop54
  1
strokes_ogs.tif
102
RTVSPost2010PropOp54
 70
     1
102
RTVSPost2010Prop55
280
     0
102
RTVSPost2010PropOp55
 70
     1
102
RTVSPost2010Prop56
140
1.0
102
RTVSPost2010PropOp56
 70
     1
102
RTVSPost2010Prop57
140
1.0
102
RTVSPost2010PropOp57
 70
     1
  0
XRECORD
  5
5E02
102
{ACAD_REACTORS
330
5E01
102
}
330
5E01
100
AcDbXrecord
280
     1
102
RTVSPost2010Prop28
280
     0
102
RTVSPost2010PropOp28
 70
     1
102
RTVSPost2010Prop29
280
     1
102
RTVSPost2010PropOp29
 70
     1
102
RTVSPost2010Prop30
280
     1
102
RTVSPost2010PropOp30
 70
     1
102
RTVSPost2010Prop31
280
     0
102
RTVSPost2010PropOp31
 70
     1
102
RTVSPost2010Prop32
280
     0
102
RTVSPost2010PropOp32
 70
     1
102
RTVSPost2010Prop33
280
     0
102
RTVSPost2010PropOp33
 70
     1
102
RTVSPost2010Prop34
280
     0
102
RTVSPost2010PropOp34
 70
     1
102
RTVSPost2010Prop35
280
     0
102
RTVSPost2010PropOp35
 70
     1
102
RTVSPost2010Prop36
280
     0
102
RTVSPost2010PropOp36
 70
     1
102
RTVSPost2010Prop37
 90
       50
102
RTVSPost2010PropOp37
 70
     1
102
RTVSPost2010Prop38
140
0.0
102
RTVSPost2010PropOp38
 70
     1
102
RTVSPost2010Prop39
140
1.0
102
RTVSPost2010PropOp39
 70
     1
102
RTVSPost2010Prop40
 90
        0
102
RTVSPost2010PropOp40
 70
     1
102
RTVSPost2010Prop41ColorIndex
 90
       18
102
RTVSPost2010Prop41ColorRGB
 90
        0
102
RTVSPost2010PropOp41
 70
     1
102
RTVSPost2010Prop42
 90
       50
102
RTVSPost2010PropOp42
 70
     1
102
RTVSPost2010Prop43
 90
        3
102
RTVSPost2010PropOp43
 70
     1
102
RTVSPost2010Prop44ColorIndex
 90
        5
102
RTVSPost2010Prop44ColorRGB
 90
      255
102
RTVSPost2010PropOp44
 70
     1
102
RTVSPost2010Prop45
280
     0
102
RTVSPost2010PropOp45
 70
     1
102
RTVSPost2010Prop46
 90
       50
102
RTVSPost2010PropOp46
 70
     1
102
RTVSPost2010Prop47
 90
       50
102
RTVSPost2010PropOp47
 70
     1
102
RTVSPost2010Prop48
 90
       50
102
RTVSPost2010PropOp48
 70
     1
102
RTVSPost2010Prop49
280
     0
102
RTVSPost2010PropOp49
 70
     1
102
RTVSPost2010Prop50
 90
       50
102
RTVSPost2010PropOp50
 70
     1
102
RTVSPost2010Prop51ColorIndex
 90
      256
102
RTVSPost2010Prop51ColorRGB
 90
-16777216
102
RTVSPost2010PropOp51
 70
     0
102
RTVSPost2010Prop52
140
1.0
102
RTVSPost2010PropOp52
 70
     0
102
RTVSPost2010Prop53
 90
        2
102
RTVSPost2010PropOp53
 70
     1
102
RTVSPost2010Prop54
  1
strokes_ogs.tif
102
RTVSPost2010PropOp54
 70
     1
102
RTVSPost2010Prop55
280
     0
102
RTVSPost2010PropOp55
 70
     1
102
RTVSPost2010Prop56
140
1.0
102
RTVSPost2010PropOp56
 70
     1
102
RTVSPost2010Prop57
140
1.0
102
RTVSPost2010PropOp57
 70
     1
  0
XRECORD
  5
5E0A
102
{ACAD_REACTORS
330
5E09
102
}
330
5E09
100
AcDbXrecord
280
     1
102
RTVSPost2010Prop28
280
     0
102
RTVSPost2010PropOp28
 70
     1
102
RTVSPost2010Prop29
280
     1
102
RTVSPost2010PropOp29
 70
     1
102
RTVSPost2010Prop30
280
     1
102
RTVSPost2010PropOp30
 70
     1
102
RTVSPost2010Prop31
280
     0
102
RTVSPost2010PropOp31
 70
     1
102
RTVSPost2010Prop32
280
     0
102
RTVSPost2010PropOp32
 70
     1
102
RTVSPost2010Prop33
280
     0
102
RTVSPost2010PropOp33
 70
     1
102
RTVSPost2010Prop34
280
     0
102
RTVSPost2010PropOp34
 70
     1
102
RTVSPost2010Prop35
280
     0
102
RTVSPost2010PropOp35
 70
     1
102
RTVSPost2010Prop36
280
     0
102
RTVSPost2010PropOp36
 70
     1
102
RTVSPost2010Prop37
 90
       50
102
RTVSPost2010PropOp37
 70
     1
102
RTVSPost2010Prop38
140
0.0
102
RTVSPost2010PropOp38
 70
     1
102
RTVSPost2010Prop39
140
1.0
102
RTVSPost2010PropOp39
 70
     1
102
RTVSPost2010Prop40
 90
        0
102
RTVSPost2010PropOp40
 70
     1
102
RTVSPost2010Prop41ColorIndex
 90
       18
102
RTVSPost2010Prop41ColorRGB
 90
        0
102
RTVSPost2010PropOp41
 70
     1
102
RTVSPost2010Prop42
 90
       50
102
RTVSPost2010PropOp42
 70
     1
102
RTVSPost2010Prop43
 90
        3
102
RTVSPost2010PropOp43
 70
     1
102
RTVSPost2010Prop44ColorIndex
 90
        5
102
RTVSPost2010Prop44ColorRGB
 90
      255
102
RTVSPost2010PropOp44
 70
     1
102
RTVSPost2010Prop45
280
     0
102
RTVSPost2010PropOp45
 70
     1
102
RTVSPost2010Prop46
 90
       50
102
RTVSPost2010PropOp46
 70
     1
102
RTVSPost2010Prop47
 90
       50
102
RTVSPost2010PropOp47
 70
     1
102
RTVSPost2010Prop48
 90
       50
102
RTVSPost2010PropOp48
 70
     1
102
RTVSPost2010Prop49
280
     0
102
RTVSPost2010PropOp49
 70
     1
102
RTVSPost2010Prop50
 90
       50
102
RTVSPost2010PropOp50
 70
     1
102
RTVSPost2010Prop51ColorIndex
 90
      256
102
RTVSPost2010Prop51ColorRGB
 90
-16777216
102
RTVSPost2010PropOp51
 70
     0
102
RTVSPost2010Prop52
140
1.0
102
RTVSPost2010PropOp52
 70
     0
102
RTVSPost2010Prop53
 90
        2
102
RTVSPost2010PropOp53
 70
     1
102
RTVSPost2010Prop54
  1
strokes_ogs.tif
102
RTVSPost2010PropOp54
 70
     1
102
RTVSPost2010Prop55
280
     0
102
RTVSPost2010PropOp55
 70
     1
102
RTVSPost2010Prop56
140
1.0
102
RTVSPost2010PropOp56
 70
     1
102
RTVSPost2010Prop57
140
1.0
102
RTVSPost2010PropOp57
 70
     1
  0
ENDSEC
  0
EOF
