  0
SECTION
  2
HEADER
  9
$ACADVER
  1
AC1024
  9
$ACADMAINTVER
 70
   225
  9
$DWGCODEPAGE
  3
ANSI_932
  9
$LASTSAVEDBY
  1
takanashi
  9
$INSBASE
 10
0.0
 20
0.0
 30
0.0
  9
$EXTMIN
 10
19.9694844009
 20
9.997285330199247
 30
-0.0000000000000134
  9
$EXTMAX
 10
800.0354022998775
 20
560.0291761481542
 30
0.0000000000007524
  9
$LIMMIN
 10
0.0
 20
0.0
  9
$LIMMAX
 10
840.0
 20
594.0
  9
$ORTHOMODE
 70
     0
  9
$REGENMODE
 70
     1
  9
$FILLMODE
 70
     1
  9
$QTEXTMODE
 70
     0
  9
$MIRRTEXT
 70
     1
  9
$LTSCALE
 40
1.0
  9
$ATTMODE
 70
     1
  9
$TEXTSIZE
 40
5.0
  9
$TRACEWID
 40
1.0
  9
$TEXTSTYLE
  7
STANDARD
  9
$CLAYER
  8
0
  9
$CELTYPE
  6
BYLAYER
  9
$CECOLOR
 62
   256
  9
$CELTSCALE
 40
1.0
  9
$DISPSILH
 70
     0
  9
$DIMSCALE
 40
1.0
  9
$DIMASZ
 40
1.5
  9
$DIMEXO
 40
5.0
  9
$DIMDLI
 40
3.75
  9
$DIMRND
 40
0.0
  9
$DIMDLE
 40
0.0
  9
$DIMEXE
 40
0.0
  9
$DIMTP
 40
0.0
  9
$DIMTM
 40
0.0
  9
$DIMTXT
 40
5.0
  9
$DIMCEN
 40
2.5
  9
$DIMTSZ
 40
0.0
  9
$DIMTOL
 70
     0
  9
$DIMLIM
 70
     0
  9
$DIMTIH
 70
     0
  9
$DIMTOH
 70
     0
  9
$DIMSE1
 70
     0
  9
$DIMSE2
 70
     0
  9
$DIMTAD
 70
     1
  9
$DIMZIN
 70
     8
  9
$DIMBLK
  1
DotBlank
  9
$DIMASO
 70
     1
  9
$DIMSHO
 70
     1
  9
$DIMPOST
  1

  9
$DIMAPOST
  1

  9
$DIMALT
 70
     0
  9
$DIMALTD
 70
     2
  9
$DIMALTF
 40
25.4
  9
$DIMLFAC
 40
1.0
  9
$DIMTOFL
 70
     1
  9
$DIMTVP
 40
0.0
  9
$DIMTIX
 70
     0
  9
$DIMSOXD
 70
     0
  9
$DIMSAH
 70
     0
  9
$DIMBLK1
  1

  9
$DIMBLK2
  1

  9
$DIMSTYLE
  2
STANDARD
  9
$DIMCLRD
 70
     0
  9
$DIMCLRE
 70
     0
  9
$DIMCLRT
 70
     0
  9
$DIMTFAC
 40
1.0
  9
$DIMGAP
 40
0.625
  9
$DIMJUST
 70
     0
  9
$DIMSD1
 70
     0
  9
$DIMSD2
 70
     0
  9
$DIMTOLJ
 70
     1
  9
$DIMTZIN
 70
     0
  9
$DIMALTZ
 70
     0
  9
$DIMALTTZ
 70
     0
  9
$DIMUPT
 70
     0
  9
$DIMDEC
 70
     4
  9
$DIMTDEC
 70
     4
  9
$DIMALTU
 70
     2
  9
$DIMALTTD
 70
     2
  9
$DIMTXSTY
  7
STANDARD
  9
$DIMAUNIT
 70
     0
  9
$DIMADEC
 70
     0
  9
$DIMALTRND
 40
0.0
  9
$DIMAZIN
 70
     0
  9
$DIMDSEP
 70
    46
  9
$DIMATFIT
 70
     3
  9
$DIMFRAC
 70
     0
  9
$DIMLDRBLK
  1
NONE
  9
$DIMLUNIT
 70
     2
  9
$DIMLWD
 70
    -2
  9
$DIMLWE
 70
    -2
  9
$DIMTMOVE
 70
     0
  9
$DIMFXL
 40
1.0
  9
$DIMFXLON
 70
     0
  9
$DIMJOGANG
 40
0.7853981633974483
  9
$DIMTFILL
 70
     0
  9
$DIMTFILLCLR
 70
     0
  9
$DIMARCSYM
 70
     0
  9
$DIMLTYPE
  6

  9
$DIMLTEX1
  6

  9
$DIMLTEX2
  6

  9
$DIMTXTDIRECTION
 70
     0
  9
$LUNITS
 70
     2
  9
$LUPREC
 70
     4
  9
$SKETCHINC
 40
1.0
  9
$FILLETRAD
 40
1.0
  9
$AUNITS
 70
     0
  9
$AUPREC
 70
     1
  9
$MENU
  1
.
  9
$ELEVATION
 40
0.0
  9
$PELEVATION
 40
0.0
  9
$THICKNESS
 40
0.0
  9
$LIMCHECK
 70
     0
  9
$CHAMFERA
 40
10.0
  9
$CHAMFERB
 40
10.0
  9
$CHAMFERC
 40
20.0
  9
$CHAMFERD
 40
0.0
  9
$SKPOLY
 70
     0
  9
$TDCREATE
 40
2450431.623194444
  9
$TDUCREATE
 40
2450431.248202778
  9
$TDUPDATE
 40
2459537.462384259
  9
$TDUUPDATE
 40
2459537.087384259
  9
$TDINDWG
 40
1.8851306829
  9
$TDUSRTIMER
 40
1.8851305787
  9
$USRTIMER
 70
     1
  9
$ANGBASE
 50
0.0
  9
$ANGDIR
 70
     0
  9
$PDMODE
 70
     0
  9
$PDSIZE
 40
0.0
  9
$PLINEWID
 40
0.0
  9
$SPLFRAME
 70
     0
  9
$SPLINETYPE
 70
     6
  9
$SPLINESEGS
 70
     8
  9
$HANDSEED
  5
53AA
  9
$SURFTAB1
 70
     6
  9
$SURFTAB2
 70
     6
  9
$SURFTYPE
 70
     6
  9
$SURFU
 70
     6
  9
$SURFV
 70
     6
  9
$UCSBASE
  2

  9
$UCSNAME
  2

  9
$UCSORG
 10
0.0
 20
0.0
 30
0.0
  9
$UCSXDIR
 10
1.0
 20
0.0
 30
0.0
  9
$UCSYDIR
 10
0.0
 20
1.0
 30
0.0
  9
$UCSORTHOREF
  2

  9
$UCSORTHOVIEW
 70
     1
  9
$UCSORGTOP
 10
0.0
 20
0.0
 30
0.0
  9
$UCSORGBOTTOM
 10
0.0
 20
0.0
 30
0.0
  9
$UCSORGLEFT
 10
0.0
 20
0.0
 30
0.0
  9
$UCSORGRIGHT
 10
0.0
 20
0.0
 30
0.0
  9
$UCSORGFRONT
 10
0.0
 20
0.0
 30
0.0
  9
$UCSORGBACK
 10
0.0
 20
0.0
 30
0.0
  9
$PUCSBASE
  2

  9
$PUCSNAME
  2

  9
$PUCSORG
 10
0.0
 20
0.0
 30
0.0
  9
$PUCSXDIR
 10
1.0
 20
0.0
 30
0.0
  9
$PUCSYDIR
 10
0.0
 20
1.0
 30
0.0
  9
$PUCSORTHOREF
  2

  9
$PUCSORTHOVIEW
 70
     0
  9
$PUCSORGTOP
 10
0.0
 20
0.0
 30
0.0
  9
$PUCSORGBOTTOM
 10
0.0
 20
0.0
 30
0.0
  9
$PUCSORGLEFT
 10
0.0
 20
0.0
 30
0.0
  9
$PUCSORGRIGHT
 10
0.0
 20
0.0
 30
0.0
  9
$PUCSORGFRONT
 10
0.0
 20
0.0
 30
0.0
  9
$PUCSORGBACK
 10
0.0
 20
0.0
 30
0.0
  9
$USERI1
 70
     0
  9
$USERI2
 70
     0
  9
$USERI3
 70
     0
  9
$USERI4
 70
     0
  9
$USERI5
 70
     0
  9
$USERR1
 40
0.0
  9
$USERR2
 40
0.0
  9
$USERR3
 40
0.0
  9
$USERR4
 40
0.0
  9
$USERR5
 40
0.0
  9
$WORLDVIEW
 70
     1
  9
$SHADEDGE
 70
     3
  9
$SHADEDIF
 70
    70
  9
$TILEMODE
 70
     1
  9
$MAXACTVP
 70
    16
  9
$PINSBASE
 10
0.0
 20
0.0
 30
0.0
  9
$PLIMCHECK
 70
     0
  9
$PEXTMIN
 10
1.000000000000000E+20
 20
1.000000000000000E+20
 30
1.000000000000000E+20
  9
$PEXTMAX
 10
-1.000000000000000E+20
 20
-1.000000000000000E+20
 30
-1.000000000000000E+20
  9
$PLIMMIN
 10
0.0
 20
0.0
  9
$PLIMMAX
 10
420.0
 20
297.0
  9
$UNITMODE
 70
     0
  9
$VISRETAIN
 70
     0
  9
$PLINEGEN
 70
     0
  9
$PSLTSCALE
 70
     1
  9
$TREEDEPTH
 70
  3020
  9
$CMLSTYLE
  2
STANDARD
  9
$CMLJUST
 70
     0
  9
$CMLSCALE
 40
1.0
  9
$PROXYGRAPHICS
 70
     1
  9
$MEASUREMENT
 70
     1
  9
$CELWEIGHT
370
    -1
  9
$ENDCAPS
280
     0
  9
$JOINSTYLE
280
     0
  9
$LWDISPLAY
290
     0
  9
$INSUNITS
 70
     0
  9
$HYPERLINKBASE
  1

  9
$STYLESHEET
  1
MONOCHROME.CTB
  9
$XEDIT
290
     1
  9
$CEPSNTYPE
380
     0
  9
$PSTYLEMODE
290
     1
  9
$FINGERPRINTGUID
  2
{87E49A17-DA8C-4230-82A7-C569D142D783}
  9
$VERSIONGUID
  2
{38625562-C041-734A-84C1-D98746C615E2}
  9
$EXTNAMES
290
     1
  9
$PSVPSCALE
 40
0.0
  9
$OLESTARTUP
290
     0
  9
$SORTENTS
280
   127
  9
$INDEXCTL
280
     0
  9
$HIDETEXT
280
     0
  9
$XCLIPFRAME
280
     2
  9
$HALOGAP
280
     0
  9
$OBSCOLOR
 70
   257
  9
$OBSLTYPE
280
     0
  9
$INTERSECTIONDISPLAY
280
     0
  9
$INTERSECTIONCOLOR
 70
   257
  9
$DIMASSOC
280
     1
  9
$PROJECTNAME
  1

  9
$CAMERADISPLAY
290
     0
  9
$LENSLENGTH
 40
50.0
  9
$CAMERAHEIGHT
 40
0.0
  9
$STEPSPERSEC
 40
2.0
  9
$STEPSIZE
 40
6.0
  9
$3DDWFPREC
 40
2.0
  9
$PSOLWIDTH
 40
0.25
  9
$PSOLHEIGHT
 40
4.0
  9
$LOFTANG1
 40
1.570796326794896
  9
$LOFTANG2
 40
1.570796326794896
  9
$LOFTMAG1
 40
0.0
  9
$LOFTMAG2
 40
0.0
  9
$LOFTPARAM
 70
     7
  9
$LOFTNORMALS
280
     1
  9
$LATITUDE
 40
37.795
  9
$LONGITUDE
 40
-122.394
  9
$NORTHDIRECTION
 40
0.0
  9
$TIMEZONE
 70
 -8000
  9
$LIGHTGLYPHDISPLAY
280
     1
  9
$TILEMODELIGHTSYNCH
280
     1
  9
$CMATERIAL
347
23E6
  9
$SOLIDHIST
280
     0
  9
$SHOWHIST
280
     1
  9
$DWFFRAME
280
     2
  9
$DGNFRAME
280
     0
  9
$REALWORLDSCALE
290
     1
  9
$INTERFERECOLOR
 62
     1
  9
$INTERFEREOBJVS
345
23F3
  9
$INTERFEREVPVS
346
2E2E
  9
$CSHADOW
280
     0
  9
$SHADOWPLANELOCATION
 40
0.0
  0
ENDSEC
  0
SECTION
  2
CLASSES
  0
CLASS
  1
ACDBDICTIONARYWDFLT
  2
AcDbDictionaryWithDefault
  3
ObjectDBX Classes
 90
        0
 91
        1
280
     0
281
     0
  0
CLASS
  1
TABLESTYLE
  2
AcDbTableStyle
  3
ObjectDBX Classes
 90
     4095
 91
        1
280
     0
281
     0
  0
CLASS
  1
SORTENTSTABLE
  2
AcDbSortentsTable
  3
ObjectDBX Classes
 90
        0
 91
        1
280
     0
281
     0
  0
CLASS
  1
DIMASSOC
  2
AcDbDimAssoc
  3
"AcDbDimAssoc|Product Desc:     AcDim ARX App For Dimension|Company:          Autodesk, Inc.|WEB Address:      www.autodesk.com"
 90
        0
 91
        0
280
     0
281
     0
  0
CLASS
  1
DICTIONARYVAR
  2
AcDbDictionaryVar
  3
ObjectDBX Classes
 90
        0
 91
       15
280
     0
281
     0
  0
CLASS
  1
MATERIAL
  2
AcDbMaterial
  3
ObjectDBX Classes
 90
     1153
 91
        3
280
     0
281
     0
  0
CLASS
  1
VISUALSTYLE
  2
AcDbVisualStyle
  3
ObjectDBX Classes
 90
     4095
 91
       26
280
     0
281
     0
  0
CLASS
  1
SCALE
  2
AcDbScale
  3
ObjectDBX Classes
 90
     1153
 91
       17
280
     0
281
     0
  0
CLASS
  1
MLEADERSTYLE
  2
AcDbMLeaderStyle
  3
ACDB_MLEADERSTYLE_CLASS
 90
     4095
 91
        1
280
     0
281
     0
  0
CLASS
  1
CELLSTYLEMAP
  2
AcDbCellStyleMap
  3
ObjectDBX Classes
 90
     1152
 91
        1
280
     0
281
     0
  0
CLASS
  1
ACDBSECTIONVIEWSTYLE
  2
AcDbSectionViewStyle
  3
ObjectDBX Classes
 90
     1025
 91
        1
280
     0
281
     0
  0
CLASS
  1
ACDBDETAILVIEWSTYLE
  2
AcDbDetailViewStyle
  3
ObjectDBX Classes
 90
     1025
 91
        1
280
     0
281
     0
  0
CLASS
  1
MULTILEADER
  2
AcDbMLeader
  3
ACDB_MLEADER_CLASS
 90
     1025
 91
       12
280
     0
281
     1
  0
ENDSEC
  0
SECTION
  2
TABLES
  0
TABLE
  2
VPORT
  5
8
102
{ACAD_XDICTIONARY
360
2421
102
}
330
0
100
AcDbSymbolTable
 70
     1
  0
VPORT
  5
2E2C
330
8
100
AcDbSymbolTableRecord
100
AcDbViewportTableRecord
  2
*Active
 70
     0
 10
0.0
 20
0.0
 11
1.0
 21
1.0
 12
420.0000000000001
 22
297.0
 13
0.0
 23
0.0
 14
5.0
 24
5.0
 15
10.0
 25
10.0
 16
0.0
 26
0.0
 36
1.0
 17
0.0
 27
0.0
 37
0.0
 40
598.1684210526316
 41
1.879391100702576
 42
50.0
 43
0.0
 44
0.0
 50
0.0
 51
0.0
 71
     0
 72
   100
 73
     1
 74
     0
 75
     0
 76
     0
 77
     0
 78
     0
281
     0
 65
     1
110
0.0
120
0.0
130
0.0
111
1.0
121
0.0
131
0.0
112
0.0
122
1.0
132
0.0
 79
     0
146
0.0
348
23EF
 60
     3
 61
     5
292
     1
282
     1
141
0.0
142
0.0
 63
   250
421
  3355443
1001
ACAD_NAV_VCDISPLAY
1070
     3
  0
ENDTAB
  0
TABLE
  2
LTYPE
  5
5
330
0
100
AcDbSymbolTable
 70
     4
  0
LTYPE
  5
14
330
5
100
AcDbSymbolTableRecord
100
AcDbLinetypeTableRecord
  2
BYBLOCK
 70
     0
  3

 72
    65
 73
     0
 40
0.0
  0
LTYPE
  5
15
330
5
100
AcDbSymbolTableRecord
100
AcDbLinetypeTableRecord
  2
BYLAYER
 70
     0
  3

 72
    65
 73
     0
 40
0.0
  0
LTYPE
  5
16
330
5
100
AcDbSymbolTableRecord
100
AcDbLinetypeTableRecord
  2
CONTINUOUS
 70
     0
  3
Solid line
 72
    65
 73
     0
 40
0.0
  0
LTYPE
  5
E7E
330
5
100
AcDbSymbolTableRecord
100
AcDbLinetypeTableRecord
  2
DASHED2
 70
     0
  3
Dashed (.5x) _ _ _ _ _ _ _ _ _ _ _ _ _ _ _ _ _
 72
    65
 73
     2
 40
9.524999999999996
 49
6.349999999999997
 74
     0
 49
-3.174999999999998
 74
     0
  0
LTYPE
  5
1547
330
5
100
AcDbSymbolTableRecord
100
AcDbLinetypeTableRecord
  2
CENTER2
 70
     0
  3
Center (.5x) ___ _ ___ _ ___ _ ___ _ ___ _ ___
 72
    65
 73
     4
 40
28.575
 49
19.05
 74
     0
 49
-3.174999999999998
 74
     0
 49
3.174999999999998
 74
     0
 49
-3.174999999999998
 74
     0
  0
ENDTAB
  0
TABLE
  2
LAYER
  5
2
102
{ACAD_XDICTIONARY
360
181F
102
}
330
0
100
AcDbSymbolTable
 70
    11
  0
LAYER
  5
F
102
{ACAD_XDICTIONARY
360
2EAF
102
}
330
2
100
AcDbSymbolTableRecord
100
AcDbLayerTableRecord
  2
0
 70
     0
 62
     7
  6
CONTINUOUS
370
    -3
390
3AE
347
23E8
  0
LAYER
  5
87
102
{ACAD_XDICTIONARY
360
2EB1
102
}
330
2
100
AcDbSymbolTableRecord
100
AcDbLayerTableRecord
  2
WAKU
 70
     0
 62
     7
  6
CONTINUOUS
370
    -3
390
3AE
347
23E8
  0
LAYER
  5
9C
330
2
100
AcDbSymbolTableRecord
100
AcDbLayerTableRecord
  2
DEFPOINTS
 70
     0
 62
     7
  6
CONTINUOUS
290
     0
370
    -3
390
3AE
347
23E8
  0
LAYER
  5
1548
102
{ACAD_XDICTIONARY
360
2EB3
102
}
330
2
100
AcDbSymbolTableRecord
100
AcDbLayerTableRecord
  2
SITAJI
 70
     0
 62
     7
  6
CONTINUOUS
370
    -3
390
3AE
347
23E8
  0
LAYER
  5
1549
102
{ACAD_XDICTIONARY
360
2EB5
102
}
330
2
100
AcDbSymbolTableRecord
100
AcDbLayerTableRecord
  2
YAKUMONO
 70
     0
 62
     1
  6
CONTINUOUS
370
    -3
390
3AE
347
23E8
  0
LAYER
  5
154A
102
{ACAD_XDICTIONARY
360
2EB7
102
}
330
2
100
AcDbSymbolTableRecord
100
AcDbLayerTableRecord
  2
SEIHIN
 70
     0
 62
     4
  6
CONTINUOUS
370
    -3
390
3AE
347
23E8
  0
LAYER
  5
154B
102
{ACAD_XDICTIONARY
360
2EB9
102
}
330
2
100
AcDbSymbolTableRecord
100
AcDbLayerTableRecord
  2
TEKUSU
 70
     0
 62
     7
  6
CONTINUOUS
370
    -3
390
3AE
347
23E8
  0
LAYER
  5
154C
102
{ACAD_XDICTIONARY
360
2EBB
102
}
330
2
100
AcDbSymbolTableRecord
100
AcDbLayerTableRecord
  2
SEALING
 70
     0
 62
     7
  6
CONTINUOUS
370
     9
390
3AE
347
23E8
  0
LAYER
  5
154D
102
{ACAD_XDICTIONARY
360
2EBD
102
}
330
2
100
AcDbSymbolTableRecord
100
AcDbLayerTableRecord
  2
SUNPOU
 70
     0
 62
     7
  6
CONTINUOUS
370
     5
390
3AE
347
23E8
  0
LAYER
  5
154E
102
{ACAD_XDICTIONARY
360
2EBF
102
}
330
2
100
AcDbSymbolTableRecord
100
AcDbLayerTableRecord
  2
HIKIDASI
 70
     0
 62
     7
  6
CONTINUOUS
370
     5
390
3AE
347
23E8
  0
LAYER
  5
181D
102
{ACAD_XDICTIONARY
360
2EC1
102
}
330
2
100
AcDbSymbolTableRecord
100
AcDbLayerTableRecord
  2
PACKING
 70
     0
 62
     7
  6
CONTINUOUS
370
     9
390
3AE
347
23E8
1001
AcAecLayerStandard
1000

1000

  0
ENDTAB
  0
TABLE
  2
STYLE
  5
3
330
0
100
AcDbSymbolTable
 70
     3
  0
STYLE
  5
10
330
3
100
AcDbSymbolTableRecord
100
AcDbTextStyleTableRecord
  2
STANDARD
 70
     0
 40
5.0
 41
1.0
 50
0.0
 71
     0
 42
5.0
  3
txt.shx
  4
extfont.shx
  0
STYLE
  5
EA1
330
3
100
AcDbSymbolTableRecord
100
AcDbTextStyleTableRecord
  2
WAKU
 70
     0
 40
5.0
 41
1.0
 50
0.0
 71
     0
 42
5.0
  3

  4

1001
ACAD
1000
MS Gothic
1071
    32817
  0
STYLE
  5
247D
330
3
100
AcDbSymbolTableRecord
100
AcDbTextStyleTableRecord
  2
STYLE2
 70
     0
 40
0.0
 41
0.7
 50
0.0
 71
     0
 42
5.0
  3
MONOTXT.SHX
  4
BigFont.shx
  0
ENDTAB
  0
TABLE
  2
VIEW
  5
6
330
0
100
AcDbSymbolTable
 70
     2
  0
ENDTAB
  0
TABLE
  2
UCS
  5
7
330
0
100
AcDbSymbolTable
 70
     0
  0
ENDTAB
  0
TABLE
  2
APPID
  5
9
330
0
100
AcDbSymbolTable
 70
    15
  0
APPID
  5
11
330
9
100
AcDbSymbolTableRecord
100
AcDbRegAppTableRecord
  2
ACAD
 70
     0
  0
APPID
  5
181E
330
9
100
AcDbSymbolTableRecord
100
AcDbRegAppTableRecord
  2
AcAecLayerStandard
 70
     0
  0
APPID
  5
1F74
330
9
100
AcDbSymbolTableRecord
100
AcDbRegAppTableRecord
  2
ACAD_EXEMPT_FROM_CAD_STANDARDS
 70
     0
  0
APPID
  5
2483
330
9
100
AcDbSymbolTableRecord
100
AcDbRegAppTableRecord
  2
ACAD_PSEXT
 70
     0
  0
APPID
  5
2484
330
9
100
AcDbSymbolTableRecord
100
AcDbRegAppTableRecord
  2
ACAD_DSTYLE_DIMJAG
 70
     0
  0
APPID
  5
2485
330
9
100
AcDbSymbolTableRecord
100
AcDbRegAppTableRecord
  2
ACAD_DSTYLE_DIMBREAK
 70
     0
  0
APPID
  5
2486
330
9
100
AcDbSymbolTableRecord
100
AcDbRegAppTableRecord
  2
ACAD_DSTYLE_DIMTALN
 70
     0
  0
APPID
  5
2487
330
9
100
AcDbSymbolTableRecord
100
AcDbRegAppTableRecord
  2
GENIUS_GENODEF_13
 70
     0
  0
APPID
  5
2488
330
9
100
AcDbSymbolTableRecord
100
AcDbRegAppTableRecord
  2
GENIUS_GENOBJ-N-FIL_13
 70
     0
  0
APPID
  5
2E5D
330
9
100
AcDbSymbolTableRecord
100
AcDbRegAppTableRecord
  2
ACAD_NAV_VCDISPLAY
 70
     0
  0
APPID
  5
2F0F
330
9
100
AcDbSymbolTableRecord
100
AcDbRegAppTableRecord
  2
ACAD_MLEADERVER
 70
     0
  0
APPID
  5
3912
330
9
100
AcDbSymbolTableRecord
100
AcDbRegAppTableRecord
  2
GradientColor1ACI
 70
     0
  0
APPID
  5
3913
330
9
100
AcDbSymbolTableRecord
100
AcDbRegAppTableRecord
  2
GradientColor2ACI
 70
     0
  0
APPID
  5
466C
330
9
100
AcDbSymbolTableRecord
100
AcDbRegAppTableRecord
  2
AcadAnnoMonitorAlertIconDisabled
 70
     0
  0
APPID
  5
48BC
330
9
100
AcDbSymbolTableRecord
100
AcDbRegAppTableRecord
  2
AcCmTransparency
 70
     0
  0
ENDTAB
  0
TABLE
  2
DIMSTYLE
  5
A
330
0
100
AcDbSymbolTable
 70
     4
100
AcDbDimStyleTable
 71
     1
340
1D
  0
DIMSTYLE
105
1D
102
{ACAD_REACTORS
330
2D38
330
3BA7
330
3BA8
330
506C
102
}
330
A
100
AcDbSymbolTableRecord
100
AcDbDimStyleTableRecord
  2
STANDARD
 70
     0
 41
1.5
 42
5.0
 43
3.75
 44
0.0
 73
     0
 74
     0
 77
     1
 78
     8
140
5.0
141
2.5
147
0.625
172
     1
340
10
341
B0
342
14C3
  0
DIMSTYLE
105
2481
102
{ACAD_REACTORS
330
289A
102
}
330
A
100
AcDbSymbolTableRecord
100
AcDbDimStyleTableRecord
  2
コピー - STANDARD
 70
     0
 41
1.5
 42
5.0
 43
3.75
 44
0.0
 73
     0
 74
     0
 77
     1
 78
     8
140
5.0
141
2.5
147
0.625
172
     1
340
EA1
341
B0
342
14C3
1001
ACAD_DSTYLE_DIMBREAK
1070
   391
1040
3.75
1001
ACAD_DSTYLE_DIMJAG
1070
   388
1040
1.5
1001
ACAD_DSTYLE_DIMTALN
1070
   392
1070
     0
  0
DIMSTYLE
105
2482
330
A
100
AcDbSymbolTableRecord
100
AcDbDimStyleTableRecord
  2
ISO-25
 70
     0
 41
2.5
 42
3.0
 43
3.75
 44
1.25
 73
     0
 74
     0
 77
     1
 78
     8
140
5.0
141
2.5
143
0.03937007874016
147
0.625
171
     3
172
     1
271
     2
272
     2
274
     3
278
    44
283
     0
284
     8
340
247D
  0
ENDTAB
  0
TABLE
  2
BLOCK_RECORD
  5
1
330
0
100
AcDbSymbolTable
 70
     9
  0
BLOCK_RECORD
  5
1A
102
{ACAD_XDICTIONARY
360
1FFD
102
}
330
1
100
AcDbSymbolTableRecord
100
AcDbBlockTableRecord
  2
*MODEL_SPACE
340
3B3
 70
     0
280
     1
281
     0
  0
BLOCK_RECORD
  5
17
330
1
100
AcDbSymbolTableRecord
100
AcDbBlockTableRecord
  2
*PAPER_SPACE
340
3B4
 70
     0
280
     1
281
     0
  0
BLOCK_RECORD
  5
B0
330
1
100
AcDbSymbolTableRecord
100
AcDbBlockTableRecord
  2
_NONE
340
0
 70
     0
280
     1
281
     0
  0
BLOCK_RECORD
  5
E1F
330
1
100
AcDbSymbolTableRecord
100
AcDbBlockTableRecord
  2
IGロゴ
340
0
 70
     0
280
     1
281
     0
  0
BLOCK_RECORD
  5
14C3
330
1
100
AcDbSymbolTableRecord
100
AcDbBlockTableRecord
  2
_DotBlank
340
0
102
{BLKREFS
331
37F4
331
37F5
331
3818
331
3819
331
52E6
331
52E7
331
5330
331
5331
331
533A
331
533B
102
}
 70
     0
280
     1
281
     0
  0
BLOCK_RECORD
  5
28A9
330
1
100
AcDbSymbolTableRecord
100
AcDbBlockTableRecord
  2
*D3
340
0
 70
     0
280
     1
281
     0
  0
BLOCK_RECORD
  5
2D39
330
1
100
AcDbSymbolTableRecord
100
AcDbBlockTableRecord
  2
*D4
340
0
 70
     0
280
     1
281
     0
  0
BLOCK_RECORD
  5
3BAE
330
1
100
AcDbSymbolTableRecord
100
AcDbBlockTableRecord
  2
*D5
340
0
 70
     0
280
     1
281
     0
  0
BLOCK_RECORD
  5
3BC3
330
1
100
AcDbSymbolTableRecord
100
AcDbBlockTableRecord
  2
*D6
340
0
 70
     0
280
     1
281
     0
  0
BLOCK_RECORD
  5
506D
330
1
100
AcDbSymbolTableRecord
100
AcDbBlockTableRecord
  2
*D7
340
0
 70
     0
280
     1
281
     0
  0
ENDTAB
  0
ENDSEC
  0
SECTION
  2
BLOCKS
  0
BLOCK
  5
1B
330
1A
100
AcDbEntity
  8
0
100
AcDbBlockBegin
  2
*MODEL_SPACE
 70
     0
 10
0.0
 20
0.0
 30
0.0
  3
*MODEL_SPACE
  1

  0
ENDBLK
  5
1C
330
1A
100
AcDbEntity
  8
0
100
AcDbBlockEnd
  0
BLOCK
  5
18
330
17
100
AcDbEntity
 67
     1
  8
0
100
AcDbBlockBegin
  2
*PAPER_SPACE
 70
     0
 10
0.0
 20
0.0
 30
0.0
  3
*PAPER_SPACE
  1

  0
ENDBLK
  5
19
330
17
100
AcDbEntity
 67
     1
  8
0
100
AcDbBlockEnd
  0
BLOCK
  5
B1
330
B0
100
AcDbEntity
  8
0
100
AcDbBlockBegin
  2
_NONE
 70
     0
 10
0.0
 20
0.0
 30
0.0
  3
_NONE
  1

  0
CIRCLE
  5
B2
330
B0
100
AcDbEntity
  8
0
  6
ByBlock
 62
     0
100
AcDbCircle
 10
0.0
 20
0.0
 30
0.0
 40
0.25
  0
ENDBLK
  5
B3
330
B0
100
AcDbEntity
  8
0
100
AcDbBlockEnd
  0
BLOCK
  5
E20
330
E1F
100
AcDbEntity
  8
0
100
AcDbBlockBegin
  2
IGロゴ
 70
     0
 10
0.0
 20
0.0
 30
0.0
  3
IGロゴ
  1

  0
CIRCLE
  5
E21
330
E1F
100
AcDbEntity
  8
WAKU
100
AcDbCircle
 10
-7.133294257549736
 20
40.74217652150603
 30
0.0
 40
0.8702311197916666
  0
POLYLINE
  5
E22
330
E1F
100
AcDbEntity
  8
WAKU
100
AcDb2dPolyline
 66
     1
 10
0.0
 20
0.0
 30
0.0
 70
     1
  0
VERTEX
  5
E23
330
E22
100
AcDbEntity
  8
WAKU
100
AcDbVertex
100
AcDb2dVertex
 10
-6.558996840015013
 20
36.03789863522132
 30
0.0
  0
VERTEX
  5
E24
330
E22
100
AcDbEntity
  8
WAKU
100
AcDbVertex
100
AcDb2dVertex
 10
-7.774082017966402
 20
36.03789863522132
 30
0.0
  0
VERTEX
  5
E25
330
E22
100
AcDbEntity
  8
WAKU
100
AcDbVertex
100
AcDb2dVertex
 10
-7.774082017966402
 20
38.72059449025604
 30
0.0
  0
VERTEX
  5
E26
330
E22
100
AcDbEntity
  8
WAKU
100
AcDbVertex
100
AcDb2dVertex
 10
-6.558996840015013
 20
38.72059449025604
 30
0.0
  0
SEQEND
  5
E27
330
E22
100
AcDbEntity
  8
WAKU
  0
SPLINE
  5
E28
330
E1F
100
AcDbEntity
  8
WAKU
100
AcDbSpline
210
0.0
220
0.0
230
1.0
 70
     9
 71
     3
 72
    56
 73
    52
 74
     0
 42
0.000000001
 43
0.0000000001
 40
0.0
 40
0.0
 40
0.0
 40
0.0
 40
1.0
 40
1.0
 40
1.0
 40
2.0
 40
2.0
 40
2.0
 40
3.0
 40
3.0
 40
3.0
 40
4.0
 40
4.0
 40
4.0
 40
5.0
 40
5.0
 40
5.0
 40
6.0
 40
6.0
 40
6.0
 40
7.0
 40
7.0
 40
7.0
 40
8.0
 40
8.0
 40
8.0
 40
9.0
 40
9.0
 40
9.0
 40
10.0
 40
10.0
 40
10.0
 40
11.0
 40
11.0
 40
11.0
 40
12.0
 40
12.0
 40
12.0
 40
13.0
 40
13.0
 40
13.0
 40
14.0
 40
14.0
 40
14.0
 40
15.0
 40
15.0
 40
15.0
 40
16.0
 40
16.0
 40
16.0
 40
17.0
 40
17.0
 40
17.0
 40
17.0
 10
-3.33025335043168
 20
41.50009752845046
 30
0.0
 10
-3.33025335043168
 20
41.50009752845046
 30
0.0
 10
-3.254805759285846
 20
41.50698771942269
 30
0.0
 10
-3.254805759285846
 20
41.50698771942269
 30
0.0
 10
-3.014682603903903
 20
41.57795668643657
 30
0.0
 10
-2.824513333070568
 20
41.68785523244353
 30
0.0
 10
-2.840016262758068
 20
42.06302613088103
 30
0.0
 10
-2.853107625605291
 20
42.38342001108935
 30
0.0
 10
-3.100120971959456
 20
42.65248196855464
 30
0.0
 10
-3.420170342619181
 20
42.65248196855464
 30
0.0
 10
-3.420170342619181
 20
42.65248196855464
 30
0.0
 10
-7.55359590685529
 20
42.652137459006
 30
0.0
 10
-7.55359590685529
 20
42.652137459006
 30
0.0
 10
-8.404534491924735
 20
42.68383233747825
 30
0.0
 10
-8.989167195917787
 20
42.06509318817269
 30
0.0
 10
-8.989167195917787
 20
41.3305988305338
 30
0.0
 10
-8.989167195917787
 20
40.88411445553381
 30
0.0
 10
-8.740431301820567
 20
40.46932495900603
 30
0.0
 10
-8.381796861716402
 20
40.22816827497825
 30
0.0
 10
-8.381796861716402
 20
40.22816827497825
 30
0.0
 10
-8.354925116924736
 20
40.20715319251297
 30
0.0
 10
-8.354925116924736
 20
40.20715319251297
 30
0.0
 10
-8.607450616056681
 20
40.05798055796435
 30
0.0
 10
-8.748355021438625
 20
39.8075221161241
 30
0.0
 10
-8.771781670744179
 20
39.50090861786021
 30
0.0
 10
-8.794863810501125
 20
39.19601766733936
 30
0.0
 10
-8.621230998001124
 20
38.83669420813798
 30
0.0
 10
-8.330464938973346
 20
38.69854587914492
 30
0.0
 10
-8.330464938973346
 20
38.69854587914492
 30
0.0
 10
-8.350446492792791
 20
38.68407647810325
 30
0.0
 10
-8.350446492792791
 20
38.68407647810325
 30
0.0
 10
-9.024996188973343
 20
38.26515286699215
 30
0.0
 10
-9.494562703730293
 20
37.59198120900604
 30
0.0
 10
-9.243070733244179
 20
36.46681302324215
 30
0.0
 10
-9.13076062039696
 20
35.96176202497826
 30
0.0
 10
-8.617441392966401
 20
35.58314603105465
 30
0.0
 10
-8.290501831334458
 20
35.41468086178382
 30
0.0
 10
-7.829203545744178
 20
35.17765829233937
 30
0.0
 10
-6.996523966751125
 20
35.05983602671437
 30
0.0
 10
-6.482860229771957
 20
35.04467760657548
 30
0.0
 10
-6.482860229771957
 20
35.04467760657548
 30
0.0
 10
-3.647891154251123
 20
34.73668607011715
 30
0.0
 10
-3.247571058765013
 20
36.70865872636714
 30
0.0
 10
-2.847250963278903
 20
38.68028687306853
 30
0.0
 10
-4.534658732376124
 20
39.39479967688798
 30
0.0
 10
-4.775126397306681
 20
39.40513496334631
 30
0.0
 10
-5.015594062237235
 20
39.41478123070742
 30
0.0
 10
-3.57830022543168
 20
39.8912379364366
 30
0.0
 10
-3.738497165535846
 20
41.33438843556853
 30
0.0
 10
-3.738497165535846
 20
41.33438843556853
 30
0.0
 10
-3.640656453730291
 20
41.4573783444227
 30
0.0
 10
-3.33025335043168
 20
41.50009752845046
 30
0.0
  0
ELLIPSE
  5
E29
330
E1F
100
AcDbEntity
  8
WAKU
100
AcDbEllipse
 10
-6.072204847827513
 20
38.96691881751298
 30
0.0
 11
-5.716791449652776
 21
-5.716791449652776
 31
0.0
210
0.0
220
0.0
230
1.0
 40
0.7036880800289264
 41
0.0
 42
6.283185307179584
  0
POLYLINE
  5
E2A
330
E1F
100
AcDbEntity
  8
WAKU
100
AcDb2dPolyline
 66
     1
 10
0.0
 20
0.0
 30
0.0
 70
     1
  0
VERTEX
  5
E2B
330
E2A
100
AcDbEntity
  8
WAKU
100
AcDbVertex
100
AcDb2dVertex
 10
38.86320910616554
 20
39.71657159529075
 30
0.0
  0
VERTEX
  5
E2C
330
E2A
100
AcDbEntity
  8
WAKU
100
AcDbVertex
100
AcDb2dVertex
 10
38.86320910616554
 20
38.31097263695742
 30
0.0
  0
VERTEX
  5
E2D
330
E2A
100
AcDbEntity
  8
WAKU
100
AcDbVertex
100
AcDb2dVertex
 10
31.17513401935998
 20
38.31097263695742
 30
0.0
  0
VERTEX
  5
E2E
330
E2A
100
AcDbEntity
  8
WAKU
100
AcDbVertex
100
AcDb2dVertex
 10
31.17513401935998
 20
39.71657159529075
 30
0.0
  0
SEQEND
  5
E2F
330
E2A
100
AcDbEntity
  8
WAKU
  0
SPLINE
  5
E30
330
E1F
100
AcDbEntity
  8
WAKU
100
AcDbSpline
210
0.0
220
0.0
230
1.0
 70
     9
 71
     3
 72
    53
 73
    49
 74
     0
 42
0.000000001
 43
0.0000000001
 40
0.0
 40
0.0
 40
0.0
 40
0.0
 40
1.0
 40
1.0
 40
1.0
 40
2.0
 40
2.0
 40
2.0
 40
3.0
 40
3.0
 40
3.0
 40
4.0
 40
4.0
 40
4.0
 40
5.0
 40
5.0
 40
5.0
 40
6.0
 40
6.0
 40
6.0
 40
7.0
 40
7.0
 40
7.0
 40
8.0
 40
8.0
 40
8.0
 40
9.0
 40
9.0
 40
9.0
 40
10.0
 40
10.0
 40
10.0
 40
11.0
 40
11.0
 40
11.0
 40
12.0
 40
12.0
 40
12.0
 40
13.0
 40
13.0
 40
13.0
 40
14.0
 40
14.0
 40
14.0
 40
15.0
 40
15.0
 40
15.0
 40
16.0
 40
16.0
 40
16.0
 40
16.0
 10
92.00725207491553
 20
42.91637628279075
 30
0.0
 10
92.00725207491553
 20
42.87055651282547
 30
0.0
 10
92.00725207491553
 20
40.82899292775603
 30
0.0
 10
92.00725207491553
 20
40.82899292775603
 30
0.0
 10
92.00725207491553
 20
40.82899292775603
 30
0.0
 10
90.36945368081831
 20
40.82899292775603
 30
0.0
 10
90.32397842040165
 20
40.82899292775603
 30
0.0
 10
90.32397842040165
 20
40.78489570553379
 30
0.0
 10
90.32397842040165
 20
39.62424303626298
 30
0.0
 10
90.32397842040165
 20
39.57980130449215
 30
0.0
 10
90.36945368081831
 20
39.57980130449215
 30
0.0
 10
92.00725207491553
 20
39.57980130449215
 30
0.0
 10
92.00725207491553
 20
39.57980130449215
 30
0.0
 10
92.00725207491553
 20
39.57980130449215
 30
0.0
 10
92.00725207491553
 20
36.45303264129771
 30
0.0
 10
92.00725207491553
 20
36.45303264129771
 30
0.0
 10
92.00725207491553
 20
36.45303264129771
 30
0.0
 10
89.91194500026276
 20
36.45303264129771
 30
0.0
 10
89.86646973984608
 20
36.45303264129771
 30
0.0
 10
89.86646973984608
 20
36.40893541907548
 30
0.0
 10
89.86646973984608
 20
35.26481920813797
 30
0.0
 10
89.86646973984608
 20
35.22037747636714
 30
0.0
 10
89.91228950981136
 20
35.22037747636714
 30
0.0
 10
95.3272905948808
 20
35.22037747636714
 30
0.0
 10
95.3734548743947
 20
35.22037747636714
 30
0.0
 10
95.3734548743947
 20
35.26481920813797
 30
0.0
 10
95.3734548743947
 20
36.40893541907548
 30
0.0
 10
95.3734548743947
 20
36.45303264129771
 30
0.0
 10
95.32763510442942
 20
36.45303264129771
 30
0.0
 10
93.41905220512387
 20
36.45303264129771
 30
0.0
 10
93.41905220512387
 20
36.45303264129771
 30
0.0
 10
93.41905220512387
 20
36.45303264129771
 30
0.0
 10
93.41905220512387
 20
39.57980130449215
 30
0.0
 10
93.41905220512387
 20
39.57980130449215
 30
0.0
 10
93.41905220512387
 20
39.57980130449215
 30
0.0
 10
95.18776422769331
 20
39.57980130449215
 30
0.0
 10
95.23323948810995
 20
39.57980130449215
 30
0.0
 10
95.23323948810995
 20
39.62424303626298
 30
0.0
 10
95.23323948810995
 20
40.78489570553379
 30
0.0
 10
95.23323948810995
 20
40.82899292775603
 30
0.0
 10
95.18776422769331
 20
40.82899292775603
 30
0.0
 10
93.41905220512387
 20
40.82899292775603
 30
0.0
 10
93.41905220512387
 20
40.82899292775603
 30
0.0
 10
93.41905220512387
 20
40.82899292775603
 30
0.0
 10
93.41905220512387
 20
42.87055651282547
 30
0.0
 10
93.41905220512387
 20
42.91637628279075
 30
0.0
 10
93.37461047335304
 20
42.91637628279075
 30
0.0
 10
92.05134929713777
 20
42.91637628279075
 30
0.0
 10
92.00725207491553
 20
42.91637628279075
 30
0.0
  0
SPLINE
  5
E31
330
E1F
100
AcDbEntity
  8
WAKU
100
AcDbSpline
210
0.0
220
0.0
230
1.0
 70
     9
 71
     3
 72
    74
 73
    70
 74
     0
 42
0.000000001
 43
0.0000000001
 40
0.0
 40
0.0
 40
0.0
 40
0.0
 40
1.0
 40
1.0
 40
1.0
 40
2.0
 40
2.0
 40
2.0
 40
3.0
 40
3.0
 40
3.0
 40
4.0
 40
4.0
 40
4.0
 40
5.0
 40
5.0
 40
5.0
 40
6.0
 40
6.0
 40
6.0
 40
7.0
 40
7.0
 40
7.0
 40
8.0
 40
8.0
 40
8.0
 40
9.0
 40
9.0
 40
9.0
 40
10.0
 40
10.0
 40
10.0
 40
11.0
 40
11.0
 40
11.0
 40
12.0
 40
12.0
 40
12.0
 40
13.0
 40
13.0
 40
13.0
 40
14.0
 40
14.0
 40
14.0
 40
15.0
 40
15.0
 40
15.0
 40
16.0
 40
16.0
 40
16.0
 40
17.0
 40
17.0
 40
17.0
 40
18.0
 40
18.0
 40
18.0
 40
19.0
 40
19.0
 40
19.0
 40
20.0
 40
20.0
 40
20.0
 40
21.0
 40
21.0
 40
21.0
 40
22.0
 40
22.0
 40
22.0
 40
23.0
 40
23.0
 40
23.0
 40
23.0
 10
87.80871420599192
 20
42.92464451195741
 30
0.0
 10
87.80871420599192
 20
42.87951376108935
 30
0.0
 10
87.80871420599192
 20
41.76330282358935
 30
0.0
 10
87.80871420599192
 20
41.76330282358935
 30
0.0
 10
87.80871420599192
 20
41.76330282358935
 30
0.0
 10
86.67562230060999
 20
41.76330282358935
 30
0.0
 10
86.63083605929054
 20
41.76330282358935
 30
0.0
 10
86.63083605929054
 20
41.71920560136714
 30
0.0
 10
86.63083605929054
 20
40.67603068817269
 30
0.0
 10
86.63083605929054
 20
40.63193346595046
 30
0.0
 10
86.6763113197072
 20
40.63193346595046
 30
0.0
 10
88.69479276501968
 20
40.63193346595046
 30
0.0
 10
88.69479276501968
 20
40.63193346595046
 30
0.0
 10
88.69479276501968
 20
40.63193346595046
 30
0.0
 10
88.67550023029748
 20
40.59713800154074
 30
0.0
 10
88.67550023029748
 20
40.59713800154074
 30
0.0
 10
88.34959419731138
 20
40.01112725935325
 30
0.0
 10
87.48694228758914
 20
39.1315943817491
 30
0.0
 10
86.4654714759572
 20
38.57727851803382
 30
0.0
 10
86.47305068602666
 20
38.54558363956158
 30
0.0
 10
86.79516711397804
 20
37.19545071855464
 30
0.0
 10
86.8092920054711
 20
37.13585056664492
 30
0.0
 10
87.15896919731136
 20
37.34944648678381
 30
0.0
 10
87.41011665824888
 20
37.51377754147132
 30
0.0
 10
87.77116266519332
 20
37.79076321855465
 30
0.0
 10
87.77116266519332
 20
37.79076321855465
 30
0.0
 10
87.80871420599192
 20
37.81970202063798
 30
0.0
 10
87.80871420599192
 20
37.81970202063798
 30
0.0
 10
87.80871420599192
 20
37.81970202063798
 30
0.0
 10
87.80871420599192
 20
35.03089722463104
 30
0.0
 10
87.80871420599192
 20
34.98507745466576
 30
0.0
 10
87.85315593776275
 20
34.98507745466576
 30
0.0
 10
89.13886557317942
 20
34.98507745466576
 30
0.0
 10
89.18330730495027
 20
34.98507745466576
 30
0.0
 10
89.18330730495027
 20
35.03089722463104
 30
0.0
 10
89.18330730495027
 20
38.15973294511714
 30
0.0
 10
89.18330730495027
 20
38.15973294511714
 30
0.0
 10
89.18330730495027
 20
38.15973294511714
 30
0.0
 10
89.22499296033221
 20
38.10667847463103
 30
0.0
 10
89.22499296033221
 20
38.10667847463103
 30
0.0
 10
89.51128039522803
 20
37.74494344858937
 30
0.0
 10
89.71695259574886
 20
37.5471949676866
 30
0.0
 10
89.98635906276275
 20
37.32050768470048
 30
0.0
 10
90.01323080755442
 20
37.36598294511714
 30
0.0
 10
90.63782661918637
 20
38.43051745032548
 30
0.0
 10
90.6609087589433
 20
38.47013604841576
 30
0.0
 10
90.28470433186001
 20
38.66168335744354
 30
0.0
 10
89.8726709117211
 20
38.9052516083116
 30
0.0
 10
89.40551596380442
 20
39.37171753713104
 30
0.0
 10
89.40551596380442
 20
39.37171753713104
 30
0.0
 10
89.39070205321415
 20
39.38618693817272
 30
0.0
 10
89.39070205321415
 20
39.38618693817272
 30
0.0
 10
89.39070205321415
 20
39.38618693817272
 30
0.0
 10
89.40344890651275
 20
39.40237888695742
 30
0.0
 10
89.40344890651275
 20
39.40237888695742
 30
0.0
 10
89.81479330755439
 20
39.93740221595048
 30
0.0
 10
89.99256023463775
 20
40.29224705101992
 30
0.0
 10
90.13932130234607
 20
40.60988485483934
 30
0.0
 10
90.13932130234607
 20
40.60988485483934
 30
0.0
 10
90.13725424505443
 20
41.71851658226992
 30
0.0
 10
90.13725424505443
 20
41.76330282358935
 30
0.0
 10
90.09281251328358
 20
41.76330282358935
 30
0.0
 10
89.18330730495027
 20
41.76330282358935
 30
0.0
 10
89.18330730495027
 20
41.76330282358935
 30
0.0
 10
89.18330730495027
 20
41.76330282358935
 30
0.0
 10
89.18330730495027
 20
42.87951376108935
 30
0.0
 10
89.18330730495027
 20
42.92464451195741
 30
0.0
 10
89.13886557317942
 20
42.92464451195741
 30
0.0
 10
87.85315593776275
 20
42.92464451195741
 30
0.0
 10
87.80871420599192
 20
42.92464451195741
 30
0.0
  0
SPLINE
  5
E32
330
E1F
100
AcDbEntity
  8
WAKU
100
AcDbSpline
210
0.0
220
0.0
230
1.0
 70
     9
 71
     3
 72
    35
 73
    31
 74
     0
 42
0.000000001
 43
0.0000000001
 40
0.0
 40
0.0
 40
0.0
 40
0.0
 40
1.0
 40
1.0
 40
1.0
 40
2.0
 40
2.0
 40
2.0
 40
3.0
 40
3.0
 40
3.0
 40
4.0
 40
4.0
 40
4.0
 40
5.0
 40
5.0
 40
5.0
 40
6.0
 40
6.0
 40
6.0
 40
7.0
 40
7.0
 40
7.0
 40
8.0
 40
8.0
 40
8.0
 40
9.0
 40
9.0
 40
9.0
 40
10.0
 40
10.0
 40
10.0
 40
10.0
 10
80.33940268255442
 20
36.44579794077686
 30
0.0
 10
80.62155600286692
 20
36.95360501542964
 30
0.0
 10
80.80621312092246
 20
37.32808689476993
 30
0.0
 10
81.06804037786693
 20
37.88343628713104
 30
0.0
 10
81.06804037786693
 20
37.88343628713104
 30
0.0
 10
81.07424154974195
 20
37.89652764997825
 30
0.0
 10
81.07424154974195
 20
37.89652764997825
 30
0.0
 10
81.07424154974195
 20
37.89652764997825
 30
0.0
 10
83.71697429713776
 20
37.89652764997825
 30
0.0
 10
83.71697429713776
 20
37.89652764997825
 30
0.0
 10
83.71697429713776
 20
37.89652764997825
 30
0.0
 10
83.72593154540162
 20
37.85174140865882
 30
0.0
 10
83.72593154540162
 20
37.85174140865882
 30
0.0
 10
83.72593154540162
 20
37.85174140865882
 30
0.0
 10
82.7082503388044
 20
37.41731486786021
 30
0.0
 10
82.65209528238081
 20
37.39354370900603
 30
0.0
 10
82.69309191866554
 20
37.34669041039492
 30
0.0
 10
83.43034235269332
 20
36.50505358313797
 30
0.0
 10
83.43034235269332
 20
36.50505358313797
 30
0.0
 10
83.43034235269332
 20
36.50505358313797
 30
0.0
 10
83.38073297769332
 20
36.50367554494354
 30
0.0
 10
83.38073297769332
 20
36.50367554494354
 30
0.0
 10
83.38073297769332
 20
36.50367554494354
 30
0.0
 10
81.27750218342248
 20
36.41927070553381
 30
0.0
 10
81.27750218342248
 20
36.41927070553381
 30
0.0
 10
81.27750218342248
 20
36.41927070553381
 30
0.0
 10
80.3197656382836
 20
36.41065796681854
 30
0.0
 10
80.3197656382836
 20
36.41065796681854
 30
0.0
 10
80.3197656382836
 20
36.41065796681854
 30
0.0
 10
80.33940268255442
 20
36.44579794077686
 30
0.0
 10
80.33940268255442
 20
36.44579794077686
 30
0.0
  0
SPLINE
  5
E33
330
E1F
100
AcDbEntity
  8
WAKU
100
AcDbSpline
210
0.0
220
0.0
230
1.0
 70
     9
 71
     3
 72
    56
 73
    52
 74
     0
 42
0.000000001
 43
0.0000000001
 40
0.0
 40
0.0
 40
0.0
 40
0.0
 40
1.0
 40
1.0
 40
1.0
 40
2.0
 40
2.0
 40
2.0
 40
3.0
 40
3.0
 40
3.0
 40
4.0
 40
4.0
 40
4.0
 40
5.0
 40
5.0
 40
5.0
 40
6.0
 40
6.0
 40
6.0
 40
7.0
 40
7.0
 40
7.0
 40
8.0
 40
8.0
 40
8.0
 40
9.0
 40
9.0
 40
9.0
 40
10.0
 40
10.0
 40
10.0
 40
11.0
 40
11.0
 40
11.0
 40
12.0
 40
12.0
 40
12.0
 40
13.0
 40
13.0
 40
13.0
 40
14.0
 40
14.0
 40
14.0
 40
15.0
 40
15.0
 40
15.0
 40
16.0
 40
16.0
 40
16.0
 40
17.0
 40
17.0
 40
17.0
 40
17.0
 10
77.46619304713775
 20
39.06165894338104
 30
0.0
 10
77.46619304713775
 20
39.01756172115881
 30
0.0
 10
77.46619304713775
 20
37.94062487220048
 30
0.0
 10
77.46619304713775
 20
37.89652764997825
 30
0.0
 10
77.51166830755443
 20
37.89652764997825
 30
0.0
 10
79.56081110269329
 20
37.89652764997825
 30
0.0
 10
79.56081110269329
 20
37.89652764997825
 30
0.0
 10
79.56081110269329
 20
37.89652764997825
 30
0.0
 10
79.54978679713774
 20
37.86552179060326
 30
0.0
 10
79.54978679713774
 20
37.86552179060326
 30
0.0
 10
79.3306787242211
 20
37.2557398895616
 30
0.0
 10
79.0891775306447
 20
36.76998142601993
 30
0.0
 10
78.9031423743947
 20
36.41513659095048
 30
0.0
 10
78.9031423743947
 20
36.41513659095048
 30
0.0
 10
78.8965966929711
 20
36.40273424720048
 30
0.0
 10
78.8965966929711
 20
36.40273424720048
 30
0.0
 10
78.8965966929711
 20
36.40273424720048
 30
0.0
 10
77.83481826415166
 20
36.39446601803382
 30
0.0
 10
77.83481826415166
 20
36.39446601803382
 30
0.0
 10
77.83481826415166
 20
36.39446601803382
 30
0.0
 10
77.58367080321416
 20
36.40066718990882
 30
0.0
 10
77.53543946640859
 20
36.40170071855465
 30
0.0
 10
77.54474122422109
 20
36.34899075761715
 30
0.0
 10
77.74524578151275
 20
35.18317044511714
 30
0.0
 10
77.75179146293637
 20
35.14527439476992
 30
0.0
 10
79.81230307317942
 20
35.20280748938797
 30
0.0
 10
80.21331218776275
 20
35.23140178192271
 30
0.0
 10
83.93367080321414
 20
35.4980521725477
 30
0.0
 10
83.93367080321414
 20
35.4980521725477
 30
0.0
 10
84.18688532144331
 20
35.51596666907548
 30
0.0
 10
84.18688532144331
 20
35.51596666907548
 30
0.0
 10
84.18688532144331
 20
35.51596666907548
 30
0.0
 10
84.54483074245024
 20
34.9585502194227
 30
0.0
 10
84.56653484401275
 20
34.92409926456159
 30
0.0
 10
84.60236383706831
 20
34.94098023244354
 30
0.0
 10
85.82123862005444
 20
35.52010078365881
 30
0.0
 10
85.86946995685995
 20
35.54283841386715
 30
0.0
 10
85.40300402804053
 20
36.20670831404075
 30
0.0
 10
84.80769152804054
 20
36.99804674720048
 30
0.0
 10
83.92505806449888
 20
37.85656454233937
 30
0.0
 10
83.92505806449888
 20
37.85656454233937
 30
0.0
 10
83.88337240911694
 20
37.89652764997825
 30
0.0
 10
83.88337240911694
 20
37.89652764997825
 30
0.0
 10
83.88337240911694
 20
37.89652764997825
 30
0.0
 10
85.80814725720719
 20
37.89652764997825
 30
0.0
 10
85.85362251762388
 20
37.89652764997825
 30
0.0
 10
85.85362251762388
 20
37.94062487220048
 30
0.0
 10
85.85362251762388
 20
39.01756172115881
 30
0.0
 10
85.85362251762388
 20
39.06165894338104
 30
0.0
 10
85.80711372856137
 20
39.06165894338104
 30
0.0
 10
77.51235732665165
 20
39.06165894338104
 30
0.0
 10
77.46619304713775
 20
39.06165894338104
 30
0.0
  0
SPLINE
  5
E34
330
E1F
100
AcDbEntity
  8
WAKU
100
AcDbSpline
210
0.0
220
0.0
230
1.0
 70
     9
 71
     3
 72
    26
 73
    22
 74
     0
 42
0.000000001
 43
0.0000000001
 40
0.0
 40
0.0
 40
0.0
 40
0.0
 40
1.0
 40
1.0
 40
1.0
 40
2.0
 40
2.0
 40
2.0
 40
3.0
 40
3.0
 40
3.0
 40
4.0
 40
4.0
 40
4.0
 40
5.0
 40
5.0
 40
5.0
 40
6.0
 40
6.0
 40
6.0
 40
7.0
 40
7.0
 40
7.0
 40
7.0
 10
80.22502551241553
 20
40.82141371768659
 30
0.0
 10
81.11627171467246
 20
41.42912856143659
 30
0.0
 10
81.43356500894331
 20
41.75055597029075
 30
0.0
 10
81.66094131102665
 20
42.00445950761714
 30
0.0
 10
81.66094131102665
 20
42.00445950761714
 30
0.0
 10
81.67747776935998
 20
42.02237400414492
 30
0.0
 10
81.67747776935998
 20
42.02237400414492
 30
0.0
 10
81.67747776935998
 20
42.02237400414492
 30
0.0
 10
81.69504775633914
 20
42.00514852671434
 30
0.0
 10
81.69504775633914
 20
42.00514852671434
 30
0.0
 10
81.95584148463778
 20
41.74676636525602
 30
0.0
 10
82.3137869056447
 20
41.39226603973519
 30
0.0
 10
83.14991158012388
 20
40.82141371768659
 30
0.0
 10
83.14991158012388
 20
40.82141371768659
 30
0.0
 10
83.21261231797109
 20
40.77869453365879
 30
0.0
 10
83.21261231797109
 20
40.77869453365879
 30
0.0
 10
83.21261231797109
 20
40.77869453365879
 30
0.0
 10
80.1623247745683
 20
40.77869453365879
 30
0.0
 10
80.1623247745683
 20
40.77869453365879
 30
0.0
 10
80.1623247745683
 20
40.77869453365879
 30
0.0
 10
80.22502551241553
 20
40.82141371768659
 30
0.0
 10
80.22502551241553
 20
40.82141371768659
 30
0.0
  0
SPLINE
  5
E35
330
E1F
100
AcDbEntity
  8
WAKU
100
AcDbSpline
210
0.0
220
0.0
230
1.0
 70
     9
 71
     3
 72
    44
 73
    40
 74
     0
 42
0.000000001
 43
0.0000000001
 40
0.0
 40
0.0
 40
0.0
 40
0.0
 40
1.0
 40
1.0
 40
1.0
 40
2.0
 40
2.0
 40
2.0
 40
3.0
 40
3.0
 40
3.0
 40
4.0
 40
4.0
 40
4.0
 40
5.0
 40
5.0
 40
5.0
 40
6.0
 40
6.0
 40
6.0
 40
7.0
 40
7.0
 40
7.0
 40
8.0
 40
8.0
 40
8.0
 40
9.0
 40
9.0
 40
9.0
 40
10.0
 40
10.0
 40
10.0
 40
11.0
 40
11.0
 40
11.0
 40
12.0
 40
12.0
 40
12.0
 40
13.0
 40
13.0
 40
13.0
 40
13.0
 10
80.86581327283218
 20
42.98355564476993
 30
0.0
 10
80.20504395859608
 20
42.15363214216576
 30
0.0
 10
79.03681207925581
 20
41.47322578365881
 30
0.0
 10
77.08344293863081
 20
40.78110610049907
 30
0.0
 10
77.10859213567943
 20
40.73597534963103
 30
0.0
 10
77.7528249915822
 20
39.57635620900603
 30
0.0
 10
77.7714285072072
 20
39.54328329233937
 30
0.0
 10
77.7776296790822
 20
39.54535034963104
 30
0.0
 10
77.7838308509572
 20
39.54776191647132
 30
0.0
 10
77.7838308509572
 20
39.54776191647132
 30
0.0
 10
78.0573714325544
 20
39.64594713782548
 30
0.0
 10
78.46974936224192
 20
39.79443075327687
 30
0.0
 10
79.17048178411693
 20
40.17476929494352
 30
0.0
 10
79.17048178411693
 20
40.17476929494352
 30
0.0
 10
79.20493273897804
 20
40.19337281056853
 30
0.0
 10
79.20493273897804
 20
40.19337281056853
 30
0.0
 10
79.20493273897804
 20
40.19337281056853
 30
0.0
 10
79.20493273897804
 20
39.73999824459632
 30
0.0
 10
79.20493273897804
 20
39.69762357011715
 30
0.0
 10
79.25075250894329
 20
39.69762357011715
 30
0.0
 10
84.08663304279745
 20
39.69762357011715
 30
0.0
 10
84.13279732231137
 20
39.69762357011715
 30
0.0
 10
84.13279732231137
 20
39.74034275414492
 30
0.0
 10
84.13279732231137
 20
40.22679023678381
 30
0.0
 10
84.13279732231137
 20
40.22679023678381
 30
0.0
 10
84.13279732231137
 20
40.22679023678381
 30
0.0
 10
84.16724827717247
 20
40.20818672115882
 30
0.0
 10
84.16724827717247
 20
40.20818672115882
 30
0.0
 10
84.8438650306447
 20
39.83956150414492
 30
0.0
 10
85.26003256536695
 20
39.67695299720047
 30
0.0
 10
85.53874079019331
 20
39.5687769989366
 30
0.0
 10
85.55803332491553
 20
39.60219442515187
 30
0.0
 10
86.21845812960302
 20
40.75216729841574
 30
0.0
 10
86.2446408552975
 20
40.79798706838103
 30
0.0
 10
84.61338814262388
 20
41.35195842254769
 30
0.0
 10
83.39106826415164
 20
42.06681573591575
 30
0.0
 10
82.51015734835304
 20
42.98355564476993
 30
0.0
 10
82.49155383272805
 20
42.98355564476993
 30
0.0
 10
80.88648384574886
 20
42.98355564476993
 30
0.0
 10
80.86581327283218
 20
42.98355564476993
 30
0.0
  0
SPLINE
  5
E36
330
E1F
100
AcDbEntity
  8
WAKU
100
AcDbSpline
210
0.0
220
0.0
230
1.0
 70
     9
 71
     3
 72
    50
 73
    46
 74
     0
 42
0.000000001
 43
0.0000000001
 40
0.0
 40
0.0
 40
0.0
 40
0.0
 40
1.0
 40
1.0
 40
1.0
 40
2.0
 40
2.0
 40
2.0
 40
3.0
 40
3.0
 40
3.0
 40
4.0
 40
4.0
 40
4.0
 40
5.0
 40
5.0
 40
5.0
 40
6.0
 40
6.0
 40
6.0
 40
7.0
 40
7.0
 40
7.0
 40
8.0
 40
8.0
 40
8.0
 40
9.0
 40
9.0
 40
9.0
 40
10.0
 40
10.0
 40
10.0
 40
11.0
 40
11.0
 40
11.0
 40
12.0
 40
12.0
 40
12.0
 40
13.0
 40
13.0
 40
13.0
 40
14.0
 40
14.0
 40
14.0
 40
15.0
 40
15.0
 40
15.0
 40
15.0
 10
68.10483508272804
 20
39.81096721161021
 30
0.0
 10
68.10483508272804
 20
39.76686998938798
 30
0.0
 10
68.10483508272804
 20
38.68166491126298
 30
0.0
 10
68.10483508272804
 20
38.63756768904075
 30
0.0
 10
68.1499658335961
 20
38.63756768904075
 30
0.0
 10
69.59139378498497
 20
38.63756768904075
 30
0.0
 10
69.59139378498497
 20
38.63756768904075
 30
0.0
 10
69.59139378498497
 20
38.63756768904075
 30
0.0
 10
69.59139378498497
 20
36.56396471595048
 30
0.0
 10
69.59139378498497
 20
36.56396471595048
 30
0.0
 10
69.59139378498497
 20
36.56396471595048
 30
0.0
 10
68.2130110809919
 20
36.46991360917964
 30
0.0
 10
68.2130110809919
 20
36.46991360917964
 30
0.0
 10
68.21370010008914
 20
36.46991360917964
 30
0.0
 10
68.00596084227665
 20
36.46026734181854
 30
0.0
 10
68.00596084227665
 20
36.46026734181854
 30
0.0
 10
68.00596084227665
 20
36.46026734181854
 30
0.0
 10
67.88297093342248
 20
36.45578871768659
 30
0.0
 10
67.84541939262386
 20
36.45441067949214
 30
0.0
 10
67.85127605495026
 20
36.40686836178382
 30
0.0
 10
67.99355849852665
 20
35.22347806230464
 30
0.0
 10
67.99872614175581
 20
35.18041436872825
 30
0.0
 10
71.1575341929711
 20
35.4825492428602
 30
0.0
 10
71.73286513915164
 20
35.54077135657548
 30
0.0
 10
72.7794851478322
 20
35.73851983747825
 30
0.0
 10
72.77914063828359
 20
35.77572686872826
 30
0.0
 10
72.76260417995023
 20
36.83509373070742
 30
0.0
 10
72.76191516085304
 20
36.88642565345047
 30
0.0
 10
72.42085070772803
 20
36.82820353973522
 30
0.0
 10
72.03121040824886
 20
36.76205770640186
 30
0.0
 10
71.00078234835304
 20
36.67179620466575
 30
0.0
 10
71.00078234835304
 20
36.67179620466575
 30
0.0
 10
70.9749441322072
 20
36.6697291473741
 30
0.0
 10
70.9749441322072
 20
36.6697291473741
 30
0.0
 10
70.9749441322072
 20
36.6697291473741
 30
0.0
 10
70.9749441322072
 20
38.63756768904075
 30
0.0
 10
70.9749441322072
 20
38.63756768904075
 30
0.0
 10
70.9749441322072
 20
38.63756768904075
 30
0.0
 10
72.3888113197072
 20
38.63756768904075
 30
0.0
 10
72.43394207057527
 20
38.63756768904075
 30
0.0
 10
72.43394207057527
 20
38.68166491126298
 30
0.0
 10
72.43394207057527
 20
39.76686998938798
 30
0.0
 10
72.43394207057527
 20
39.81096721161021
 30
0.0
 10
72.38812230060998
 20
39.81096721161021
 30
0.0
 10
68.15065485269332
 20
39.81096721161021
 30
0.0
 10
68.10483508272804
 20
39.81096721161021
 30
0.0
  0
SPLINE
  5
E37
330
E1F
100
AcDbEntity
  8
WAKU
100
AcDbSpline
210
0.0
220
0.0
230
1.0
 70
     9
 71
     3
 72
    89
 73
    85
 74
     0
 42
0.000000001
 43
0.0000000001
 40
0.0
 40
0.0
 40
0.0
 40
0.0
 40
1.0
 40
1.0
 40
1.0
 40
2.0
 40
2.0
 40
2.0
 40
3.0
 40
3.0
 40
3.0
 40
4.0
 40
4.0
 40
4.0
 40
5.0
 40
5.0
 40
5.0
 40
6.0
 40
6.0
 40
6.0
 40
7.0
 40
7.0
 40
7.0
 40
8.0
 40
8.0
 40
8.0
 40
9.0
 40
9.0
 40
9.0
 40
10.0
 40
10.0
 40
10.0
 40
11.0
 40
11.0
 40
11.0
 40
12.0
 40
12.0
 40
12.0
 40
13.0
 40
13.0
 40
13.0
 40
14.0
 40
14.0
 40
14.0
 40
15.0
 40
15.0
 40
15.0
 40
16.0
 40
16.0
 40
16.0
 40
17.0
 40
17.0
 40
17.0
 40
18.0
 40
18.0
 40
18.0
 40
19.0
 40
19.0
 40
19.0
 40
20.0
 40
20.0
 40
20.0
 40
21.0
 40
21.0
 40
21.0
 40
22.0
 40
22.0
 40
22.0
 40
23.0
 40
23.0
 40
23.0
 40
24.0
 40
24.0
 40
24.0
 40
25.0
 40
25.0
 40
25.0
 40
26.0
 40
26.0
 40
26.0
 40
27.0
 40
27.0
 40
27.0
 40
28.0
 40
28.0
 40
28.0
 40
28.0
 10
74.36939671467247
 20
42.55980889997824
 30
0.0
 10
74.59573948810998
 20
42.36481649546436
 30
0.0
 10
74.79762208359609
 20
42.10436727671435
 30
0.0
 10
75.02844348116553
 20
41.80085436438797
 30
0.0
 10
75.02844348116553
 20
41.80085436438797
 30
0.0
 10
75.05703777370027
 20
41.76330282358935
 30
0.0
 10
75.05703777370027
 20
41.76330282358935
 30
0.0
 10
75.05703777370027
 20
41.76330282358935
 30
0.0
 10
74.07036242647802
 20
41.76330282358935
 30
0.0
 10
74.07036242647802
 20
41.76330282358935
 30
0.0
 10
74.07036242647802
 20
41.76330282358935
 30
0.0
 10
74.07036242647802
 20
42.88743748070742
 30
0.0
 10
74.07036242647802
 20
42.93325725067268
 30
0.0
 10
74.0259206947072
 20
42.93325725067268
 30
0.0
 10
72.6678640540822
 20
42.93325725067268
 30
0.0
 10
72.62169977456832
 20
42.93325725067268
 30
0.0
 10
72.62307781276277
 20
42.89122708574214
 30
0.0
 10
72.6306570228322
 20
42.66178372636714
 30
0.0
 10
72.6306570228322
 20
42.66178372636714
 30
0.0
 10
72.6303125132836
 20
42.66316176456157
 30
0.0
 10
72.64857151935998
 20
42.2325248287977
 30
0.0
 10
72.64857151935998
 20
42.2325248287977
 30
0.0
 10
72.64857151935998
 20
42.2325248287977
 30
0.0
 10
72.66855307317944
 20
41.76399184268658
 30
0.0
 10
72.66855307317944
 20
41.76399184268658
 30
0.0
 10
72.66855307317944
 20
41.76399184268658
 30
0.0
 10
72.64409289522801
 20
41.76330282358935
 30
0.0
 10
72.64409289522801
 20
41.76330282358935
 30
0.0
 10
72.64409289522801
 20
41.76330282358935
 30
0.0
 10
67.97288792560998
 20
41.76330282358935
 30
0.0
 10
67.92672364609609
 20
41.76330282358935
 30
0.0
 10
67.92672364609609
 20
41.71920560136714
 30
0.0
 10
67.92672364609609
 20
40.63400052324214
 30
0.0
 10
67.92672364609609
 20
40.58990330101992
 30
0.0
 10
67.97288792560998
 20
40.58990330101992
 30
0.0
 10
72.71333931449887
 20
40.58990330101992
 30
0.0
 10
72.71333931449887
 20
40.58990330101992
 30
0.0
 10
72.71333931449887
 20
40.58990330101992
 30
0.0
 10
72.71540637179054
 20
40.54511705970047
 30
0.0
 10
72.71540637179054
 20
40.54511705970047
 30
0.0
 10
72.7698388804711
 20
39.22702352671436
 30
0.0
 10
72.87112468776277
 20
36.77411554060326
 30
0.0
 10
74.21333388915164
 20
35.44086358747826
 30
0.0
 10
74.44415528672109
 20
35.21004218990881
 30
0.0
 10
74.88133790390858
 20
34.97646471595048
 30
0.0
 10
75.33712403672109
 20
34.97646471595048
 30
0.0
 10
76.16050185790166
 20
34.97646471595048
 30
0.0
 10
76.64005914956831
 20
35.85393053626297
 30
0.0
 10
76.85503310790164
 20
36.38344171247825
 30
0.0
 10
76.84676487873497
 20
36.40135620900603
 30
0.0
 10
76.32104330755443
 20
37.58371297983936
 30
0.0
 10
76.28176921901277
 20
37.67259644338103
 30
0.0
 10
76.0533593882836
 20
37.11449097463103
 30
0.0
 10
75.56966798203359
 20
36.56224216820742
 30
0.0
 10
75.2999170054711
 20
36.56224216820742
 30
0.0
 10
75.01294055147804
 20
36.56224216820742
 30
0.0
 10
74.7576589759572
 20
37.16754544511714
 30
0.0
 10
74.6611963023461
 20
37.42765015431853
 30
0.0
 10
74.25088542995027
 20
38.53455933400603
 30
0.0
 10
74.14512099852666
 20
39.68591024546436
 30
0.0
 10
74.09861220946416
 20
40.56509861351992
 30
0.0
 10
74.09861220946416
 20
40.56509861351992
 30
0.0
 10
74.0972341712697
 20
40.58990330101992
 30
0.0
 10
74.0972341712697
 20
40.58990330101992
 30
0.0
 10
74.0972341712697
 20
40.58990330101992
 30
0.0
 10
76.6521169837697
 20
40.58990330101992
 30
0.0
 10
76.69793675373495
 20
40.58990330101992
 30
0.0
 10
76.69793675373495
 20
40.63400052324214
 30
0.0
 10
76.69793675373495
 20
41.71920560136714
 30
0.0
 10
76.69793675373495
 20
41.76330282358935
 30
0.0
 10
76.65349502196416
 20
41.76330282358935
 30
0.0
 10
75.84217503498497
 20
41.76330282358935
 30
0.0
 10
75.84217503498497
 20
41.76330282358935
 30
0.0
 10
75.84217503498497
 20
41.76330282358935
 30
0.0
 10
75.83390680581832
 20
41.80843357445739
 30
0.0
 10
75.83390680581832
 20
41.80843357445739
 30
0.0
 10
75.83390680581832
 20
41.80843357445739
 30
0.0
 10
76.34929309054053
 20
42.01169420813797
 30
0.0
 10
76.40269207057524
 20
42.03270929060325
 30
0.0
 10
75.78636448810998
 20
42.81061185136714
 30
0.0
 10
75.65889595512387
 20
42.89639472897131
 30
0.0
 10
75.52625977890859
 20
42.98424466386713
 30
0.0
 10
75.52591526935998
 20
42.97976603973518
 30
0.0
 10
74.53579482665166
 20
42.6200980709852
 30
0.0
 10
74.36939671467247
 20
42.55980889997824
 30
0.0
  0
SPLINE
  5
E38
330
E1F
100
AcDbEntity
  8
WAKU
100
AcDbSpline
210
0.0
220
0.0
230
1.0
 70
     9
 71
     3
 72
   197
 73
   193
 74
     0
 42
0.000000001
 43
0.0000000001
 40
0.0
 40
0.0
 40
0.0
 40
0.0
 40
1.0
 40
1.0
 40
1.0
 40
2.0
 40
2.0
 40
2.0
 40
3.0
 40
3.0
 40
3.0
 40
4.0
 40
4.0
 40
4.0
 40
5.0
 40
5.0
 40
5.0
 40
6.0
 40
6.0
 40
6.0
 40
7.0
 40
7.0
 40
7.0
 40
8.0
 40
8.0
 40
8.0
 40
9.0
 40
9.0
 40
9.0
 40
10.0
 40
10.0
 40
10.0
 40
11.0
 40
11.0
 40
11.0
 40
12.0
 40
12.0
 40
12.0
 40
13.0
 40
13.0
 40
13.0
 40
14.0
 40
14.0
 40
14.0
 40
15.0
 40
15.0
 40
15.0
 40
16.0
 40
16.0
 40
16.0
 40
17.0
 40
17.0
 40
17.0
 40
18.0
 40
18.0
 40
18.0
 40
19.0
 40
19.0
 40
19.0
 40
20.0
 40
20.0
 40
20.0
 40
21.0
 40
21.0
 40
21.0
 40
22.0
 40
22.0
 40
22.0
 40
23.0
 40
23.0
 40
23.0
 40
24.0
 40
24.0
 40
24.0
 40
25.0
 40
25.0
 40
25.0
 40
26.0
 40
26.0
 40
26.0
 40
27.0
 40
27.0
 40
27.0
 40
28.0
 40
28.0
 40
28.0
 40
29.0
 40
29.0
 40
29.0
 40
30.0
 40
30.0
 40
30.0
 40
31.0
 40
31.0
 40
31.0
 40
32.0
 40
32.0
 40
32.0
 40
33.0
 40
33.0
 40
33.0
 40
34.0
 40
34.0
 40
34.0
 40
35.0
 40
35.0
 40
35.0
 40
36.0
 40
36.0
 40
36.0
 40
37.0
 40
37.0
 40
37.0
 40
38.0
 40
38.0
 40
38.0
 40
39.0
 40
39.0
 40
39.0
 40
40.0
 40
40.0
 40
40.0
 40
41.0
 40
41.0
 40
41.0
 40
42.0
 40
42.0
 40
42.0
 40
43.0
 40
43.0
 40
43.0
 40
44.0
 40
44.0
 40
44.0
 40
45.0
 40
45.0
 40
45.0
 40
46.0
 40
46.0
 40
46.0
 40
47.0
 40
47.0
 40
47.0
 40
48.0
 40
48.0
 40
48.0
 40
49.0
 40
49.0
 40
49.0
 40
50.0
 40
50.0
 40
50.0
 40
51.0
 40
51.0
 40
51.0
 40
52.0
 40
52.0
 40
52.0
 40
53.0
 40
53.0
 40
53.0
 40
54.0
 40
54.0
 40
54.0
 40
55.0
 40
55.0
 40
55.0
 40
56.0
 40
56.0
 40
56.0
 40
57.0
 40
57.0
 40
57.0
 40
58.0
 40
58.0
 40
58.0
 40
59.0
 40
59.0
 40
59.0
 40
60.0
 40
60.0
 40
60.0
 40
61.0
 40
61.0
 40
61.0
 40
62.0
 40
62.0
 40
62.0
 40
63.0
 40
63.0
 40
63.0
 40
64.0
 40
64.0
 40
64.0
 40
64.0
 10
64.0265310462697
 20
42.91637628279075
 30
0.0
 10
64.0265310462697
 20
42.87193455101991
 30
0.0
 10
64.0265310462697
 20
41.85563138261714
 30
0.0
 10
64.0265310462697
 20
41.85563138261714
 30
0.0
 10
64.0265310462697
 20
41.85563138261714
 30
0.0
 10
63.48737360269332
 20
41.85563138261714
 30
0.0
 10
63.48737360269332
 20
41.85563138261714
 30
0.0
 10
63.48737360269332
 20
41.85563138261714
 30
0.0
 10
63.66341798203359
 20
42.60872925588103
 30
0.0
 10
63.67478679713776
 20
42.65730510223519
 30
0.0
 10
63.6237993839433
 20
42.66143921681853
 30
0.0
 10
62.49966472682526
 20
42.75170071855463
 30
0.0
 10
62.4603906382836
 20
42.75480130449214
 30
0.0
 10
62.36013835963776
 20
42.10781237220047
 30
0.0
 10
62.1599783118947
 20
41.52317966820739
 30
0.0
 10
61.86301108099192
 20
41.01778416039493
 30
0.0
 10
61.86301108099192
 20
41.01778416039493
 30
0.0
 10
61.81960287786693
 20
40.94337009789492
 30
0.0
 10
61.81960287786693
 20
40.94337009789492
 30
0.0
 10
61.81960287786693
 20
40.94337009789492
 30
0.0
 10
61.81960287786693
 20
41.48493910831159
 30
0.0
 10
61.81960287786693
 20
41.52765829233937
 30
0.0
 10
61.77516114609609
 20
41.52765829233937
 30
0.0
 10
60.93145726154748
 20
41.52765829233937
 30
0.0
 10
60.93145726154748
 20
41.52765829233937
 30
0.0
 10
60.93145726154748
 20
41.52765829233937
 30
0.0
 10
60.93145726154748
 20
42.8712455319227
 30
0.0
 10
60.93145726154748
 20
42.91637628279075
 30
0.0
 10
60.88736003932526
 20
42.91637628279075
 30
0.0
 10
59.73187501328361
 20
42.91637628279075
 30
0.0
 10
59.68777779106137
 20
42.91637628279075
 30
0.0
 10
59.68777779106137
 20
42.8712455319227
 30
0.0
 10
59.68777779106137
 20
41.52765829233937
 30
0.0
 10
59.68777779106137
 20
41.52765829233937
 30
0.0
 10
59.68777779106137
 20
41.52765829233937
 30
0.0
 10
58.59154840738082
 20
41.52765829233937
 30
0.0
 10
58.54710667560998
 20
41.52765829233937
 30
0.0
 10
58.54710667560998
 20
41.48390557966575
 30
0.0
 10
58.54710667560998
 20
40.45692261525603
 30
0.0
 10
58.54710667560998
 20
40.41282539303379
 30
0.0
 10
58.59154840738082
 20
40.41282539303379
 30
0.0
 10
59.59372668429054
 20
40.41282539303379
 30
0.0
 10
59.59372668429054
 20
40.41282539303379
 30
0.0
 10
59.59372668429054
 20
40.41282539303379
 30
0.0
 10
59.58373590738081
 20
40.38250855275602
 30
0.0
 10
59.58373590738081
 20
40.38250855275602
 30
0.0
 10
59.15378799071415
 20
39.0327201412977
 30
0.0
 10
58.73314183185998
 20
38.4835719208116
 30
0.0
 10
58.37140680581832
 20
38.0777396725477
 30
0.0
 10
58.3776079776933
 20
38.05500204233937
 30
0.0
 10
58.77276042995024
 20
36.56534275414492
 30
0.0
 10
58.7958425697072
 20
36.47818183834632
 30
0.0
 10
58.99462457925581
 20
36.74035360483936
 30
0.0
 10
59.3350000132836
 20
37.21164266733936
 30
0.0
 10
59.64230253064471
 20
38.16662313608937
 30
0.0
 10
59.64230253064471
 20
38.16662313608937
 30
0.0
 10
59.68777779106137
 20
38.15973294511714
 30
0.0
 10
59.68777779106137
 20
38.15973294511714
 30
0.0
 10
59.68777779106137
 20
38.15973294511714
 30
0.0
 10
59.68777779106137
 20
35.0391654537977
 30
0.0
 10
59.68777779106137
 20
34.99334568383242
 30
0.0
 10
59.73187501328361
 20
34.99334568383242
 30
0.0
 10
60.88736003932526
 20
34.99334568383242
 30
0.0
 10
60.93145726154748
 20
34.99334568383242
 30
0.0
 10
60.93145726154748
 20
35.0391654537977
 30
0.0
 10
60.93145726154748
 20
38.47943780622826
 30
0.0
 10
60.93145726154748
 20
38.47943780622826
 30
0.0
 10
60.93145726154748
 20
38.47943780622826
 30
0.0
 10
60.97899957925581
 20
38.47943780622826
 30
0.0
 10
60.97899957925581
 20
38.47943780622826
 30
0.0
 10
61.07063911918636
 20
38.14112942949214
 30
0.0
 10
61.11921496554053
 20
37.96611857879771
 30
0.0
 10
61.49128527804053
 20
37.34152276716576
 30
0.0
 10
61.5305593665822
 20
37.38872057532547
 30
0.0
 10
62.2312917884572
 20
38.22450074025603
 30
0.0
 10
62.2591970618947
 20
38.25791816647131
 30
0.0
 10
62.13689617213774
 20
38.36092652150603
 30
0.0
 10
62.03044272161693
 20
38.45601115692272
 30
0.0
 10
61.84440756536693
 20
38.66581747202687
 30
0.0
 10
61.84440756536693
 20
38.66581747202687
 30
0.0
 10
61.8099566105058
 20
38.70474705101992
 30
0.0
 10
61.8099566105058
 20
38.70474705101992
 30
0.0
 10
61.8099566105058
 20
38.70474705101992
 30
0.0
 10
61.81719131102664
 20
38.70474705101992
 30
0.0
 10
61.82098091606136
 20
38.70474705101992
 30
0.0
 10
61.5832693275197
 20
38.98207723765187
 30
0.0
 10
61.15642199679054
 20
39.51572252845048
 30
0.0
 10
60.93386882838776
 20
40.00974922115879
 30
0.0
 10
60.93386882838776
 20
40.00974922115879
 30
0.0
 10
60.93145726154748
 20
40.01422784529075
 30
0.0
 10
60.93145726154748
 20
40.01422784529075
 30
0.0
 10
60.93145726154748
 20
40.01422784529075
 30
0.0
 10
60.93145726154748
 20
40.41282539303379
 30
0.0
 10
60.93145726154748
 20
40.41282539303379
 30
0.0
 10
60.93145726154748
 20
40.41282539303379
 30
0.0
 10
61.81512425373497
 20
40.41282539303379
 30
0.0
 10
61.81512425373497
 20
40.41282539303379
 30
0.0
 10
61.82856012613082
 20
40.40869127845048
 30
0.0
 10
62.54824057317943
 20
39.90364028018659
 30
0.0
 10
62.54824057317943
 20
39.90364028018659
 30
0.0
 10
62.54824057317943
 20
39.90364028018659
 30
0.0
 10
62.5940603431447
 20
39.87228991126297
 30
0.0
 10
62.6033621009572
 20
39.86574422983937
 30
0.0
 10
62.60818523463774
 20
39.87194540171437
 30
0.0
 10
62.62885580755442
 20
39.89916165605464
 30
0.0
 10
62.62885580755442
 20
39.89916165605464
 30
0.0
 10
62.74323297769331
 20
40.05040134789489
 30
0.0
 10
62.91721029974192
 20
40.31085056664492
 30
0.0
 10
63.09359918863082
 20
40.69394518470047
 30
0.0
 10
63.09359918863082
 20
40.69394518470047
 30
0.0
 10
63.10014487005442
 20
40.70738105709629
 30
0.0
 10
63.10014487005442
 20
40.70738105709629
 30
0.0
 10
63.10014487005442
 20
40.70738105709629
 30
0.0
 10
64.0265310462697
 20
40.70738105709629
 30
0.0
 10
64.0265310462697
 20
40.70738105709629
 30
0.0
 10
64.0265310462697
 20
40.70738105709629
 30
0.0
 10
64.0265310462697
 20
39.86161011525604
 30
0.0
 10
64.0265310462697
 20
39.86161011525604
 30
0.0
 10
64.0265310462697
 20
39.86161011525604
 30
0.0
 10
61.90986437960305
 20
39.86161011525604
 30
0.0
 10
61.86645617647805
 20
39.86161011525604
 30
0.0
 10
61.86645617647805
 20
39.8168238739366
 30
0.0
 10
61.86645617647805
 20
38.70750312740881
 30
0.0
 10
61.86645617647805
 20
38.70474705101992
 30
0.0
 10
61.87506891519332
 20
38.70474705101992
 30
0.0
 10
63.55868707925582
 20
38.70474705101992
 30
0.0
 10
63.55868707925582
 20
38.70474705101992
 30
0.0
 10
63.55868707925582
 20
38.70474705101992
 30
0.0
 10
63.53698297769331
 20
38.66891805796436
 30
0.0
 10
63.53698297769331
 20
38.66891805796436
 30
0.0
 10
63.00816082057526
 20
37.8045436004991
 30
0.0
 10
62.30398330321413
 20
37.1165580319227
 30
0.0
 10
61.44581001762386
 20
36.62184232011714
 30
0.0
 10
61.47130372422109
 20
36.58429077931854
 30
0.0
 10
62.21096572508916
 20
35.51768921681853
 30
0.0
 10
62.23956001762386
 20
35.4763480709852
 30
0.0
 10
62.98749024765861
 20
36.09474271074214
 30
0.0
 10
63.5583425697072
 20
36.7940970944227
 30
0.0
 10
63.98208931449886
 20
37.61471883921436
 30
0.0
 10
63.98208931449886
 20
37.61471883921436
 30
0.0
 10
64.0265310462697
 20
37.60403904320742
 30
0.0
 10
64.0265310462697
 20
37.60403904320742
 30
0.0
 10
64.0265310462697
 20
37.60403904320742
 30
0.0
 10
64.0265310462697
 20
35.0391654537977
 30
0.0
 10
64.0265310462697
 20
34.99334568383242
 30
0.0
 10
64.07062826849193
 20
34.99334568383242
 30
0.0
 10
65.27262208359609
 20
34.99334568383242
 30
0.0
 10
65.31671930581831
 20
34.99334568383242
 30
0.0
 10
65.31671930581831
 20
35.0391654537977
 30
0.0
 10
65.31671930581831
 20
37.41042467688798
 30
0.0
 10
65.31671930581831
 20
37.41042467688798
 30
0.0
 10
65.31671930581831
 20
37.41042467688798
 30
0.0
 10
65.36081652804054
 20
37.42144898244354
 30
0.0
 10
65.36081652804054
 20
37.42144898244354
 30
0.0
 10
65.78800836831831
 20
36.60668389997825
 30
0.0
 10
66.33474502196415
 20
35.96038398678382
 30
0.0
 10
66.9848345401933
 20
35.49632962480465
 30
0.0
 10
67.00688315130442
 20
35.55248468122825
 30
0.0
 10
67.50504395859609
 20
36.83612725935326
 30
0.0
 10
67.51813532144331
 20
36.87092272376297
 30
0.0
 10
67.1488210853322
 20
37.09761000674909
 30
0.0
 10
66.40399144123498
 20
37.56373142601992
 30
0.0
 10
65.7039480384572
 20
38.66891805796436
 30
0.0
 10
65.7039480384572
 20
38.66891805796436
 30
0.0
 10
65.68121040824888
 20
38.70474705101992
 30
0.0
 10
65.68121040824888
 20
38.70474705101992
 30
0.0
 10
65.68121040824888
 20
38.70474705101992
 30
0.0
 10
67.31005155408221
 20
38.70474705101992
 30
0.0
 10
67.35552681449886
 20
38.70474705101992
 30
0.0
 10
67.35552681449886
 20
38.74884427324214
 30
0.0
 10
67.35552681449886
 20
39.81751289303382
 30
0.0
 10
67.35552681449886
 20
39.86161011525604
 30
0.0
 10
67.30970704453359
 20
39.86161011525604
 30
0.0
 10
65.31671930581831
 20
39.86161011525604
 30
0.0
 10
65.31671930581831
 20
39.86161011525604
 30
0.0
 10
65.31671930581831
 20
39.86161011525604
 30
0.0
 10
65.31671930581831
 20
40.70738105709629
 30
0.0
 10
65.31671930581831
 20
40.70738105709629
 30
0.0
 10
65.31671930581831
 20
40.70738105709629
 30
0.0
 10
67.16949165824885
 20
40.70738105709629
 30
0.0
 10
67.21496691866554
 20
40.70738105709629
 30
0.0
 10
67.21496691866554
 20
40.75147827931853
 30
0.0
 10
67.21496691866554
 20
41.81187866994353
 30
0.0
 10
67.21496691866554
 20
41.85563138261714
 30
0.0
 10
67.16949165824885
 20
41.85563138261714
 30
0.0
 10
65.31671930581831
 20
41.85563138261714
 30
0.0
 10
65.31671930581831
 20
41.85563138261714
 30
0.0
 10
65.31671930581831
 20
41.85563138261714
 30
0.0
 10
65.31671930581831
 20
42.87193455101991
 30
0.0
 10
65.31671930581831
 20
42.91637628279075
 30
0.0
 10
65.27262208359609
 20
42.91637628279075
 30
0.0
 10
64.07062826849193
 20
42.91637628279075
 30
0.0
 10
64.0265310462697
 20
42.91637628279075
 30
0.0
  0
SPLINE
  5
E39
330
E1F
100
AcDbEntity
  8
WAKU
100
AcDbSpline
210
0.0
220
0.0
230
1.0
 70
     9
 71
     3
 72
    29
 73
    25
 74
     0
 42
0.000000001
 43
0.0000000001
 40
0.0
 40
0.0
 40
0.0
 40
0.0
 40
1.0
 40
1.0
 40
1.0
 40
2.0
 40
2.0
 40
2.0
 40
3.0
 40
3.0
 40
3.0
 40
4.0
 40
4.0
 40
4.0
 40
5.0
 40
5.0
 40
5.0
 40
6.0
 40
6.0
 40
6.0
 40
7.0
 40
7.0
 40
7.0
 40
8.0
 40
8.0
 40
8.0
 40
8.0
 10
52.86201010442942
 20
40.47552613088103
 30
0.0
 10
52.84340658880442
 20
40.53271471595047
 30
0.0
 10
52.72213922769331
 20
40.83450508053378
 30
0.0
 10
52.68596572508915
 20
40.89996189476992
 30
0.0
 10
52.68596572508915
 20
40.89996189476992
 30
0.0
 10
52.66632868081831
 20
40.93475735917964
 30
0.0
 10
52.66632868081831
 20
40.93475735917964
 30
0.0
 10
52.66632868081831
 20
40.93475735917964
 30
0.0
 10
54.5883474525197
 20
40.93475735917964
 30
0.0
 10
54.5883474525197
 20
40.93475735917964
 30
0.0
 10
54.5883474525197
 20
40.93475735917964
 30
0.0
 10
54.58042373290165
 20
40.9054740475477
 30
0.0
 10
54.58042373290165
 20
40.9054740475477
 30
0.0
 10
54.5015310462697
 20
40.61401896942268
 30
0.0
 10
54.46329048637386
 20
40.53374824459631
 30
0.0
 10
54.42815051241554
 20
40.47104750674907
 30
0.0
 10
54.42815051241554
 20
40.47104750674907
 30
0.0
 10
54.42126032144331
 20
40.45898967254768
 30
0.0
 10
54.42126032144331
 20
40.45898967254768
 30
0.0
 10
54.42126032144331
 20
40.45898967254768
 30
0.0
 10
52.86683323810998
 20
40.45898967254768
 30
0.0
 10
52.86683323810998
 20
40.45898967254768
 30
0.0
 10
52.86683323810998
 20
40.45898967254768
 30
0.0
 10
52.86201010442942
 20
40.47552613088103
 30
0.0
 10
52.86201010442942
 20
40.47552613088103
 30
0.0
  0
SPLINE
  5
E3A
330
E1F
100
AcDbEntity
  8
WAKU
100
AcDbSpline
210
0.0
220
0.0
230
1.0
 70
     9
 71
     3
 72
   203
 73
   199
 74
     0
 42
0.000000001
 43
0.0000000001
 40
0.0
 40
0.0
 40
0.0
 40
0.0
 40
1.0
 40
1.0
 40
1.0
 40
2.0
 40
2.0
 40
2.0
 40
3.0
 40
3.0
 40
3.0
 40
4.0
 40
4.0
 40
4.0
 40
5.0
 40
5.0
 40
5.0
 40
6.0
 40
6.0
 40
6.0
 40
7.0
 40
7.0
 40
7.0
 40
8.0
 40
8.0
 40
8.0
 40
9.0
 40
9.0
 40
9.0
 40
10.0
 40
10.0
 40
10.0
 40
11.0
 40
11.0
 40
11.0
 40
12.0
 40
12.0
 40
12.0
 40
13.0
 40
13.0
 40
13.0
 40
14.0
 40
14.0
 40
14.0
 40
15.0
 40
15.0
 40
15.0
 40
16.0
 40
16.0
 40
16.0
 40
17.0
 40
17.0
 40
17.0
 40
18.0
 40
18.0
 40
18.0
 40
19.0
 40
19.0
 40
19.0
 40
20.0
 40
20.0
 40
20.0
 40
21.0
 40
21.0
 40
21.0
 40
22.0
 40
22.0
 40
22.0
 40
23.0
 40
23.0
 40
23.0
 40
24.0
 40
24.0
 40
24.0
 40
25.0
 40
25.0
 40
25.0
 40
26.0
 40
26.0
 40
26.0
 40
27.0
 40
27.0
 40
27.0
 40
28.0
 40
28.0
 40
28.0
 40
29.0
 40
29.0
 40
29.0
 40
30.0
 40
30.0
 40
30.0
 40
31.0
 40
31.0
 40
31.0
 40
32.0
 40
32.0
 40
32.0
 40
33.0
 40
33.0
 40
33.0
 40
34.0
 40
34.0
 40
34.0
 40
35.0
 40
35.0
 40
35.0
 40
36.0
 40
36.0
 40
36.0
 40
37.0
 40
37.0
 40
37.0
 40
38.0
 40
38.0
 40
38.0
 40
39.0
 40
39.0
 40
39.0
 40
40.0
 40
40.0
 40
40.0
 40
41.0
 40
41.0
 40
41.0
 40
42.0
 40
42.0
 40
42.0
 40
43.0
 40
43.0
 40
43.0
 40
44.0
 40
44.0
 40
44.0
 40
45.0
 40
45.0
 40
45.0
 40
46.0
 40
46.0
 40
46.0
 40
47.0
 40
47.0
 40
47.0
 40
48.0
 40
48.0
 40
48.0
 40
49.0
 40
49.0
 40
49.0
 40
50.0
 40
50.0
 40
50.0
 40
51.0
 40
51.0
 40
51.0
 40
52.0
 40
52.0
 40
52.0
 40
53.0
 40
53.0
 40
53.0
 40
54.0
 40
54.0
 40
54.0
 40
55.0
 40
55.0
 40
55.0
 40
56.0
 40
56.0
 40
56.0
 40
57.0
 40
57.0
 40
57.0
 40
58.0
 40
58.0
 40
58.0
 40
59.0
 40
59.0
 40
59.0
 40
60.0
 40
60.0
 40
60.0
 40
61.0
 40
61.0
 40
61.0
 40
62.0
 40
62.0
 40
62.0
 40
63.0
 40
63.0
 40
63.0
 40
64.0
 40
64.0
 40
64.0
 40
65.0
 40
65.0
 40
65.0
 40
66.0
 40
66.0
 40
66.0
 40
66.0
 10
50.02221789522804
 20
42.70346938174909
 30
0.0
 10
50.17380209661692
 20
42.45611152584632
 30
0.0
 10
50.30471572508915
 20
42.2077201412977
 30
0.0
 10
50.40841309922109
 20
41.96449639997825
 30
0.0
 10
50.40841309922109
 20
41.96449639997825
 30
0.0
 10
50.42253799071414
 20
41.93176799286018
 30
0.0
 10
50.42253799071414
 20
41.93176799286018
 30
0.0
 10
50.42253799071414
 20
41.93176799286018
 30
0.0
 10
49.28669000894331
 20
41.93176799286018
 30
0.0
 10
49.24190376762386
 20
41.93176799286018
 30
0.0
 10
49.24190376762386
 20
41.88801528018657
 30
0.0
 10
49.24190376762386
 20
40.97816556230464
 30
0.0
 10
49.24190376762386
 20
40.93475735917964
 30
0.0
 10
49.28737902804054
 20
40.93475735917964
 30
0.0
 10
51.28829048637386
 20
40.93475735917964
 30
0.0
 10
51.28829048637386
 20
40.93475735917964
 30
0.0
 10
51.28829048637386
 20
40.93475735917964
 30
0.0
 10
51.29518067734609
 20
40.9237330536241
 30
0.0
 10
51.29518067734609
 20
40.9237330536241
 30
0.0
 10
51.38130806449886
 20
40.78661825327685
 30
0.0
 10
51.40921333793636
 20
40.7104816430338
 30
0.0
 10
51.48500543863081
 20
40.4899955319227
 30
0.0
 10
51.48500543863081
 20
40.4899955319227
 30
0.0
 10
51.49568523463774
 20
40.45898967254768
 30
0.0
 10
51.49568523463774
 20
40.45898967254768
 30
0.0
 10
51.49568523463774
 20
40.45898967254768
 30
0.0
 10
49.6518701304711
 20
40.45898967254768
 30
0.0
 10
49.60639487005442
 20
40.45898967254768
 30
0.0
 10
49.60639487005442
 20
40.41558146942271
 30
0.0
 10
49.60639487005442
 20
39.6063285397352
 30
0.0
 10
49.60639487005442
 20
39.56326484615882
 30
0.0
 10
49.65255914956832
 20
39.56326484615882
 30
0.0
 10
52.95399415390861
 20
39.56326484615882
 30
0.0
 10
52.95399415390861
 20
39.56326484615882
 30
0.0
 10
52.95399415390861
 20
39.56326484615882
 30
0.0
 10
52.95399415390861
 20
39.17982571855464
 30
0.0
 10
52.95399415390861
 20
39.17982571855464
 30
0.0
 10
52.95399415390861
 20
39.17982571855464
 30
0.0
 10
49.89578289088774
 20
39.17982571855464
 30
0.0
 10
49.84961861137386
 20
39.17982571855464
 30
0.0
 10
49.84961861137386
 20
39.13676202497825
 30
0.0
 10
49.84961861137386
 20
38.46117880015187
 30
0.0
 10
49.84961861137386
 20
38.4184596161241
 30
0.0
 10
49.89578289088774
 20
38.4184596161241
 30
0.0
 10
52.95399415390861
 20
38.4184596161241
 30
0.0
 10
52.95399415390861
 20
38.4184596161241
 30
0.0
 10
52.95399415390861
 20
38.4184596161241
 30
0.0
 10
52.95399415390861
 20
38.03502048851992
 30
0.0
 10
52.95399415390861
 20
38.03502048851992
 30
0.0
 10
52.95399415390861
 20
38.03502048851992
 30
0.0
 10
49.28806804713776
 20
38.03502048851992
 30
0.0
 10
49.24190376762386
 20
38.03502048851992
 30
0.0
 10
49.24190376762386
 20
37.99161228539492
 30
0.0
 10
49.24190376762386
 20
37.14067370032547
 30
0.0
 10
49.24190376762386
 20
37.09726549720048
 30
0.0
 10
49.28772353758915
 20
37.09726549720048
 30
0.0
 10
51.88325847682524
 20
37.09726549720048
 30
0.0
 10
51.88325847682524
 20
37.09726549720048
 30
0.0
 10
51.88325847682524
 20
37.09726549720048
 30
0.0
 10
51.8935937632836
 20
37.05316827497826
 30
0.0
 10
51.8935937632836
 20
37.05316827497826
 30
0.0
 10
50.77669380668638
 20
36.51573337914492
 30
0.0
 10
49.73799751762386
 20
36.26286337046437
 30
0.0
 10
49.19884007404748
 20
36.15709893904075
 30
0.0
 10
49.22915691432526
 20
36.10438897810325
 30
0.0
 10
49.8103445228322
 20
35.10358873938797
 30
0.0
 10
49.82791450981136
 20
35.0732718991102
 30
0.0
 10
51.74442112873498
 20
35.62276462914493
 30
0.0
 10
52.36109322074886
 20
36.04582235483937
 30
0.0
 10
52.91575359401274
 20
36.50264201629771
 30
0.0
 10
52.91575359401274
 20
36.50264201629771
 30
0.0
 10
52.95399415390861
 20
36.53433689476992
 30
0.0
 10
52.95399415390861
 20
36.53433689476992
 30
0.0
 10
52.95399415390861
 20
36.53433689476992
 30
0.0
 10
52.95399415390861
 20
35.04674466386715
 30
0.0
 10
52.95399415390861
 20
35.00161391299909
 30
0.0
 10
52.99809137613081
 20
35.00161391299909
 30
0.0
 10
54.24659398029748
 20
35.00161391299909
 30
0.0
 10
54.2910357120683
 20
35.00161391299909
 30
0.0
 10
54.2910357120683
 20
35.04674466386715
 30
0.0
 10
54.2910357120683
 20
36.5674098114366
 30
0.0
 10
54.2910357120683
 20
36.5674098114366
 30
0.0
 10
54.2910357120683
 20
36.5674098114366
 30
0.0
 10
54.32927627196415
 20
36.5367484616102
 30
0.0
 10
54.32927627196415
 20
36.5367484616102
 30
0.0
 10
55.1619558509572
 20
35.86116523678381
 30
0.0
 10
55.75451227456831
 20
35.53663724199215
 30
0.0
 10
57.39920085963776
 20
35.0732718991102
 30
0.0
 10
57.41642633706831
 20
35.10255521074215
 30
0.0
 10
58.03998862005443
 20
36.13505032792964
 30
0.0
 10
58.07306153672111
 20
36.18982734615882
 30
0.0
 10
57.60142796467248
 20
36.27113159963104
 30
0.0
 10
56.43422961397804
 20
36.47887085744353
 30
0.0
 10
55.3324880775197
 20
37.05316827497826
 30
0.0
 10
55.3324880775197
 20
37.05316827497826
 30
0.0
 10
55.34316787352665
 20
37.09726549720048
 30
0.0
 10
55.34316787352665
 20
37.09726549720048
 30
0.0
 10
55.34316787352665
 20
37.09726549720048
 30
0.0
 10
57.93870281276276
 20
37.09726549720048
 30
0.0
 10
57.98486709227663
 20
37.09726549720048
 30
0.0
 10
57.98486709227663
 20
37.14067370032547
 30
0.0
 10
57.98486709227663
 20
37.99161228539492
 30
0.0
 10
57.98486709227663
 20
38.03502048851992
 30
0.0
 10
57.93870281276276
 20
38.03502048851992
 30
0.0
 10
54.2910357120683
 20
38.03502048851992
 30
0.0
 10
54.2910357120683
 20
38.03502048851992
 30
0.0
 10
54.2910357120683
 20
38.03502048851992
 30
0.0
 10
54.2910357120683
 20
38.4184596161241
 30
0.0
 10
54.2910357120683
 20
38.4184596161241
 30
0.0
 10
54.2910357120683
 20
38.4184596161241
 30
0.0
 10
57.36819500026276
 20
38.4184596161241
 30
0.0
 10
57.41435927977665
 20
38.4184596161241
 30
0.0
 10
57.41435927977665
 20
38.46117880015187
 30
0.0
 10
57.41435927977665
 20
39.13676202497825
 30
0.0
 10
57.41435927977665
 20
39.17982571855464
 30
0.0
 10
57.36819500026276
 20
39.17982571855464
 30
0.0
 10
54.2910357120683
 20
39.17982571855464
 30
0.0
 10
54.2910357120683
 20
39.17982571855464
 30
0.0
 10
54.2910357120683
 20
39.17982571855464
 30
0.0
 10
54.2910357120683
 20
39.56326484615882
 30
0.0
 10
54.2910357120683
 20
39.56326484615882
 30
0.0
 10
54.2910357120683
 20
39.56326484615882
 30
0.0
 10
57.62037598984609
 20
39.56326484615882
 30
0.0
 10
57.66654026935999
 20
39.56326484615882
 30
0.0
 10
57.66654026935999
 20
39.6063285397352
 30
0.0
 10
57.66654026935999
 20
40.41558146942271
 30
0.0
 10
57.66654026935999
 20
40.45898967254768
 30
0.0
 10
57.62140951849192
 20
40.45898967254768
 30
0.0
 10
55.77759441432526
 20
40.45898967254768
 30
0.0
 10
55.77759441432526
 20
40.45898967254768
 30
0.0
 10
55.77759441432526
 20
40.45898967254768
 30
0.0
 10
55.77759441432526
 20
40.48241632185325
 30
0.0
 10
55.77759441432526
 20
40.48241632185325
 30
0.0
 10
55.77759441432526
 20
40.50033081838103
 30
0.0
 10
55.94605958359609
 20
40.91684286265186
 30
0.0
 10
55.94812664088776
 20
40.92097697723519
 30
0.0
 10
55.94812664088776
 20
40.92097697723519
 30
0.0
 10
55.95432781276276
 20
40.93475735917964
 30
0.0
 10
55.95432781276276
 20
40.93475735917964
 30
0.0
 10
55.95432781276276
 20
40.93475735917964
 30
0.0
 10
57.93904732231136
 20
40.93475735917964
 30
0.0
 10
57.98452258272803
 20
40.93475735917964
 30
0.0
 10
57.98452258272803
 20
40.97816556230464
 30
0.0
 10
57.98452258272803
 20
41.88801528018657
 30
0.0
 10
57.98452258272803
 20
41.93176799286018
 30
0.0
 10
57.9400808509572
 20
41.93176799286018
 30
0.0
 10
56.83489421901274
 20
41.93176799286018
 30
0.0
 10
56.83489421901274
 20
41.93176799286018
 30
0.0
 10
56.83489421901274
 20
41.93176799286018
 30
0.0
 10
56.85659832057526
 20
41.96725247636714
 30
0.0
 10
56.85659832057526
 20
41.96725247636714
 30
0.0
 10
57.00645997422109
 20
42.21254327497825
 30
0.0
 10
57.1370290931447
 20
42.49883070987407
 30
0.0
 10
57.22625706623498
 20
42.70243585310325
 30
0.0
 10
57.17044651935998
 20
42.71208212046436
 30
0.0
 10
55.96707466606137
 20
42.91534275414489
 30
0.0
 10
55.92952312526275
 20
42.92154392601992
 30
0.0
 10
55.85993219644332
 20
42.69141154754769
 30
0.0
 10
55.69697917995025
 20
42.24079305796435
 30
0.0
 10
55.53195910616555
 20
41.94382582706157
 30
0.0
 10
55.53195910616555
 20
41.94382582706157
 30
0.0
 10
55.52506891519332
 20
41.93176799286018
 30
0.0
 10
55.52506891519332
 20
41.93176799286018
 30
0.0
 10
55.52506891519332
 20
41.93176799286018
 30
0.0
 10
55.11372451415165
 20
41.93176799286018
 30
0.0
 10
55.11372451415165
 20
41.93176799286018
 30
0.0
 10
55.11372451415165
 20
41.93176799286018
 30
0.0
 10
55.11372451415165
 20
42.85470907358936
 30
0.0
 10
55.11372451415165
 20
42.89949531490881
 30
0.0
 10
55.06997180147804
 20
42.89949531490881
 30
0.0
 10
53.96168458359611
 20
42.89949531490881
 30
0.0
 10
53.91724285182526
 20
42.89949531490881
 30
0.0
 10
53.91724285182526
 20
42.85470907358936
 30
0.0
 10
53.91724285182526
 20
41.93176799286018
 30
0.0
 10
53.91724285182526
 20
41.93176799286018
 30
0.0
 10
53.91724285182526
 20
41.93176799286018
 30
0.0
 10
53.34639052977665
 20
41.93176799286018
 30
0.0
 10
53.34639052977665
 20
41.93176799286018
 30
0.0
 10
53.34639052977665
 20
41.93176799286018
 30
0.0
 10
53.34639052977665
 20
42.85470907358936
 30
0.0
 10
53.34639052977665
 20
42.89949531490881
 30
0.0
 10
53.30229330755443
 20
42.89949531490881
 30
0.0
 10
52.20330784748497
 20
42.89949531490881
 30
0.0
 10
52.15921062526276
 20
42.89949531490881
 30
0.0
 10
52.15921062526276
 20
42.85470907358936
 30
0.0
 10
52.15921062526276
 20
41.93176799286018
 30
0.0
 10
52.15921062526276
 20
41.93176799286018
 30
0.0
 10
52.15921062526276
 20
41.93176799286018
 30
0.0
 10
51.72616212265859
 20
41.93176799286018
 30
0.0
 10
51.72616212265859
 20
41.93176799286018
 30
0.0
 10
51.72616212265859
 20
41.93176799286018
 30
0.0
 10
51.72099447942943
 20
41.94795994164493
 30
0.0
 10
51.72099447942943
 20
41.94795994164493
 30
0.0
 10
51.57836752630442
 20
42.40064548851992
 30
0.0
 10
51.46467937526274
 20
42.65007040171435
 30
0.0
 10
51.31860732665165
 20
42.92188843556853
 30
0.0
 10
51.28691244817943
 20
42.91672079233936
 30
0.0
 10
50.08422961397805
 20
42.7138046682074
 30
0.0
 10
50.02221789522804
 20
42.70346938174909
 30
0.0
  0
SPLINE
  5
E3B
330
E1F
100
AcDbEntity
  8
WAKU
100
AcDbSpline
210
0.0
220
0.0
230
1.0
 70
     9
 71
     3
 72
    41
 73
    37
 74
     0
 42
0.000000001
 43
0.0000000001
 40
0.0
 40
0.0
 40
0.0
 40
0.0
 40
1.0
 40
1.0
 40
1.0
 40
2.0
 40
2.0
 40
2.0
 40
3.0
 40
3.0
 40
3.0
 40
4.0
 40
4.0
 40
4.0
 40
5.0
 40
5.0
 40
5.0
 40
6.0
 40
6.0
 40
6.0
 40
7.0
 40
7.0
 40
7.0
 40
8.0
 40
8.0
 40
8.0
 40
9.0
 40
9.0
 40
9.0
 40
10.0
 40
10.0
 40
10.0
 40
11.0
 40
11.0
 40
11.0
 40
12.0
 40
12.0
 40
12.0
 40
12.0
 10
40.24538141519331
 20
42.52087932098517
 30
0.0
 10
40.24538141519331
 20
42.47678209876297
 30
0.0
 10
40.24538141519331
 20
41.33232137827685
 30
0.0
 10
40.24538141519331
 20
41.28822415605464
 30
0.0
 10
40.2912011851586
 20
41.28822415605464
 30
0.0
 10
43.54647190998497
 20
41.28822415605464
 30
0.0
 10
43.54647190998497
 20
41.28822415605464
 30
0.0
 10
43.54647190998497
 20
41.28822415605464
 30
0.0
 10
43.54647190998497
 20
36.63011054928381
 30
0.0
 10
43.54647190998497
 20
36.63011054928381
 30
0.0
 10
43.54647190998497
 20
36.63011054928381
 30
0.0
 10
39.91740832491553
 20
36.63011054928381
 30
0.0
 10
39.87124404540166
 20
36.63011054928381
 30
0.0
 10
39.87124404540166
 20
36.58566881751298
 30
0.0
 10
39.87124404540166
 20
35.43293986786022
 30
0.0
 10
39.87124404540166
 20
35.38884264563797
 30
0.0
 10
39.91775283446415
 20
35.38884264563797
 30
0.0
 10
48.60525012179054
 20
35.38884264563797
 30
0.0
 10
48.65141440130443
 20
35.38884264563797
 30
0.0
 10
48.65141440130443
 20
35.43293986786022
 30
0.0
 10
48.65141440130443
 20
36.58566881751298
 30
0.0
 10
48.65141440130443
 20
36.63011054928381
 30
0.0
 10
48.60525012179054
 20
36.63011054928381
 30
0.0
 10
44.9765310462697
 20
36.63011054928381
 30
0.0
 10
44.9765310462697
 20
36.63011054928381
 30
0.0
 10
44.9765310462697
 20
36.63011054928381
 30
0.0
 10
44.9765310462697
 20
41.28822415605464
 30
0.0
 10
44.9765310462697
 20
41.28822415605464
 30
0.0
 10
44.9765310462697
 20
41.28822415605464
 30
0.0
 10
48.24075901935998
 20
41.28822415605464
 30
0.0
 10
48.28692329887386
 20
41.28822415605464
 30
0.0
 10
48.28692329887386
 20
41.33232137827685
 30
0.0
 10
48.28692329887386
 20
42.47678209876297
 30
0.0
 10
48.28692329887386
 20
42.52087932098517
 30
0.0
 10
48.24041450981138
 20
42.52087932098517
 30
0.0
 10
40.29154569470721
 20
42.52087932098517
 30
0.0
 10
40.24538141519331
 20
42.52087932098517
 30
0.0
  0
SPLINE
  5
E3C
330
E1F
100
AcDbEntity
  8
WAKU
100
AcDbSpline
210
0.0
220
0.0
230
1.0
 70
     9
 71
     3
 72
    17
 73
    13
 74
     0
 42
0.000000001
 43
0.0000000001
 40
0.0
 40
0.0
 40
0.0
 40
0.0
 40
1.0
 40
1.0
 40
1.0
 40
2.0
 40
2.0
 40
2.0
 40
3.0
 40
3.0
 40
3.0
 40
4.0
 40
4.0
 40
4.0
 40
4.0
 10
22.23166613741554
 20
36.78789592254771
 30
0.0
 10
25.25198135008916
 20
37.05695788001297
 30
0.0
 10
27.22498753498499
 20
37.56200887827687
 30
0.0
 10
28.49691678845721
 20
41.30717218122825
 30
0.0
 10
28.49691678845721
 20
41.30717218122825
 30
0.0
 10
29.86186362005443
 20
40.66741794945742
 30
0.0
 10
29.86186362005443
 20
40.66741794945742
 30
0.0
 10
28.41251194904748
 20
36.82992608747826
 30
0.0
 10
26.33684191866554
 20
35.7860621551866
 30
0.0
 10
22.65265680581832
 20
35.3488795379991
 30
0.0
 10
22.65265680581832
 20
35.3488795379991
 30
0.0
 10
22.23166613741554
 20
36.78789592254771
 30
0.0
 10
22.23166613741554
 20
36.78789592254771
 30
0.0
  0
SPLINE
  5
E3D
330
E1F
100
AcDbEntity
  8
WAKU
100
AcDbSpline
210
0.0
220
0.0
230
1.0
 70
     9
 71
     3
 72
    17
 73
    13
 74
     0
 42
0.000000001
 43
0.0000000001
 40
0.0
 40
0.0
 40
0.0
 40
0.0
 40
1.0
 40
1.0
 40
1.0
 40
2.0
 40
2.0
 40
2.0
 40
3.0
 40
3.0
 40
3.0
 40
4.0
 40
4.0
 40
4.0
 40
4.0
 10
24.45719782144332
 20
38.40364570553381
 30
0.0
 10
23.34443197942943
 20
38.92523316213104
 30
0.0
 10
22.37188152370026
 20
39.2029078583116
 30
0.0
 10
21.70801162352665
 20
39.3799857662977
 30
0.0
 10
21.70801162352665
 20
39.3799857662977
 30
0.0
 10
22.20341635442943
 20
40.52444648678378
 30
0.0
 10
22.20341635442943
 20
40.52444648678378
 30
0.0
 10
22.75532065130443
 20
40.40662422115882
 30
0.0
 10
24.08306045165165
 20
40.06969388261715
 30
0.0
 10
25.00875760876971
 20
39.63216675588103
 30
0.0
 10
25.00875760876971
 20
39.63216675588103
 30
0.0
 10
24.45719782144332
 20
38.40364570553381
 30
0.0
 10
24.45719782144332
 20
38.40364570553381
 30
0.0
  0
SPLINE
  5
E3E
330
E1F
100
AcDbEntity
  8
WAKU
100
AcDbSpline
210
0.0
220
0.0
230
1.0
 70
     9
 71
     3
 72
    17
 73
    13
 74
     0
 42
0.000000001
 43
0.0000000001
 40
0.0
 40
0.0
 40
0.0
 40
0.0
 40
1.0
 40
1.0
 40
1.0
 40
2.0
 40
2.0
 40
2.0
 40
3.0
 40
3.0
 40
3.0
 40
4.0
 40
4.0
 40
4.0
 40
4.0
 10
29.31960559054054
 20
41.70266914303382
 30
0.0
 10
29.24484701849193
 20
42.03925497202686
 30
0.0
 10
29.09532987439471
 20
42.53569323157547
 30
0.0
 10
28.90826118949887
 20
42.92292196421437
 30
0.0
 10
28.90826118949887
 20
42.92292196421437
 30
0.0
 10
29.72130372422109
 20
43.04074422983936
 30
0.0
 10
29.72130372422109
 20
43.04074422983936
 30
0.0
 10
29.96487197508915
 20
42.56945516733935
 30
0.0
 10
30.13299263481137
 20
41.92970093556853
 30
0.0
 10
30.15159615043637
 20
41.85425334442268
 30
0.0
 10
30.15159615043637
 20
41.85425334442268
 30
0.0
 10
29.31960559054054
 20
41.70266914303382
 30
0.0
 10
29.31960559054054
 20
41.70266914303382
 30
0.0
  0
SPLINE
  5
E3F
330
E1F
100
AcDbEntity
  8
WAKU
100
AcDbSpline
210
0.0
220
0.0
230
1.0
 70
     9
 71
     3
 72
    17
 73
    13
 74
     0
 42
0.000000001
 43
0.0000000001
 40
0.0
 40
0.0
 40
0.0
 40
0.0
 40
1.0
 40
1.0
 40
1.0
 40
2.0
 40
2.0
 40
2.0
 40
3.0
 40
3.0
 40
3.0
 40
4.0
 40
4.0
 40
4.0
 40
4.0
 10
27.95431424939471
 20
41.50905477671435
 30
0.0
 10
27.91710721814471
 20
41.70266914303382
 30
0.0
 10
27.78584908012387
 20
42.36722806230464
 30
0.0
 10
27.58982314696415
 20
42.83851712480464
 30
0.0
 10
27.58982314696415
 20
42.83851712480464
 30
0.0
 10
28.42181370685999
 20
42.94772665171436
 30
0.0
 10
28.42181370685999
 20
42.94772665171436
 30
0.0
 10
28.5058740367211
 20
42.75445679494352
 30
0.0
 10
28.63678766519332
 20
42.48505032792964
 30
0.0
 10
28.83315810790165
 20
41.66890720726992
 30
0.0
 10
28.83315810790165
 20
41.66890720726992
 30
0.0
 10
27.95431424939471
 20
41.50905477671435
 30
0.0
 10
27.95431424939471
 20
41.50905477671435
 30
0.0
  0
SPLINE
  5
E40
330
E1F
100
AcDbEntity
  8
WAKU
100
AcDbSpline
210
0.0
220
0.0
230
1.0
 70
     9
 71
     3
 72
    17
 73
    13
 74
     0
 42
0.000000001
 43
0.0000000001
 40
0.0
 40
0.0
 40
0.0
 40
0.0
 40
1.0
 40
1.0
 40
1.0
 40
2.0
 40
2.0
 40
2.0
 40
3.0
 40
3.0
 40
3.0
 40
4.0
 40
4.0
 40
4.0
 40
4.0
 10
25.27988662352665
 20
40.4403861569227
 30
0.0
 10
24.27012913654749
 20
40.88618151282547
 30
0.0
 10
23.50359539088776
 20
41.11355781490881
 30
0.0
 10
22.45594185356138
 20
41.35747057532547
 30
0.0
 10
22.45594185356138
 20
41.35747057532547
 30
0.0
 10
22.98924263481137
 20
42.49366306664492
 30
0.0
 10
22.98924263481137
 20
42.49366306664492
 30
0.0
 10
24.05481066866554
 20
42.28316773244353
 30
0.0
 10
24.84993870685999
 20
42.06440416907547
 30
0.0
 10
25.86899795165165
 20
41.66890720726992
 30
0.0
 10
25.86899795165165
 20
41.66890720726992
 30
0.0
 10
25.27988662352665
 20
40.4403861569227
 30
0.0
 10
25.27988662352665
 20
40.4403861569227
 30
0.0
  0
SPLINE
  5
E41
330
E1F
100
AcDbEntity
  8
WAKU
100
AcDbSpline
210
0.0
220
0.0
230
1.0
 70
    11
 71
     3
 72
    32
 73
    28
 74
     0
 42
0.000000001
 43
0.0000000001
 40
0.0
 40
0.0
 40
0.0
 40
0.0
 40
1.0
 40
1.0
 40
1.0
 40
2.0
 40
2.0
 40
2.0
 40
3.0
 40
3.0
 40
3.0
 40
4.0
 40
4.0
 40
4.0
 40
5.0
 40
5.0
 40
5.0
 40
6.0
 40
6.0
 40
6.0
 40
7.0
 40
7.0
 40
7.0
 40
8.0
 40
8.0
 40
8.0
 40
9.0
 40
9.0
 40
9.0
 40
9.0
 10
17.82917861571415
 20
35.36541599633242
 30
0.0
 10
17.82917861571415
 20
35.36541599633242
 30
0.0
 10
16.24891331623498
 20
35.36541599633242
 30
0.0
 10
16.24891331623498
 20
35.36541599633242
 30
0.0
 10
16.24891331623498
 20
35.36541599633242
 30
0.0
 10
16.24891331623498
 20
38.79914266733937
 30
0.0
 10
16.24891331623498
 20
38.79914266733937
 30
0.0
 10
14.98663033012387
 20
38.13423923851992
 30
0.0
 10
13.86421822074886
 20
37.77250421247825
 30
0.0
 10
13.12558974852665
 20
37.54512791039493
 30
0.0
 10
13.12558974852665
 20
37.54512791039493
 30
0.0
 10
12.30290094644331
 20
38.68132040171437
 30
0.0
 10
12.30290094644331
 20
38.68132040171437
 30
0.0
 10
13.72400283446415
 20
39.04305542775603
 30
0.0
 10
15.06138890217249
 20
39.64077949459632
 30
0.0
 10
16.2864648570336
 20
40.3811305145616
 30
0.0
 10
17.63280817300582
 20
41.19761814476992
 30
0.0
 10
18.52129829887387
 20
42.06440416907547
 30
0.0
 10
19.20377171467248
 20
42.77133776282545
 30
0.0
 10
19.20377171467248
 20
42.77133776282545
 30
0.0
 10
20.54081327283221
 20
41.93831367428381
 30
0.0
 10
20.54081327283221
 20
41.93831367428381
 30
0.0
 10
19.74602974418637
 20
41.16385620900604
 30
0.0
 10
19.02600478758914
 20
40.5582084225477
 30
0.0
 10
17.82917861571415
 20
39.74998902150603
 30
0.0
 10
17.82917861571415
 20
39.74998902150603
 30
0.0
 10
17.82917861571415
 20
35.36541599633242
 30
0.0
 10
17.82917861571415
 20
35.36541599633242
 30
0.0
  0
SPLINE
  5
E42
330
E1F
100
AcDbEntity
  8
WAKU
100
AcDbSpline
210
0.0
220
0.0
230
1.0
 70
     9
 71
     3
 72
    41
 73
    37
 74
     0
 42
0.000000001
 43
0.0000000001
 40
0.0
 40
0.0
 40
0.0
 40
0.0
 40
1.0
 40
1.0
 40
1.0
 40
2.0
 40
2.0
 40
2.0
 40
3.0
 40
3.0
 40
3.0
 40
4.0
 40
4.0
 40
4.0
 40
5.0
 40
5.0
 40
5.0
 40
6.0
 40
6.0
 40
6.0
 40
7.0
 40
7.0
 40
7.0
 40
8.0
 40
8.0
 40
8.0
 40
9.0
 40
9.0
 40
9.0
 40
10.0
 40
10.0
 40
10.0
 40
11.0
 40
11.0
 40
11.0
 40
12.0
 40
12.0
 40
12.0
 40
12.0
 10
3.74907336397804
 20
36.2914576629991
 30
0.0
 10
4.515951619186372
 20
36.56051962046436
 30
0.0
 10
6.133423949915536
 20
37.12448175154076
 30
0.0
 10
6.526509344880821
 20
38.98448880449215
 30
0.0
 10
6.666724731165542
 20
39.62389852671437
 30
0.0
 10
6.657078463804432
 20
40.14548598331159
 30
0.0
 10
6.648121215540541
 20
40.58335761959629
 30
0.0
 10
6.648121215540541
 20
40.58335761959629
 30
0.0
 10
8.2094384898461
 20
40.57508939042963
 30
0.0
 10
8.2094384898461
 20
40.57508939042963
 30
0.0
 10
8.200136732033596
 20
40.21300985483935
 30
0.0
 10
8.190834974221097
 20
39.94360338782548
 30
0.0
 10
8.134335408248871
 20
39.48919529320742
 30
0.0
 10
8.836101358769711
 20
39.78375095726992
 30
0.0
 10
9.54682455755443
 20
40.21300985483935
 30
0.0
 10
9.9767724742211
 20
41.1473197506727
 30
0.0
 10
9.9767724742211
 20
41.1473197506727
 30
0.0
 10
3.67431479192943
 20
41.1473197506727
 30
0.0
 10
3.67431479192943
 20
41.1473197506727
 30
0.0
 10
3.67431479192943
 20
41.1473197506727
 30
0.0
 10
3.67431479192943
 20
42.43440742428381
 30
0.0
 10
3.67431479192943
 20
42.43440742428381
 30
0.0
 10
3.67431479192943
 20
42.43440742428381
 30
0.0
 10
11.88432184488082
 20
42.43440742428381
 30
0.0
 10
11.88432184488082
 20
42.43440742428381
 30
0.0
 10
11.59458931449887
 20
40.36424954667963
 30
0.0
 10
10.65924589001971
 20
39.27869995900604
 30
0.0
 10
9.097928615714151
 20
38.46255683834632
 30
0.0
 10
9.097928615714151
 20
38.46255683834632
 30
0.0
 10
8.115731892623877
 20
39.3799857662977
 30
0.0
 10
8.115731892623877
 20
39.3799857662977
 30
0.0
 10
7.86355090304054
 20
37.67121840518659
 30
0.0
 10
7.246189791929432
 20
36.34175605709631
 30
0.0
 10
4.721623819707209
 20
35.22244453365882
 30
0.0
 10
4.721623819707209
 20
35.22244453365882
 30
0.0
 10
3.74907336397804
 20
36.2914576629991
 30
0.0
 10
3.74907336397804
 20
36.2914576629991
 30
0.0
  0
ENDBLK
  5
E43
330
E1F
100
AcDbEntity
  8
0
100
AcDbBlockEnd
  0
BLOCK
  5
14C6
330
14C3
100
AcDbEntity
  8
0
100
AcDbBlockBegin
  2
_DotBlank
 70
     0
 10
0.0
 20
0.0
 30
0.0
  3
_DotBlank
  1

  0
CIRCLE
  5
14C4
330
14C3
100
AcDbEntity
  8
0
  6
ByBlock
 62
     0
370
    -2
100
AcDbCircle
 10
0.0
 20
0.0
 30
0.0
 40
0.5
  0
LINE
  5
14C5
330
14C3
100
AcDbEntity
  8
0
  6
ByBlock
 62
     0
370
    -2
100
AcDbLine
 10
-0.5
 20
0.0
 30
0.0
 11
-1.0
 21
0.0
 31
0.0
  0
ENDBLK
  5
14C7
330
14C3
100
AcDbEntity
  8
0
100
AcDbBlockEnd
  0
BLOCK
  5
28B3
330
28A9
100
AcDbEntity
  8
0
100
AcDbBlockBegin
  2
*D3
 70
     1
 10
0.0
 20
0.0
 30
0.0
  3
*D3
  1

  0
LINE
  5
37F1
330
28A9
100
AcDbEntity
  8
SUNPOU
 62
     0
440
 16777216
370
    -2
100
AcDbLine
 10
615.0
 20
287.9999999999975
 30
0.0000000000003695
 11
640.0
 21
287.9999999999975
 31
0.0000000000003695
  0
LINE
  5
37F2
330
28A9
100
AcDbEntity
  8
SUNPOU
 62
     0
440
 16777216
370
    -2
100
AcDbLine
 10
615.0
 20
363.0000000000038
 30
0.0000000000003695
 11
640.0
 21
363.0000000000038
 31
0.0000000000003695
  0
LINE
  5
37F3
330
28A9
100
AcDbEntity
  8
SUNPOU
 62
     0
440
 16777216
370
    -2
100
AcDbLine
 10
640.0
 20
289.4999999999975
 30
0.0000000000003695
 11
640.0
 21
361.5000000000039
 31
0.0000000000003695
  0
INSERT
  5
37F4
330
28A9
100
AcDbEntity
  8
SUNPOU
 62
     0
440
 16777216
370
    -2
100
AcDbBlockReference
  2
_DotBlank
 10
640.0
 20
287.9999999999975
 30
0.0000000000003695
 41
1.5
 42
1.5
 43
1.5
 50
270.0
  0
INSERT
  5
37F5
330
28A9
100
AcDbEntity
  8
SUNPOU
 62
     0
440
 16777216
370
    -2
100
AcDbBlockReference
  2
_DotBlank
 10
640.0
 20
363.0000000000038
 30
0.0000000000003695
 41
1.5
 42
1.5
 43
1.5
 50
90.0
  0
MTEXT
  5
37F6
330
28A9
100
AcDbEntity
  8
SUNPOU
 62
     0
440
 16777216
100
AcDbMText
 10
636.8749999999997
 20
325.5000000000007
 30
0.0000000000003695
 40
5.0
 41
0.0
 46
0.0
 71
     5
 72
     1
  1
\A1;75
 11
0.0000000000000001
 21
1.0
 31
0.0
 73
     1
 44
1.0
  0
POINT
  5
37F7
330
28A9
100
AcDbEntity
  8
DEFPOINTS
 62
     0
440
 16777216
100
AcDbPoint
 10
610.0
 20
287.9999999999975
 30
0.0000000000003695
  0
POINT
  5
37F8
330
28A9
100
AcDbEntity
  8
DEFPOINTS
 62
     0
440
 16777216
100
AcDbPoint
 10
610.0
 20
363.0000000000038
 30
0.0000000000003695
  0
POINT
  5
37F9
330
28A9
100
AcDbEntity
  8
DEFPOINTS
 62
     0
440
 16777216
100
AcDbPoint
 10
640.0
 20
363.0000000000038
 30
0.0000000000003695
  0
ENDBLK
  5
28B4
330
28A9
100
AcDbEntity
  8
0
100
AcDbBlockEnd
  0
BLOCK
  5
2D43
330
2D39
100
AcDbEntity
  8
0
100
AcDbBlockBegin
  2
*D4
 70
     1
 10
0.0
 20
0.0
 30
0.0
  3
*D4
  1

  0
LINE
  5
3815
330
2D39
100
AcDbEntity
  8
SUNPOU
 62
     0
440
 16777216
370
    -2
100
AcDbLine
 10
615.0
 20
285.0000000000002
 30
0.0000000000003695
 11
640.0000000000001
 21
285.0000000000002
 31
0.0000000000003695
  0
LINE
  5
3816
330
2D39
100
AcDbEntity
  8
SUNPOU
 62
     0
440
 16777216
370
    -2
100
AcDbLine
 10
615.0
 20
185.0000000000002
 30
0.0000000000003695
 11
640.0
 21
185.0000000000002
 31
0.0000000000003695
  0
LINE
  5
3817
330
2D39
100
AcDbEntity
  8
SUNPOU
 62
     0
440
 16777216
370
    -2
100
AcDbLine
 10
640.0000000000001
 20
283.5000000000002
 30
0.0000000000003695
 11
640.0
 21
186.5000000000002
 31
0.0000000000003695
  0
INSERT
  5
3818
330
2D39
100
AcDbEntity
  8
SUNPOU
 62
     0
440
 16777216
370
    -2
100
AcDbBlockReference
  2
_DotBlank
 10
640.0000000000001
 20
285.0000000000002
 30
0.0000000000003695
 41
1.5
 42
1.5
 43
1.5
 50
90.0
  0
INSERT
  5
3819
330
2D39
100
AcDbEntity
  8
SUNPOU
 62
     0
440
 16777216
370
    -2
100
AcDbBlockReference
  2
_DotBlank
 10
640.0
 20
185.0000000000002
 30
0.0000000000003695
 41
1.5
 42
1.5
 43
1.5
 50
270.0
  0
MTEXT
  5
381A
330
2D39
100
AcDbEntity
  8
SUNPOU
 62
     0
440
 16777216
100
AcDbMText
 10
636.875
 20
235.0000000000002
 30
0.0000000000003695
 40
5.0
 41
0.0
 46
0.0
 71
     5
 72
     1
  1
\A1;100
 11
0.0000000000000001
 21
1.0
 31
0.0
 73
     1
 44
1.0
  0
POINT
  5
381B
330
2D39
100
AcDbEntity
  8
DEFPOINTS
 62
     0
440
 16777216
100
AcDbPoint
 10
610.0
 20
285.0000000000002
 30
0.0000000000003695
  0
POINT
  5
381C
330
2D39
100
AcDbEntity
  8
DEFPOINTS
 62
     0
440
 16777216
100
AcDbPoint
 10
610.0
 20
185.0000000000002
 30
0.0000000000003695
  0
POINT
  5
381D
330
2D39
100
AcDbEntity
  8
DEFPOINTS
 62
     0
440
 16777216
100
AcDbPoint
 10
640.0
 20
185.0000000000002
 30
0.0000000000003695
  0
ENDBLK
  5
2D44
330
2D39
100
AcDbEntity
  8
0
100
AcDbBlockEnd
  0
BLOCK
  5
3BAF
330
3BAE
100
AcDbEntity
  8
0
100
AcDbBlockBegin
  2
*D5
 70
     1
 10
0.0
 20
0.0
 30
0.0
  3
*D5
  1

  0
LINE
  5
52E3
330
3BAE
100
AcDbEntity
  8
SUNPOU
 62
     0
440
 16777216
370
    -2
100
AcDbLine
 10
397.4999999999992
 20
366.7999999999984
 30
0.0
 11
397.4999999999992
 21
422.8382242786783
 31
0.0
  0
LINE
  5
52E4
330
3BAE
100
AcDbEntity
  8
SUNPOU
 62
     0
440
 16777216
370
    -2
100
AcDbLine
 10
422.5000000000036
 20
366.7999999999977
 30
0.0
 11
422.5000000000036
 21
422.8382242786783
 31
0.0
  0
LINE
  5
52E5
330
3BAE
100
AcDbEntity
  8
SUNPOU
 62
     0
440
 16777216
370
    -2
100
AcDbLine
 10
398.9999999999992
 20
422.8382242786783
 30
0.0
 11
421.0000000000036
 21
422.8382242786783
 31
0.0
  0
INSERT
  5
52E6
330
3BAE
100
AcDbEntity
  8
SUNPOU
 62
     0
440
 16777216
370
    -2
100
AcDbBlockReference
  2
_DotBlank
 10
397.4999999999992
 20
422.8382242786783
 30
0.0
 41
1.5
 42
1.5
 43
1.5
 50
180.0
  0
INSERT
  5
52E7
330
3BAE
100
AcDbEntity
  8
SUNPOU
 62
     0
440
 16777216
370
    -2
100
AcDbBlockReference
  2
_DotBlank
 10
422.5000000000036
 20
422.8382242786783
 30
0.0
 41
1.5
 42
1.5
 43
1.5
  0
MTEXT
  5
52E8
330
3BAE
100
AcDbEntity
  8
SUNPOU
 62
     0
440
 16777216
100
AcDbMText
 10
410.0000000000013
 20
425.9632242786783
 30
0.0
 40
5.0
 41
0.0
 46
0.0
 71
     5
 72
     1
  1
\A1;25～30
 73
     1
 44
1.0
  0
POINT
  5
52E9
330
3BAE
100
AcDbEntity
  8
DEFPOINTS
 62
     0
440
 16777216
100
AcDbPoint
 10
397.4999999999992
 20
361.7999999999984
 30
0.0
  0
POINT
  5
52EA
330
3BAE
100
AcDbEntity
  8
DEFPOINTS
 62
     0
440
 16777216
100
AcDbPoint
 10
422.5000000000036
 20
361.7999999999977
 30
0.0
  0
POINT
  5
52EB
330
3BAE
100
AcDbEntity
  8
DEFPOINTS
 62
     0
440
 16777216
100
AcDbPoint
 10
422.5000000000036
 20
422.8382242786783
 30
0.0
  0
ENDBLK
  5
3BB0
330
3BAE
100
AcDbEntity
  8
0
100
AcDbBlockEnd
  0
BLOCK
  5
3BC4
330
3BC3
100
AcDbEntity
  8
0
100
AcDbBlockBegin
  2
*D6
 70
     1
 10
0.0
 20
0.0
 30
0.0
  3
*D6
  1

  0
LINE
  5
532B
330
3BC3
100
AcDbEntity
  8
SUNPOU
 62
     0
440
 16777216
370
    -2
100
AcDbLine
 10
397.4999999999992
 20
366.7999999999984
 30
0.0
 11
397.4999999999992
 21
406.3958572628498
 31
0.0
  0
LINE
  5
532C
330
3BC3
100
AcDbEntity
  8
SUNPOU
 62
     0
440
 16777216
370
    -2
100
AcDbLine
 10
410.0
 20
395.8286644850346
 30
0.0
 11
410.0
 21
406.3958572628498
 31
0.0
  0
LINE
  5
532D
330
3BC3
100
AcDbEntity
  8
SUNPOU
 62
     0
440
 16777216
370
    -2
100
AcDbLine
 10
398.9999999999992
 20
406.3958572628498
 30
0.0
 11
408.4999999999999
 21
406.3958572628498
 31
0.0
  0
LINE
  5
532E
330
3BC3
100
AcDbEntity
  8
SUNPOU
 62
     0
440
 16777216
370
    -2
100
AcDbLine
 10
366.7071507578354
 20
406.3958572628498
 30
0.0
 11
397.4999999999992
 21
406.3958572628498
 31
0.0
  0
MTEXT
  5
532F
330
3BC3
100
AcDbEntity
  8
SUNPOU
 62
     0
440
 16777216
100
AcDbMText
 10
381.1654840911688
 20
409.5208572628498
 30
0.0
 40
5.0
 41
0.0
 46
0.0
 71
     5
 72
     1
  1
\A1;12.5～15
 73
     1
 44
1.0
  0
INSERT
  5
5330
330
3BC3
100
AcDbEntity
  8
SUNPOU
 62
     0
440
 16777216
370
    -2
100
AcDbBlockReference
  2
_DotBlank
 10
397.4999999999992
 20
406.3958572628498
 30
0.0
 41
1.5
 42
1.5
 43
1.5
 50
180.0
  0
INSERT
  5
5331
330
3BC3
100
AcDbEntity
  8
SUNPOU
 62
     0
440
 16777216
370
    -2
100
AcDbBlockReference
  2
_DotBlank
 10
410.0
 20
406.3958572628498
 30
0.0
 41
1.5
 42
1.5
 43
1.5
  0
POINT
  5
5332
330
3BC3
100
AcDbEntity
  8
DEFPOINTS
 62
     0
440
 16777216
100
AcDbPoint
 10
397.4999999999992
 20
361.7999999999984
 30
0.0
  0
POINT
  5
5333
330
3BC3
100
AcDbEntity
  8
DEFPOINTS
 62
     0
440
 16777216
100
AcDbPoint
 10
410.0
 20
390.8286644850345
 30
0.0
  0
POINT
  5
5334
330
3BC3
100
AcDbEntity
  8
DEFPOINTS
 62
     0
440
 16777216
100
AcDbPoint
 10
410.0
 20
406.3958572628498
 30
0.0
  0
ENDBLK
  5
3BC5
330
3BC3
100
AcDbEntity
  8
0
100
AcDbBlockEnd
  0
BLOCK
  5
506E
330
506D
100
AcDbEntity
  8
0
100
AcDbBlockBegin
  2
*D7
 70
     1
 10
0.0
 20
0.0
 30
0.0
  3
*D7
  1

  0
LINE
  5
5335
330
506D
100
AcDbEntity
  8
SUNPOU
 62
     0
440
 16777216
370
    -2
100
AcDbLine
 10
422.5000000000008
 20
366.7999999999984
 30
0.0
 11
422.5000000000008
 21
406.3958572628498
 31
0.0
  0
LINE
  5
5336
330
506D
100
AcDbEntity
  8
SUNPOU
 62
     0
440
 16777216
370
    -2
100
AcDbLine
 10
410.0
 20
395.8286644850346
 30
0.0
 11
410.0
 21
406.3958572628498
 31
0.0
  0
LINE
  5
5337
330
506D
100
AcDbEntity
  8
SUNPOU
 62
     0
440
 16777216
370
    -2
100
AcDbLine
 10
421.0000000000008
 20
406.3958572628498
 30
0.0
 11
411.5
 21
406.3958572628498
 31
0.0
  0
LINE
  5
5338
330
506D
100
AcDbEntity
  8
SUNPOU
 62
     0
440
 16777216
370
    -2
100
AcDbLine
 10
453.1946739268517
 20
406.3958572628498
 30
0.0
 11
422.5000000000008
 21
406.3958572628498
 31
0.0
  0
MTEXT
  5
5339
330
506D
100
AcDbEntity
  8
SUNPOU
 62
     0
440
 16777216
100
AcDbMText
 10
438.7363405935184
 20
409.5208572628498
 30
0.0
 40
5.0
 41
0.0
 46
0.0
 71
     5
 72
     1
  1
\A1;12.5～15
 73
     1
 44
1.0
  0
INSERT
  5
533A
330
506D
100
AcDbEntity
  8
SUNPOU
 62
     0
440
 16777216
370
    -2
100
AcDbBlockReference
  2
_DotBlank
 10
422.5000000000008
 20
406.3958572628498
 30
0.0
 41
1.5
 42
1.5
 43
1.5
  0
INSERT
  5
533B
330
506D
100
AcDbEntity
  8
SUNPOU
 62
     0
440
 16777216
370
    -2
100
AcDbBlockReference
  2
_DotBlank
 10
410.0
 20
406.3958572628498
 30
0.0
 41
1.5
 42
1.5
 43
1.5
 50
180.0
  0
POINT
  5
533C
330
506D
100
AcDbEntity
  8
DEFPOINTS
 62
     0
440
 16777216
100
AcDbPoint
 10
422.5000000000008
 20
361.7999999999984
 30
0.0
  0
POINT
  5
533D
330
506D
100
AcDbEntity
  8
DEFPOINTS
 62
     0
440
 16777216
100
AcDbPoint
 10
410.0
 20
390.8286644850345
 30
0.0
  0
POINT
  5
533E
330
506D
100
AcDbEntity
  8
DEFPOINTS
 62
     0
440
 16777216
100
AcDbPoint
 10
410.0
 20
406.3958572628498
 30
0.0
  0
ENDBLK
  5
506F
330
506D
100
AcDbEntity
  8
0
100
AcDbBlockEnd
  0
ENDSEC
  0
SECTION
  2
ENTITIES
  0
LINE
  5
E15
330
1A
100
AcDbEntity
  8
WAKU
100
AcDbLine
 10
20.0
 20
10.0
 30
0.0
 11
800.0
 21
10.0
 31
0.0
  0
LINE
  5
E16
330
1A
100
AcDbEntity
  8
WAKU
100
AcDbLine
 10
800.0
 20
10.0
 30
0.0
 11
800.0
 21
560.0
 31
0.0
  0
LINE
  5
E17
330
1A
100
AcDbEntity
  8
WAKU
100
AcDbLine
 10
800.0
 20
560.0
 30
0.0
 11
20.0
 21
560.0
 31
0.0
  0
LINE
  5
E18
330
1A
100
AcDbEntity
  8
WAKU
100
AcDbLine
 10
20.0
 20
560.0
 30
0.0
 11
20.0
 21
10.0
 31
0.0
  0
LINE
  5
E1D
330
1A
100
AcDbEntity
  8
WAKU
100
AcDbLine
 10
20.0
 20
30.0
 30
0.0
 11
800.0
 21
30.0
 31
0.0
  0
LINE
  5
E1E
330
1A
100
AcDbEntity
  8
WAKU
100
AcDbLine
 10
120.0
 20
30.0
 30
0.0
 11
120.0
 21
10.0
 31
0.0
  0
LINE
  5
E4F
330
1A
100
AcDbEntity
  8
WAKU
100
AcDbLine
 10
22.0
 20
28.0
 30
0.0
 11
118.0
 21
28.0
 31
0.0
  0
LINE
  5
E50
330
1A
100
AcDbEntity
  8
WAKU
100
AcDbLine
 10
22.0
 20
28.0
 30
0.0
 11
22.0
 21
12.0
 31
0.0
  0
LINE
  5
E51
330
1A
100
AcDbEntity
  8
WAKU
100
AcDbLine
 10
22.0
 20
12.0
 30
0.0
 11
118.0
 21
12.0
 31
0.0
  0
LINE
  5
E52
330
1A
100
AcDbEntity
  8
WAKU
100
AcDbLine
 10
118.0
 20
28.0
 30
0.0
 11
118.0
 21
12.0
 31
0.0
  0
LINE
  5
E59
330
1A
100
AcDbEntity
  8
WAKU
100
AcDbLine
 10
260.0
 20
30.0
 30
0.0
 11
260.0
 21
10.0
 31
0.0
  0
LINE
  5
E5A
330
1A
100
AcDbEntity
  8
WAKU
100
AcDbLine
 10
270.0
 20
30.0
 30
0.0
 11
270.0
 21
10.0
 31
0.0
  0
MTEXT
  5
E5B
330
1A
100
AcDbEntity
  8
WAKU
100
AcDbMText
 10
261.8186178625299
 20
27.72724847366113
 30
0.0
 40
5.0
 41
10.0
 46
0.0
 71
     1
 72
     5
  1
名称
  7
WAKU
 73
     1
 44
1.0
  0
LINE
  5
E5C
330
1A
100
AcDbEntity
  8
WAKU
100
AcDbLine
 10
20.0
 20
30.0
 30
0.0
 11
20.0
 21
10.0
 31
0.0
  0
LINE
  5
E5E
330
1A
100
AcDbEntity
  8
WAKU
100
AcDbLine
 10
520.0
 20
30.0
 30
0.0
 11
520.0
 21
10.0
 31
0.0
  0
LINE
  5
E6C
330
1A
100
AcDbEntity
  8
WAKU
100
AcDbLine
 10
530.0
 20
30.0
 30
0.0
 11
530.0
 21
10.0
 31
0.0
  0
MTEXT
  5
E6D
330
1A
100
AcDbEntity
  8
WAKU
100
AcDbMText
 10
521.8186178625296
 20
27.72724847366113
 30
0.0
 40
5.0
 41
10.0
 46
0.0
 71
     1
 72
     5
  1
縮尺
  7
WAKU
 73
     1
 44
1.0
  0
MTEXT
  5
E6E
102
{ACAD_XDICTIONARY
360
5203
102
}
330
1A
100
AcDbEntity
  8
WAKU
100
AcDbMText
 10
274.3245405690059
 20
23.21985646788335
 30
0.0
 40
5.0
 41
190.5002997985425
 46
0.0
 71
     1
 72
     5
  1
\pi14.32375;耐火ヴァンドＲＺ７５　たて目地部・シーリングタイプ
  7
WAKU
 73
     1
 44
1.0
  0
MTEXT
  5
E6F
330
1A
100
AcDbEntity
  8
WAKU
100
AcDbMText
 10
539.3245405690056
 20
23.21985646788335
 30
0.0
 40
5.0
 41
190.5002997985425
 46
0.0
 71
     1
 72
     5
  1
1/2（A3）
  7
WAKU
 73
     1
 44
1.0
  0
MTEXT
  5
E71
330
1A
100
AcDbEntity
  8
WAKU
100
AcDbMText
 10
581.8186178625299
 20
27.72724847366113
 30
0.0
 40
5.0
 41
10.0
 46
0.0
 71
     1
 72
     5
  1
図番
  7
WAKU
 73
     1
 44
1.0
  0
LINE
  5
E72
330
1A
100
AcDbEntity
  8
WAKU
100
AcDbLine
 10
590.0
 20
30.0
 30
0.0
 11
590.0
 21
10.0
 31
0.0
  0
LINE
  5
E73
330
1A
100
AcDbEntity
  8
WAKU
100
AcDbLine
 10
580.0
 20
30.0
 30
0.0
 11
580.0
 21
10.0
 31
0.0
  0
MTEXT
  5
E74
330
1A
100
AcDbEntity
  8
WAKU
100
AcDbMText
 10
604.3245405690059
 20
23.21985646788335
 30
0.0
 40
5.0
 41
190.5002997985425
 46
0.0
 71
     1
 72
     5
  1
IGRZ7502_01
  7
WAKU
 73
     1
 44
1.0
  0
LINE
  5
E78
330
1A
100
AcDbEntity
  8
WAKU
100
AcDbLine
 10
660.0
 20
30.0
 30
0.0
 11
660.0
 21
10.0
 31
0.0
  0
LINE
  5
E79
330
1A
100
AcDbEntity
  8
WAKU
100
AcDbLine
 10
670.0
 20
30.0
 30
0.0
 11
670.0
 21
10.0
 31
0.0
  0
MTEXT
  5
E7A
330
1A
100
AcDbEntity
  8
WAKU
100
AcDbMText
 10
661.8186178625299
 20
27.72724847366113
 30
0.0
 40
5.0
 41
10.0
 46
0.0
 71
     1
 72
     5
  1
特記
  7
WAKU
 73
     1
 44
1.0
  0
LINE
  5
E7B
330
1A
100
AcDbEntity
  8
WAKU
  6
DASHED2
 48
0.5
100
AcDbLine
 10
670.0
 20
20.0
 30
0.0
 11
800.0
 21
20.0
 31
0.0
  0
LINE
  5
E8B
330
1A
100
AcDbEntity
  8
WAKU
100
AcDbLine
 10
470.0
 20
10.0
 30
0.0
 11
470.0
 21
30.0
 31
0.0
  0
MTEXT
  5
E8C
330
1A
100
AcDbEntity
  8
WAKU
100
AcDbMText
 10
496.3674469153243
 20
23.21985646788335
 30
0.0
 40
5.0
 41
190.5002997985425
 46
0.0
 71
     1
 72
     5
  1
mm
  7
WAKU
 73
     1
 44
1.0
  0
MTEXT
  5
E8D
330
1A
100
AcDbEntity
  8
WAKU
100
AcDbMText
 10
471.8186178625298
 20
27.72724847366113
 30
0.0
 40
5.0
 41
10.0
 46
0.0
 71
     1
 72
     5
  1
単位
  7
WAKU
 73
     1
 44
1.0
  0
LINE
  5
E8E
330
1A
100
AcDbEntity
  8
WAKU
100
AcDbLine
 10
480.0
 20
30.0
 30
0.0
 11
480.0
 21
10.0
 31
0.0
  0
LINE
  5
27CE
330
1A
100
AcDbEntity
  8
SEIHIN
100
AcDbLine
 10
422.9998476187713
 20
361.799999983351
 30
0.0
 11
423.0000000000065
 21
342.1999999999969
 31
0.0
  0
LINE
  5
27D0
330
1A
100
AcDbEntity
  8
SEIHIN
100
AcDbLine
 10
401.5000000000036
 20
341.4999999999969
 30
0.0
 11
421.8000000000058
 21
341.4999999999969
 31
0.0
  0
LINE
  5
27D2
330
1A
100
AcDbEntity
  8
SITAJI
370
     9
100
AcDbLine
 10
460.0
 20
195.4485843964505
 30
0.0
 11
457.699999999997
 21
193.1485843964512
 31
0.0
  0
LINE
  5
27D3
330
1A
100
AcDbEntity
  8
SITAJI
370
     9
100
AcDbLine
 10
460.0
 20
198.2770115211972
 30
0.0
 11
457.699999999997
 21
195.9770115211979
 31
0.0
  0
LINE
  5
27D4
330
1A
100
AcDbEntity
  8
SITAJI
370
     9
100
AcDbLine
 10
460.0
 20
237.8749912676451
 30
0.0
 11
457.699999999997
 21
235.574991267644
 31
0.0
  0
LINE
  5
27D5
330
1A
100
AcDbEntity
  8
SITAJI
370
     9
100
AcDbLine
 10
460.0
 20
240.7034183923935
 30
0.0
 11
457.699999999997
 21
238.4034183923943
 31
0.0
  0
LINE
  5
27D6
330
1A
100
AcDbEntity
  8
SITAJI
370
     9
100
AcDbLine
 10
459.3447224826741
 20
282.4745477462641
 30
0.0
 11
457.5996027973379
 21
280.7294280609278
 31
0.0
  0
LINE
  5
27D7
330
1A
100
AcDbEntity
  8
SITAJI
370
     9
100
AcDbLine
 10
459.991418478603
 20
280.2928166174427
 30
0.0
 11
457.699999999997
 21
278.0013981388368
 31
0.0
  0
ARC
  5
27D8
330
1A
100
AcDbEntity
  8
SITAJI
100
AcDbCircle
 10
455.0
 20
280.0000000000002
 30
0.000000000000739
 40
2.7
100
AcDbArc
 50
0.0
 51
90.0
  0
ARC
  5
27D9
330
1A
100
AcDbEntity
  8
SITAJI
100
AcDbCircle
 10
455.0
 20
280.0000000000002
 30
0.000000000000739
 40
5.0
100
AcDbArc
 50
0.0
 51
90.0
  0
LINE
  5
27DA
330
1A
100
AcDbEntity
  8
SITAJI
100
AcDbLine
 10
460.0
 20
280.0000000000002
 30
0.0
 11
460.0
 21
190.0000000000002
 31
0.0
  0
LINE
  5
27DB
330
1A
100
AcDbEntity
  8
SITAJI
100
AcDbLine
 10
457.699999999997
 20
280.0000000000002
 30
0.0
 11
457.699999999997
 21
190.0000000000002
 31
0.0
  0
LINE
  5
27DC
330
1A
100
AcDbEntity
  8
SITAJI
370
     9
100
AcDbLine
 10
422.2721949899708
 20
285.0000000000033
 30
0.0
 11
419.972194989968
 21
282.7000000000005
 31
0.0
  0
LINE
  5
27DD
330
1A
100
AcDbEntity
  8
SITAJI
370
     9
100
AcDbLine
 10
419.4437678652171
 20
285.0000000000033
 30
0.0
 11
417.1437678652178
 21
282.7000000000005
 31
0.0
  0
LINE
  5
27E2
330
1A
100
AcDbEntity
  8
SITAJI
370
     9
100
AcDbLine
 10
377.0173609939978
 20
285.0000000000002
 30
0.0
 11
374.7173609940022
 21
282.7000000000009
 31
0.0
  0
LINE
  5
27E3
330
1A
100
AcDbEntity
  8
SITAJI
370
     9
100
AcDbLine
 10
379.845788118716
 20
285.0000000000002
 30
0.0
 11
377.5457881187239
 21
282.7000000000009
 31
0.0
  0
ARC
  5
27E4
330
1A
100
AcDbEntity
  8
SITAJI
100
AcDbCircle
 10
365.0
 20
280.0000000000002
 30
0.000000000000739
 40
2.7
100
AcDbArc
 50
90.0
 51
180.0
  0
ARC
  5
27E5
330
1A
100
AcDbEntity
  8
SITAJI
100
AcDbCircle
 10
365.0
 20
280.0000000000002
 30
0.000000000000739
 40
5.0
100
AcDbArc
 50
90.0
 51
180.0
  0
LINE
  5
27E6
330
1A
100
AcDbEntity
  8
SITAJI
100
AcDbLine
 10
362.2999999999956
 20
280.0000000000002
 30
0.0
 11
362.2999999999956
 21
190.0000000000002
 31
0.0
  0
LINE
  5
27E7
330
1A
100
AcDbEntity
  8
SITAJI
100
AcDbLine
 10
360.0
 20
280.0000000000002
 30
0.0
 11
360.0
 21
190.0000000000002
 31
0.0
  0
LINE
  5
27E8
330
1A
100
AcDbEntity
  8
SITAJI
370
     9
100
AcDbLine
 10
362.2999999999956
 20
225.0278050100317
 30
0.0
 11
360.0
 21
222.7278050100306
 31
0.0
  0
LINE
  5
27E9
330
1A
100
AcDbEntity
  8
SITAJI
370
     9
100
AcDbLine
 10
362.2999999999956
 20
227.8562321347783
 30
0.0
 11
360.0
 21
225.556232134779
 31
0.0
  0
LINE
  5
27EA
330
1A
100
AcDbEntity
  8
SITAJI
370
     9
100
AcDbLine
 10
364.2705719390761
 20
187.4003972026605
 30
0.0
 11
362.5254522537361
 21
185.6552775173224
 31
0.0
  0
LINE
  5
27EB
330
1A
100
AcDbEntity
  8
SITAJI
370
     9
100
AcDbLine
 10
366.9986018611599
 20
187.2999999999994
 30
0.0
 11
364.7071833825576
 21
185.0085815213971
 31
0.0
  0
ARC
  5
27EC
330
1A
100
AcDbEntity
  8
SITAJI
100
AcDbCircle
 10
365.0
 20
190.0000000000002
 30
0.0000000000003979
 40
2.7
100
AcDbArc
 50
180.0
 51
270.0
  0
ARC
  5
27ED
330
1A
100
AcDbEntity
  8
SITAJI
100
AcDbCircle
 10
365.0
 20
190.0000000000002
 30
0.0000000000003979
 40
5.0
100
AcDbArc
 50
180.0
 51
270.0
  0
LINE
  5
27EE
330
1A
100
AcDbEntity
  8
SITAJI
100
AcDbLine
 10
365.0
 20
187.2999999999994
 30
0.0
 11
455.0
 21
187.3
 31
0.0000000000003979
  0
LINE
  5
27EF
330
1A
100
AcDbEntity
  8
SITAJI
100
AcDbLine
 10
365.0
 20
185.0000000000002
 30
0.0
 11
455.0
 21
185.0000000000002
 31
0.0
  0
ARC
  5
27F0
330
1A
100
AcDbEntity
  8
SITAJI
100
AcDbCircle
 10
455.0
 20
190.0000000000002
 30
0.0000000000003979
 40
2.7
100
AcDbArc
 50
270.0
 51
0.0
  0
ARC
  5
27F1
330
1A
100
AcDbEntity
  8
SITAJI
100
AcDbCircle
 10
455.0
 20
190.0000000000002
 30
0.0000000000003979
 40
5.0
100
AcDbArc
 50
270.0
 51
0.0
  0
LINE
  5
27F2
330
1A
100
AcDbEntity
  8
SITAJI
370
     9
100
AcDbLine
 10
409.4250087323525
 20
187.2999999999994
 30
0.0
 11
407.1250087323567
 21
185.0000000000002
 31
0.0
  0
LINE
  5
27F3
330
1A
100
AcDbEntity
  8
SITAJI
370
     9
100
AcDbLine
 10
406.5965816076059
 20
187.2999999999994
 30
0.0
 11
404.2965816076103
 21
185.0000000000002
 31
0.0
  0
LINE
  5
27F4
330
1A
100
AcDbEntity
  8
SITAJI
370
     9
100
AcDbLine
 10
451.8514156035453
 20
187.2999999999994
 30
0.0
 11
449.5514156035496
 21
185.0000000000002
 31
0.0
  0
LINE
  5
27F5
330
1A
100
AcDbEntity
  8
SITAJI
370
     9
100
AcDbLine
 10
449.0229884787986
 20
187.2999999999994
 30
0.0
 11
446.722988478803
 21
185.0000000000002
 31
0.0
  0
LINE
  5
27F6
330
1A
100
AcDbEntity
  8
SITAJI
100
AcDbLine
 10
365.0
 20
282.700000000001
 30
0.0
 11
455.0
 21
282.7000000000002
 31
0.000000000000739
  0
LINE
  5
27F7
330
1A
100
AcDbEntity
  8
SITAJI
100
AcDbLine
 10
365.0
 20
285.0000000000002
 30
0.0
 11
455.0
 21
285.0000000000002
 31
0.0
  0
LINE
  5
2804
330
1A
100
AcDbEntity
  8
SEIHIN
100
AcDbLine
 10
392.0000000000035
 20
362.4999999999984
 30
0.0
 11
392.0000000000036
 21
287.9999999999979
 31
0.0
  0
LINE
  5
2805
330
1A
100
AcDbEntity
  8
SEIHIN
100
AcDbLine
 10
401.5000000000036
 20
340.999999999998
 30
0.0
 11
401.5000000000036
 21
341.499999999998
 31
0.0
  0
LINE
  5
2806
330
1A
100
AcDbEntity
  8
SEIHIN
100
AcDbLine
 10
401.5000000000036
 20
340.999999999998
 30
0.0
 11
421.8000000000064
 21
340.999999999998
 31
0.0
  0
ARC
  5
2807
330
1A
100
AcDbEntity
  8
SEIHIN
100
AcDbCircle
 10
421.8000000000064
 20
342.1999999999969
 30
0.0
 40
0.7
100
AcDbArc
 50
270.0
 51
0.0
  0
LINE
  5
2808
330
1A
100
AcDbEntity
  8
SEIHIN
100
AcDbLine
 10
400.5000000000036
 20
341.499999999998
 30
0.0
 11
415.5000000000033
 21
341.499999999998
 31
0.0
  0
LINE
  5
2809
330
1A
100
AcDbEntity
  8
SEIHIN
100
AcDbLine
 10
392.0000000000036
 20
287.9999999999979
 30
0.0
 11
210.0
 21
287.9999999999987
 31
0.0
  0
LINE
  5
280A
330
1A
100
AcDbEntity
  8
SEIHIN
100
AcDbLine
 10
396.2999999999992
 20
362.9999999999984
 30
0.0
 11
210.0
 21
362.9999999999985
 31
0.0
  0
LINE
  5
280B
330
1A
100
AcDbEntity
  8
SEIHIN
100
AcDbLine
 10
397.5000000000036
 20
361.7999999999977
 30
0.0
 11
397.5000000000036
 21
343.6999999999973
 31
0.0
  0
ARC
  5
280C
330
1A
100
AcDbEntity
  8
SEIHIN
100
AcDbCircle
 10
421.8000000000064
 20
342.1999999999969
 30
0.0
 40
1.199999999999999
100
AcDbArc
 50
270.0
 51
0.0
  0
LINE
  5
280E
330
1A
100
AcDbEntity
  8
SEIHIN
  6
DASHED2
100
AcDbLine
 10
392.0000000000036
 20
353.4999999999984
 30
0.0
 11
210.0
 21
353.4999999999985
 31
0.0
  0
LINE
  5
280F
330
1A
100
AcDbEntity
  8
SEIHIN
100
AcDbLine
 10
397.0000000000037
 20
361.7999999999977
 30
0.0
 11
397.0000000000037
 21
343.6999999999923
 31
0.0
  0
LINE
  5
2810
330
1A
100
AcDbEntity
  8
SEIHIN
100
AcDbLine
 10
396.2999999999992
 20
362.4999999999984
 30
0.0
 11
210.0
 21
362.4999999999985
 31
0.0
  0
LINE
  5
2811
330
1A
100
AcDbEntity
  8
SEIHIN
100
AcDbLine
 10
392.0000000000036
 20
288.499999999998
 30
0.0
 11
210.0
 21
288.4999999999987
 31
0.0
  0
LINE
  5
2812
330
1A
100
AcDbEntity
  8
SEIHIN
100
AcDbLine
 10
428.0000000000036
 20
288.499999999998
 30
0.0
 11
610.0
 21
288.499999999998
 31
0.0000000000003695
  0
LINE
  5
2813
330
1A
100
AcDbEntity
  8
SEIHIN
100
AcDbLine
 10
423.7000000000078
 20
362.4999999999984
 30
0.0
 11
610.0
 21
362.4999999999967
 31
0.0000000000003695
  0
LINE
  5
2815
330
1A
100
AcDbEntity
  8
SEIHIN
  6
DASHED2
100
AcDbLine
 10
428.0000017738379
 20
353.4999999999984
 30
0.0000000000000075
 11
610.0
 21
353.4999999999984
 31
0.0000000000003695
  0
ARC
  5
2817
330
1A
100
AcDbEntity
  8
SEIHIN
100
AcDbCircle
 10
398.2000000000007
 20
343.6999999999973
 30
0.0
 40
1.199999999999999
100
AcDbArc
 50
180.0
 51
270.0
  0
LINE
  5
2818
330
1A
100
AcDbEntity
  8
SEIHIN
100
AcDbLine
 10
422.5000000000036
 20
361.7999999999977
 30
0.0
 11
422.5000000000036
 21
342.1999999999969
 31
0.0
  0
LINE
  5
2819
330
1A
100
AcDbEntity
  8
SEIHIN
100
AcDbLine
 10
423.7000000000078
 20
362.9999999999984
 30
0.0
 11
610.0
 21
362.9999999999984
 31
0.0000000000003695
  0
LINE
  5
281A
330
1A
100
AcDbEntity
  8
SEIHIN
100
AcDbLine
 10
428.0000000000036
 20
287.9999999999979
 30
0.0
 11
610.0
 21
287.9999999999975
 31
0.0000000000003695
  0
LINE
  5
281B
330
1A
100
AcDbEntity
  8
SEIHIN
100
AcDbLine
 10
415.5000000000033
 20
342.9999999999984
 30
0.0
 11
398.2000000000007
 21
342.9999999999984
 31
0.0
  0
ARC
  5
281C
330
1A
100
AcDbEntity
  8
SEIHIN
100
AcDbCircle
 10
398.2000000000007
 20
343.6999999999973
 30
0.0
 40
0.7
100
AcDbArc
 50
180.0
 51
270.0
  0
ARC
  5
281D
330
1A
100
AcDbEntity
  8
SEIHIN
100
AcDbCircle
 10
423.7000000000078
 20
361.7999999999977
 30
0.0
 40
1.199999999999999
100
AcDbArc
 50
90.0
 51
180.0
  0
LINE
  5
281E
330
1A
100
AcDbEntity
  8
SEIHIN
100
AcDbLine
 10
415.5000000000033
 20
342.4999999999983
 30
0.0
 11
398.2000000000007
 21
342.4999999999983
 31
0.0
  0
LINE
  5
281F
330
1A
100
AcDbEntity
  8
SEIHIN
100
AcDbLine
 10
415.5000000000033
 20
342.4999999999983
 30
0.0
 11
415.5000000000033
 21
342.9999999999984
 31
0.0
  0
LINE
  5
2821
330
1A
100
AcDbEntity
  8
SEIHIN
100
AcDbLine
 10
415.5000000000033
 20
342.4999999999983
 30
0.0
 11
415.5000000000033
 21
341.499999999998
 31
0.0
  0
LINE
  5
2822
330
1A
100
AcDbEntity
  8
SEIHIN
100
AcDbLine
 10
400.5000000000036
 20
342.4999999999983
 30
0.0
 11
400.5000000000036
 21
341.499999999998
 31
0.0
  0
ARC
  5
2823
330
1A
100
AcDbEntity
  8
YAKUMONO
100
AcDbCircle
 10
415.6500014999982
 20
293.1499999999999
 30
0.0
 40
1.5
100
AcDbArc
 50
0.0
 51
90.0
  0
ARC
  5
2824
330
1A
100
AcDbEntity
  8
YAKUMONO
100
AcDbCircle
 10
415.6500014999982
 20
293.1499999999999
 30
0.0
 40
1.85000100000002
100
AcDbArc
 50
0.0
 51
90.0
  0
LINE
  5
2825
330
1A
100
AcDbEntity
  8
YAKUMONO
100
AcDbLine
 10
417.4999994999998
 20
293.1533316657317
 30
0.0
 11
417.4999994999998
 21
286.8500010000009
 31
0.0
  0
LINE
  5
2826
330
1A
100
AcDbEntity
  8
YAKUMONO
100
AcDbLine
 10
417.1500014999983
 20
293.1499999999999
 30
0.0
 11
417.1500014999983
 21
286.8500010000009
 31
0.0
  0
LINE
  5
2827
330
1A
100
AcDbEntity
  8
YAKUMONO
100
AcDbLine
 10
361.5000015000005
 20
285.3500010000009
 30
0.0
 11
401.0000005000001
 21
285.3500010000009
 31
0.0
  0
LINE
  5
2828
330
1A
100
AcDbEntity
  8
YAKUMONO
100
AcDbLine
 10
361.5000015000005
 20
287.6499990000013
 30
0.0
 11
366.0000015000005
 21
287.6499990000013
 31
0.0
  0
ARC
  5
2829
330
1A
100
AcDbEntity
  8
YAKUMONO
100
AcDbCircle
 10
361.5000015000005
 20
286.5000000000001
 30
0.0
 40
1.5
100
AcDbArc
 50
90.0
 51
270.0
  0
ARC
  5
282A
330
1A
100
AcDbEntity
  8
YAKUMONO
100
AcDbCircle
 10
361.5000015000005
 20
286.5000000000001
 30
0.0
 40
1.149998999999978
100
AcDbArc
 50
90.0
 51
270.0
  0
LINE
  5
282B
330
1A
100
AcDbEntity
  8
YAKUMONO
100
AcDbLine
 10
404.350001499999
 20
295.0000010000006
 30
0.0
 11
415.6500014999982
 21
295.0000010000006
 31
0.0
  0
LINE
  5
282C
330
1A
100
AcDbEntity
  8
YAKUMONO
100
AcDbLine
 10
404.350001499999
 20
294.6499999999998
 30
0.0
 11
415.6500014999982
 21
294.6499999999998
 31
0.0
  0
LINE
  5
282D
330
1A
100
AcDbEntity
  8
YAKUMONO
100
AcDbLine
 10
402.5000005000001
 20
293.1499999999999
 30
0.0
 11
402.5000005000001
 21
286.8500010000009
 31
0.0
  0
LINE
  5
282E
330
1A
100
AcDbEntity
  8
YAKUMONO
100
AcDbLine
 10
402.8500014999988
 20
293.1499999999999
 30
0.0
 11
402.8500014999988
 21
286.8500010000009
 31
0.0
  0
ARC
  5
282F
330
1A
100
AcDbEntity
  8
YAKUMONO
100
AcDbCircle
 10
401.0000005000001
 20
286.8500010000009
 30
0.0
 40
1.85000100000002
100
AcDbArc
 50
270.0
 51
0.0
  0
ARC
  5
2830
330
1A
100
AcDbEntity
  8
YAKUMONO
100
AcDbCircle
 10
401.0000005000001
 20
286.8500010000009
 30
0.0
 40
1.5
100
AcDbArc
 50
270.0
 51
0.0
  0
ARC
  5
2831
330
1A
100
AcDbEntity
  8
YAKUMONO
100
AcDbCircle
 10
404.350001499999
 20
293.1499999999999
 30
0.0
 40
1.5
100
AcDbArc
 50
90.0
 51
180.0
  0
ARC
  5
2832
330
1A
100
AcDbEntity
  8
YAKUMONO
100
AcDbCircle
 10
404.350001499999
 20
293.1499999999999
 30
0.0
 40
1.85000100000002
100
AcDbArc
 50
90.0
 51
180.0
  0
ARC
  5
2833
330
1A
100
AcDbEntity
  8
YAKUMONO
100
AcDbCircle
 10
418.9999994999998
 20
286.8500010000009
 30
0.0
 40
1.5
100
AcDbArc
 50
180.0
 51
270.0
  0
ARC
  5
2834
330
1A
100
AcDbEntity
  8
YAKUMONO
100
AcDbCircle
 10
418.9999994999998
 20
286.8500010000009
 30
0.0
 40
1.85000100000002
100
AcDbArc
 50
180.0
 51
270.0
  0
LINE
  5
2836
330
1A
100
AcDbEntity
  8
YAKUMONO
 62
     7
100
AcDbLine
 10
366.0000015000005
 20
288.0000000000002
 30
0.0
 11
376.0000015000005
 21
288.0000000000002
 31
0.0
  0
LINE
  5
2837
330
1A
100
AcDbEntity
  8
YAKUMONO
100
AcDbLine
 10
361.5000015000005
 20
285.0000000000002
 30
0.0
 11
401.0000005000001
 21
285.0000000000002
 31
0.0
  0
LINE
  5
2838
330
1A
100
AcDbEntity
  8
YAKUMONO
 62
     7
100
AcDbLine
 10
366.0000015000005
 20
287.9999999999981
 30
0.0
 11
366.0000015000005
 21
285.3500000000006
 31
0.0
  0
LINE
  5
283A
330
1A
100
AcDbEntity
  8
YAKUMONO
100
AcDbLine
 10
418.9999994999998
 20
285.0000000000002
 30
0.0
 11
458.5000015000002
 21
285.0000000000002
 31
0.0
  0
LINE
  5
283C
330
1A
100
AcDbEntity
  8
YAKUMONO
 62
     7
100
AcDbLine
 10
454.0000015000003
 20
288.0000000000002
 30
0.0
 11
454.0000015000003
 21
285.3500000000006
 31
0.0
  0
LINE
  5
283D
330
1A
100
AcDbEntity
  8
YAKUMONO
 62
     7
100
AcDbLine
 10
454.0000015000003
 20
287.9999999999979
 30
0.0000000000000426
 11
444.0000025000008
 21
288.0000010000009
 31
0.0
  0
ARC
  5
283F
330
1A
100
AcDbEntity
  8
YAKUMONO
100
AcDbCircle
 10
458.5000015000002
 20
286.5000000000001
 30
0.0
 40
1.149998999999978
100
AcDbArc
 50
270.0
 51
90.0
  0
ARC
  5
2840
330
1A
100
AcDbEntity
  8
YAKUMONO
100
AcDbCircle
 10
458.5000015000002
 20
286.5000000000001
 30
0.0
 40
1.5
100
AcDbArc
 50
270.0
 51
90.0
  0
LINE
  5
2841
330
1A
100
AcDbEntity
  8
YAKUMONO
100
AcDbLine
 10
458.5000015000002
 20
287.6499990000013
 30
0.0
 11
454.0000015000003
 21
287.6499990000013
 31
0.0
  0
LINE
  5
2842
330
1A
100
AcDbEntity
  8
YAKUMONO
100
AcDbLine
 10
458.5000015000002
 20
285.3500010000009
 30
0.0
 11
419.0000025000008
 21
285.3500010000009
 31
0.0
  0
LINE
  5
2843
330
1A
100
AcDbEntity
  8
YAKUMONO
 62
     7
100
AcDbLine
 10
376.0000015000005
 20
288.0000000000002
 30
0.0
 11
401.0000015000005
 21
287.9999999999967
 31
0.0
  0
LINE
  5
2844
330
1A
100
AcDbEntity
  8
YAKUMONO
 62
     7
100
AcDbLine
 10
376.0000015000005
 20
288.0000000000002
 30
0.0
 11
376.0000015000005
 21
285.3500000000006
 31
0.0
  0
LINE
  5
2845
330
1A
100
AcDbEntity
  8
YAKUMONO
 62
     7
100
AcDbLine
 10
444.0000015000005
 20
288.0000000000002
 30
0.0
 11
444.0000015000005
 21
285.3500000000006
 31
0.0
  0
LINE
  5
2846
330
1A
100
AcDbEntity
  8
YAKUMONO
 62
     7
100
AcDbLine
 10
401.0000015000005
 20
288.0000000000002
 30
0.0
 11
401.0000015000005
 21
285.3500000000006
 31
0.0
  0
LINE
  5
2853
330
1A
100
AcDbEntity
  8
SEALING
  6
DASHED2
 48
0.5
100
AcDbLine
 10
457.4999999999977
 20
350.4999999999943
 30
0.0000000000000124
 11
457.5000000000026
 21
362.9999999999983
 31
0.0000000000000752
  0
ARC
  5
2856
330
1A
100
AcDbEntity
  8
SEIHIN
100
AcDbCircle
 10
423.7001077739795
 20
361.7997398032672
 30
0.0
 40
0.7002602035426714
100
AcDbArc
 50
90.00806302815167
 51
179.9787118831185
  0
ARC
  5
2891
330
1A
100
AcDbEntity
  8
SEIHIN
100
AcDbCircle
 10
396.2999999999992
 20
361.7999999999984
 30
0.0
 40
1.199999999999999
100
AcDbArc
 50
0.0
 51
90.0
  0
ARC
  5
2892
330
1A
100
AcDbEntity
  8
SEALING
100
AcDbCircle
 10
410.0000000000044
 20
397.5569848497412
 30
0.0
 40
37.19893384319724
100
AcDbArc
 50
249.7889264373891
 51
290.2110735626078
  0
DIMENSION
  5
289A
330
1A
100
AcDbEntity
  8
SUNPOU
100
AcDbDimension
280
     0
  2
*D3
 10
640.0
 20
363.0000000000038
 30
0.0000000000003695
 11
639.9999999999997
 21
325.5000000000007
 31
0.0000000000003695
 70
   160
 71
     5
 42
75.00000000000636
 73
     0
 74
     0
 75
     0
  3
コピー - STANDARD
100
AcDbAlignedDimension
 13
610.0
 23
287.9999999999975
 33
0.0000000000003695
 14
610.0
 24
363.0000000000038
 34
0.0000000000003695
 50
90.0
100
AcDbRotatedDimension
1001
ACAD
1000
DSTYLE
1002
{
1070
    42
1040
5.0
1070
   340
1005
10
1002
}
  0
LINE
  5
28F7
330
1A
100
AcDbEntity
  8
YAKUMONO
100
AcDbLine
 10
366.0000015000005
 20
287.6499990000013
 30
0.0
 11
366.0000015000005
 21
287.9999999999981
 31
0.0
  0
LINE
  5
28F8
330
1A
100
AcDbEntity
  8
YAKUMONO
100
AcDbLine
 10
454.0000015000003
 20
287.6499990000013
 30
0.0
 11
454.0000015000003
 21
287.9999999999979
 31
0.0
  0
LINE
  5
28F9
330
1A
100
AcDbEntity
  8
YAKUMONO
 62
     7
100
AcDbLine
 10
366.0000015000005
 20
285.3500000000006
 30
0.0
 11
401.0000015000005
 21
285.3500000000006
 31
0.0
  0
LINE
  5
28FA
330
1A
100
AcDbEntity
  8
YAKUMONO
 62
     7
100
AcDbLine
 10
419.0000015000005
 20
285.3500000000006
 30
0.0
 11
454.0000015000003
 21
285.3500000000006
 31
0.0
  0
LINE
  5
2A8C
330
1A
100
AcDbEntity
  8
PACKING
100
AcDbLine
 10
400.1891239792288
 20
343.9999999999983
 30
0.0
 11
420.1891239792288
 21
343.9999999999983
 31
0.0
  0
LINE
  5
2A8F
330
1A
100
AcDbEntity
  8
PACKING
100
AcDbLine
 10
400.1891239792288
 20
344.9999999999984
 30
0.0
 11
400.1891239792288
 21
343.9999999999983
 31
0.0
  0
LINE
  5
2A90
330
1A
100
AcDbEntity
  8
SEALING
100
AcDbLine
 10
397.5000000000036
 20
345.9999999999983
 30
0.0
 11
422.5000000000036
 21
345.9999999999982
 31
0.0
  0
ARC
  5
2A91
330
1A
100
AcDbEntity
  8
SEIHIN
100
AcDbCircle
 10
396.2999999999992
 20
361.7999999999984
 30
0.0
 40
0.7
100
AcDbArc
 50
0.0
 51
90.0
  0
HATCH
  5
2AA3
330
1A
100
AcDbEntity
  8
SEALING
  6
DASHED2
 48
0.5
370
     9
100
AcDbHatch
 10
0.0
 20
0.0
 30
0.0000000000000072
210
0.0
220
0.0
230
1.0
  2
ANSI37
 70
     0
 71
     0
 91
        1
 92
        1
 93
        4
 72
     1
 10
457.4999999999977
 20
350.4997771883276
 11
457.5000000000026
 21
362.9999999999983
 72
     1
 10
457.5000000000026
 20
362.9999999999983
 11
447.5000000000027
 21
362.9999999999983
 72
     1
 10
447.5000000000027
 20
362.9999999999983
 11
447.5000000000013
 21
350.5002228116649
 72
     1
 10
447.5000000000013
 20
350.5002228116649
 11
457.4999999999977
 21
350.4997771883276
 97
        0
 75
     0
 76
     1
 52
0.0
 41
1.0
 77
     0
 78
     2
 53
45.0
 43
15.74758220684259
 44
-10.91748724399428
 45
-2.245064030267287
 46
2.245064030267287
 79
     0
 53
135.0
 43
15.74758220684259
 44
-10.91748724399428
 45
-2.245064030267287
 46
-2.245064030267287
 79
     0
 98
        2
 10
449.3147217742553
 20
360.091697834381
 10
450.2821349886722
 20
354.4508684535567
1001
ACAD
1010
0.0
1020
0.0
1030
0.0
  0
HATCH
  5
2AAA
330
1A
100
AcDbEntity
  8
SEALING
370
     9
100
AcDbHatch
 10
0.0
 20
0.0
 30
0.0
210
0.0
220
0.0
230
1.0
  2
ANSI37
 70
     0
 71
     0
 91
        1
 92
        1
 93
        6
 72
     1
 10
422.5000000000036
 20
345.9999999999983
 11
422.5000000000077
 21
361.7999999999977
 72
     2
 10
423.7000000000078
 20
361.799999999998
 40
1.199999999999988
 50
179.9999999999864
 51
224.9999999999847
 73
     0
 72
     2
 10
410.0000000000044
 20
397.5569848497412
 40
37.19893384319729
 50
69.78892643739239
 51
110.2110735626106
 73
     0
 72
     2
 10
396.2999999999993
 20
361.7999999999984
 40
1.199999999999936
 50
314.9999999999981
 51
360.0
 73
     0
 72
     1
 10
397.4999999999992
 20
361.7999999999984
 11
397.5000000000032
 21
345.9999999999983
 72
     1
 10
397.5000000000032
 20
345.9999999999983
 11
422.5000000000036
 21
345.9999999999983
 97
        0
 75
     0
 76
     1
 52
0.0
 41
1.0
 77
     0
 78
     2
 53
45.0
 43
16.24758220684339
 44
-10.91748724399411
 45
-2.245064030267287
 46
2.245064030267287
 79
     0
 53
135.0
 43
16.24758220684339
 44
-10.91748724399411
 45
-2.245064030267287
 46
-2.245064030267287
 79
     0
 98
        1
 10
413.2142721883907
 20
352.5168711625251
1001
ACAD
1010
0.0
1020
0.0
1030
0.0
  0
HATCH
  5
2AC5
330
1A
100
AcDbEntity
  8
SEIHIN
100
AcDbHatch
 10
0.0
 20
0.0
 30
0.0
210
0.0
220
0.0
230
1.0
  2
ANSI31
 70
     0
 71
     0
 91
        1
 92
        7
 72
     0
 73
     1
 93
        4
 10
415.5000000000033
 20
341.499999999998
 10
415.5000000000033
 20
342.4999999999983
 10
400.5000000000036
 20
342.4999999999983
 10
400.5000000000036
 20
341.499999999998
 97
        0
 75
     0
 76
     1
 52
0.0
 41
0.5
 77
     0
 78
     1
 53
45.0
 43
16.24758220684339
 44
-10.91748724399411
 45
-1.122532015133643
 46
1.122532015133643
 79
     0
 47
0.024973307741123
 98
        1
 10
408.0055189513305
 20
341.9542536291547
1001
ACAD
1010
0.0
1020
0.0
1030
0.0
  0
HATCH
  5
2ACA
330
1A
100
AcDbEntity
  8
PACKING
370
     9
100
AcDbHatch
 10
0.0
 20
0.0
 30
0.0
210
0.0
220
0.0
230
1.0
  2
ANSI31
 70
     0
 71
     0
 91
        1
 92
        1
 93
        4
 72
     1
 10
420.1891239792288
 20
343.9999999999983
 11
420.1891239792288
 21
344.9999999999983
 72
     1
 10
420.1891239792288
 20
344.9999999999983
 11
400.1891239792288
 21
344.9999999999984
 72
     1
 10
400.1891239792288
 20
344.9999999999984
 11
400.1891239792288
 21
343.9999999999983
 72
     1
 10
400.1891239792288
 20
343.9999999999983
 11
420.1891239792288
 21
343.9999999999983
 97
        0
 75
     0
 76
     1
 52
0.0
 41
0.5
 77
     0
 78
     1
 53
45.0
 43
17.53179980997561
 44
-10.8455075005815
 45
-1.122532015133643
 46
1.122532015133643
 79
     0
 98
        1
 10
410.039255748298
 20
344.6234576370355
1001
ACAD
1010
0.0
1020
0.0
1030
0.0
  0
HATCH
  5
2AD0
330
1A
100
AcDbEntity
  8
YAKUMONO
 62
     7
370
     9
100
AcDbHatch
 10
0.0
 20
0.0
 30
0.0
210
0.0
220
0.0
230
1.0
  2
ANSI31
 70
     0
 71
     0
 91
        1
 92
        1
 93
        4
 72
     1
 10
376.0000015000005
 20
285.3500010000009
 11
376.0000015000005
 21
288.0000000000002
 72
     1
 10
376.0000015000005
 20
288.0000000000002
 11
366.0000015000005
 21
288.0000000000002
 72
     1
 10
366.0000015000005
 20
288.0000000000002
 11
366.0000015000005
 21
285.3500010000009
 72
     1
 10
366.0000015000005
 20
285.3500010000009
 11
376.0000015000005
 21
285.3500010000009
 97
        0
 75
     0
 76
     1
 52
0.0
 41
0.5
 77
     0
 78
     1
 53
45.0
 43
16.24758220684339
 44
-10.91748724399411
 45
-1.122532015133643
 46
1.122532015133643
 79
     0
 98
        1
 10
369.6806948871213
 20
286.599755952678
1001
ACAD
1010
0.0
1020
0.0
1030
0.0
  0
HATCH
  5
2AD5
330
1A
100
AcDbEntity
  8
YAKUMONO
 62
     7
370
     9
100
AcDbHatch
 10
0.0
 20
0.0
 30
0.0
210
0.0
220
0.0
230
1.0
  2
ANSI31
 70
     0
 71
     0
 91
        1
 92
        7
 72
     0
 73
     1
 93
        4
 10
454.0000015000003
 20
285.3500010000009
 10
454.0000015000003
 20
287.9999999999979
 10
444.0000015000005
 20
288.000001000001
 10
444.0000015000005
 20
285.3500010000009
 97
        0
 75
     0
 76
     1
 52
0.0
 41
0.5
 77
     0
 78
     1
 53
45.0
 43
16.24758220684339
 44
-10.91748724399411
 45
-1.122532015133643
 46
1.122532015133643
 79
     0
 47
0.161166536491697
 98
        1
 10
449.6534865597696
 20
286.599755952678
1001
ACAD
1010
0.0
1020
0.0
1030
0.0
  0
HATCH
  5
2ADB
330
1A
100
AcDbEntity
  8
YAKUMONO
 62
     7
370
     9
100
AcDbHatch
 10
0.0
 20
0.0
 30
0.0
210
0.0
220
0.0
230
1.0
  2
ANSI37
 70
     0
 71
     0
 91
        1
 92
        7
 72
     0
 73
     1
 93
        5
 10
376.0000015000006
 20
288.0000000000002
 10
376.0000015000005
 20
285.3500010000009
 10
401.0000005000001
 20
285.3500010000009
 10
401.0000015000005
 20
285.3500010000013
 10
401.0000015000005
 20
287.9999999999965
 97
        0
 75
     0
 76
     1
 52
0.0
 41
1.0
 77
     0
 78
     2
 53
45.0
 43
0.0
 44
0.0
 45
-2.245064030267287
 46
2.245064030267287
 79
     0
 53
135.0
 43
0.0
 44
0.0
 45
-2.245064030267287
 46
-2.245064030267287
 79
     0
 47
0.161166536491697
 98
        1
 10
394.8334288244653
 20
286.9220899017187
1001
ACAD
1010
0.0
1020
0.0
1030
0.0
  0
HATCH
  5
2AE0
330
1A
100
AcDbEntity
  8
YAKUMONO
 62
     7
370
     9
100
AcDbHatch
 10
0.0
 20
0.0
 30
0.0
210
0.0
220
0.0
230
1.0
  2
ANSI37
 70
     0
 71
     0
 91
        1
 92
        1
 93
        4
 72
     1
 10
419.0000025000008
 20
288.0000010000009
 11
419.0000015000005
 21
285.3500010000009
 72
     1
 10
419.0000015000005
 20
285.3500010000009
 11
444.0000015000005
 21
285.3500010000009
 72
     1
 10
444.0000015000005
 20
285.3500010000009
 11
444.0000015000005
 21
288.0000000000002
 72
     1
 10
444.0000015000005
 20
288.0000000000002
 11
419.0000025000008
 21
288.0000010000009
 97
        0
 75
     0
 76
     1
 52
0.0
 41
1.0
 77
     0
 78
     2
 53
45.0
 43
0.0
 44
0.0
 45
-2.245064030267287
 46
2.245064030267287
 79
     0
 53
135.0
 43
0.0
 44
0.0
 45
-2.245064030267287
 46
-2.245064030267287
 79
     0
 98
        1
 10
429.9827595524551
 20
287.0832562359179
1001
ACAD
1010
0.0
1020
0.0
1030
0.0
  0
LINE
  5
2C83
330
1A
100
AcDbEntity
  8
SEALING
  6
DASHED2
 48
0.5
100
AcDbLine
 10
447.4999999974897
 20
350.4999999999983
 30
0.0000000000000124
 11
447.5000000000012
 21
363.0000000000025
 31
0.0000000000000554
  0
LINE
  5
2C84
330
1A
100
AcDbEntity
  8
SEALING
  6
DASHED2
 48
0.5
100
AcDbLine
 10
447.5000000000012
 20
363.000000002108
 30
0.0000000000000554
 11
457.5000000000026
 21
362.9999999999983
 31
0.0000000000000752
  0
LINE
  5
2C8D
330
1A
100
AcDbEntity
  8
SEALING
  6
DASHED2
 48
0.5
100
AcDbLine
 10
447.5000000000053
 20
350.4999999999983
 30
0.0000000000000124
 11
457.4999999999985
 21
350.4999999999943
 31
0.0000000000000124
  0
LINE
  5
2CB9
330
1A
100
AcDbEntity
  8
PACKING
  6
DASHED2
 48
0.5
100
AcDbLine
 10
422.999988338177
 20
343.6999999999923
 30
0.0
 11
428.0000000354744
 21
343.6999999999923
 31
0.0
  0
LINE
  5
2CBA
330
1A
100
AcDbEntity
  8
PACKING
  6
DASHED2
 48
0.5
100
AcDbLine
 10
447.4999999999071
 20
362.4999999999982
 30
0.0000000000000156
 11
447.5000000000998
 21
353.4999999965279
 31
0.0000000000000562
  0
LINE
  5
2CBB
330
1A
100
AcDbEntity
  8
PACKING
  6
DASHED2
 48
0.5
100
AcDbLine
 10
428.000001773838
 20
343.6999999999923
 30
0.0
 11
428.0000000000035
 21
350.5000000039161
 31
0.0
  0
LINE
  5
2CBC
330
1A
100
AcDbEntity
  8
PACKING
  6
DASHED2
 48
0.5
100
AcDbLine
 10
447.4999999999006
 20
362.4999999952168
 30
0.0000000000000537
 11
423.7000000000041
 21
362.4999999999984
 31
0.0
  0
LINE
  5
2CBE
330
1A
100
AcDbEntity
  8
PACKING
  6
DASHED2
 48
0.5
100
AcDbLine
 10
447.5000000000053
 20
350.4999999999983
 30
0.0000000000000124
 11
428.0000017738382
 21
350.5000000039161
 31
0.0000000000000075
  0
LINE
  5
2CC1
330
1A
100
AcDbEntity
  8
PACKING
  6
DASHED2
 48
0.5
100
AcDbLine
 10
422.9998476187713
 20
361.799999983351
 30
0.0
 11
422.9998476187713
 21
343.6999999999923
 31
0.0
  0
ARC
  5
2CC2
330
1A
100
AcDbEntity
  8
PACKING
  6
DASHED2
 48
0.5
100
AcDbCircle
 10
423.7001077765107
 20
361.7997398022181
 30
0.0
 40
0.7002602060742234
100
AcDbArc
 50
90.00881834912055
 51
179.9787117973571
  0
DIMENSION
  5
2D38
330
1A
100
AcDbEntity
  8
SUNPOU
100
AcDbDimension
280
     0
  2
*D4
 10
640.0
 20
185.0000000000002
 30
0.0000000000003695
 11
640.0
 21
235.0000000000002
 31
0.0000000000003695
 70
   160
 71
     5
 42
100.0
 73
     0
 74
     0
 75
     0
  3
STANDARD
100
AcDbAlignedDimension
 13
610.0
 23
285.0000000000002
 33
0.0000000000003695
 14
610.0
 24
185.0000000000002
 34
0.0000000000003695
 50
90.0
100
AcDbRotatedDimension
  0
HATCH
  5
2DA1
330
1A
100
AcDbEntity
  8
SEIHIN
100
AcDbHatch
 10
0.0
 20
0.0
 30
0.0
210
0.0
220
0.0
230
1.0
  2
ANSI35
 70
     0
 71
     0
 91
        1
 92
        1
 93
        4
 72
     1
 10
392.0000000000035
 20
288.499999999998
 11
392.0000000000036
 21
362.4999999999984
 72
     1
 10
392.0000000000036
 20
362.4999999999984
 11
210.0
 21
362.4999999999986
 72
     1
 10
210.0
 20
362.4999999999986
 11
210.0
 21
288.4999999999987
 72
     1
 10
210.0
 20
288.4999999999987
 11
392.0000000000035
 21
288.499999999998
 97
        0
 75
     0
 76
     1
 52
0.0
 41
5.0
 77
     0
 78
     2
 53
45.0
 43
16.24758220684339
 44
-10.91748724399411
 45
-22.45064030267288
 46
22.45064030267288
 79
     0
 53
45.0
 43
38.6982322068434
 44
-10.91748724399411
 45
-22.45064030267288
 46
22.45064030267288
 79
     4
 49
39.6875
 49
-7.9375
 49
0.0
 49
-7.9375
 98
        3
 10
315.9451768740278
 20
312.7385143522509
 10
329.3341644928323
 20
355.6208273471553
 10
328.8382767185569
 20
359.3389471057802
  0
HATCH
  5
2DC4
330
1A
100
AcDbEntity
  8
SEIHIN
100
AcDbHatch
 10
0.0
 20
0.0
 30
0.0
210
0.0
220
0.0
230
1.0
  2
ANSI35
 70
     0
 71
     0
 91
        1
 92
        1
 93
        4
 72
     1
 10
428.0000000000035
 20
362.4999999862969
 11
428.0000000000036
 21
288.499999999998
 72
     1
 10
428.0000000000036
 20
288.499999999998
 11
610.0
 21
288.4999999999978
 72
     1
 10
610.0
 20
288.4999999999978
 11
610.0000000000001
 21
362.4999999999975
 72
     1
 10
610.0000000000001
 20
362.4999999999975
 11
428.0000000000035
 21
362.4999999862969
 97
        0
 75
     0
 76
     1
 52
0.0
 41
5.0
 77
     0
 78
     2
 53
45.0
 43
16.24758220684339
 44
-10.91748724399411
 45
-22.45064030267288
 46
22.45064030267288
 79
     0
 53
45.0
 43
38.6982322068434
 44
-10.91748724399411
 45
-22.45064030267288
 46
22.45064030267288
 79
     4
 49
39.6875
 49
-7.9375
 49
0.0
 49
-7.9375
 98
        3
 10
532.117545965333
 20
327.6497550380463
 10
539.1445541809985
 20
354.0772744686399
 10
539.1445541809985
 20
360.4332587573336
  0
LINE
  5
34C6
330
1A
100
AcDbEntity
  8
SEIHIN
  6
DASHED2
100
AcDbLine
 10
428.0000000000036
 20
291.999999999998
 30
0.0
 11
610.0
 21
291.9999999999975
 31
0.0000000000003695
  0
LINE
  5
34C7
330
1A
100
AcDbEntity
  8
SEIHIN
  6
DASHED2
100
AcDbLine
 10
392.0000000000036
 20
291.999999999998
 30
0.0
 11
210.0
 21
291.9999999999987
 31
0.0
  0
LINE
  5
3528
330
1A
100
AcDbEntity
  8
SEALING
  6
DASHED2
 48
0.5
100
AcDbLine
 10
444.0000025000075
 20
288.0000010000028
 30
0.0
 11
454.0000015000003
 21
287.9999999999959
 31
0.0000000000000426
  0
LINE
  5
352D
330
1A
100
AcDbEntity
  8
SEALING
  6
DASHED2
 48
0.5
100
AcDbLine
 10
366.0000015000071
 20
288.0000000000043
 30
0.0
 11
376.0000015000005
 21
288.0000000000002
 31
0.0
  0
LINE
  5
358C
330
1A
100
AcDbEntity
  8
PACKING
100
AcDbLine
 10
400.1891239792288
 20
344.9999999999983
 30
0.0
 11
420.1891239792288
 21
344.9999999999983
 31
0.0
  0
LINE
  5
35E2
330
1A
100
AcDbEntity
  8
PACKING
100
AcDbLine
 10
420.1891239792288
 20
344.9999999999984
 30
0.0
 11
420.1891239792288
 21
343.9999999999983
 31
0.0
  0
LINE
  5
36E5
330
1A
100
AcDbEntity
  8
SEIHIN
100
AcDbLine
 10
428.0000000000035
 20
362.4999999999984
 30
0.0
 11
428.0000000000036
 21
287.999999999998
 31
0.0
  0
LINE
  5
3854
330
1A
100
AcDbEntity
  8
YAKUMONO
 62
     7
100
AcDbLine
 10
419.0000025000008
 20
285.3500010000009
 30
0.0
 11
419.0000025000008
 21
288.0000010000009
 31
0.0
  0
LINE
  5
3855
330
1A
100
AcDbEntity
  8
YAKUMONO
 62
     7
100
AcDbLine
 10
419.0000025000008
 20
288.0000010000009
 30
0.0
 11
444.0000025000008
 21
288.0000010000009
 31
0.0
  0
HATCH
  5
385C
330
1A
100
AcDbEntity
  8
PACKING
  6
DASHED2
 48
0.5
370
     9
100
AcDbHatch
 10
0.0
 20
0.0
 30
0.0
210
0.0
220
0.0
230
1.0
  2
ANSI31
 70
     0
 71
     0
 91
        1
 92
        1
 93
        7
 72
     1
 10
447.5000000000064
 20
362.4999999999984
 11
447.5000000000006
 21
350.4999999999984
 72
     1
 10
447.5000000000006
 20
350.4999999999984
 11
427.9999999999963
 21
350.4999999999984
 72
     1
 10
427.9999999999963
 20
350.4999999999984
 11
427.9999999999993
 21
343.6999999999923
 72
     1
 10
427.9999999999993
 20
343.6999999999923
 11
422.9999999999993
 21
343.6999999999923
 72
     1
 10
422.9999999999993
 20
343.6999999999923
 11
423.0000000000008
 21
361.7999999999985
 72
     2
 10
423.7000000000008
 20
361.7999999999984
 40
0.6999999999999888
 50
180.0000000000046
 51
270.0000003528931
 73
     0
 72
     1
 10
423.7000000043122
 20
362.4999999999984
 11
447.5000000000064
 21
362.4999999999984
 97
        0
 75
     0
 76
     1
 52
0.0
 41
1.0
 77
     0
 78
     1
 53
45.0
 43
16.24758220684339
 44
-10.91748724399411
 45
-2.245064030267287
 46
2.245064030267287
 79
     0
 98
        1
 10
433.2283453923432
 20
358.8023658801458
1001
ACAD
1010
0.0
1020
0.0
1030
0.0
  0
LINE
  5
3881
330
1A
100
AcDbEntity
  8
SITAJI
370
     9
100
AcDbLine
 10
362.2999999999956
 20
267.4542118812245
 30
0.0
 11
360.0
 21
265.1542118812215
 31
0.0
  0
LINE
  5
3882
330
1A
100
AcDbEntity
  8
SITAJI
370
     9
100
AcDbLine
 10
362.2999999999956
 20
270.2826390059747
 30
0.0
 11
360.0
 21
267.9826390059754
 31
0.0
  0
LINE
  5
3B9F
330
1A
100
AcDbEntity
  8
SUNPOU
  6
CENTER2
100
AcDbLine
 10
410.0
 20
168.1132747602182
 30
0.0
 11
410.0
 21
442.7378963151526
 31
0.0
  0
MTEXT
  5
3BA0
330
1A
100
AcDbEntity
  8
HIKIDASI
100
AcDbMText
 10
418.587521737259
 20
444.6788775114617
 30
-0.0000000000003979
 40
5.0
 41
23.02193220103163
 46
0.0
 71
     9
 72
     1
  1
胴縁芯
 73
     1
 44
1.0
  0
DIMENSION
  5
3BA7
330
1A
100
AcDbEntity
  8
SUNPOU
100
AcDbDimension
280
     0
  2
*D5
 10
422.5000000000036
 20
422.8382242786783
 30
0.0
 11
410.0000000000013
 21
425.9632242786783
 31
0.0
 70
    32
  1
25～30
 71
     5
 42
25.00000000000449
 73
     0
 74
     0
 75
     0
  3
STANDARD
100
AcDbAlignedDimension
 13
397.4999999999992
 23
361.7999999999984
 33
0.0
 14
422.5000000000036
 24
361.7999999999977
 34
0.0
100
AcDbRotatedDimension
  0
DIMENSION
  5
3BA8
330
1A
100
AcDbEntity
  8
SUNPOU
100
AcDbDimension
280
     0
  2
*D6
 10
410.0
 20
406.3958572628498
 30
0.0
 11
381.1654840911688
 21
405.9795433809845
 31
0.0
 70
   160
  1
12.5～15
 71
     5
 42
12.50000000000085
 73
     0
 74
     0
 75
     0
  3
STANDARD
100
AcDbAlignedDimension
 13
397.4999999999992
 23
361.7999999999984
 33
0.0
 14
410.0
 24
390.8286644850345
 34
0.0
100
AcDbRotatedDimension
1001
ACAD
1000
DSTYLE
1002
{
1070
   143
1040
0.0394
1070
   171
1070
     4
1070
   273
1070
     8
1070
   274
1070
     4
1070
   277
1070
     6
1070
   279
1070
     1
1070
   341
1005
0
1002
}
  0
MULTILEADER
  5
4655
102
{ACAD_XDICTIONARY
360
5394
102
}
330
1A
100
AcDbEntity
  8
HIKIDASI
160
               564
310
34020000150000000C00000016000000000000C00C00000033000000000000000C00000013000000993A0000DC000000260000005777B00741EA7D40563E55368A067A40000000000000000000000000000000000000000000000000000000000000F03F000000000000F03F000000000000000000000000000000004B3093
310
300854E890D130C330AD30F33033FF000009000000010000000000000000001440000000000000F03F0000000000000000000000000000F03F000000000000000000000000000000000000000000000000000000000100000000000000000000007400780074002E00730068007800000065007800740066006F006E007400
310
2E0073006800780000000C00000033000000000000000C00000010000000090000000C00000016000000000000C00C00000012000000FF7F00000C00000013000000010000000C00000013000000891300003C000000060000000200000039AC645AE3997B40006FE3D7957476400000000000000000BDDD166EA7C07D4056
310
3E55368A2E7A4000000000000000000C00000013000000112700003C0000000600000002000000BDDD166EA7C07D40563E55368A2E7A4000000000000000005777B00741CA7D40563E55368A2E7A4000000000000000000C00000016000000000000C00C00000012000000FF7F00000C00000017000000000000000C000000
310
130000009A3A00000C00000016000000000000C00C00000012000000FF7F00000C00000017000000FFFFFFFF0C0000003300000000000000
100
AcDbMLeader
270
     2
300
CONTEXT_DATA{
 40
1.0
 10
476.6408764737329
 20
418.9087432222199
 30
0.0
 41
5.0
140
0.0
145
2.0
174
     1
175
     3
176
     0
177
     0
290
     1
304
かん合部パッキンＳ
 11
0.0
 21
0.0
 31
1.0
340
10
 12
478.6408764737329
 22
421.4087432222198
 32
0.0
 13
1.0
 23
0.0
 33
0.0
 42
0.0
 43
0.0
 44
0.0
 45
1.0
170
     1
 90
-1073741824
171
     1
172
     5
 91
-1073741824
141
0.0
 92
        0
291
     0
292
     0
173
     0
293
     0
142
0.0
143
0.0
294
     0
295
     0
296
     0
110
441.6180061275986
120
359.2865828403592
130
0.0
111
1.0
121
0.0
131
0.0
112
0.0
122
1.0
132
0.0
297
     0
302
LEADER{
290
     1
291
     1
 10
476.0408764737329
 20
418.9087432222199
 30
0.0
 11
1.0
 21
0.0
 31
0.0
 90
        0
 40
0.6
304
LEADER_LINE{
 10
441.6180061275986
 20
359.2865828403592
 30
0.0
 91
        0
305
}
271
     0
303
}
272
     9
273
     9
301
}
340
2E4B
 90
   279552
170
     1
 91
-1056964608
341
14
171
    -2
290
     1
291
     1
 41
0.6
342
B0
 42
0.0
172
     2
343
10
173
     1
 95
        3
174
     1
175
     0
 92
-1056964608
292
     0
 93
-1056964608
 10
1.0
 20
1.0
 30
1.0
 43
0.0
176
     0
293
     0
294
     0
178
     0
179
     1
 45
1.0
271
     0
272
     9
273
     9
  0
MULTILEADER
  5
4657
102
{ACAD_XDICTIONARY
360
5396
102
}
330
1A
100
AcDbEntity
  8
HIKIDASI
160
               572
310
3C020000150000000C00000016000000000000C00C00000033000000000000000C00000013000000993A0000E400000026000000F5985193D15C7E40E5EE53BF393F7940000000000000000000000000000000000000000000000000000000000000F03F000000000000F03F000000000000000000000000000000002A6A70
310
8D8A303296626BB730FC30EA30F330B0303B2011FF000000000C000000010000000000000000001440000000000000F03F0000000000000000000000000000F03F000000000000000000000000000000000000000000000000000000000100000000000000000000007400780074002E007300680078000000650078007400
310
66006F006E0074002E0073006800780000000C00000033000000000000000C00000010000000090000000C00000016000000000000C00C00000012000000FF7F00000C00000013000000010000000C00000013000000891300003C0000000600000002000000D67480A936537C40AC4DC111D527764000000000000000005B
310
FFB7F937337E40E5EE53BF3967794000000000000000000C00000013000000112700003C00000006000000020000005BFFB7F937337E40E5EE53BF396779400000000000000000F5985193D13C7E40E5EE53BF3967794000000000000000000C00000016000000000000C00C00000012000000FF7F00000C00000017000000
310
000000000C000000130000009A3A00000C00000016000000000000C00C00000012000000FF7F00000C00000017000000FFFFFFFF0C0000003300000000000000
100
AcDbMLeader
270
     2
300
CONTEXT_DATA{
 40
1.0
 10
483.8011658847238
 20
406.4515984800949
 30
0.0
 41
5.0
140
0.0
145
2.0
174
     1
175
     3
176
     0
177
     0
290
     1
304
横走り防止シーリング※１
 11
0.0
 21
0.0
 31
1.0
340
10
 12
485.8011658847238
 22
408.9515984800948
 32
0.0
 13
1.0
 23
0.0
 33
0.0
 42
0.0
 43
0.0
 44
0.0
 45
1.0
170
     1
 90
-1073741824
171
     1
172
     5
 91
-1073741824
141
0.0
 92
        0
291
     0
292
     0
173
     0
293
     0
142
0.0
143
0.0
294
     0
295
     0
296
     0
110
453.2008452432468
120
354.4895188856997
130
0.0
111
1.0
121
0.0
131
0.0
112
0.0
122
1.0
132
0.0
297
     0
302
LEADER{
290
     1
291
     1
 10
483.2011658847238
 20
406.4515984800949
 30
0.0
 11
1.0
 21
0.0
 31
0.0
 90
        0
 40
0.6
304
LEADER_LINE{
 10
453.2008452432468
 20
354.4895188856997
 30
0.0
 91
        0
305
}
271
     0
303
}
272
     9
273
     9
301
}
340
2E4B
 90
   279552
170
     1
 91
-1056964608
341
14
171
    -2
290
     1
291
     1
 41
0.6
342
B0
 42
0.0
172
     2
343
10
173
     1
 95
        3
174
     1
175
     0
 92
-1056964608
292
     0
 93
-1056964608
 10
1.0
 20
1.0
 30
1.0
 43
0.0
176
     0
293
     0
294
     0
178
     0
179
     1
 45
1.0
271
     0
272
     9
273
     9
  0
MULTILEADER
  5
4658
102
{ACAD_XDICTIONARY
360
5398
102
}
330
1A
100
AcDbEntity
  8
HIKIDASI
160
               568
310
38020000150000000C00000016000000000000C00C00000033000000000000000C00000013000000993A0000E0000000260000007F3CBC288CBB80406F3E041F39437840000000000000000000000000000000000000000000000000000000000000F03F000000000000F03F0000000000000000000000000000000010806B
310
70F430A130F330C93032FF3AFF17FF15FF000000000A000000010000000000000000001440000000000000F03F0000000000000000000000000000F03F000000000000000000000000000000000000000000000000000000000100000000000000000000007400780074002E00730068007800000065007800740066006F00
310
6E0074002E0073006800780000000C00000033000000000000000C00000010000000090000000C00000016000000000000C00C00000012000000FF7F00000C00000013000000010000000C00000013000000891300003C0000000600000002000000EECCCCCCCC268040E4FFFFFFFFAF76400000000000000000B36FEF5BBF
310
A680406F3E041F396B784000000000000000000C00000013000000112700003C0000000600000002000000B36FEF5BBFA680406F3E041F396B78400000000000000000803CBC288CAB80406F3E041F396B784000000000000000000C00000016000000000000C00C00000012000000FF7F00000C0000001700000000000000
310
0C000000130000009A3A00000C00000016000000000000C00C00000012000000FF7F00000C00000017000000FFFFFFFF0C0000003300000000000000
100
AcDbMLeader
270
     2
300
CONTEXT_DATA{
 40
1.0
 10
533.4434370714151
 20
390.7014455953385
 30
0.0
 41
5.0
140
0.0
145
2.0
174
     1
175
     3
176
     0
177
     0
290
     1
304
耐火ヴァンドＲＺ７５
 11
0.0
 21
0.0
 31
1.0
340
10
 12
535.4434370714151
 22
393.2014455953385
 32
0.0
 13
1.0
 23
0.0
 33
0.0
 42
0.0
 43
0.0
 44
0.0
 45
1.0
170
     1
 90
-1073741824
171
     1
172
     5
 91
-1073741824
141
0.0
 92
        0
291
     0
292
     0
173
     0
293
     0
142
0.0
143
0.0
294
     0
295
     0
296
     0
110
516.8500000000038
120
362.9999999999984
130
0.0
111
1.0
121
0.0
131
0.0
112
0.0
122
1.0
132
0.0
297
     0
302
LEADER{
290
     1
291
     1
 10
532.8434370714152
 20
390.7014455953385
 30
0.0
 11
1.0
 21
0.0
 31
0.0
 90
        0
 40
0.6
304
LEADER_LINE{
 10
516.8500000000038
 20
362.9999999999984
 30
0.0
 91
        0
305
}
271
     0
303
}
272
     9
273
     9
301
}
340
2E4B
 90
   279552
170
     1
 91
-1056964608
341
14
171
    -2
290
     1
291
     1
 41
0.6
342
B0
 42
0.0
172
     2
343
10
173
     1
 95
        3
174
     1
175
     0
 92
-1056964608
292
     0
 93
-1056964608
 10
1.0
 20
1.0
 30
1.0
 43
0.0
176
     0
293
     0
294
     0
178
     0
179
     1
 45
1.0
271
     0
272
     9
273
     9
  0
MULTILEADER
  5
465C
102
{ACAD_XDICTIONARY
360
539A
102
}
330
1A
100
AcDbEntity
  8
HIKIDASI
160
               572
310
3C020000150000000C00000016000000000000C00C00000033000000000000000C00000013000000993A0000E400000026000000144305C421447140E0472F5B8ACF6A40000000000000000000000000000000000000000000000000000000000000F03F000000000000F03F00000000000000000000000000000000025C28
310
75D330B930003034FF37FF2CFF16FF19FF10FF2EFF000000000C000000010000000000000000001440000000000000F03F0000000000000000000000000000F03F000000000000000000000000000000000000000000000000000000000100000000000000000000007400780074002E007300680078000000650078007400
310
66006F006E0074002E0073006800780000000C00000033000000000000000C00000010000000090000000C00000016000000000000C00C00000012000000FF7F00000C00000013000000010000000C00000013000000891300003C000000060000000200000088097E4AF6FA774000D213D4EB5471400000000000000000AE
310
DC9E5DBBCD7540E0472F5B8A1F6B4000000000000000000C00000013000000112700003C0000000600000002000000AEDC9E5DBBCD7540E0472F5B8A1F6B400000000000000000144305C421C47540E0472F5B8A1F6B4000000000000000000C00000016000000000000C00C00000012000000FF7F00000C00000017000000
310
000000000C000000130000009A3A00000C00000016000000000000C00C00000012000000FF7F00000C00000017000000FFFFFFFF0C0000003300000000000000
100
AcDbMLeader
270
     2
300
CONTEXT_DATA{
 40
1.0
 10
274.2582435803936
 20
216.9856391833737
 30
0.0
 41
5.0
140
0.0
145
2.0
174
     1
175
     3
176
     2
177
     0
290
     1
304
専用ビス　ＴＷＬ６９０Ｎ
 11
0.0
 21
0.0
 31
1.0
340
10
 12
346.2582435803936
 22
219.4856391833737
 32
0.0
 13
1.0
 23
0.0
 33
0.0
 42
0.0
 43
0.0
 44
0.0
 45
1.0
170
     1
 90
-1073741824
171
     3
172
     5
 91
-1073741824
141
0.0
 92
        0
291
     0
292
     0
173
     0
293
     0
142
0.0
143
0.0
294
     0
295
     0
296
     0
110
383.6851296351747
120
277.3075752996665
130
0.0
111
1.0
121
0.0
131
0.0
112
0.0
122
1.0
132
0.0
297
     0
302
LEADER{
290
     1
291
     1
 10
348.8582435803936
 20
216.9856391833737
 30
0.0
 11
-1.0
 21
0.0
 31
0.0
 90
        0
 40
0.6
304
LEADER_LINE{
 10
383.6851296351747
 20
277.3075752996665
 30
0.0
 91
        0
305
}
271
     0
303
}
272
     9
273
     9
301
}
340
2E4B
 90
   279552
170
     1
 91
-1056964608
341
14
171
    -2
290
     1
291
     1
 41
0.6
342
B0
 42
0.0
172
     2
343
10
173
     1
 95
        3
174
     1
175
     2
 92
-1056964608
292
     0
 93
-1056964608
 10
1.0
 20
1.0
 30
1.0
 43
0.0
176
     0
293
     0
294
     0
178
     0
179
     3
 45
1.0
271
     0
272
     9
273
     9
  0
MULTILEADER
  5
465D
102
{ACAD_XDICTIONARY
360
539C
102
}
330
1A
100
AcDbEntity
  8
HIKIDASI
160
               568
310
38020000150000000C00000016000000000000C00C00000033000000000000000C00000013000000993A0000E000000026000000DBCCA2D9B8A071407C5E1F6918BE6F40000000000000000000000000000000000000000000000000000000000000F03F000000000000F03F00000000000000000000000000000000CF30C3
310
30C830B830E730A430CA30FC3032FF3AFF000008670A000000010000000000000000001440000000000000F03F0000000000000000000000000000F03F000000000000000000000000000000000000000000000000000000000100000000000000000000007400780074002E00730068007800000065007800740066006F00
310
6E0074002E0073006800780000000C00000033000000000000000C00000010000000090000000C00000016000000000000C00C00000012000000FF7F00000C00000013000000010000000C00000013000000891300003C000000060000000200000040A79201008076400200000000E87140000000000000000074663C7352
310
6A75403EAF8F340C07704000000000000000000C00000013000000112700003C000000060000000200000074663C73526A75403EAF8F340C0770400000000000000000DACCA2D9B86075403EAF8F340C07704000000000000000000C00000016000000000000C00C00000012000000FF7F00000C0000001700000000000000
310
0C000000130000009A3A00000C00000016000000000000C00C00000012000000FF7F00000C00000017000000FFFFFFFF0C0000003300000000000000
100
AcDbMLeader
270
     2
300
CONTEXT_DATA{
 40
1.0
 10
280.7117960954714
 20
256.4404798138311
 30
0.0
 41
5.0
140
0.0
145
2.0
174
     1
175
     3
176
     2
177
     0
290
     1
304
ハットジョイナーＲＺ
 11
0.0
 21
0.0
 31
1.0
340
10
 12
340.0451294288047
 22
258.9404798138311
 32
0.0
 13
1.0
 23
0.0
 33
0.0
 42
0.0
 43
0.0
 44
0.0
 45
1.0
170
     1
 90
-1073741824
171
     3
172
     5
 91
-1073741824
141
0.0
 92
        0
291
     0
292
     0
173
     0
293
     0
142
0.0
143
0.0
294
     0
295
     0
296
     0
110
360.0000015000005
120
286.5000000000001
130
0.0
111
1.0
121
0.0
131
0.0
112
0.0
122
1.0
132
0.0
297
     0
302
LEADER{
290
     1
291
     1
 10
342.6451294288047
 20
256.4404798138311
 30
0.0
 11
-1.0
 21
0.0
 31
0.0
 90
        0
 40
0.6
304
LEADER_LINE{
 10
360.0000015000005
 20
286.5000000000001
 30
0.0
 91
        0
305
}
271
     0
303
}
272
     9
273
     9
301
}
340
2E4B
 90
   279552
170
     1
 91
-1056964608
341
14
171
    -2
290
     1
291
     1
 41
0.6
342
B0
 42
0.0
172
     2
343
10
173
     1
 95
        3
174
     1
175
     2
 92
-1056964608
292
     0
 93
-1056964608
 10
1.0
 20
1.0
 30
1.0
 43
0.0
176
     0
293
     0
294
     0
178
     0
179
     3
 45
1.0
271
     0
272
     9
273
     9
  0
MULTILEADER
  5
465E
102
{ACAD_XDICTIONARY
360
539E
102
}
330
1A
100
AcDbEntity
  8
HIKIDASI
160
               572
310
3C020000150000000C00000016000000000000C00C00000033000000000000000C00000013000000993A0000E400000026000000F1AEFB1126157E40EBF02E755E6E6D40000000000000000000000000000000000000000000000000000000000000F03F000000000000F03F000000000000000000000000000000002A6A70
310
8D8A303296626BB730FC30EA30F330B0303B2012FF000000000C000000010000000000000000001440000000000000F03F0000000000000000000000000000F03F000000000000000000000000000000000000000000000000000000000100000000000000000000007400780074002E007300680078000000650078007400
310
66006F006E0074002E0073006800780000000C00000033000000000000000C00000010000000090000000C00000016000000000000C00C00000012000000FF7F00000C00000013000000010000000C00000013000000891300003C0000000600000002000000805CEA097BD57B40AC7CDAB1377C7240000000000000000058
310
1562788CEB7D40EBF02E755EBE6D4000000000000000000C00000013000000112700003C0000000600000002000000581562788CEB7D40EBF02E755EBE6D400000000000000000F2AEFB1126F57D40EBF02E755EBE6D4000000000000000000C00000016000000000000C00C00000012000000FF7F00000C00000017000000
310
000000000C000000130000009A3A00000C00000016000000000000C00C00000012000000FF7F00000C00000017000000FFFFFFFF0C0000003300000000000000
100
AcDbMLeader
270
     2
300
CONTEXT_DATA{
 40
1.0
 10
479.321794493807
 20
237.9490304867571
 30
0.0
 41
5.0
140
0.0
145
2.0
174
     1
175
     3
176
     0
177
     0
290
     1
304
横走り防止シーリング※２
 11
0.0
 21
0.0
 31
1.0
340
10
 12
481.3217944938069
 22
240.4490304867571
 32
0.0
 13
1.0
 23
0.0
 33
0.0
 42
0.0
 43
0.0
 44
0.0
 45
1.0
170
     1
 90
-1073741824
171
     1
172
     5
 91
-1073741824
141
0.0
 92
        0
291
     0
292
     0
173
     0
293
     0
142
0.0
143
0.0
294
     0
295
     0
296
     0
110
445.3425387530078
120
295.7635973486565
130
0.0
111
1.0
121
0.0
131
0.0
112
0.0
122
1.0
132
0.0
297
     0
302
LEADER{
290
     1
291
     1
 10
478.721794493807
 20
237.9490304867571
 30
0.0
 11
1.0
 21
0.0
 31
0.0
 90
        0
 40
0.6
304
LEADER_LINE{
 10
445.3425387530078
 20
295.7635973486565
 30
0.0
 91
        0
305
}
271
     0
303
}
272
     9
273
     9
301
}
340
2E4B
 90
   279552
170
     1
 91
-1056964608
341
14
171
    -2
290
     1
291
     1
 41
0.6
342
B0
 42
0.0
172
     2
343
10
173
     1
 95
        3
174
     1
175
     0
 92
-1056964608
292
     0
 93
-1056964608
 10
1.0
 20
1.0
 30
1.0
 43
0.0
176
     0
293
     0
294
     0
178
     0
179
     1
 45
1.0
271
     0
272
     9
273
     9
  0
MULTILEADER
  5
465F
102
{ACAD_XDICTIONARY
360
53A0
102
}
330
1A
100
AcDbEntity
  8
HIKIDASI
160
               568
310
38020000150000000C00000016000000000000C00C00000033000000000000000C00000013000000993A0000E0000000260000002989174459337D40B0B4DD66FE0D6A40000000000000000000000000000000000000000000000000000000000000F03F000000000000F03F00000000000000000000000000000000D630E9
310
30F330B130C330C83015FF10FFD70015FF15FF00000B000000010000000000000000001440000000000000F03F0000000000000000000000000000F03F000000000000000000000000000000000000000000000000000000000100000000000000000000007400780074002E00730068007800000065007800740066006F00
310
6E0074002E0073006800780000000C00000033000000000000000C00000010000000090000000C00000016000000000000C00C00000012000000FF7F00000C00000013000000010000000C00000013000000891300003C000000060000000200000020215DBCBF8E7940FCA72A98BA48734000000000000000003B9A28556A
310
147D40B0B4DD66FE5D6A4000000000000000000C00000013000000112700003C00000006000000020000003B9A28556A147D40B0B4DD66FE5D6A400000000000000000D533C2EE031E7D40B0B4DD66FE5D6A4000000000000000000C00000016000000000000C00C00000012000000FF7F00000C0000001700000000000000
310
0C000000130000009A3A00000C00000016000000000000C00C00000012000000FF7F00000C00000017000000FFFFFFFF0C0000003300000000000000
100
AcDbMLeader
270
     2
300
CONTEXT_DATA{
 40
1.0
 10
465.8759601198227
 20
210.9373049097244
 30
0.0
 41
5.0
140
0.0
145
2.0
174
     1
175
     3
176
     0
177
     0
290
     1
304
ブランケット５０×５５
 11
0.0
 21
0.0
 31
1.0
340
10
 12
467.8759601198228
 22
213.4373049097244
 32
0.0
 13
1.0
 23
0.0
 33
0.0
 42
0.0
 43
0.0
 44
0.0
 45
1.0
170
     1
 90
-1073741824
171
     1
172
     5
 91
-1073741824
141
0.0
 92
        0
291
     0
292
     0
173
     0
293
     0
142
0.0
143
0.0
294
     0
295
     0
296
     0
110
408.9218104970805
120
308.5455552736528
130
0.0
111
1.0
121
0.0
131
0.0
112
0.0
122
1.0
132
0.0
297
     0
302
LEADER{
290
     1
291
     1
 10
465.2759601198228
 20
210.9373049097244
 30
0.0
 11
1.0
 21
0.0
 31
0.0
 90
        0
 40
0.6
304
LEADER_LINE{
 10
408.9218104970805
 20
308.5455552736528
 30
0.0
 91
        0
305
}
271
     0
303
}
272
     9
273
     9
301
}
340
2E4B
 90
   279552
170
     1
 91
-1056964608
341
14
171
    -2
290
     1
291
     1
 41
0.6
342
B0
 42
0.0
172
     2
343
10
173
     1
 95
        3
174
     1
175
     0
 92
-1056964608
292
     0
 93
-1056964608
 10
1.0
 20
1.0
 30
1.0
 43
0.0
176
     0
293
     0
294
     0
178
     0
179
     1
 45
1.0
271
     0
272
     9
273
     9
  0
MULTILEADER
  5
4660
102
{ACAD_XDICTIONARY
360
53A2
102
}
330
1A
100
AcDbEntity
  8
HIKIDASI
160
               576
310
40020000150000000C00000016000000000000C00C00000033000000000000000C00000013000000993A0000E800000026000000F7D9F6DFD2387C4007B10BAFB4A66240000000000000000000000000000000000000000000000000000000000000F03F000000000000F03F00000000000000000000000000000000A12531
310
0030003000D700310030003000D70032002E003300E54E0A4E000000000E000000010000000000000000001440000000000000F03F0000000000000000000000000000F03F000000000000000000000000000000000000000000000000000000000100000000000000000000007400780074002E0073006800780000006500
310
7800740066006F006E0074002E0073006800780000000C00000033000000000000000C00000010000000090000000C00000016000000000000C00C00000012000000FF7F00000C00000013000000010000000C00000013000000891300003C000000060000000200000040BA97CF5DE67A4007000000002067400000000000
310
00000009EB07F1E3197C4002B10BAFB4F6624000000000000000000C00000013000000112700003C000000060000000200000009EB07F1E3197C4002B10BAFB4F662400000000000000000A384A18A7D237C4002B10BAFB4F6624000000000000000000C00000016000000000000C00C00000012000000FF7F00000C000000
310
17000000000000000C000000130000009A3A00000C00000016000000000000C00C00000012000000FF7F00000C00000017000000FFFFFFFF0C0000003300000000000000
100
AcDbMLeader
270
     2
300
CONTEXT_DATA{
 40
1.0
 10
450.2181497868824
 20
151.7095561245296
 30
0.0
 41
5.0
140
0.0
145
2.0
174
     1
175
     3
176
     0
177
     0
290
     1
304
□100×100×2.3以上
 11
0.0
 21
0.0
 31
1.0
340
10
 12
452.2181497868825
 22
154.2095561245298
 32
0.0
 13
1.0
 23
0.0
 33
0.0
 42
0.0
 43
0.0
 44
0.0
 45
1.0
170
     1
 90
-1073741824
171
     1
172
     5
 91
-1073741824
141
0.0
 92
        0
291
     0
292
     0
173
     0
293
     0
142
0.0
143
0.0
294
     0
295
     0
296
     0
110
430.3979030539376
120
185.0000000000002
130
0.0
111
1.0
121
0.0
131
0.0
112
0.0
122
1.0
132
0.0
297
     0
302
LEADER{
290
     1
291
     1
 10
449.6181497868825
 20
151.7095561245296
 30
0.0
 11
1.0
 21
0.0
 31
0.0
 90
        0
 40
0.6
304
LEADER_LINE{
 10
430.3979030539376
 20
185.0000000000002
 30
0.0
 91
        0
305
}
271
     0
303
}
272
     9
273
     9
301
}
340
2E4B
 90
   279552
170
     1
 91
-1056964608
341
14
171
    -2
290
     1
291
     1
 41
0.6
342
B0
 42
0.0
172
     2
343
10
173
     1
 95
        3
174
     1
175
     0
 92
-1056964608
292
     0
 93
-1056964608
 10
1.0
 20
1.0
 30
1.0
 43
0.0
176
     0
293
     0
294
     0
178
     0
179
     1
 45
1.0
271
     0
272
     9
273
     9
  0
LINE
  5
475B
330
1A
100
AcDbEntity
  8
YAKUMONO
100
AcDbLine
 10
361.5000015000005
 20
287.9999999999979
 30
0.0
 11
366.0000015000089
 21
287.9999999999979
 31
0.0
  0
LINE
  5
475C
330
1A
100
AcDbEntity
  8
YAKUMONO
100
AcDbLine
 10
458.5000015000002
 20
288.0000000000002
 30
0.0
 11
454.0000015000003
 21
287.9999999999959
 31
0.0
  0
LINE
  5
4781
330
1A
100
AcDbEntity
  8
SEALING
  6
DASHED2
 48
0.5
100
AcDbLine
 10
444.0000015000005
 20
285.3500010000009
 30
0.0
 11
454.0000004999932
 21
285.3499999999939
 31
0.0000000000000426
  0
LINE
  5
4782
330
1A
100
AcDbEntity
  8
YAKUMONO
 62
     7
100
AcDbLine
 10
454.0000004999932
 20
285.3499999999959
 30
0.0000000000000426
 11
444.0000014999937
 21
285.3500009999989
 31
0.0
  0
HATCH
  5
4793
330
1A
100
AcDbEntity
  8
PACKING
  6
DASHED2
 48
0.5
370
     9
100
AcDbHatch
 10
0.0
 20
0.0
 30
0.0
210
0.0
220
0.0
230
1.0
  2
ANSI31
 70
     0
 71
     0
 91
        1
 92
        1
 93
        4
 72
     1
 10
428.0000116618266
 20
288.0000010000009
 11
451.0000000000036
 21
288.0000010000009
 72
     1
 10
451.0000000000036
 20
288.0000010000009
 11
451.0000000000036
 21
292.0000010000009
 72
     1
 10
451.0000000000036
 20
292.0000010000009
 11
428.0000116618269
 21
292.0000010000009
 72
     1
 10
428.0000116618269
 20
292.0000010000009
 11
428.0000116618266
 21
288.0000010000009
 97
        0
 75
     0
 76
     1
 52
0.0
 41
0.5
 77
     0
 78
     1
 53
45.0
 43
0.0
 44
0.0
 45
-1.122532015133643
 46
1.122532015133643
 79
     0
 98
        1
 10
438.2283570541696
 20
291.7334240463445
1001
ACAD
1010
0.0
1020
0.0
1030
0.0
  0
LINE
  5
4794
330
1A
100
AcDbEntity
  8
PACKING
  6
DASHED2
 48
0.5
100
AcDbLine
 10
428.0000000000036
 20
288.0000010000009
 30
0.0
 11
428.0000000000036
 21
292.0000010000009
 31
0.0
  0
LINE
  5
4795
330
1A
100
AcDbEntity
  8
PACKING
  6
DASHED2
 48
0.5
100
AcDbLine
 10
451.0000000000036
 20
288.0000010000009
 30
0.0
 11
451.0000000000036
 21
292.0000010000009
 31
0.0
  0
LINE
  5
4796
330
1A
100
AcDbEntity
  8
PACKING
  6
DASHED2
 48
0.5
100
AcDbLine
 10
428.0000000000036
 20
288.0000010000009
 30
0.0
 11
451.0000000000036
 21
288.0000010000009
 31
0.0
  0
LINE
  5
4797
330
1A
100
AcDbEntity
  8
PACKING
  6
DASHED2
 48
0.5
100
AcDbLine
 10
428.0000000000036
 20
292.0000010000009
 30
0.0
 11
451.0000000000036
 21
292.0000010000009
 31
0.0
  0
LINE
  5
4799
102
{ACAD_REACTORS
330
479A
102
}
330
1A
100
AcDbEntity
  8
SEALING
  6
DASHED2
 48
0.5
100
AcDbLine
 10
441.0000025000107
 20
300.0000010000018
 30
0.0
 11
451.000002500004
 21
300.0000009999977
 31
0.0
  0
HATCH
  5
479A
330
1A
100
AcDbEntity
  8
SEALING
  6
DASHED2
 48
0.5
370
     9
100
AcDbHatch
 10
0.0
 20
0.0
 30
0.0
210
0.0
220
0.0
230
1.0
  2
ANSI37
 70
     0
 71
     0
 91
        1
 92
        1
 93
        4
 72
     1
 10
451.0000024999975
 20
287.999778188331
 11
451.0000025000011
 21
299.9997511373401
 72
     1
 10
451.0000025000008
 20
299.9997511373401
 11
441.0000025000027
 21
300.0002508626594
 72
     1
 10
441.0000025000027
 20
300.0002508626594
 11
441.0000025000008
 21
288.0002238116683
 72
     1
 10
441.0000025000008
 20
288.0002238116683
 11
451.0000024999974
 21
287.999778188331
 97
        0
 75
     0
 76
     1
 52
0.0
 41
1.0
 77
     0
 78
     2
 53
45.0
 43
9.247584706842699
 44
-71.91748624399076
 45
-2.245064030267287
 46
2.245064030267287
 79
     0
 53
135.0
 43
9.247584706842699
 44
-71.91748624399076
 45
-2.245064030267287
 46
-2.245064030267287
 79
     0
 98
        2
 10
442.8147242742553
 20
299.0916988343846
 10
443.7821374886723
 20
293.4508694535602
1001
ACAD
1010
0.0
1020
0.0
1030
0.0
  0
LINE
  5
479B
330
1A
100
AcDbEntity
  8
SEALING
  6
DASHED2
 48
0.5
100
AcDbLine
 10
451.0000024999975
 20
288.0000009999977
 30
0.0
 11
451.0000025000023
 21
300.0000009999977
 31
0.0
  0
LINE
  5
479C
330
1A
100
AcDbEntity
  8
SEALING
  6
DASHED2
 48
0.5
100
AcDbLine
 10
441.0000025000075
 20
288.0000010000018
 30
0.0
 11
441.0000025000033
 21
300.0000010000018
 31
0.0
  0
LINE
  5
479E
330
1A
100
AcDbEntity
  8
SEALING
  6
DASHED2
 48
0.5
100
AcDbLine
 10
441.0000025000146
 20
288.0000010000018
 30
0.0
 11
451.000002500008
 21
288.0000009999977
 31
0.0
  0
MULTILEADER
  5
479F
102
{ACAD_XDICTIONARY
360
53A4
102
}
330
1A
100
AcDbEntity
  8
HIKIDASI
160
               568
310
38020000150000000C00000016000000000000C00C00000033000000000000000C00000013000000993A0000E000000026000000E2619D9BAEA07D4024939727B8A46B40000000000000000000000000000000000000000000000000000000000000F03F000000000000F03F00000000000000000000000000000000CF8862
310
972A6A708D8A303296626BD130C330AD30F33000000B000000010000000000000000001440000000000000F03F0000000000000000000000000000F03F000000000000000000000000000000000000000000000000000000000100000000000000000000007400780074002E00730068007800000065007800740066006F00
310
6E0074002E0073006800780000000C00000033000000000000000C00000010000000090000000C00000016000000000000C00C00000012000000FF7F00000C00000013000000010000000C00000013000000891300003C00000006000000020000005F336BE0DB107B40C886A6B43922724000000000000000004BC8030215
310
777D4024939727B8F46B4000000000000000000C00000013000000112700003C00000006000000020000004BC8030215777D4024939727B8F46B400000000000000000E5619D9BAE807D4024939727B8F46B4000000000000000000C00000016000000000000C00C00000012000000FF7F00000C0000001700000000000000
310
0C000000130000009A3A00000C00000016000000000000C00C00000012000000FF7F00000C00000017000000FFFFFFFF0C0000003300000000000000
100
AcDbMLeader
270
     2
300
CONTEXT_DATA{
 40
1.0
 10
472.0426288745641
 20
223.6474798164792
 30
0.0
 41
5.0
140
0.0
145
2.0
174
     1
175
     3
176
     0
177
     0
290
     1
304
裏面横走り防止パッキン
 11
0.0
 21
0.0
 31
1.0
340
10
 12
474.042628874564
 22
226.1474798164792
 32
0.0
 13
1.0
 23
0.0
 33
0.0
 42
0.0
 43
0.0
 44
0.0
 45
1.0
170
     1
 90
-1073741824
171
     1
172
     5
 91
-1073741824
141
0.0
 92
        0
291
     0
292
     0
173
     0
293
     0
142
0.0
143
0.0
294
     0
295
     0
296
     0
110
433.0536808192754
120
290.1390882973615
130
0.0
111
1.0
121
0.0
131
0.0
112
0.0
122
1.0
132
0.0
297
     0
302
LEADER{
290
     1
291
     1
 10
471.4426288745641
 20
223.6474798164792
 30
0.0
 11
1.0
 21
0.0
 31
0.0
 90
        0
 40
0.6
304
LEADER_LINE{
 10
433.0536808192754
 20
290.1390882973615
 30
0.0
 91
        0
305
}
271
     0
303
}
272
     9
273
     9
301
}
340
2E4B
 90
   279552
170
     1
 91
-1056964608
341
14
171
    -2
290
     1
291
     1
 41
0.6
342
B0
 42
0.0
172
     2
343
10
173
     1
 95
        3
174
     1
175
     0
 92
-1056964608
292
     0
 93
-1056964608
 10
1.0
 20
1.0
 30
1.0
 43
0.0
176
     0
293
     0
294
     0
178
     0
179
     1
 45
1.0
271
     0
272
     9
273
     9
  0
LINE
  5
47A1
330
1A
100
AcDbEntity
  8
PACKING
  6
DASHED2
 48
0.5
100
AcDbLine
 10
391.9999999999964
 20
288.0000010000009
 30
0.0
 11
391.9999999999964
 21
292.0000010000009
 31
0.0
  0
LINE
  5
47A2
330
1A
100
AcDbEntity
  8
PACKING
  6
DASHED2
 48
0.5
100
AcDbLine
 10
368.9999999999963
 20
288.0000010000009
 30
0.0
 11
368.9999999999963
 21
292.0000010000009
 31
0.0
  0
LINE
  5
47A3
330
1A
100
AcDbEntity
  8
PACKING
  6
DASHED2
 48
0.5
100
AcDbLine
 10
391.9999999999964
 20
288.0000010000009
 30
0.0
 11
368.9999999999963
 21
288.0000010000009
 31
0.0
  0
LINE
  5
47A4
330
1A
100
AcDbEntity
  8
PACKING
  6
DASHED2
 48
0.5
100
AcDbLine
 10
391.9999999999964
 20
292.0000010000009
 30
0.0
 11
368.9999999999963
 21
292.0000010000009
 31
0.0
  0
LINE
  5
47A5
330
1A
100
AcDbEntity
  8
SEALING
  6
DASHED2
 48
0.5
100
AcDbLine
 10
378.9999974999893
 20
300.0000010000018
 30
0.0
 11
368.9999974999959
 21
300.0000009999977
 31
0.0
  0
HATCH
  5
47A6
330
1A
100
AcDbEntity
  8
SEALING
  6
DASHED2
 48
0.5
370
     9
100
AcDbHatch
 10
0.0
 20
0.0
 30
0.0
210
0.0
220
0.0
230
1.0
  2
ANSI37
 70
     0
 71
     0
 91
        1
 92
        1
 93
        4
 72
     1
 10
368.9999975000025
 20
287.999778188331
 11
368.9999974999988
 21
299.9997511373401
 72
     1
 10
368.999997499999
 20
299.9997511373401
 11
378.9999974999973
 21
300.0002508626594
 72
     1
 10
378.9999974999973
 20
300.0002508626594
 11
378.9999974999992
 21
288.0002238116683
 72
     1
 10
378.9999974999992
 20
288.0002238116683
 11
368.9999975000026
 21
287.999778188331
 97
        0
 75
     0
 76
     1
 52
0.0
 41
1.0
 77
     0
 78
     2
 53
45.0
 43
9.247584706842699
 44
-71.91748624399076
 45
-2.245064030267287
 46
2.245064030267287
 79
     0
 53
135.0
 43
9.247584706842699
 44
-71.91748624399076
 45
-2.245064030267287
 46
-2.245064030267287
 79
     0
 98
        2
 10
377.1852757257446
 20
299.0916988343846
 10
376.2178625113276
 20
293.4508694535602
1001
ACAD
1010
0.0
1020
0.0
1030
0.0
  0
LINE
  5
47A7
330
1A
100
AcDbEntity
  8
SEALING
  6
DASHED2
 48
0.5
100
AcDbLine
 10
368.9999975000025
 20
288.0000009999977
 30
0.0
 11
368.9999974999977
 21
300.0000009999977
 31
0.0
  0
LINE
  5
47A8
330
1A
100
AcDbEntity
  8
SEALING
  6
DASHED2
 48
0.5
100
AcDbLine
 10
378.9999974999925
 20
288.0000010000018
 30
0.0
 11
378.9999974999966
 21
300.0000010000018
 31
0.0
  0
LINE
  5
47AA
330
1A
100
AcDbEntity
  8
SEALING
  6
DASHED2
 48
0.5
100
AcDbLine
 10
378.9999974999852
 20
288.0000010000018
 30
0.0
 11
368.9999974999918
 21
288.0000009999977
 31
0.0
  0
HATCH
  5
47AB
330
1A
100
AcDbEntity
  8
PACKING
  6
DASHED2
 48
0.5
370
     9
100
AcDbHatch
 10
0.0
 20
0.0
 30
0.0
210
0.0
220
0.0
230
1.0
  2
ANSI31
 70
     0
 71
     0
 91
        1
 92
        1
 93
        4
 72
     1
 10
391.9999883381734
 20
288.0000010000009
 11
368.9999999999963
 21
288.0000010000009
 72
     1
 10
368.9999999999963
 20
288.0000010000009
 11
368.9999999999963
 21
292.0000010000009
 72
     1
 10
368.9999999999963
 20
292.0000010000009
 11
391.9999883381731
 21
292.0000010000009
 72
     1
 10
391.9999883381731
 20
292.0000010000009
 11
391.9999883381734
 21
288.0000010000009
 97
        0
 75
     0
 76
     1
 52
0.0
 41
0.5
 77
     0
 78
     1
 53
45.0
 43
0.0
 44
0.0
 45
-1.122532015133643
 46
1.122532015133643
 79
     0
 98
        1
 10
381.7716429458303
 20
291.7334240463445
1001
ACAD
1010
0.0
1020
0.0
1030
0.0
  0
MULTILEADER
  5
47AC
102
{ACAD_XDICTIONARY
360
53A6
102
}
330
1A
100
AcDbEntity
  8
HIKIDASI
160
               576
310
40020000150000000C00000016000000000000C00C00000033000000000000000C00000013000000993A0000E800000026000000EB329F50D99F72400EAA5D3832A77740000000000000000000000000000000000000000000000000000000000000F03F000000000000F03F00000000000000000000000000000000DC30F3
310
30C930D630EC30FC30AB30FC3008FF25521490E55D8B4E09FF000000000E000000010000000000000000001440000000000000F03F0000000000000000000000000000F03F000000000000000000000000000000000000000000000000000000000100000000000000000000007400780074002E0073006800780000006500
310
7800740066006F006E0074002E0073006800780000000C00000033000000000000000C00000010000000090000000C00000016000000000000C00C00000012000000FF7F00000C00000013000000010000000C00000013000000891300003C0000000600000002000000604D528E2C157940A788ECCB648775400000000000
310
0000002E77E3941DC477400EAA5D3832CF774000000000000000000C00000013000000112700003C00000006000000020000002E77E3941DC477400EAA5D3832CF7740000000000000000094DD49FB83BA77400EAA5D3832CF774000000000000000000C00000016000000000000C00C00000012000000FF7F00000C000000
310
17000000000000000C000000130000009A3A00000C00000016000000000000C00C00000012000000FF7F00000C00000017000000FFFFFFFF0C0000003300000000000000
100
AcDbMLeader
270
     2
300
CONTEXT_DATA{
 40
1.0
 10
296.6572220692991
 20
380.9497607859384
 30
0.0
 41
5.0
140
0.0
145
2.0
174
     1
175
     3
176
     2
177
     0
290
     1
304
ボンドブレーカー（別途工事）
 11
0.0
 21
0.0
 31
1.0
340
10
 12
377.6572220692991
 22
383.4497607859383
 32
0.0
 13
1.0
 23
0.0
 33
0.0
 42
0.0
 43
0.0
 44
0.0
 45
1.0
170
     1
 90
-1073741824
171
     3
172
     5
 91
-1073741824
141
0.0
 92
        0
291
     0
292
     0
173
     0
293
     0
142
0.0
143
0.0
294
     0
295
     0
296
     0
110
401.3233779158526
120
344.4621085395433
130
0.0
111
1.0
121
0.0
131
0.0
112
0.0
122
1.0
132
0.0
297
     0
302
LEADER{
290
     1
291
     1
 10
380.257222069299
 20
380.9497607859384
 30
0.0
 11
-1.0
 21
0.0
 31
0.0
 90
        0
 40
0.6
304
LEADER_LINE{
 10
401.3233779158526
 20
344.4621085395433
 30
0.0
 91
        0
305
}
271
     0
303
}
272
     9
273
     9
301
}
340
2E4B
 90
   279552
170
     1
 91
-1056964608
341
14
171
    -2
290
     1
291
     1
 41
0.6
342
B0
 42
0.0
172
     2
343
10
173
     1
 95
        3
174
     1
175
     2
 92
-1056964608
292
     0
 93
-1056964608
 10
1.0
 20
1.0
 30
1.0
 43
0.0
176
     0
293
     0
294
     0
178
     0
179
     3
 45
1.0
271
     0
272
     9
273
     9
  0
HATCH
  5
47EB
330
1A
100
AcDbEntity
  8
PACKING
  6
DASHED2
 48
0.5
370
     9
100
AcDbHatch
 10
0.0
 20
0.0
 30
0.0
210
0.0
220
0.0
230
1.0
  2
ANSI31
 70
     0
 71
     0
 91
        1
 92
        1
 93
        7
 72
     1
 10
372.4999999999935
 20
362.4999999999984
 11
372.4999999999994
 21
350.4999999999984
 72
     1
 10
372.4999999999994
 20
350.4999999999984
 11
392.0000000000036
 21
350.4999999999984
 72
     1
 10
392.0000000000036
 20
350.4999999999984
 11
392.0000000000007
 21
343.6999999999923
 72
     1
 10
392.0000000000007
 20
343.6999999999923
 11
397.0000000000007
 21
343.6999999999923
 72
     1
 10
397.0000000000007
 20
343.6999999999923
 11
396.9999999999992
 21
361.7999999999985
 72
     2
 10
396.2999999999992
 20
361.7999999999984
 40
0.6999999999999888
 50
360.0000000000047
 51
450.0000003528931
 73
     1
 72
     1
 10
396.2999999956878
 20
362.4999999999984
 11
372.4999999999935
 21
362.4999999999984
 97
        0
 75
     0
 76
     1
 52
0.0
 41
1.0
 77
     0
 78
     1
 53
45.0
 43
16.24758220684339
 44
-10.91748724399411
 45
-2.245064030267287
 46
2.245064030267287
 79
     0
 98
        1
 10
386.7716546076568
 20
358.8023658801458
1001
ACAD
1010
0.0
1020
0.0
1030
0.0
  0
LINE
  5
47EC
330
1A
100
AcDbEntity
  8
PACKING
  6
DASHED2
 48
0.5
100
AcDbLine
 10
372.4999999999947
 20
350.4999999999983
 30
0.0000000000000124
 11
391.9999982261618
 21
350.5000000039161
 31
0.0000000000000075
  0
LINE
  5
47ED
330
1A
100
AcDbEntity
  8
PACKING
  6
DASHED2
 48
0.5
100
AcDbLine
 10
372.5000000000928
 20
362.4999999999982
 30
0.0000000000000156
 11
372.4999999999001
 21
353.4999999965279
 31
0.0000000000000562
  0
LINE
  5
47EE
330
1A
100
AcDbEntity
  8
SEALING
  6
DASHED2
 48
0.5
100
AcDbLine
 10
372.4999999999988
 20
363.000000002108
 30
0.0000000000000554
 11
362.4999999999973
 21
362.9999999999983
 31
0.0000000000000752
  0
LINE
  5
47EF
330
1A
100
AcDbEntity
  8
SEALING
  6
DASHED2
 48
0.5
100
AcDbLine
 10
372.4999999999947
 20
350.4999999999983
 30
0.0000000000000124
 11
362.5000000000015
 21
350.4999999999943
 31
0.0000000000000124
  0
LINE
  5
47F0
330
1A
100
AcDbEntity
  8
PACKING
  6
DASHED2
 48
0.5
100
AcDbLine
 10
391.9999982261618
 20
343.6999999999923
 30
0.0
 11
391.9999999999965
 21
350.5000000039161
 31
0.0
  0
LINE
  5
47F1
330
1A
100
AcDbEntity
  8
PACKING
  6
DASHED2
 48
0.5
100
AcDbLine
 10
372.5000000000993
 20
362.4999999952168
 30
0.0000000000000537
 11
396.2999999999958
 21
362.4999999999984
 31
0.0
  0
LINE
  5
47F2
330
1A
100
AcDbEntity
  8
PACKING
  6
DASHED2
 48
0.5
100
AcDbLine
 10
397.0001523812286
 20
361.799999983351
 30
0.0
 11
397.0001523812286
 21
343.6999999999923
 31
0.0
  0
ARC
  5
47F3
330
1A
100
AcDbEntity
  8
PACKING
  6
DASHED2
 48
0.5
100
AcDbCircle
 10
396.2998922234893
 20
361.7997398022181
 30
0.0
 40
0.7002602060742234
100
AcDbArc
 50
0.0212882026428932
 51
89.99118165087992
  0
HATCH
  5
47F4
330
1A
100
AcDbEntity
  8
SEALING
  6
DASHED2
 48
0.5
370
     9
100
AcDbHatch
 10
0.0
 20
0.0
 30
0.0000000000000072
210
0.0
220
0.0
230
1.0
  2
ANSI37
 70
     0
 71
     0
 91
        1
 92
        1
 93
        4
 72
     1
 10
362.5000000000022
 20
350.4997771883276
 11
362.4999999999973
 21
362.9999999999983
 72
     1
 10
362.4999999999973
 20
362.9999999999983
 11
372.4999999999973
 21
362.9999999999983
 72
     1
 10
372.4999999999973
 20
362.9999999999983
 11
372.4999999999984
 21
350.5002228116649
 72
     1
 10
372.4999999999984
 20
350.5002228116649
 11
362.5000000000022
 21
350.4997771883276
 97
        0
 75
     0
 76
     1
 52
0.0
 41
1.0
 77
     0
 78
     2
 53
45.0
 43
15.74758220684259
 44
-10.91748724399428
 45
-2.245064030267287
 46
2.245064030267287
 79
     0
 53
135.0
 43
15.74758220684259
 44
-10.91748724399428
 45
-2.245064030267287
 46
-2.245064030267287
 79
     0
 98
        2
 10
370.6852782257446
 20
360.091697834381
 10
369.7178650113278
 20
354.4508684535567
1001
ACAD
1010
0.0
1020
0.0
1030
0.0
  0
LINE
  5
47F5
330
1A
100
AcDbEntity
  8
SEALING
  6
DASHED2
 48
0.5
100
AcDbLine
 10
362.5000000000023
 20
350.4999999999943
 30
0.0000000000000124
 11
362.4999999999973
 21
362.9999999999983
 31
0.0000000000000752
  0
LINE
  5
47F6
330
1A
100
AcDbEntity
  8
SEALING
  6
DASHED2
 48
0.5
100
AcDbLine
 10
372.5000000025101
 20
350.4999999999983
 30
0.0000000000000124
 11
372.4999999999988
 21
363.0000000000025
 31
0.0000000000000554
  0
LINE
  5
47F7
330
1A
100
AcDbEntity
  8
PACKING
  6
DASHED2
 48
0.5
100
AcDbLine
 10
397.0000116618228
 20
343.6999999999923
 30
0.0
 11
391.9999999645256
 21
343.6999999999923
 31
0.0
  0
MTEXT
  5
5038
102
{ACAD_XDICTIONARY
360
5039
102
}
330
1A
100
AcDbEntity
  8
WAKU
100
AcDbMText
 10
124.3245405690059
 20
23.21985646788335
 30
0.0
 40
5.0
 41
130.7517663064795
 46
0.0
 71
     1
 72
     5
  1
\pi17.11446;アイジーヴァンド参考ディテール
  7
WAKU
 73
     1
 44
1.0
  0
MTEXT
  5
503A
102
{ACAD_XDICTIONARY
360
503B
102
}
330
1A
100
AcDbEntity
  8
WAKU
100
AcDbMText
 10
34.05004475349506
 20
23.21985646788335
 30
0.0
 40
5.0
 41
71.82723587241572
 46
0.0
 71
     1
 72
     5
  1
\pi3.9593;アイジー工業株式会社
  7
WAKU
 73
     1
 44
1.0
  0
DIMENSION
  5
506C
330
1A
100
AcDbEntity
  8
SUNPOU
100
AcDbDimension
280
     0
  2
*D7
 10
410.0
 20
406.3958572628498
 30
0.0
 11
438.7363405935184
 21
403.7923750753643
 31
0.0
 70
   160
  1
12.5～15
 71
     5
 42
12.50000000000085
 73
     0
 74
     0
 75
     0
  3
STANDARD
100
AcDbAlignedDimension
 13
422.5000000000008
 23
361.7999999999984
 33
0.0
 14
410.0
 24
390.8286644850345
 34
0.0
 50
180.0
100
AcDbRotatedDimension
1001
ACAD
1000
DSTYLE
1002
{
1070
   143
1040
0.0394
1070
   171
1070
     4
1070
   273
1070
     8
1070
   274
1070
     4
1070
   277
1070
     6
1070
   279
1070
     1
1070
   341
1005
0
1002
}
  0
LINE
  5
50BD
330
1A
100
AcDbEntity
  8
TEKUSU
  6
CENTER2
100
AcDbLine
 10
382.218234551262
 20
361.4036495000032
 30
0.0
 11
382.218234551262
 21
261.315604692992
 31
0.0
  0
LINE
  5
50BE
330
1A
100
AcDbEntity
  8
TEKUSU
  6
Continuous
100
AcDbLine
 10
389.718234551262
 20
354.0000000000031
 30
0.0
 11
389.718234551262
 21
353.4999999999986
 31
0.0
  0
LINE
  5
50BF
330
1A
100
AcDbEntity
  8
TEKUSU
  6
Continuous
100
AcDbLine
 10
374.7182345512657
 20
354.0000000000031
 30
0.0
 11
374.7182345512657
 21
353.500000000004
 31
0.0
  0
LINE
  5
50C0
330
1A
100
AcDbEntity
  8
TEKUSU
  6
DASHED2
 48
0.5
100
AcDbLine
 10
384.7882345512616
 20
352.1128338036683
 30
0.0
 11
384.7882345512662
 21
321.3604325712408
 31
0.0
  0
LINE
  5
50C1
330
1A
100
AcDbEntity
  8
TEKUSU
  6
DASHED2
 48
0.5
100
AcDbLine
 10
374.718234551262
 20
355.7500000000031
 30
0.0
 11
389.718234551262
 21
355.7500000000031
 31
0.0
  0
LINE
  5
50C2
330
1A
100
AcDbEntity
  8
TEKUSU
  6
DASHED2
 48
0.5
100
AcDbLine
 10
374.2182345512619
 20
354.5000000000031
 30
0.0
 11
374.2182345512619
 21
355.2500000000031
 31
0.0
  0
LINE
  5
50C3
330
1A
100
AcDbEntity
  8
TEKUSU
  6
DASHED2
 48
0.5
100
AcDbLine
 10
390.218234551262
 20
354.5000000000031
 30
0.0
 11
390.218234551262
 21
355.2500000000031
 31
0.0
  0
LINE
  5
50C4
330
1A
100
AcDbEntity
  8
TEKUSU
  6
DASHED2
 48
0.5
100
AcDbLine
 10
374.718234551262
 20
354.0000000000031
 30
0.0
 11
389.718234551262
 21
354.0000000000031
 31
0.0
  0
ARC
  5
50C5
330
1A
100
AcDbEntity
  8
TEKUSU
  6
DASHED2
 48
0.5
100
AcDbCircle
 10
382.2182345512656
 20
344.061206896556
 30
0.0
 40
13.13879310344826
100
AcDbArc
 50
62.82801758423705
 51
117.1719824157628
  0
ARC
  5
50C6
330
1A
100
AcDbEntity
  8
TEKUSU
  6
DASHED2
 48
0.5
100
AcDbCircle
 10
389.7182345512665
 20
354.5000000000031
 30
0.0
 40
0.5
100
AcDbArc
 50
270.0
 51
0.0
1001
GENIUS_GENOBJ-N-FIL_13
1002
{
1000
OWNER
1000
GEN
1002
}
1001
GENIUS_GENODEF_13
1002
{
1000
HIER
1070
     0
1002
}
1002
{
1000
MANEDIT
1070
     0
1002
}
1002
{
1000
NOSEL
1070
     0
1002
}
1002
{
1000
BEHIND
1070
     0
1002
}
1002
{
1000
OTHER
1070
     0
1002
}
1002
{
1000
REACTOR
1002
}
  0
ARC
  5
50C7
330
1A
100
AcDbEntity
  8
TEKUSU
  6
DASHED2
 48
0.5
100
AcDbCircle
 10
374.7182345512657
 20
354.5000000000031
 30
0.0
 40
0.5
100
AcDbArc
 50
180.0
 51
270.0
1001
GENIUS_GENOBJ-N-FIL_13
1002
{
1000
OWNER
1000
GEN
1002
}
1001
GENIUS_GENODEF_13
1002
{
1000
HIER
1070
     0
1002
}
1002
{
1000
MANEDIT
1070
     0
1002
}
1002
{
1000
NOSEL
1070
     0
1002
}
1002
{
1000
BEHIND
1070
     0
1002
}
1002
{
1000
OTHER
1070
     0
1002
}
1002
{
1000
REACTOR
1002
}
  0
ARC
  5
50C8
330
1A
100
AcDbEntity
  8
TEKUSU
  6
DASHED2
 48
0.5
100
AcDbCircle
 10
374.7182345512657
 20
355.2500000000031
 30
0.0
 40
0.5
100
AcDbArc
 50
90.0
 51
180.0
1001
GENIUS_GENODEF_13
1002
{
1000
HIER
1070
     0
1002
}
1002
{
1000
MANEDIT
1070
     0
1002
}
1002
{
1000
NOSEL
1070
     0
1002
}
1002
{
1000
BEHIND
1070
     0
1002
}
1002
{
1000
OTHER
1070
     0
1002
}
1002
{
1000
REACTOR
1002
}
1001
GENIUS_GENOBJ-N-FIL_13
1002
{
1000
OWNER
1000
GEN
1002
}
  0
ARC
  5
50C9
330
1A
100
AcDbEntity
  8
TEKUSU
  6
DASHED2
 48
0.5
100
AcDbCircle
 10
389.7182345512665
 20
355.2500000000031
 30
0.0
 40
0.5
100
AcDbArc
 50
0.0
 51
90.0
1001
GENIUS_GENOBJ-N-FIL_13
1002
{
1000
OWNER
1000
GEN
1002
}
1001
GENIUS_GENODEF_13
1002
{
1000
HIER
1070
     0
1002
}
1002
{
1000
MANEDIT
1070
     0
1002
}
1002
{
1000
NOSEL
1070
     0
1002
}
1002
{
1000
BEHIND
1070
     0
1002
}
1002
{
1000
OTHER
1070
     0
1002
}
1002
{
1000
REACTOR
1002
}
  0
LINE
  5
50CA
330
1A
100
AcDbEntity
  8
TEKUSU
  6
DASHED2
 48
0.5
100
AcDbLine
 10
379.6482345512631
 20
352.1128338036683
 30
0.0
 11
379.6482345512668
 21
321.3604325712408
 31
0.0
  0
LINE
  5
50CB
330
1A
100
AcDbEntity
  8
TEKUSU
  6
DASHED2
 48
0.5
100
AcDbLine
 10
378.7682345512612
 20
353.9999998937159
 30
0.0
 11
379.6482345512631
 21
352.1128338036683
 31
0.0
  0
LINE
  5
50CC
330
1A
100
AcDbEntity
  8
TEKUSU
  6
DASHED2
 48
0.5
100
AcDbLine
 10
385.6682345512627
 20
353.9999998937159
 30
0.0
 11
384.7882345512616
 21
352.1128338036683
 31
0.0
  0
LINE
  5
50CD
330
1A
100
AcDbEntity
  8
TEKUSU
  6
DASHED2
 48
0.5
100
AcDbLine
 10
384.7882345512616
 20
352.1128338036683
 30
0.0
 11
379.6482345512631
 21
352.1128338036683
 31
0.0
  0
LINE
  5
50CE
330
1A
100
AcDbEntity
  8
TEKUSU
100
AcDbLine
 10
378.968234551262
 20
270.5000000000031
 30
0.0
 11
385.468234551262
 21
270.5000000000031
 31
0.0
  0
LINE
  5
50CF
330
1A
100
AcDbEntity
  8
TEKUSU
  6
DASHED2
 48
0.5
100
AcDbLine
 10
378.968234551262
 20
321.3604325712408
 30
0.0
 11
385.468234551262
 21
321.3604325712408
 31
0.0
  0
LINE
  5
50D0
330
1A
100
AcDbEntity
  8
TEKUSU
100
AcDbLine
 10
384.8682345512607
 20
266.1001328937159
 30
0.0
 11
384.8682345512607
 21
270.5000000000022
 31
0.0
  0
LINE
  5
50D1
330
1A
100
AcDbEntity
  8
TEKUSU
100
AcDbLine
 10
382.218234551262
 20
263.8765189753462
 30
0.0
 11
384.8682345512607
 21
266.1001328937159
 31
0.0
  0
LINE
  5
50D2
330
1A
100
AcDbEntity
  8
TEKUSU
100
AcDbLine
 10
379.5682345512605
 20
266.1001328937159
 30
0.0
 11
379.5682345512605
 21
270.5000000000022
 31
0.0
  0
LINE
  5
50D3
330
1A
100
AcDbEntity
  8
TEKUSU
100
AcDbLine
 10
379.5682345512605
 20
266.1001328937159
 30
0.0
 11
382.218234551262
 21
263.8765189753462
 31
0.0
  0
LINE
  5
50D4
330
1A
100
AcDbEntity
  8
TEKUSU
  6
DASHED2
 48
0.5
100
AcDbLine
 10
385.468234551262
 20
283.199996669417
 30
0.0
 11
385.468234551262
 21
321.3604325712408
 31
0.0
  0
LINE
  5
50D5
330
1A
100
AcDbEntity
  8
TEKUSU
  6
DASHED2
 48
0.5
100
AcDbLine
 10
378.968234551262
 20
283.199996669417
 30
0.0
 11
378.968234551262
 21
321.3604325712408
 31
0.0
  0
LINE
  5
50D6
330
1A
100
AcDbEntity
  8
TEKUSU
100
AcDbLine
 10
383.6309245133025
 20
270.5000000000031
 30
0.0
 11
382.218234551262
 21
263.876518975348
 31
0.0
  0
LINE
  5
50D7
330
1A
100
AcDbEntity
  8
TEKUSU
100
AcDbLine
 10
374.7182345512657
 20
353.4999999999986
 30
0.0
 11
389.718234551262
 21
353.4999999999986
 31
0.0
  0
LINE
  5
50D8
330
1A
100
AcDbEntity
  8
TEKUSU
100
AcDbLine
 10
385.468234551262
 20
283.199996669417
 30
0.0
 11
385.468234551262
 21
270.5000000000031
 31
0.0
  0
LINE
  5
50D9
330
1A
100
AcDbEntity
  8
TEKUSU
100
AcDbLine
 10
378.968234551262
 20
283.199996669417
 30
0.0
 11
378.9682345512615
 21
270.5000000000031
 31
0.0
  0
LINE
  5
50E1
330
1A
100
AcDbEntity
  8
SUNPOU
  6
CENTER2
100
AcDbLine
 10
382.218234551262
 20
361.4036495000032
 30
0.0
 11
382.218234551262
 21
261.315604692992
 31
0.0
  0
LINE
  5
50E2
330
1A
100
AcDbEntity
  8
TEKUSU
  6
Continuous
100
AcDbLine
 10
389.718234551262
 20
354.0000000000031
 30
0.0
 11
389.718234551262
 21
353.4999999999986
 31
0.0
  0
LINE
  5
50E3
330
1A
100
AcDbEntity
  8
TEKUSU
  6
Continuous
100
AcDbLine
 10
374.7182345512657
 20
354.0000000000031
 30
0.0
 11
374.7182345512657
 21
353.500000000004
 31
0.0
  0
LINE
  5
50E4
330
1A
100
AcDbEntity
  8
TEKUSU
  6
DASHED2
 48
0.5
100
AcDbLine
 10
384.7882345512616
 20
352.1128338036683
 30
0.0
 11
384.7882345512662
 21
321.3604325712408
 31
0.0
  0
LINE
  5
50E5
330
1A
100
AcDbEntity
  8
TEKUSU
  6
DASHED2
 48
0.5
100
AcDbLine
 10
374.718234551262
 20
355.7500000000031
 30
0.0
 11
389.718234551262
 21
355.7500000000031
 31
0.0
  0
LINE
  5
50E6
330
1A
100
AcDbEntity
  8
TEKUSU
  6
DASHED2
 48
0.5
100
AcDbLine
 10
374.2182345512619
 20
354.5000000000031
 30
0.0
 11
374.2182345512619
 21
355.2500000000031
 31
0.0
  0
LINE
  5
50E7
330
1A
100
AcDbEntity
  8
TEKUSU
  6
DASHED2
 48
0.5
100
AcDbLine
 10
390.218234551262
 20
354.5000000000031
 30
0.0
 11
390.218234551262
 21
355.2500000000031
 31
0.0
  0
LINE
  5
50E8
330
1A
100
AcDbEntity
  8
TEKUSU
  6
DASHED2
 48
0.5
100
AcDbLine
 10
374.718234551262
 20
354.0000000000031
 30
0.0
 11
389.718234551262
 21
354.0000000000031
 31
0.0
  0
ARC
  5
50E9
330
1A
100
AcDbEntity
  8
TEKUSU
  6
DASHED2
 48
0.5
100
AcDbCircle
 10
382.2182345512656
 20
344.061206896556
 30
0.0
 40
13.13879310344826
100
AcDbArc
 50
62.82801758423705
 51
117.1719824157628
  0
ARC
  5
50EA
330
1A
100
AcDbEntity
  8
TEKUSU
  6
DASHED2
 48
0.5
100
AcDbCircle
 10
389.7182345512665
 20
354.5000000000031
 30
0.0
 40
0.5
100
AcDbArc
 50
270.0
 51
0.0
1001
GENIUS_GENOBJ-N-FIL_13
1002
{
1000
OWNER
1000
GEN
1002
}
1001
GENIUS_GENODEF_13
1002
{
1000
HIER
1070
     0
1002
}
1002
{
1000
MANEDIT
1070
     0
1002
}
1002
{
1000
NOSEL
1070
     0
1002
}
1002
{
1000
BEHIND
1070
     0
1002
}
1002
{
1000
OTHER
1070
     0
1002
}
1002
{
1000
REACTOR
1002
}
  0
ARC
  5
50EB
330
1A
100
AcDbEntity
  8
TEKUSU
  6
DASHED2
 48
0.5
100
AcDbCircle
 10
374.7182345512657
 20
354.5000000000031
 30
0.0
 40
0.5
100
AcDbArc
 50
180.0
 51
270.0
1001
GENIUS_GENOBJ-N-FIL_13
1002
{
1000
OWNER
1000
GEN
1002
}
1001
GENIUS_GENODEF_13
1002
{
1000
HIER
1070
     0
1002
}
1002
{
1000
MANEDIT
1070
     0
1002
}
1002
{
1000
NOSEL
1070
     0
1002
}
1002
{
1000
BEHIND
1070
     0
1002
}
1002
{
1000
OTHER
1070
     0
1002
}
1002
{
1000
REACTOR
1002
}
  0
ARC
  5
50EC
330
1A
100
AcDbEntity
  8
TEKUSU
  6
DASHED2
 48
0.5
100
AcDbCircle
 10
374.7182345512657
 20
355.2500000000031
 30
0.0
 40
0.5
100
AcDbArc
 50
90.0
 51
180.0
1001
GENIUS_GENODEF_13
1002
{
1000
HIER
1070
     0
1002
}
1002
{
1000
MANEDIT
1070
     0
1002
}
1002
{
1000
NOSEL
1070
     0
1002
}
1002
{
1000
BEHIND
1070
     0
1002
}
1002
{
1000
OTHER
1070
     0
1002
}
1002
{
1000
REACTOR
1002
}
1001
GENIUS_GENOBJ-N-FIL_13
1002
{
1000
OWNER
1000
GEN
1002
}
  0
ARC
  5
50ED
330
1A
100
AcDbEntity
  8
TEKUSU
  6
DASHED2
 48
0.5
100
AcDbCircle
 10
389.7182345512665
 20
355.2500000000031
 30
0.0
 40
0.5
100
AcDbArc
 50
0.0
 51
90.0
1001
GENIUS_GENOBJ-N-FIL_13
1002
{
1000
OWNER
1000
GEN
1002
}
1001
GENIUS_GENODEF_13
1002
{
1000
HIER
1070
     0
1002
}
1002
{
1000
MANEDIT
1070
     0
1002
}
1002
{
1000
NOSEL
1070
     0
1002
}
1002
{
1000
BEHIND
1070
     0
1002
}
1002
{
1000
OTHER
1070
     0
1002
}
1002
{
1000
REACTOR
1002
}
  0
LINE
  5
50EE
330
1A
100
AcDbEntity
  8
TEKUSU
  6
DASHED2
 48
0.5
100
AcDbLine
 10
379.6482345512631
 20
352.1128338036683
 30
0.0
 11
379.6482345512668
 21
321.3604325712408
 31
0.0
  0
LINE
  5
50EF
330
1A
100
AcDbEntity
  8
TEKUSU
  6
DASHED2
 48
0.5
100
AcDbLine
 10
378.7682345512612
 20
353.9999998937159
 30
0.0
 11
379.6482345512631
 21
352.1128338036683
 31
0.0
  0
LINE
  5
50F0
330
1A
100
AcDbEntity
  8
TEKUSU
  6
DASHED2
 48
0.5
100
AcDbLine
 10
385.6682345512627
 20
353.9999998937159
 30
0.0
 11
384.7882345512616
 21
352.1128338036683
 31
0.0
  0
LINE
  5
50F1
330
1A
100
AcDbEntity
  8
TEKUSU
  6
DASHED2
 48
0.5
100
AcDbLine
 10
384.7882345512616
 20
352.1128338036683
 30
0.0
 11
379.6482345512631
 21
352.1128338036683
 31
0.0
  0
LINE
  5
50F2
330
1A
100
AcDbEntity
  8
TEKUSU
100
AcDbLine
 10
378.968234551262
 20
270.5000000000031
 30
0.0
 11
385.468234551262
 21
270.5000000000031
 31
0.0
  0
LINE
  5
50F3
330
1A
100
AcDbEntity
  8
TEKUSU
  6
DASHED2
 48
0.5
100
AcDbLine
 10
378.968234551262
 20
321.3604325712408
 30
0.0
 11
385.468234551262
 21
321.3604325712408
 31
0.0
  0
LINE
  5
50F4
330
1A
100
AcDbEntity
  8
TEKUSU
100
AcDbLine
 10
384.8682345512607
 20
266.1001328937159
 30
0.0
 11
384.8682345512607
 21
270.5000000000022
 31
0.0
  0
LINE
  5
50F5
330
1A
100
AcDbEntity
  8
TEKUSU
100
AcDbLine
 10
382.218234551262
 20
263.8765189753462
 30
0.0
 11
384.8682345512607
 21
266.1001328937159
 31
0.0
  0
LINE
  5
50F6
330
1A
100
AcDbEntity
  8
TEKUSU
100
AcDbLine
 10
379.5682345512605
 20
266.1001328937159
 30
0.0
 11
379.5682345512605
 21
270.5000000000022
 31
0.0
  0
LINE
  5
50F7
330
1A
100
AcDbEntity
  8
TEKUSU
100
AcDbLine
 10
379.5682345512605
 20
266.1001328937159
 30
0.0
 11
382.218234551262
 21
263.8765189753462
 31
0.0
  0
LINE
  5
50F8
330
1A
100
AcDbEntity
  8
TEKUSU
  6
DASHED2
 48
0.5
100
AcDbLine
 10
385.468234551262
 20
283.199996669417
 30
0.0
 11
385.468234551262
 21
321.3604325712408
 31
0.0
  0
LINE
  5
50F9
330
1A
100
AcDbEntity
  8
TEKUSU
  6
DASHED2
 48
0.5
100
AcDbLine
 10
378.968234551262
 20
283.199996669417
 30
0.0
 11
378.968234551262
 21
321.3604325712408
 31
0.0
  0
LINE
  5
50FA
330
1A
100
AcDbEntity
  8
TEKUSU
100
AcDbLine
 10
383.6309245133025
 20
270.5000000000031
 30
0.0
 11
382.218234551262
 21
263.876518975348
 31
0.0
  0
LINE
  5
50FB
330
1A
100
AcDbEntity
  8
TEKUSU
100
AcDbLine
 10
374.7182345512657
 20
353.4999999999986
 30
0.0
 11
389.718234551262
 21
353.4999999999986
 31
0.0
  0
LINE
  5
50FC
330
1A
100
AcDbEntity
  8
TEKUSU
100
AcDbLine
 10
385.468234551262
 20
283.199996669417
 30
0.0
 11
385.468234551262
 21
270.5000000000031
 31
0.0
  0
LINE
  5
50FD
330
1A
100
AcDbEntity
  8
TEKUSU
100
AcDbLine
 10
378.968234551262
 20
283.199996669417
 30
0.0
 11
378.9682345512615
 21
270.5000000000031
 31
0.0
  0
LINE
  5
50FE
330
1A
100
AcDbEntity
  8
TEKUSU
  6
CENTER2
100
AcDbLine
 10
437.7817684487352
 20
361.4036495000032
 30
0.0
 11
437.7817684487352
 21
261.315604692992
 31
0.0
  0
LINE
  5
50FF
330
1A
100
AcDbEntity
  8
TEKUSU
  6
Continuous
100
AcDbLine
 10
430.2817684487352
 20
354.0000000000031
 30
0.0
 11
430.2817684487352
 21
353.4999999999986
 31
0.0
  0
LINE
  5
5100
330
1A
100
AcDbEntity
  8
TEKUSU
  6
Continuous
100
AcDbLine
 10
445.2817684487315
 20
354.0000000000031
 30
0.0
 11
445.2817684487315
 21
353.500000000004
 31
0.0
  0
LINE
  5
5101
330
1A
100
AcDbEntity
  8
TEKUSU
  6
DASHED2
 48
0.5
100
AcDbLine
 10
435.2117684487353
 20
352.1128338036683
 30
0.0
 11
435.2117684487308
 21
321.3604325712408
 31
0.0
  0
LINE
  5
5102
330
1A
100
AcDbEntity
  8
TEKUSU
  6
DASHED2
 48
0.5
100
AcDbLine
 10
445.2817684487351
 20
355.7500000000031
 30
0.0
 11
430.2817684487352
 21
355.7500000000031
 31
0.0
  0
LINE
  5
5103
330
1A
100
AcDbEntity
  8
TEKUSU
  6
DASHED2
 48
0.5
100
AcDbLine
 10
445.7817684487351
 20
354.5000000000031
 30
0.0
 11
445.7817684487351
 21
355.2500000000031
 31
0.0
  0
LINE
  5
5104
330
1A
100
AcDbEntity
  8
TEKUSU
  6
DASHED2
 48
0.5
100
AcDbLine
 10
429.7817684487352
 20
354.5000000000031
 30
0.0
 11
429.7817684487352
 21
355.2500000000031
 31
0.0
  0
LINE
  5
5105
330
1A
100
AcDbEntity
  8
TEKUSU
  6
DASHED2
 48
0.5
100
AcDbLine
 10
445.2817684487351
 20
354.0000000000031
 30
0.0
 11
430.2817684487352
 21
354.0000000000031
 31
0.0
  0
ARC
  5
5106
330
1A
100
AcDbEntity
  8
TEKUSU
  6
DASHED2
 48
0.5
100
AcDbCircle
 10
437.7817684487316
 20
344.061206896556
 30
0.0
 40
13.13879310344826
100
AcDbArc
 50
62.82801758423672
 51
117.1719824157633
  0
ARC
  5
5107
330
1A
100
AcDbEntity
  8
TEKUSU
  6
DASHED2
 48
0.5
100
AcDbCircle
 10
430.2817684487306
 20
354.5000000000031
 30
0.0
 40
0.5
100
AcDbArc
 50
180.0
 51
270.0
1001
GENIUS_GENOBJ-N-FIL_13
1002
{
1000
OWNER
1000
GEN
1002
}
1001
GENIUS_GENODEF_13
1002
{
1000
HIER
1070
     0
1002
}
1002
{
1000
MANEDIT
1070
     0
1002
}
1002
{
1000
NOSEL
1070
     0
1002
}
1002
{
1000
BEHIND
1070
     0
1002
}
1002
{
1000
OTHER
1070
     0
1002
}
1002
{
1000
REACTOR
1002
}
  0
ARC
  5
5108
330
1A
100
AcDbEntity
  8
TEKUSU
  6
DASHED2
 48
0.5
100
AcDbCircle
 10
445.2817684487315
 20
354.5000000000031
 30
0.0
 40
0.5
100
AcDbArc
 50
270.0
 51
0.000000000000007
1001
GENIUS_GENOBJ-N-FIL_13
1002
{
1000
OWNER
1000
GEN
1002
}
1001
GENIUS_GENODEF_13
1002
{
1000
HIER
1070
     0
1002
}
1002
{
1000
MANEDIT
1070
     0
1002
}
1002
{
1000
NOSEL
1070
     0
1002
}
1002
{
1000
BEHIND
1070
     0
1002
}
1002
{
1000
OTHER
1070
     0
1002
}
1002
{
1000
REACTOR
1002
}
  0
ARC
  5
5109
330
1A
100
AcDbEntity
  8
TEKUSU
  6
DASHED2
 48
0.5
100
AcDbCircle
 10
445.2817684487315
 20
355.2500000000031
 30
0.0
 40
0.5
100
AcDbArc
 50
0.000000000000007
 51
90.0
1001
GENIUS_GENODEF_13
1002
{
1000
HIER
1070
     0
1002
}
1002
{
1000
MANEDIT
1070
     0
1002
}
1002
{
1000
NOSEL
1070
     0
1002
}
1002
{
1000
BEHIND
1070
     0
1002
}
1002
{
1000
OTHER
1070
     0
1002
}
1002
{
1000
REACTOR
1002
}
1001
GENIUS_GENOBJ-N-FIL_13
1002
{
1000
OWNER
1000
GEN
1002
}
  0
ARC
  5
510A
330
1A
100
AcDbEntity
  8
TEKUSU
  6
DASHED2
 48
0.5
100
AcDbCircle
 10
430.2817684487306
 20
355.2500000000031
 30
0.0
 40
0.5
100
AcDbArc
 50
90.0
 51
180.0
1001
GENIUS_GENOBJ-N-FIL_13
1002
{
1000
OWNER
1000
GEN
1002
}
1001
GENIUS_GENODEF_13
1002
{
1000
HIER
1070
     0
1002
}
1002
{
1000
MANEDIT
1070
     0
1002
}
1002
{
1000
NOSEL
1070
     0
1002
}
1002
{
1000
BEHIND
1070
     0
1002
}
1002
{
1000
OTHER
1070
     0
1002
}
1002
{
1000
REACTOR
1002
}
  0
LINE
  5
510B
330
1A
100
AcDbEntity
  8
TEKUSU
  6
DASHED2
 48
0.5
100
AcDbLine
 10
440.3517684487338
 20
352.1128338036683
 30
0.0
 11
440.3517684487304
 21
321.3604325712408
 31
0.0
  0
LINE
  5
510C
330
1A
100
AcDbEntity
  8
TEKUSU
  6
DASHED2
 48
0.5
100
AcDbLine
 10
441.2317684487359
 20
353.9999998937159
 30
0.0
 11
440.3517684487338
 21
352.1128338036683
 31
0.0
  0
LINE
  5
510D
330
1A
100
AcDbEntity
  8
TEKUSU
  6
DASHED2
 48
0.5
100
AcDbLine
 10
434.3317684487344
 20
353.9999998937159
 30
0.0
 11
435.2117684487353
 21
352.1128338036683
 31
0.0
  0
LINE
  5
510E
330
1A
100
AcDbEntity
  8
TEKUSU
  6
DASHED2
 48
0.5
100
AcDbLine
 10
435.2117684487353
 20
352.1128338036683
 30
0.0
 11
440.3517684487338
 21
352.1128338036683
 31
0.0
  0
LINE
  5
510F
330
1A
100
AcDbEntity
  8
TEKUSU
100
AcDbLine
 10
441.0317684487352
 20
270.5000000000031
 30
0.0
 11
434.5317684487351
 21
270.5000000000031
 31
0.0
  0
LINE
  5
5110
330
1A
100
AcDbEntity
  8
TEKUSU
  6
DASHED2
 48
0.5
100
AcDbLine
 10
441.0317684487352
 20
321.3604325712408
 30
0.0
 11
434.5317684487351
 21
321.3604325712408
 31
0.0
  0
LINE
  5
5111
330
1A
100
AcDbEntity
  8
TEKUSU
100
AcDbLine
 10
435.1317684487363
 20
266.1001328937159
 30
0.0
 11
435.1317684487363
 21
270.5000000000022
 31
0.0
  0
LINE
  5
5112
330
1A
100
AcDbEntity
  8
TEKUSU
100
AcDbLine
 10
437.7817684487352
 20
263.8765189753462
 30
0.0
 11
435.1317684487363
 21
266.1001328937159
 31
0.0
  0
LINE
  5
5113
330
1A
100
AcDbEntity
  8
TEKUSU
100
AcDbLine
 10
440.4317684487366
 20
266.1001328937159
 30
0.0
 11
440.4317684487366
 21
270.5000000000022
 31
0.0
  0
LINE
  5
5114
330
1A
100
AcDbEntity
  8
TEKUSU
100
AcDbLine
 10
440.4317684487366
 20
266.1001328937159
 30
0.0
 11
437.7817684487352
 21
263.8765189753462
 31
0.0
  0
LINE
  5
5115
330
1A
100
AcDbEntity
  8
TEKUSU
  6
DASHED2
 48
0.5
100
AcDbLine
 10
434.5317684487351
 20
283.199996669417
 30
0.0
 11
434.5317684487351
 21
321.3604325712408
 31
0.0
  0
LINE
  5
5116
330
1A
100
AcDbEntity
  8
TEKUSU
  6
DASHED2
 48
0.5
100
AcDbLine
 10
441.0317684487352
 20
283.199996669417
 30
0.0
 11
441.0317684487352
 21
321.3604325712408
 31
0.0
  0
LINE
  5
5117
330
1A
100
AcDbEntity
  8
TEKUSU
100
AcDbLine
 10
436.3690784866946
 20
270.5000000000031
 30
0.0
 11
437.7817684487352
 21
263.876518975348
 31
0.0
  0
LINE
  5
5118
330
1A
100
AcDbEntity
  8
TEKUSU
100
AcDbLine
 10
445.2817684487315
 20
353.4999999999986
 30
0.0
 11
430.2817684487352
 21
353.4999999999986
 31
0.0
  0
LINE
  5
5119
330
1A
100
AcDbEntity
  8
TEKUSU
100
AcDbLine
 10
434.5317684487351
 20
283.199996669417
 30
0.0
 11
434.5317684487351
 21
270.5000000000031
 31
0.0
  0
LINE
  5
511A
330
1A
100
AcDbEntity
  8
TEKUSU
100
AcDbLine
 10
441.0317684487352
 20
283.199996669417
 30
0.0
 11
441.0317684487356
 21
270.5000000000031
 31
0.0
  0
LINE
  5
511B
330
1A
100
AcDbEntity
  8
SUNPOU
  6
CENTER2
100
AcDbLine
 10
437.7817684487352
 20
361.4036495000032
 30
0.0
 11
437.7817684487352
 21
261.315604692992
 31
0.0
  0
LINE
  5
511C
330
1A
100
AcDbEntity
  8
TEKUSU
  6
Continuous
100
AcDbLine
 10
430.2817684487352
 20
354.0000000000031
 30
0.0
 11
430.2817684487352
 21
353.4999999999986
 31
0.0
  0
LINE
  5
511D
330
1A
100
AcDbEntity
  8
TEKUSU
  6
Continuous
100
AcDbLine
 10
445.2817684487315
 20
354.0000000000031
 30
0.0
 11
445.2817684487315
 21
353.500000000004
 31
0.0
  0
LINE
  5
511E
330
1A
100
AcDbEntity
  8
TEKUSU
  6
DASHED2
 48
0.5
100
AcDbLine
 10
435.2117684487353
 20
352.1128338036683
 30
0.0
 11
435.2117684487308
 21
321.3604325712408
 31
0.0
  0
LINE
  5
511F
330
1A
100
AcDbEntity
  8
TEKUSU
  6
DASHED2
 48
0.5
100
AcDbLine
 10
445.2817684487351
 20
355.7500000000031
 30
0.0
 11
430.2817684487352
 21
355.7500000000031
 31
0.0
  0
LINE
  5
5120
330
1A
100
AcDbEntity
  8
TEKUSU
  6
DASHED2
 48
0.5
100
AcDbLine
 10
445.7817684487351
 20
354.5000000000031
 30
0.0
 11
445.7817684487351
 21
355.2500000000031
 31
0.0
  0
LINE
  5
5121
330
1A
100
AcDbEntity
  8
TEKUSU
  6
DASHED2
 48
0.5
100
AcDbLine
 10
429.7817684487352
 20
354.5000000000031
 30
0.0
 11
429.7817684487352
 21
355.2500000000031
 31
0.0
  0
LINE
  5
5122
330
1A
100
AcDbEntity
  8
TEKUSU
  6
DASHED2
 48
0.5
100
AcDbLine
 10
445.2817684487351
 20
354.0000000000031
 30
0.0
 11
430.2817684487352
 21
354.0000000000031
 31
0.0
  0
ARC
  5
5123
330
1A
100
AcDbEntity
  8
TEKUSU
  6
DASHED2
 48
0.5
100
AcDbCircle
 10
437.7817684487316
 20
344.061206896556
 30
0.0
 40
13.13879310344826
100
AcDbArc
 50
62.82801758423672
 51
117.1719824157633
  0
ARC
  5
5124
330
1A
100
AcDbEntity
  8
TEKUSU
  6
DASHED2
 48
0.5
100
AcDbCircle
 10
430.2817684487306
 20
354.5000000000031
 30
0.0
 40
0.5
100
AcDbArc
 50
180.0
 51
270.0
1001
GENIUS_GENOBJ-N-FIL_13
1002
{
1000
OWNER
1000
GEN
1002
}
1001
GENIUS_GENODEF_13
1002
{
1000
HIER
1070
     0
1002
}
1002
{
1000
MANEDIT
1070
     0
1002
}
1002
{
1000
NOSEL
1070
     0
1002
}
1002
{
1000
BEHIND
1070
     0
1002
}
1002
{
1000
OTHER
1070
     0
1002
}
1002
{
1000
REACTOR
1002
}
  0
ARC
  5
5125
330
1A
100
AcDbEntity
  8
TEKUSU
  6
DASHED2
 48
0.5
100
AcDbCircle
 10
445.2817684487315
 20
354.5000000000031
 30
0.0
 40
0.5
100
AcDbArc
 50
270.0
 51
0.000000000000007
1001
GENIUS_GENOBJ-N-FIL_13
1002
{
1000
OWNER
1000
GEN
1002
}
1001
GENIUS_GENODEF_13
1002
{
1000
HIER
1070
     0
1002
}
1002
{
1000
MANEDIT
1070
     0
1002
}
1002
{
1000
NOSEL
1070
     0
1002
}
1002
{
1000
BEHIND
1070
     0
1002
}
1002
{
1000
OTHER
1070
     0
1002
}
1002
{
1000
REACTOR
1002
}
  0
ARC
  5
5126
330
1A
100
AcDbEntity
  8
TEKUSU
  6
DASHED2
 48
0.5
100
AcDbCircle
 10
445.2817684487315
 20
355.2500000000031
 30
0.0
 40
0.5
100
AcDbArc
 50
0.000000000000007
 51
90.0
1001
GENIUS_GENODEF_13
1002
{
1000
HIER
1070
     0
1002
}
1002
{
1000
MANEDIT
1070
     0
1002
}
1002
{
1000
NOSEL
1070
     0
1002
}
1002
{
1000
BEHIND
1070
     0
1002
}
1002
{
1000
OTHER
1070
     0
1002
}
1002
{
1000
REACTOR
1002
}
1001
GENIUS_GENOBJ-N-FIL_13
1002
{
1000
OWNER
1000
GEN
1002
}
  0
ARC
  5
5127
330
1A
100
AcDbEntity
  8
TEKUSU
  6
DASHED2
 48
0.5
100
AcDbCircle
 10
430.2817684487306
 20
355.2500000000031
 30
0.0
 40
0.5
100
AcDbArc
 50
90.0
 51
180.0
1001
GENIUS_GENOBJ-N-FIL_13
1002
{
1000
OWNER
1000
GEN
1002
}
1001
GENIUS_GENODEF_13
1002
{
1000
HIER
1070
     0
1002
}
1002
{
1000
MANEDIT
1070
     0
1002
}
1002
{
1000
NOSEL
1070
     0
1002
}
1002
{
1000
BEHIND
1070
     0
1002
}
1002
{
1000
OTHER
1070
     0
1002
}
1002
{
1000
REACTOR
1002
}
  0
LINE
  5
5128
330
1A
100
AcDbEntity
  8
TEKUSU
  6
DASHED2
 48
0.5
100
AcDbLine
 10
440.3517684487338
 20
352.1128338036683
 30
0.0
 11
440.3517684487304
 21
321.3604325712408
 31
0.0
  0
LINE
  5
5129
330
1A
100
AcDbEntity
  8
TEKUSU
  6
DASHED2
 48
0.5
100
AcDbLine
 10
441.2317684487359
 20
353.9999998937159
 30
0.0
 11
440.3517684487338
 21
352.1128338036683
 31
0.0
  0
LINE
  5
512A
330
1A
100
AcDbEntity
  8
TEKUSU
  6
DASHED2
 48
0.5
100
AcDbLine
 10
434.3317684487344
 20
353.9999998937159
 30
0.0
 11
435.2117684487353
 21
352.1128338036683
 31
0.0
  0
LINE
  5
512B
330
1A
100
AcDbEntity
  8
TEKUSU
  6
DASHED2
 48
0.5
100
AcDbLine
 10
435.2117684487353
 20
352.1128338036683
 30
0.0
 11
440.3517684487338
 21
352.1128338036683
 31
0.0
  0
LINE
  5
512C
330
1A
100
AcDbEntity
  8
TEKUSU
100
AcDbLine
 10
441.0317684487352
 20
270.5000000000031
 30
0.0
 11
434.5317684487351
 21
270.5000000000031
 31
0.0
  0
LINE
  5
512D
330
1A
100
AcDbEntity
  8
TEKUSU
  6
DASHED2
 48
0.5
100
AcDbLine
 10
441.0317684487352
 20
321.3604325712408
 30
0.0
 11
434.5317684487351
 21
321.3604325712408
 31
0.0
  0
LINE
  5
512E
330
1A
100
AcDbEntity
  8
TEKUSU
100
AcDbLine
 10
435.1317684487363
 20
266.1001328937159
 30
0.0
 11
435.1317684487363
 21
270.5000000000022
 31
0.0
  0
LINE
  5
512F
330
1A
100
AcDbEntity
  8
TEKUSU
100
AcDbLine
 10
437.7817684487352
 20
263.8765189753462
 30
0.0
 11
435.1317684487363
 21
266.1001328937159
 31
0.0
  0
LINE
  5
5130
330
1A
100
AcDbEntity
  8
TEKUSU
100
AcDbLine
 10
440.4317684487366
 20
266.1001328937159
 30
0.0
 11
440.4317684487366
 21
270.5000000000022
 31
0.0
  0
LINE
  5
5131
330
1A
100
AcDbEntity
  8
TEKUSU
100
AcDbLine
 10
440.4317684487366
 20
266.1001328937159
 30
0.0
 11
437.7817684487352
 21
263.8765189753462
 31
0.0
  0
LINE
  5
5132
330
1A
100
AcDbEntity
  8
TEKUSU
  6
DASHED2
 48
0.5
100
AcDbLine
 10
434.5317684487351
 20
283.199996669417
 30
0.0
 11
434.5317684487351
 21
321.3604325712408
 31
0.0
  0
LINE
  5
5133
330
1A
100
AcDbEntity
  8
TEKUSU
  6
DASHED2
 48
0.5
100
AcDbLine
 10
441.0317684487352
 20
283.199996669417
 30
0.0
 11
441.0317684487352
 21
321.3604325712408
 31
0.0
  0
LINE
  5
5134
330
1A
100
AcDbEntity
  8
TEKUSU
100
AcDbLine
 10
436.3690784866946
 20
270.5000000000031
 30
0.0
 11
437.7817684487352
 21
263.876518975348
 31
0.0
  0
LINE
  5
5135
330
1A
100
AcDbEntity
  8
TEKUSU
100
AcDbLine
 10
445.2817684487315
 20
353.4999999999986
 30
0.0
 11
430.2817684487352
 21
353.4999999999986
 31
0.0
  0
LINE
  5
5136
330
1A
100
AcDbEntity
  8
TEKUSU
100
AcDbLine
 10
434.5317684487351
 20
283.199996669417
 30
0.0
 11
434.5317684487351
 21
270.5000000000031
 31
0.0
  0
LINE
  5
5137
330
1A
100
AcDbEntity
  8
TEKUSU
100
AcDbLine
 10
441.0317684487352
 20
283.199996669417
 30
0.0
 11
441.0317684487356
 21
270.5000000000031
 31
0.0
  0
MTEXT
  5
51D4
330
1A
100
AcDbEntity
  8
0
100
AcDbMText
 10
522.301510716435
 20
72.46405674954431
 30
0.0
 40
5.0
 41
0.0
 46
0.0
 71
     4
 72
     1
  1
※1,2　パネルがかん合した時に、隙間が生じない様に充てんしてください。 \P※2　　裏面側の横走り防止シーリングは、捨板の防水パッキン,裏面横走り防止パッキン\P　　　 に接するように施してください。\P\P注）　図は目地幅２５mm
 73
     1
 44
1.0
  0
HATCH
  5
5280
330
1A
100
AcDbEntity
  8
PACKING
 62
     7
370
     9
100
AcDbHatch
 10
0.0
 20
0.0
 30
0.0
210
0.0
220
0.0
230
1.0
  2
ANSI38
 70
     0
 71
     0
 91
        1
 92
        1
 93
       17
 72
     1
 10
397.0000000000007
 20
343.6999999999923
 11
392.0000000000036
 21
343.6999999999923
 72
     1
 10
392.0000000000036
 20
343.6999999999923
 11
392.0000000000036
 21
287.9999999999979
 72
     1
 10
392.0000000000036
 20
287.9999999999979
 11
402.5000005000001
 21
287.9999999999979
 72
     1
 10
402.5000005000001
 20
287.9999999999979
 11
402.5000005000001
 21
293.1499999999999
 72
     2
 10
404.350001499999
 20
293.1499999999999
 40
1.85000100000002
 50
180.0
 51
270.0
 73
     0
 72
     1
 10
404.350001499999
 20
295.0000010000006
 11
415.6500014999982
 21
295.0000010000006
 72
     2
 10
415.6500014999982
 20
293.1499999999999
 40
1.85000100000002
 50
270.0
 51
360.0
 73
     0
 72
     1
 10
417.5000024999981
 20
293.1499999999999
 11
417.4999994999998
 21
288.0000010000009
 72
     1
 10
417.4999994999998
 20
288.0000010000009
 11
428.0000017738379
 21
288.0000010000009
 72
     1
 10
428.0000017738379
 20
288.0000010000009
 11
428.0000017738378
 21
343.7000013042859
 72
     1
 10
428.0000017738378
 20
343.7000013042859
 11
422.9999883381772
 21
343.6999999999923
 72
     1
 10
422.9999883381772
 20
343.6999999999923
 11
423.0000000000065
 21
342.1999999999969
 72
     2
 10
421.8000000000064
 20
342.1999999999969
 40
1.199999999999999
 50
360.0
 51
450.0
 73
     0
 72
     1
 10
421.8000000000064
 20
340.9999999999969
 11
400.5000000000036
 21
340.9999999999969
 72
     1
 10
400.5000000000036
 20
340.9999999999969
 11
400.5000000000036
 21
342.4999999999973
 72
     1
 10
400.5000000000036
 20
342.4999999999973
 11
398.2000000000007
 21
342.4999999999973
 72
     2
 10
398.2000000000007
 20
343.6999999999973
 40
1.199999999999999
 50
90.0
 51
180.0
 73
     0
 97
        0
 75
     1
 76
     1
 52
0.0
 41
1.0
 77
     0
 78
     2
 53
45.0
 43
0.0
 44
0.0
 45
-2.245064030267288
 46
2.245064030267288
 79
     0
 53
135.0
 43
0.0
 44
0.0
 45
-6.735192090801864
 46
2.245064030267288
 79
     2
 49
7.9375
 49
-4.7625
 98
        1
 10
0.0
 20
0.0
1001
GradientColor1ACI
1070
     5
1001
GradientColor2ACI
1070
     2
1001
ACAD
1010
0.0
1020
0.0
1030
0.0
  0
MULTILEADER
  5
52D1
102
{ACAD_XDICTIONARY
360
53A8
102
}
330
1A
100
AcDbEntity
  8
HIKIDASI
160
               568
310
38020000150000000C00000016000000000000C00C00000033000000000000000C00000013000000993A0000E0000000260000003767BBEB52B873409C5B08DAC8977840000000000000000000000000000000000000000000000000000000000000F03F000000000000F03F00000000000000000000000000000000B730FC
310
30EA30F330B03008FF25521490E55D8B4E09FF00000B000000010000000000000000001440000000000000F03F0000000000000000000000000000F03F000000000000000000000000000000000000000000000000000000000100000000000000000000007400780074002E00730068007800000065007800740066006F00
310
6E0074002E0073006800780000000C00000033000000000000000C00000010000000090000000C00000016000000000000C00C00000012000000FF7F00000C00000013000000010000000C00000013000000891300003C0000000600000002000000A626DEE0F34D794064DD0DE69A08764000000000000000007BABFF2F97
310
BC77409D5B08DAC8BF784000000000000000000C00000013000000112700003C00000006000000020000007BABFF2F97BC77409D5B08DAC8BF78400000000000000000E1116696FDB277409D5B08DAC8BF784000000000000000000C00000016000000000000C00C00000012000000FF7F00000C0000001700000000000000
310
0C000000130000009A3A00000C00000016000000000000C00C00000012000000FF7F00000C00000017000000FFFFFFFF0C0000003300000000000000
100
AcDbMLeader
270
     2
300
CONTEXT_DATA{
 40
1.0
 10
314.1869110095123
 20
395.9865360571365
 30
0.0
 41
5.0
140
0.0
145
2.0
174
     1
175
     3
176
     2
177
     0
290
     1
304
シーリング（別途工事）
 11
0.0
 21
0.0
 31
1.0
340
10
 12
377.1869110095122
 22
398.4865360571364
 32
0.0
 13
1.0
 23
0.0
 33
0.0
 42
0.0
 43
0.0
 44
0.0
 45
1.0
170
     1
 90
-1073741824
171
     3
172
     5
 91
-1073741824
141
0.0
 92
        0
291
     0
292
     0
173
     0
293
     0
142
0.0
143
0.0
294
     0
295
     0
296
     0
110
415.1573207820865
120
334.7231892465069
130
0.0
111
1.0
121
0.0
131
0.0
112
0.0
122
1.0
132
0.0
297
     0
302
LEADER{
290
     1
291
     1
 10
379.7869110095123
 20
395.9865360571365
 30
0.0
 11
-1.0
 21
0.0
 31
0.0
 90
        0
 40
0.6
304
LEADER_LINE{
 10
404.8720406224987
 20
352.5378170529932
 30
0.0
 91
        0
305
}
271
     0
303
}
272
     9
273
     9
301
}
340
2E4B
 90
   279552
170
     1
 91
-1056964608
341
14
171
    -2
290
     1
291
     1
 41
0.6
342
B0
 42
0.0
172
     2
343
10
173
     1
 95
        3
174
     1
175
     2
 92
-1056964608
292
     0
 93
-1056964608
 10
1.0
 20
1.0
 30
1.0
 43
0.0
176
     0
293
     0
294
     0
178
     0
179
     3
 45
1.0
271
     0
272
     9
273
     9
  0
VIEWPORT
  5
22
330
17
100
AcDbEntity
 67
     1
  8
0
348
23EF
100
AcDbViewport
 10
261.5176991150442
 20
154.7242978687078
 30
0.0
 40
523.0353982300885
 41
309.4485957374157
 68
     1
 69
     1
 12
261.5176991150442
 22
154.7242978687078
 13
0.0
 23
0.0
 14
1.0
 24
1.0
 15
10.0
 25
10.0
 16
0.0
 26
0.0
 36
1.0
 17
0.0
 27
0.0
 37
0.0
 42
50.0
 43
0.0
 44
0.0
 45
309.4485957374157
 50
0.0
 51
0.0
 72
   100
 90
    32768
  1

281
     0
 71
     1
 74
     0
110
0.0
120
0.0
130
0.0
111
1.0
121
0.0
131
0.0
112
0.0
122
1.0
132
0.0
 79
     0
146
0.0
170
     0
 61
     5
292
     1
282
     1
141
0.0
142
0.0
 63
   250
421
  3355443
  0
ENDSEC
  0
SECTION
  2
OBJECTS
  0
DICTIONARY
  5
C
330
0
100
AcDbDictionary
281
     1
  3
ACAD_CIP_PREVIOUS_PRODUCT_INFO
350
2E55
  3
ACAD_COLOR
350
3B0
  3
ACAD_DETAILVIEWSTYLE
350
32BF
  3
ACAD_GROUP
350
D
  3
ACAD_LAYOUT
350
3B1
  3
ACAD_MATERIAL
350
3AF
  3
ACAD_MLEADERSTYLE
350
2E4A
  3
ACAD_MLINESTYLE
350
E
  3
ACAD_PLOTSETTINGS
350
3B2
  3
ACAD_PLOTSTYLENAME
350
3AD
  3
ACAD_SCALELIST
350
2E38
  3
ACAD_SECTIONVIEWSTYLE
350
32BD
  3
ACAD_TABLESTYLE
350
14DD
  3
ACAD_VISUALSTYLE
350
23E9
  3
AcadDim
350
2BB0
  3
ACDB_RECOMPOSE_DATA
350
5353
  3
AcDbVariableDictionary
350
1904
  3
AcDsDecomposeData
350
5359
  0
DICTIONARY
  5
2421
330
8
100
AcDbDictionary
280
     1
281
     1
  0
DICTIONARY
  5
181F
330
2
100
AcDbDictionary
280
     1
281
     1
  3
ACAD_LAYERFILTERS
360
2B4F
  3
ACAD_LAYERSTATES
360
2489
  3
ACLYDICTIONARY
360
2B4E
  0
DICTIONARY
  5
2EAF
330
F
100
AcDbDictionary
280
     1
281
     1
  3
ADSK_XREC_LAYER_RECONCILED
360
2EB0
  0
DICTIONARY
  5
2EB1
330
87
100
AcDbDictionary
280
     1
281
     1
  3
ADSK_XREC_LAYER_RECONCILED
360
2EB2
  0
DICTIONARY
  5
2EB3
330
1548
100
AcDbDictionary
280
     1
281
     1
  3
ADSK_XREC_LAYER_RECONCILED
360
2EB4
  0
DICTIONARY
  5
2EB5
330
1549
100
AcDbDictionary
280
     1
281
     1
  3
ADSK_XREC_LAYER_RECONCILED
360
2EB6
  0
DICTIONARY
  5
2EB7
330
154A
100
AcDbDictionary
280
     1
281
     1
  3
ADSK_XREC_LAYER_RECONCILED
360
2EB8
  0
DICTIONARY
  5
2EB9
330
154B
100
AcDbDictionary
280
     1
281
     1
  3
ADSK_XREC_LAYER_RECONCILED
360
2EBA
  0
DICTIONARY
  5
2EBB
330
154C
100
AcDbDictionary
280
     1
281
     1
  3
ADSK_XREC_LAYER_RECONCILED
360
2EBC
  0
DICTIONARY
  5
2EBD
330
154D
100
AcDbDictionary
280
     1
281
     1
  3
ADSK_XREC_LAYER_RECONCILED
360
2EBE
  0
DICTIONARY
  5
2EBF
330
154E
100
AcDbDictionary
280
     1
281
     1
  3
ADSK_XREC_LAYER_RECONCILED
360
2EC0
  0
DICTIONARY
  5
2EC1
330
181D
100
AcDbDictionary
280
     1
281
     1
  3
ADSK_XREC_LAYER_RECONCILED
360
2EC2
  0
DICTIONARY
  5
1FFD
330
1A
100
AcDbDictionary
280
     1
281
     1
  3
ACAD_SORTENTS
360
1FFE
  0
DICTIONARY
  5
5203
330
E6E
100
AcDbDictionary
280
     1
281
     1
  3
ACAD_MTEXT_2008_RT
360
534F
  0
DICTIONARY
  5
5394
330
4655
100
AcDbDictionary
280
     1
281
     1
  3
ACAD_XREC_ROUNDTRIP
360
5395
  0
DICTIONARY
  5
5396
330
4657
100
AcDbDictionary
280
     1
281
     1
  3
ACAD_XREC_ROUNDTRIP
360
5397
  0
DICTIONARY
  5
5398
330
4658
100
AcDbDictionary
280
     1
281
     1
  3
ACAD_XREC_ROUNDTRIP
360
5399
  0
DICTIONARY
  5
539A
330
465C
100
AcDbDictionary
280
     1
281
     1
  3
ACAD_XREC_ROUNDTRIP
360
539B
  0
DICTIONARY
  5
539C
330
465D
100
AcDbDictionary
280
     1
281
     1
  3
ACAD_XREC_ROUNDTRIP
360
539D
  0
DICTIONARY
  5
539E
330
465E
100
AcDbDictionary
280
     1
281
     1
  3
ACAD_XREC_ROUNDTRIP
360
539F
  0
DICTIONARY
  5
53A0
330
465F
100
AcDbDictionary
280
     1
281
     1
  3
ACAD_XREC_ROUNDTRIP
360
53A1
  0
DICTIONARY
  5
53A2
330
4660
100
AcDbDictionary
280
     1
281
     1
  3
ACAD_XREC_ROUNDTRIP
360
53A3
  0
DICTIONARY
  5
53A4
330
479F
100
AcDbDictionary
280
     1
281
     1
  3
ACAD_XREC_ROUNDTRIP
360
53A5
  0
DICTIONARY
  5
53A6
330
47AC
100
AcDbDictionary
280
     1
281
     1
  3
ACAD_XREC_ROUNDTRIP
360
53A7
  0
DICTIONARY
  5
5039
330
5038
100
AcDbDictionary
280
     1
281
     1
  3
ACAD_MTEXT_2008_RT
360
5351
  0
DICTIONARY
  5
503B
330
503A
100
AcDbDictionary
280
     1
281
     1
  3
ACAD_MTEXT_2008_RT
360
5352
  0
DICTIONARY
  5
53A8
330
52D1
100
AcDbDictionary
280
     1
281
     1
  3
ACAD_XREC_ROUNDTRIP
360
53A9
  0
XRECORD
  5
2E55
102
{ACAD_REACTORS
330
C
102
}
330
C
100
AcDbXrecord
280
     1
300
ACDLT
300
2017
300
86604ACDLT_2017_0F
  0
DICTIONARY
  5
3B0
102
{ACAD_REACTORS
330
C
102
}
330
C
100
AcDbDictionary
281
     1
  0
DICTIONARY
  5
32BF
102
{ACAD_REACTORS
330
C
102
}
330
C
100
AcDbDictionary
281
     1
  3
Metric50
350
32C0
  0
DICTIONARY
  5
D
102
{ACAD_REACTORS
330
C
102
}
330
C
100
AcDbDictionary
281
     1
  0
DICTIONARY
  5
3B1
102
{ACAD_REACTORS
330
C
102
}
330
C
100
AcDbDictionary
281
     1
  3
Model
350
3B3
  3
レイアウト1
350
3B4
  0
DICTIONARY
  5
3AF
102
{ACAD_REACTORS
330
C
102
}
330
C
100
AcDbDictionary
281
     1
  3
ByBlock
350
23E7
  3
ByLayer
350
23E6
  3
Global
350
23E8
  0
DICTIONARY
  5
2E4A
102
{ACAD_REACTORS
330
C
102
}
330
C
100
AcDbDictionary
281
     1
  3
Standard
350
2E4B
  0
DICTIONARY
  5
E
102
{ACAD_REACTORS
330
C
102
}
330
C
100
AcDbDictionary
281
     1
  3
STANDARD
350
13
  0
DICTIONARY
  5
3B2
102
{ACAD_REACTORS
330
C
102
}
330
C
100
AcDbDictionary
281
     1
  0
ACDBDICTIONARYWDFLT
  5
3AD
102
{ACAD_REACTORS
330
C
102
}
330
C
100
AcDbDictionary
281
     1
  3
Normal
350
3AE
100
AcDbDictionaryWithDefault
340
3AE
  0
DICTIONARY
  5
2E38
102
{ACAD_REACTORS
330
C
102
}
330
C
100
AcDbDictionary
281
     1
  3
A0
350
2E39
  3
A1
350
2E3A
  3
A2
350
2E3B
  3
A3
350
2E3C
  3
A4
350
2E3D
  3
A5
350
2E3E
  3
A6
350
2E3F
  3
A7
350
2E40
  3
A8
350
2E41
  3
A9
350
2E42
  3
B0
350
2E43
  3
B1
350
2E44
  3
B2
350
2E45
  3
B3
350
2E46
  3
B4
350
2E47
  3
B5
350
2E48
  3
B6
350
2E49
  0
DICTIONARY
  5
32BD
102
{ACAD_REACTORS
330
C
102
}
330
C
100
AcDbDictionary
281
     1
  3
Metric50
350
32BE
  0
DICTIONARY
  5
14DD
102
{ACAD_REACTORS
330
C
102
}
330
C
100
AcDbDictionary
281
     1
  3
Standard
350
14DE
  0
DICTIONARY
  5
23E9
102
{ACAD_REACTORS
330
C
102
}
330
C
100
AcDbDictionary
281
     1
  3
2dWireframe
350
23EF
  3
3D Hidden
350
23F1
  3
3dWireframe
350
23F0
  3
Basic
350
23EE
  3
Brighten
350
23F5
  3
ColorChange
350
23F9
  3
Conceptual
350
23F2
  3
Dim
350
23F4
  3
EdgeColorOff
350
2E37
  3
Facepattern
350
23F8
  3
Flat
350
23EA
  3
FlatWithEdges
350
23EB
  3
Gouraud
350
23EC
  3
GouraudWithEdges
350
23ED
  3
Hidden
350
2E2F
  3
JitterOff
350
2E35
  3
Linepattern
350
23F7
  3
OverhangOff
350
2E36
  3
Realistic
350
23F3
  3
Shaded
350
2E34
  3
Shaded with edges
350
2E33
  3
Shades of Gray
350
2E30
  3
Sketchy
350
2E31
  3
Thicken
350
23F6
  3
Wireframe
350
2E2E
  3
X-Ray
350
2E32
  0
XRECORD
  5
2BB0
102
{ACAD_REACTORS
330
C
102
}
330
C
100
AcDbXrecord
280
     1
 90
   990106
  3
NONE
 60
     0
 61
     0
 62
     1
 63
     3
 64
     0
 65
     0
 66
     0
 67
     3
 68
     1
 69
     0
 70
     4
 71
     4
 72
     0
 40
0.0
170
     1
340
0
  0
XRECORD
  5
5353
102
{ACAD_REACTORS
330
C
102
}
330
C
100
AcDbXrecord
280
     1
 90
        1
330
E6E
330
14DE
330
5038
330
503A
  0
DICTIONARY
  5
1904
102
{ACAD_REACTORS
330
C
102
}
330
C
100
AcDbDictionary
281
     1
  3
CANNOSCALE
350
2F11
  3
CMLEADERSTYLE
350
2F10
  3
CTABLESTYLE
350
1905
  3
CVIEWDETAILSTYLE
350
335F
  3
CVIEWSECTIONSTYLE
350
3360
  3
DIMASSOC
350
22C6
  3
HPCOLOR
350
527F
  3
HPTRANSPARENCY
350
527E
  3
INDEXCTL
350
2F3C
  3
LAYEREVAL
350
3874
  3
LAYERNOTIFY
350
3875
  3
LIGHTINGUNITS
350
3873
  3
MSLTSCALE
350
3872
  3
PROJECTNAME
350
22C7
  3
SORTENTS
350
2F3B
  0
DICTIONARY
  5
5359
102
{ACAD_REACTORS
330
C
102
}
330
C
100
AcDbDictionary
281
     1
  3
AcDsRecords
350
535B
  3
AcDsSchemas
350
535A
1001
ACAD
1070
     2
  0
DICTIONARY
  5
2B4F
102
{ACAD_REACTORS
330
181F
102
}
330
181F
100
AcDbDictionary
281
     1
  0
DICTIONARY
  5
2489
102
{ACAD_REACTORS
330
181F
102
}
330
181F
100
AcDbDictionary
281
     1
  0
DICTIONARY
  5
2B4E
102
{ACAD_REACTORS
330
181F
102
}
330
181F
100
AcDbDictionary
281
     1
1001
ACAD
1000
<All
  0
XRECORD
  5
2EB0
102
{ACAD_REACTORS
330
2EAF
102
}
330
2EAF
100
AcDbXrecord
280
     1
290
     1
  0
XRECORD
  5
2EB2
102
{ACAD_REACTORS
330
2EB1
102
}
330
2EB1
100
AcDbXrecord
280
     1
290
     1
  0
XRECORD
  5
2EB4
102
{ACAD_REACTORS
330
2EB3
102
}
330
2EB3
100
AcDbXrecord
280
     1
290
     1
  0
XRECORD
  5
2EB6
102
{ACAD_REACTORS
330
2EB5
102
}
330
2EB5
100
AcDbXrecord
280
     1
290
     1
  0
XRECORD
  5
2EB8
102
{ACAD_REACTORS
330
2EB7
102
}
330
2EB7
100
AcDbXrecord
280
     1
290
     1
  0
XRECORD
  5
2EBA
102
{ACAD_REACTORS
330
2EB9
102
}
330
2EB9
100
AcDbXrecord
280
     1
290
     1
  0
XRECORD
  5
2EBC
102
{ACAD_REACTORS
330
2EBB
102
}
330
2EBB
100
AcDbXrecord
280
     1
290
     1
  0
XRECORD
  5
2EBE
102
{ACAD_REACTORS
330
2EBD
102
}
330
2EBD
100
AcDbXrecord
280
     1
290
     1
  0
XRECORD
  5
2EC0
102
{ACAD_REACTORS
330
2EBF
102
}
330
2EBF
100
AcDbXrecord
280
     1
290
     1
  0
XRECORD
  5
2EC2
102
{ACAD_REACTORS
330
2EC1
102
}
330
2EC1
100
AcDbXrecord
280
     1
290
     1
  0
SORTENTSTABLE
  5
1FFE
102
{ACAD_REACTORS
330
1FFD
102
}
330
1FFD
100
AcDbSortentsTable
330
1A
331
50C3
  5
50C5
331
503A
  5
5084
331
50C7
  5
50C9
331
50CB
  5
50CD
331
50CF
  5
50D1
331
50FA
  5
50FC
331
50FE
  5
5100
331
5102
  5
5104
331
5106
  5
5108
331
2CBA
  5
E5B
331
2CBE
  5
E4F
331
4657
  5
3B9F
331
47A4
  5
479C
331
2CC2
  5
E72
331
28FA
  5
2DA1
331
47A8
  5
47A2
331
2ADB
  5
2844
331
465F
  5
3CF3
331
27F2
  5
2810
331
47AC
  5
47A6
331
27F6
  5
2814
331
283F
  5
28FD
331
2843
  5
2A29
331
2806
  5
2823
331
E16
  5
E7A
331
E1E
  5
E8D
331
E51
  5
27CF
331
50D3
  5
50D5
331
50D7
  5
50D9
331
510A
  5
510C
331
510E
  5
5110
331
5112
  5
5114
331
5116
  5
5118
331
3BA7
  5
385C
331
47EB
  5
47AD
331
47EF
  5
47ED
331
47F3
  5
47F1
331
47F7
  5
47F5
331
2A91
  5
2A52
331
2809
  5
47AC
331
2856
  5
2A35
331
2892
  5
2A53
331
2811
  5
3523
331
2815
  5
E58
331
34C6
  5
47A8
331
27D5
  5
27F1
331
E5C
  5
27D5
331
E6C
  5
27D7
331
50E2
  5
50E4
331
50E6
  5
50E8
331
50EA
  5
50EC
331
50EE
  5
50F0
331
5119
  5
511B
331
511D
  5
511F
331
5121
  5
5123
331
5125
  5
5127
331
2DA1
  5
351C
331
4782
  5
465D
331
289A
  5
2A54
331
2819
  5
2837
331
281D
  5
283A
331
2821
  5
283D
331
27D9
  5
27F5
331
2825
  5
2841
331
27DD
  5
27F9
331
E74
  5
27DE
331
E78
  5
27E1
331
50F2
  5
50F4
331
50F6
  5
50F8
331
50BD
  5
50BF
331
5129
  5
512B
331
512D
  5
512F
331
5131
  5
5133
331
5135
  5
5137
331
35E2
  5
2A59
331
4793
  5
465F
331
4797
  5
4782
331
479B
  5
4795
331
2C8D
  5
E6D
331
2ACA
  5
2A55
331
479F
  5
4798
331
282A
  5
2847
331
282E
  5
284D
331
27E5
  5
2803
331
2832
  5
2851
331
27E9
  5
2807
331
2836
  5
2855
331
27ED
  5
280B
331
E8D
  5
27EA
331
50C2
  5
50C4
331
50C6
  5
50C8
331
50CA
  5
50CC
331
50CE
  5
50D0
331
50F9
  5
50FB
331
50FD
  5
50FF
331
5101
  5
5103
331
5105
  5
5107
331
3B9F
  5
352C
331
2CB9
  5
2FD1
331
47A3
  5
479B
331
47A7
  5
47A1
331
2CC1
  5
E71
331
47AB
  5
47A5
331
465E
  5
3BAB
331
28F9
  5
2CBE
331
283A
  5
2896
331
27F1
  5
280F
331
27F5
  5
2813
331
2842
  5
465E
331
2805
  5
2822
331
2846
  5
2A2F
331
E15
  5
E79
331
E1D
  5
E8C
331
E50
  5
27CE
331
50D2
  5
50D4
331
50D6
  5
50D8
331
5109
  5
510B
331
510D
  5
510F
331
5111
  5
5113
331
5115
  5
5117
331
2D38
  5
351A
331
47EE
  5
47EC
331
2A8C
  5
2A56
331
47F2
  5
47F0
331
2A90
  5
2A57
331
47F6
  5
47F4
331
2808
  5
2827
331
280C
  5
282F
331
2891
  5
2A36
331
2810
  5
5038
331
27D0
  5
352B
331
27D4
  5
27F0
331
E5B
  5
27D4
331
352D
  5
E5A
331
E6F
  5
27DA
331
50E1
  5
50E3
331
506C
  5
50BD
331
50E5
  5
50E7
331
50E9
  5
50EB
331
50ED
  5
50EF
331
5118
  5
511A
331
511C
  5
511E
331
5120
  5
5122
331
5124
  5
5126
331
3855
  5
E52
331
4781
  5
465C
331
2DC4
  5
351B
331
2818
  5
2836
331
281C
  5
2839
331
27D8
  5
27F4
331
27DC
  5
27F8
331
2824
  5
2840
331
E73
  5
27DD
331
E7B
  5
27E5
331
50F1
  5
50F3
331
50F5
  5
50F7
331
5128
  5
512A
331
512C
  5
512E
331
5130
  5
5132
331
5134
  5
5136
331
3882
  5
27FD
331
36E5
  5
47A7
331
2C84
  5
E6C
331
4796
  5
4781
331
2AC5
  5
2826
331
479A
  5
4794
331
479E
  5
4797
331
2829
  5
2846
331
282D
  5
284C
331
27E4
  5
2802
331
2831
  5
2850
331
27E8
  5
2806
331
27EC
  5
280A
331
E8C
  5
27E9
331
50C1
  5
50C3
331
5038
  5
506C
331
50C5
  5
50C7
331
50C9
  5
50CB
331
50CD
  5
50CF
331
50F8
  5
50FA
331
50FC
  5
50FE
331
5100
  5
5102
331
5104
  5
5106
331
47A2
  5
479A
331
2CBC
  5
E6F
331
4655
  5
3882
331
47A6
  5
479F
331
47AA
  5
47A3
331
2AD5
  5
289A
331
465D
  5
3BA8
331
28F8
  5
2A5B
331
27F0
  5
280E
331
283D
  5
28F8
331
27F4
  5
2812
331
2841
  5
2A27
331
2845
  5
2A2D
331
2804
  5
47F6
331
E4F
  5
27CC
331
E18
  5
E8B
331
50D1
  5
50D3
331
50D5
  5
50D7
331
50D9
  5
50E2
331
5108
  5
510A
331
510C
  5
510E
331
5110
  5
5112
331
5114
  5
5116
331
4660
  5
4655
331
2AE0
  5
2A28
331
2A8F
  5
2A58
331
47ED
  5
47EB
331
47F1
  5
47EF
331
280B
  5
282A
331
47F5
  5
47F3
331
280F
  5
2830
331
2813
  5
2831
331
2817
  5
2835
331
27D3
  5
27EF
331
27D7
  5
27F3
331
3528
  5
E59
331
E5A
  5
27D3
331
E5E
  5
27D6
331
E6E
  5
27D9
331
50E4
  5
50E6
331
50E8
  5
50EA
331
50EC
  5
50EE
331
511B
  5
511D
331
511F
  5
5121
331
5123
  5
5125
331
5127
  5
5129
331
3854
  5
E51
331
385C
  5
E16
331
2AA3
  5
2832
331
475C
  5
4658
331
281B
  5
2838
331
281F
  5
283C
331
27DB
  5
27F7
331
2823
  5
283F
331
2827
  5
352A
331
358C
  5
3529
331
E72
  5
27DC
331
E7A
  5
27E4
331
50F0
  5
50F2
331
50F4
  5
50F6
331
50BF
  5
50C1
331
512B
  5
512D
331
512F
  5
5131
331
5133
  5
5135
331
5137
  5
526A
331
3881
  5
2801
331
2C83
  5
2E6F
331
4795
  5
475B
331
4799
  5
4783
331
27E3
  5
27FE
331
27E7
  5
2805
331
2828
  5
2845
331
27EB
  5
2809
331
282C
  5
284B
331
27EF
  5
280D
331
2830
  5
284F
331
2834
  5
2854
331
E8B
  5
27E8
331
50C0
  5
50C2
331
50C4
  5
50C6
331
50C8
  5
50CA
331
50FB
  5
50FD
331
50CC
  5
50CE
331
50FF
  5
5101
331
5103
  5
5105
331
51D4
  5
526B
331
5107
  5
5109
331
2CBB
  5
E6E
331
47A1
  5
4799
331
28F7
  5
2A5A
331
47A5
  5
479E
331
2AD0
  5
2843
331
4658
  5
3BA0
331
27F3
  5
2811
331
465C
  5
3BA7
331
27F7
  5
2815
331
2838
  5
2894
331
283C
  5
28F7
331
2840
  5
2A26
331
2807
  5
2825
331
2844
  5
2A2A
331
E17
  5
E7B
331
E52
  5
27D0
331
50D0
  5
50D2
331
50D4
  5
50D6
331
50D8
  5
50E1
331
510B
  5
510D
331
510F
  5
5111
331
5113
  5
5115
331
5117
  5
5119
331
5280
  5
282E
331
3BA0
  5
36E5
331
3BA8
  5
3881
331
47EC
  5
47E4
331
47F0
  5
47EE
331
2853
  5
2A34
331
280A
  5
47F7
331
47F4
  5
47F2
331
280E
  5
503A
331
2812
  5
3528
331
27CE
  5
27ED
331
34C7
  5
47AB
331
27D2
  5
27EE
331
27D6
  5
27F2
331
E59
  5
27D2
331
E6D
  5
27D8
331
50E3
  5
50E5
331
50E7
  5
50E9
331
50EB
  5
50ED
331
50EF
  5
50F1
331
511A
  5
511C
331
511E
  5
5120
331
5122
  5
5124
331
5126
  5
5128
331
475B
  5
4657
331
2AAA
  5
2829
331
281A
  5
47AA
331
281E
  5
283B
331
2822
  5
283E
331
27DA
  5
27F6
331
2826
  5
2842
331
E71
  5
27DB
331
E79
  5
27E2
331
50F3
  5
50F5
331
50F7
  5
50F9
331
50BE
  5
50C0
331
512A
  5
512C
331
512E
  5
5130
331
5132
  5
5134
331
5136
  5
51D4
331
4794
  5
46E5
331
27E2
  5
27FC
331
479C
  5
4796
331
282B
  5
2848
331
27E6
  5
2804
331
282F
  5
284E
331
27EA
  5
2808
331
2833
  5
2853
331
27EE
  5
280C
331
2837
  5
2857
331
E8E
  5
27EB
  0
XRECORD
  5
534F
102
{ACAD_REACTORS
330
5203
102
}
330
5203
100
AcDbXrecord
280
     1
 40
14049168.0
  1
\pxqc;耐火ヴァンドＲＺ７５　たて目地部・シーリングタイプ
  0
XRECORD
  5
5395
102
{ACAD_REACTORS
330
5394
102
}
330
5394
100
AcDbXrecord
280
     1
102
ACAD_ROUNDTRIP_2012_MLEADER
295
     1
  0
XRECORD
  5
5397
102
{ACAD_REACTORS
330
5396
102
}
330
5396
100
AcDbXrecord
280
     1
102
ACAD_ROUNDTRIP_2012_MLEADER
295
     1
  0
XRECORD
  5
5399
102
{ACAD_REACTORS
330
5398
102
}
330
5398
100
AcDbXrecord
280
     1
102
ACAD_ROUNDTRIP_2012_MLEADER
295
     1
  0
XRECORD
  5
539B
102
{ACAD_REACTORS
330
539A
102
}
330
539A
100
AcDbXrecord
280
     1
102
ACAD_ROUNDTRIP_2012_MLEADER
295
     1
  0
XRECORD
  5
539D
102
{ACAD_REACTORS
330
539C
102
}
330
539C
100
AcDbXrecord
280
     1
102
ACAD_ROUNDTRIP_2012_MLEADER
295
     1
  0
XRECORD
  5
539F
102
{ACAD_REACTORS
330
539E
102
}
330
539E
100
AcDbXrecord
280
     1
102
ACAD_ROUNDTRIP_2012_MLEADER
295
     1
  0
XRECORD
  5
53A1
102
{ACAD_REACTORS
330
53A0
102
}
330
53A0
100
AcDbXrecord
280
     1
102
ACAD_ROUNDTRIP_2012_MLEADER
295
     1
  0
XRECORD
  5
53A3
102
{ACAD_REACTORS
330
53A2
102
}
330
53A2
100
AcDbXrecord
280
     1
102
ACAD_ROUNDTRIP_2012_MLEADER
295
     1
  0
XRECORD
  5
53A5
102
{ACAD_REACTORS
330
53A4
102
}
330
53A4
100
AcDbXrecord
280
     1
102
ACAD_ROUNDTRIP_2012_MLEADER
295
     1
  0
XRECORD
  5
53A7
102
{ACAD_REACTORS
330
53A6
102
}
330
53A6
100
AcDbXrecord
280
     1
102
ACAD_ROUNDTRIP_2012_MLEADER
295
     1
  0
XRECORD
  5
5351
102
{ACAD_REACTORS
330
5039
102
}
330
5039
100
AcDbXrecord
280
     1
 40
4386876.0
  1
\pxqc;アイジーヴァンド参考ディテール
  0
XRECORD
  5
5352
102
{ACAD_REACTORS
330
503B
102
}
330
503B
100
AcDbXrecord
280
     1
 40
3316594.0
  1
\pxqc;アイジー工業株式会社
  0
XRECORD
  5
53A9
102
{ACAD_REACTORS
330
53A8
102
}
330
53A8
100
AcDbXrecord
280
     1
102
ACAD_ROUNDTRIP_2012_MLEADER
295
     1
  0
ACDBDETAILVIEWSTYLE
  5
32C0
102
{ACAD_XDICTIONARY
360
5284
102
}
102
{ACAD_REACTORS
330
32BF
102
}
330
32BF
100
AcDbModelDocViewStyle
 70
     0
  3
Metric50
290
     0
100
AcDbDetailViewStyle
 70
     0
 71
     0
 90
        3
 71
     1
340
10
 62
   256
 40
5.0
340
0
 62
   256
 40
5.0
300

 40
0.0
280
     1
 71
     2
340
16
 90
       25
 62
   256
 71
     3
340
10
 62
   256
 40
5.0
 90
        0
 40
15.0
 90
        1
300
%<\AcVar ViewDetailId>% (%<\AcVar ViewScale \f "%sn">%)
 71
     4
340
16
 90
       25
 62
   256
340
16
 90
       25
 62
   256
280
     0
1001
ACAD
1000
AcRTDxfName
1000
ACDBDETAILVIEWSTYLE
1000
AcRTDxfName
1000
ACDBDETAILVIEWSTYLE
1000
AcRTDxfName
1000
ACDBDETAILVIEWSTYLE
1000
AcRTDxfName
1000
ACDBDETAILVIEWSTYLE
1000
AcRTDxfName
1000
ACDBDETAILVIEWSTYLE
1000
AcRTDxfName
1000
ACDBDETAILVIEWSTYLE
1000
AcRTDxfName
1000
ACDBDETAILVIEWSTYLE
1000
AcRTDxfName
1000
ACDBDETAILVIEWSTYLE
1000
AcRTDxfName
1000
ACDBDETAILVIEWSTYLE
  0
LAYOUT
  5
3B3
102
{ACAD_XDICTIONARY
360
2ECA
102
}
102
{ACAD_REACTORS
330
3B1
102
}
330
3B1
100
AcDbPlotSettings
  1

  2
none_device
  4
ISO_A3_(420.00_x_297.00_MM)
  6

 40
7.5
 41
20.0
 42
7.5
 43
20.0
 44
420.0
 45
297.0
 46
0.0
 47
0.0
 48
0.0
 49
0.0
140
0.0
141
0.0
142
1.0
143
2.0
 70
 11904
 72
     1
 73
     0
 74
     2
  7

 75
     0
147
0.4326599326599327
 76
     0
 77
     2
 78
   300
148
0.0
149
0.0
100
AcDbLayout
  1
Model
 70
     1
 71
     0
 10
0.0
 20
0.0
 11
12.0
 21
9.0
 12
0.0
 22
0.0
 32
0.0
 14
0.0
 24
0.0
 34
0.0
 15
0.0
 25
0.0
 35
0.0
146
0.0
 13
0.0
 23
0.0
 33
0.0
 16
1.0
 26
0.0
 36
0.0
 17
0.0
 27
1.0
 37
0.0
 76
     0
330
1A
331
2E2C
1001
ACAD_PSEXT
1000
なし
1000
なし
1000
適切ではありません
1000
新しいプロッタ環境設定名を選択しない限り、レイアウトは印刷されません。
1070
     0
  0
LAYOUT
  5
3B4
102
{ACAD_REACTORS
330
3B1
102
}
330
3B1
100
AcDbPlotSettings
  1

  2
DocuCentre Color 400 (FAX)
  4

  6

 40
0.0
 41
0.0
 42
0.0
 43
0.0
 44
0.0
 45
0.0
 46
0.0
 47
0.0
 48
0.0
 49
0.0
140
0.0
141
0.0
142
1.0
143
1.0
 70
   688
 72
     0
 73
     0
 74
     5
  7
monochrome.ctb
 75
    16
147
1.0
 76
     0
 77
     2
 78
   300
148
0.0
149
0.0
100
AcDbLayout
  1
レイアウト1
 70
     1
 71
     1
 10
0.0
 20
0.0
 11
420.0
 21
297.0
 12
0.0
 22
0.0
 32
0.0
 14
1.000000000000000E+20
 24
1.000000000000000E+20
 34
1.000000000000000E+20
 15
-1.000000000000000E+20
 25
-1.000000000000000E+20
 35
-1.000000000000000E+20
146
0.0
 13
0.0
 23
0.0
 33
0.0
 16
1.0
 26
0.0
 36
0.0
 17
0.0
 27
1.0
 37
0.0
 76
     0
330
17
331
22
  0
MATERIAL
  5
23E7
102
{ACAD_XDICTIONARY
360
460C
102
}
102
{ACAD_REACTORS
330
3AF
102
}
330
3AF
100
AcDbMaterial
  1
ByBlock
 73
     1
 78
     1
172
     1
176
     1
270
     1
274
     1
  0
MATERIAL
  5
23E6
102
{ACAD_XDICTIONARY
360
460A
102
}
102
{ACAD_REACTORS
330
3AF
102
}
330
3AF
100
AcDbMaterial
  1
ByLayer
 73
     1
 78
     1
172
     1
176
     1
270
     1
274
     1
  0
MATERIAL
  5
23E8
102
{ACAD_XDICTIONARY
360
460E
102
}
102
{ACAD_REACTORS
330
3AF
102
}
330
3AF
100
AcDbMaterial
  1
Global
 73
     1
 78
     1
172
     1
176
     1
270
     1
274
     1
  0
MLEADERSTYLE
  5
2E4B
102
{ACAD_XDICTIONARY
360
5390
102
}
102
{ACAD_REACTORS
330
2E4A
330
4655
330
4657
330
4658
330
465C
330
465D
330
465E
330
465F
330
4660
330
479F
330
47AC
330
52D1
102
}
330
2E4A
100
AcDbMLeaderStyle
179
     2
170
     2
171
     1
172
     0
 90
        2
 40
0.5235987755982988
 41
0.0
173
     1
 91
-1056964608
340
14
 92
       -2
290
     1
 42
2.0
291
     1
 43
0.6
  3
Standard
341
B0
 44
0.0
300

342
10
174
     1
178
     3
175
     1
176
     0
 93
-1056964608
 45
5.0
292
     0
297
     0
 46
4.0
 94
-1056964608
 47
1.0
 49
1.0
140
1.0
293
     1
141
0.0
294
     1
177
     0
142
1.0
295
     0
296
     0
143
0.2
271
     0
272
     9
273
     9
1001
ACAD_MLEADERVER
1070
     2
  0
MLINESTYLE
  5
13
102
{ACAD_REACTORS
330
E
102
}
330
E
100
AcDbMlineStyle
  2
STANDARD
 70
     0
  3

 62
     0
 51
90.0
 52
90.0
 71
     2
 49
0.5
 62
   256
  6
BYLAYER
 49
-0.5
 62
   256
  6
BYLAYER
  0
ACDBPLACEHOLDER
  5
3AE
102
{ACAD_REACTORS
330
3AD
102
}
330
3AD
  0
SCALE
  5
2E39
102
{ACAD_REACTORS
330
2E38
102
}
330
2E38
100
AcDbScale
 70
     0
300
1:1
140
1.0
141
1.0
290
     1
  0
SCALE
  5
2E3A
102
{ACAD_REACTORS
330
2E38
102
}
330
2E38
100
AcDbScale
 70
     0
300
1:2
140
1.0
141
2.0
290
     0
  0
SCALE
  5
2E3B
102
{ACAD_REACTORS
330
2E38
102
}
330
2E38
100
AcDbScale
 70
     0
300
1:4
140
1.0
141
4.0
290
     0
  0
SCALE
  5
2E3C
102
{ACAD_REACTORS
330
2E38
102
}
330
2E38
100
AcDbScale
 70
     0
300
1:5
140
1.0
141
5.0
290
     0
  0
SCALE
  5
2E3D
102
{ACAD_REACTORS
330
2E38
102
}
330
2E38
100
AcDbScale
 70
     0
300
1:8
140
1.0
141
8.0
290
     0
  0
SCALE
  5
2E3E
102
{ACAD_REACTORS
330
2E38
102
}
330
2E38
100
AcDbScale
 70
     0
300
1:10
140
1.0
141
10.0
290
     0
  0
SCALE
  5
2E3F
102
{ACAD_REACTORS
330
2E38
102
}
330
2E38
100
AcDbScale
 70
     0
300
1:16
140
1.0
141
16.0
290
     0
  0
SCALE
  5
2E40
102
{ACAD_REACTORS
330
2E38
102
}
330
2E38
100
AcDbScale
 70
     0
300
1:20
140
1.0
141
20.0
290
     0
  0
SCALE
  5
2E41
102
{ACAD_REACTORS
330
2E38
102
}
330
2E38
100
AcDbScale
 70
     0
300
1:30
140
1.0
141
30.0
290
     0
  0
SCALE
  5
2E42
102
{ACAD_REACTORS
330
2E38
102
}
330
2E38
100
AcDbScale
 70
     0
300
1:40
140
1.0
141
40.0
290
     0
  0
SCALE
  5
2E43
102
{ACAD_REACTORS
330
2E38
102
}
330
2E38
100
AcDbScale
 70
     0
300
1:50
140
1.0
141
50.0
290
     0
  0
SCALE
  5
2E44
102
{ACAD_REACTORS
330
2E38
102
}
330
2E38
100
AcDbScale
 70
     0
300
1:100
140
1.0
141
100.0
290
     0
  0
SCALE
  5
2E45
102
{ACAD_REACTORS
330
2E38
102
}
330
2E38
100
AcDbScale
 70
     0
300
2:1
140
2.0
141
1.0
290
     0
  0
SCALE
  5
2E46
102
{ACAD_REACTORS
330
2E38
102
}
330
2E38
100
AcDbScale
 70
     0
300
4:1
140
4.0
141
1.0
290
     0
  0
SCALE
  5
2E47
102
{ACAD_REACTORS
330
2E38
102
}
330
2E38
100
AcDbScale
 70
     0
300
8:1
140
8.0
141
1.0
290
     0
  0
SCALE
  5
2E48
102
{ACAD_REACTORS
330
2E38
102
}
330
2E38
100
AcDbScale
 70
     0
300
10:1
140
10.0
141
1.0
290
     0
  0
SCALE
  5
2E49
102
{ACAD_REACTORS
330
2E38
102
}
330
2E38
100
AcDbScale
 70
     0
300
100:1
140
100.0
141
1.0
290
     0
  0
ACDBSECTIONVIEWSTYLE
  5
32BE
102
{ACAD_XDICTIONARY
360
5282
102
}
102
{ACAD_REACTORS
330
32BD
102
}
330
32BD
100
AcDbModelDocViewStyle
 70
     0
  3
Metric50
290
     0
100
AcDbSectionViewStyle
 70
     0
 71
     0
 90
      102
 71
     1
340
10
 62
   256
 40
5.0
340
0
340
0
 62
   256
 40
5.0
300
I, O, Q, S, X, Z
 40
10.0
 90
        0
 40
2.5
 90
        0
 71
     2
340
16
 90
       25
 62
   256
340
16
 90
       50
 62
   256
 40
5.0
 40
2.5
 40
5.0
 71
     3
340
10
 62
   256
 40
5.0
 90
        0
 40
15.0
 90
        1
300
%<\AcVar ViewSectionStartId>%-%<\AcVar ViewSectionEndId>% (%<\AcVar ViewScale \f "%sn">%)
 71
     4
 62
   256
 62
   257
300
ANSI31
 40
1.0
 90
        0
290
     0
290
     0
 90
        6
 40
0.0
 40
1.570796326794896
 40
0.2617993877991494
 40
1.308996938995747
 40
-0.2617993877991494
 40
1.832595714594044
1001
ACAD
1000
AcRTDxfName
1000
ACDBSECTIONVIEWSTYLE
1000
AcRTDxfName
1000
ACDBSECTIONVIEWSTYLE
1000
AcRTDxfName
1000
ACDBSECTIONVIEWSTYLE
1000
AcRTDxfName
1000
ACDBSECTIONVIEWSTYLE
1000
AcRTDxfName
1000
ACDBSECTIONVIEWSTYLE
1000
AcRTDxfName
1000
ACDBSECTIONVIEWSTYLE
1000
AcRTDxfName
1000
ACDBSECTIONVIEWSTYLE
1000
AcRTDxfName
1000
ACDBSECTIONVIEWSTYLE
1000
AcRTDxfName
1000
ACDBSECTIONVIEWSTYLE
  0
TABLESTYLE
  5
14DE
102
{ACAD_XDICTIONARY
360
2ECC
102
}
102
{ACAD_REACTORS
330
14DD
102
}
330
14DD
100
AcDbTableStyle
280
     0
  3
Standard
 70
     0
 71
     0
 40
1.5
 41
1.5
280
     0
281
     0
  7
STANDARD
140
4.5
170
     2
 62
     0
 63
     7
283
     0
 90
        4
 91
        0
  1

274
    -2
284
     1
 64
     0
275
    -2
285
     1
 65
     0
276
    -2
286
     1
 66
     0
277
    -2
287
     1
 67
     0
278
    -2
288
     1
 68
     0
279
    -2
289
     1
 69
     0
  7
STANDARD
140
6.0
170
     5
 62
     0
 63
     7
283
     0
 90
        4
 91
        0
  1

274
    -2
284
     1
 64
     0
275
    -2
285
     1
 65
     0
276
    -2
286
     1
 66
     0
277
    -2
287
     1
 67
     0
278
    -2
288
     1
 68
     0
279
    -2
289
     1
 69
     0
  7
STANDARD
140
4.5
170
     5
 62
     0
 63
     7
283
     0
 90
        4
 91
        0
  1

274
    -2
284
     1
 64
     0
275
    -2
285
     1
 65
     0
276
    -2
286
     1
 66
     0
277
    -2
287
     1
 67
     0
278
    -2
288
     1
 68
     0
279
    -2
289
     1
 69
     0
1001
ACAD
1000
AcRTDxfName
1000
TABLESTYLE
1000
AcRTDxfName
1000
TABLESTYLE
1000
AcRTDxfName
1000
TABLESTYLE
1000
AcRTDxfName
1000
TABLESTYLE
1000
AcRTDxfName
1000
TABLESTYLE
  0
VISUALSTYLE
  5
23EF
102
{ACAD_XDICTIONARY
360
5366
102
}
102
{ACAD_REACTORS
330
23E9
102
}
330
23E9
100
AcDbVisualStyle
  2

 70
     4
177
     2
291
     0
 71
     0
176
     1
 72
     2
176
     1
 73
     0
176
     1
 90
        0
176
     1
 40
0.6
176
     1
 41
30.0
176
     1
 63
     7
176
     1
 74
     1
176
     1
 91
        4
176
     1
 64
     7
176
     1
 65
   257
176
     1
 75
     1
176
     1
175
     1
176
     1
 42
1.0
176
     1
 92
        0
176
     1
 66
   257
176
     1
 43
1.0
176
     1
 76
     1
176
     1
 77
     6
176
     1
 78
     2
176
     1
 67
     7
176
     1
 79
     5
176
     1
170
     0
176
     1
171
     0
176
     1
290
     0
176
     1
 93
        1
176
     1
 44
0.0
176
     1
173
     0
176
     1
1001
ACAD
1000
AcRTDxfName
1000
VISUALSTYLE
1000
AcDbSavedByObjectVersion
1070
     0
  0
VISUALSTYLE
  5
23F1
102
{ACAD_XDICTIONARY
360
536A
102
}
102
{ACAD_REACTORS
330
23E9
102
}
330
23E9
100
AcDbVisualStyle
  2

 70
     6
177
     2
291
     0
 71
     1
176
     1
 72
     2
176
     1
 73
     2
176
     1
 90
        0
176
     1
 40
0.6
176
     1
 41
30.0
176
     1
 63
     7
176
     1
 74
     2
176
     1
 91
        2
176
     1
 64
     7
176
     1
 65
   257
176
     1
 75
     2
176
     1
175
     1
176
     1
 42
40.0
176
     1
 92
        0
176
     1
 66
   257
176
     1
 43
1.0
176
     1
 76
     1
176
     1
 77
     6
176
     1
 78
     2
176
     1
 67
     7
176
     1
 79
     3
176
     1
170
     0
176
     1
171
     0
176
     1
290
     0
176
     1
 93
        1
176
     1
 44
0.0
176
     1
173
     0
176
     1
1001
ACAD
1000
AcRTDxfName
1000
VISUALSTYLE
1000
AcDbSavedByObjectVersion
1070
     0
  0
VISUALSTYLE
  5
23F0
102
{ACAD_XDICTIONARY
360
5368
102
}
102
{ACAD_REACTORS
330
23E9
102
}
330
23E9
100
AcDbVisualStyle
  2

 70
     5
177
     2
291
     0
 71
     0
176
     1
 72
     2
176
     1
 73
     0
176
     1
 90
        0
176
     1
 40
0.6
176
     1
 41
30.0
176
     1
 63
     7
176
     1
 74
     1
176
     1
 91
        4
176
     1
 64
     7
176
     1
 65
   257
176
     1
 75
     1
176
     1
175
     1
176
     1
 42
1.0
176
     1
 92
        0
176
     1
 66
   257
176
     1
 43
1.0
176
     1
 76
     1
176
     1
 77
     6
176
     1
 78
     2
176
     1
 67
     7
176
     1
 79
     5
176
     1
170
     0
176
     1
171
     0
176
     1
290
     0
176
     1
 93
        1
176
     1
 44
0.0
176
     1
173
     0
176
     1
1001
ACAD
1000
AcRTDxfName
1000
VISUALSTYLE
1000
AcDbSavedByObjectVersion
1070
     0
  0
VISUALSTYLE
  5
23EE
102
{ACAD_XDICTIONARY
360
5364
102
}
102
{ACAD_REACTORS
330
23E9
102
}
330
23E9
100
AcDbVisualStyle
  2

 70
     7
177
     2
291
     1
 71
     1
176
     1
 72
     0
176
     1
 73
     1
176
     1
 90
        0
176
     1
 40
0.6
176
     1
 41
30.0
176
     1
 63
     7
176
     1
 74
     0
176
     1
 91
        4
176
     1
 64
     7
176
     1
 65
   257
176
     1
 75
     1
176
     1
175
     1
176
     1
 42
1.0
176
     1
 92
        8
176
     1
 66
     7
176
     1
 43
1.0
176
     1
 76
     1
176
     1
 77
     6
176
     1
 78
     2
176
     1
 67
     7
176
     1
 79
     5
176
     1
170
     0
176
     1
171
     0
176
     1
290
     0
176
     1
 93
        1
176
     1
 44
0.0
176
     1
173
     0
176
     1
1001
ACAD
1000
AcRTDxfName
1000
VISUALSTYLE
1000
AcDbSavedByObjectVersion
1070
     0
  0
VISUALSTYLE
  5
23F5
102
{ACAD_XDICTIONARY
360
5372
102
}
102
{ACAD_REACTORS
330
23E9
102
}
330
23E9
100
AcDbVisualStyle
  2

 70
    12
177
     2
291
     1
 71
     2
176
     1
 72
     2
176
     1
 73
     0
176
     1
 90
        0
176
     1
 40
0.6
176
     1
 41
30.0
176
     1
 63
     7
176
     1
 74
     1
176
     1
 91
        4
176
     1
 64
     7
176
     1
 65
   257
176
     1
 75
     1
176
     1
175
     1
176
     1
 42
1.0
176
     1
 92
        8
176
     1
 66
     7
176
     1
 43
1.0
176
     1
 76
     1
176
     1
 77
     6
176
     1
 78
     2
176
     1
 67
     7
176
     1
 79
     5
176
     1
170
     0
176
     1
171
     0
176
     1
290
     0
176
     1
 93
        1
176
     1
 44
50.0
176
     1
173
     0
176
     1
1001
ACAD
1000
AcRTDxfName
1000
VISUALSTYLE
1000
AcDbSavedByObjectVersion
1070
     0
  0
VISUALSTYLE
  5
23F9
102
{ACAD_XDICTIONARY
360
537A
102
}
102
{ACAD_REACTORS
330
23E9
102
}
330
23E9
100
AcDbVisualStyle
  2

 70
    16
177
     2
291
     1
 71
     2
176
     1
 72
     2
176
     1
 73
     3
176
     1
 90
        0
176
     1
 40
0.6
176
     1
 41
30.0
176
     1
 63
     8
176
     1
 74
     1
176
     1
 91
        4
176
     1
 64
     7
176
     1
 65
   257
176
     1
 75
     1
176
     1
175
     1
176
     1
 42
1.0
176
     1
 92
        8
176
     1
 66
     8
176
     1
 43
1.0
176
     1
 76
     1
176
     1
 77
     6
176
     1
 78
     2
176
     1
 67
     7
176
     1
 79
     5
176
     1
170
     0
176
     1
171
     0
176
     1
290
     0
176
     1
 93
        1
176
     1
 44
0.0
176
     1
173
     0
176
     1
1001
ACAD
1000
AcRTDxfName
1000
VISUALSTYLE
1000
AcDbSavedByObjectVersion
1070
     0
  0
VISUALSTYLE
  5
23F2
102
{ACAD_XDICTIONARY
360
536C
102
}
102
{ACAD_REACTORS
330
23E9
102
}
330
23E9
100
AcDbVisualStyle
  2

 70
     9
177
     2
291
     0
 71
     3
176
     1
 72
     2
176
     1
 73
     0
176
     1
 90
        0
176
     1
 40
0.6
176
     1
 41
30.0
176
     1
 63
     7
176
     1
 74
     2
176
     1
 91
        2
176
     1
 64
     7
176
     1
 65
   257
176
     1
 75
     1
176
     1
175
     1
176
     1
 42
40.0
176
     1
 92
        8
176
     1
 66
     7
176
     1
 43
1.0
176
     1
 76
     1
176
     1
 77
     6
176
     1
 78
     2
176
     1
 67
     7
176
     1
 79
     3
176
     1
170
     0
176
     1
171
     0
176
     1
290
     0
176
     1
 93
        1
176
     1
 44
0.0
176
     1
173
     0
176
     1
1001
ACAD
1000
AcRTDxfName
1000
VISUALSTYLE
1000
AcDbSavedByObjectVersion
1070
     0
  0
VISUALSTYLE
  5
23F4
102
{ACAD_XDICTIONARY
360
5370
102
}
102
{ACAD_REACTORS
330
23E9
102
}
330
23E9
100
AcDbVisualStyle
  2

 70
    11
177
     2
291
     1
 71
     2
176
     1
 72
     2
176
     1
 73
     0
176
     1
 90
        0
176
     1
 40
0.6
176
     1
 41
30.0
176
     1
 63
     7
176
     1
 74
     1
176
     1
 91
        4
176
     1
 64
     7
176
     1
 65
   257
176
     1
 75
     1
176
     1
175
     1
176
     1
 42
1.0
176
     1
 92
        8
176
     1
 66
     7
176
     1
 43
1.0
176
     1
 76
     1
176
     1
 77
     6
176
     1
 78
     2
176
     1
 67
     7
176
     1
 79
     5
176
     1
170
     0
176
     1
171
     0
176
     1
290
     0
176
     1
 93
        1
176
     1
 44
-50.0
176
     1
173
     0
176
     1
1001
ACAD
1000
AcRTDxfName
1000
VISUALSTYLE
1000
AcDbSavedByObjectVersion
1070
     0
  0
VISUALSTYLE
  5
2E37
102
{ACAD_XDICTIONARY
360
538E
102
}
102
{ACAD_REACTORS
330
23E9
102
}
330
23E9
100
AcDbVisualStyle
  2

 70
    22
177
     2
291
     1
 71
     2
176
     0
 72
     2
176
     0
 73
     0
176
     0
 90
        0
176
     0
 40
0.6
176
     0
 41
30.0
176
     0
 63
     7
176
     0
 74
     1
176
     0
 91
        4
176
     0
 64
     7
176
     0
 65
   257
176
     0
 75
     1
176
     0
175
     1
176
     0
 42
1.0
176
     0
 92
        8
176
     2
 66
     7
176
     0
 43
1.0
176
     0
 76
     1
176
     0
 77
     6
176
     0
 78
     2
176
     0
 67
     7
176
     0
 79
     5
176
     0
170
     0
176
     0
171
     0
176
     0
290
     0
176
     0
 93
        1
176
     0
 44
0.0
176
     0
173
     0
176
     0
1001
ACAD
1000
AcDbSavedByObjectVersion
1070
     0
  0
VISUALSTYLE
  5
23F8
102
{ACAD_XDICTIONARY
360
5378
102
}
102
{ACAD_REACTORS
330
23E9
102
}
330
23E9
100
AcDbVisualStyle
  2

 70
    15
177
     2
291
     1
 71
     2
176
     1
 72
     2
176
     1
 73
     0
176
     1
 90
        0
176
     1
 40
0.6
176
     1
 41
30.0
176
     1
 63
     7
176
     1
 74
     1
176
     1
 91
        4
176
     1
 64
     7
176
     1
 65
   257
176
     1
 75
     1
176
     1
175
     1
176
     1
 42
1.0
176
     1
 92
        8
176
     1
 66
     7
176
     1
 43
1.0
176
     1
 76
     1
176
     1
 77
     6
176
     1
 78
     2
176
     1
 67
     7
176
     1
 79
     5
176
     1
170
     0
176
     1
171
     0
176
     1
290
     0
176
     1
 93
        1
176
     1
 44
0.0
176
     1
173
     0
176
     1
1001
ACAD
1000
AcRTDxfName
1000
VISUALSTYLE
1000
AcDbSavedByObjectVersion
1070
     0
  0
VISUALSTYLE
  5
23EA
102
{ACAD_XDICTIONARY
360
535C
102
}
102
{ACAD_REACTORS
330
23E9
102
}
330
23E9
100
AcDbVisualStyle
  2

 70
     0
177
     2
291
     1
 71
     2
176
     1
 72
     1
176
     1
 73
     1
176
     1
 90
        2
176
     1
 40
0.6
176
     1
 41
30.0
176
     1
 63
     7
176
     1
 74
     0
176
     1
 91
        4
176
     1
 64
     7
176
     1
 65
   257
176
     1
 75
     1
176
     1
175
     1
176
     1
 42
1.0
176
     1
 92
        8
176
     1
 66
     7
176
     1
 43
1.0
176
     1
 76
     1
176
     1
 77
     6
176
     1
 78
     2
176
     1
 67
     7
176
     1
 79
     5
176
     1
170
     0
176
     1
171
     0
176
     1
290
     0
176
     1
 93
       13
176
     1
 44
0.0
176
     1
173
     0
176
     1
1001
ACAD
1000
AcRTDxfName
1000
VISUALSTYLE
1000
AcDbSavedByObjectVersion
1070
     0
  0
VISUALSTYLE
  5
23EB
102
{ACAD_XDICTIONARY
360
535E
102
}
102
{ACAD_REACTORS
330
23E9
102
}
330
23E9
100
AcDbVisualStyle
  2

 70
     1
177
     2
291
     1
 71
     2
176
     1
 72
     1
176
     1
 73
     1
176
     1
 90
        2
176
     1
 40
0.6
176
     1
 41
30.0
176
     1
 63
     7
176
     1
 74
     1
176
     1
 91
        4
176
     1
 64
     7
176
     1
 65
   257
176
     1
 75
     1
176
     1
175
     1
176
     1
 42
1.0
176
     1
 92
        0
176
     1
 66
   257
176
     1
 43
1.0
176
     1
 76
     1
176
     1
 77
     6
176
     1
 78
     2
176
     1
 67
     7
176
     1
 79
     5
176
     1
170
     0
176
     1
171
     0
176
     1
290
     0
176
     1
 93
       13
176
     1
 44
0.0
176
     1
173
     0
176
     1
1001
ACAD
1000
AcRTDxfName
1000
VISUALSTYLE
1000
AcDbSavedByObjectVersion
1070
     0
  0
VISUALSTYLE
  5
23EC
102
{ACAD_XDICTIONARY
360
5360
102
}
102
{ACAD_REACTORS
330
23E9
102
}
330
23E9
100
AcDbVisualStyle
  2

 70
     2
177
     2
291
     1
 71
     2
176
     1
 72
     2
176
     1
 73
     1
176
     1
 90
        2
176
     1
 40
0.6
176
     1
 41
30.0
176
     1
 63
     7
176
     1
 74
     0
176
     1
 91
        4
176
     1
 64
     7
176
     1
 65
   257
176
     1
 75
     1
176
     1
175
     1
176
     1
 42
1.0
176
     1
 92
        0
176
     1
 66
     7
176
     1
 43
1.0
176
     1
 76
     1
176
     1
 77
     6
176
     1
 78
     2
176
     1
 67
     7
176
     1
 79
     5
176
     1
170
     0
176
     1
171
     0
176
     1
290
     0
176
     1
 93
       13
176
     1
 44
0.0
176
     1
173
     0
176
     1
1001
ACAD
1000
AcRTDxfName
1000
VISUALSTYLE
1000
AcDbSavedByObjectVersion
1070
     0
  0
VISUALSTYLE
  5
23ED
102
{ACAD_XDICTIONARY
360
5362
102
}
102
{ACAD_REACTORS
330
23E9
102
}
330
23E9
100
AcDbVisualStyle
  2

 70
     3
177
     2
291
     1
 71
     2
176
     1
 72
     2
176
     1
 73
     1
176
     1
 90
        2
176
     1
 40
0.6
176
     1
 41
30.0
176
     1
 63
     7
176
     1
 74
     1
176
     1
 91
        4
176
     1
 64
     7
176
     1
 65
   257
176
     1
 75
     1
176
     1
175
     1
176
     1
 42
1.0
176
     1
 92
        0
176
     1
 66
   257
176
     1
 43
1.0
176
     1
 76
     1
176
     1
 77
     6
176
     1
 78
     2
176
     1
 67
     7
176
     1
 79
     5
176
     1
170
     0
176
     1
171
     0
176
     1
290
     0
176
     1
 93
       13
176
     1
 44
0.0
176
     1
173
     0
176
     1
1001
ACAD
1000
AcRTDxfName
1000
VISUALSTYLE
1000
AcDbSavedByObjectVersion
1070
     0
  0
VISUALSTYLE
  5
2E2F
102
{ACAD_XDICTIONARY
360
537E
102
}
102
{ACAD_REACTORS
330
23E9
102
}
330
23E9
100
AcDbVisualStyle
  2

 70
     6
177
     2
291
     0
 71
     1
176
     1
 72
     2
176
     1
 73
     2
176
     1
 90
        0
176
     1
 40
0.6
176
     1
 41
30.0
176
     1
 63
     7
176
     1
 74
     2
176
     1
 91
        2
176
     1
 64
     7
176
     1
 65
   257
176
     1
 75
     2
176
     1
175
     1
176
     1
 42
40.0
176
     1
 92
        0
176
     1
 66
   257
176
     1
 43
1.0
176
     1
 76
     1
176
     1
 77
     6
176
     1
 78
     2
176
     1
 67
     7
176
     1
 79
     3
176
     1
170
     0
176
     1
171
     0
176
     1
290
     0
176
     1
 93
        1
176
     1
 44
0.0
176
     1
173
     0
176
     1
1001
ACAD
1000
AcDbSavedByObjectVersion
1070
     0
  0
VISUALSTYLE
  5
2E35
102
{ACAD_XDICTIONARY
360
538A
102
}
102
{ACAD_REACTORS
330
23E9
102
}
330
23E9
100
AcDbVisualStyle
  2

 70
    20
177
     2
291
     1
 71
     2
176
     0
 72
     2
176
     0
 73
     0
176
     0
 90
        0
176
     0
 40
0.6
176
     0
 41
30.0
176
     0
 63
     7
176
     0
 74
     1
176
     0
 91
        4
176
     0
 64
     7
176
     0
 65
   257
176
     0
 75
     1
176
     0
175
     1
176
     0
 42
1.0
176
     0
 92
       10
176
     2
 66
     7
176
     0
 43
1.0
176
     0
 76
     1
176
     0
 77
     6
176
     0
 78
     2
176
     0
 67
     7
176
     0
 79
     5
176
     0
170
     0
176
     0
171
     0
176
     0
290
     0
176
     0
 93
        1
176
     0
 44
0.0
176
     0
173
     0
176
     0
1001
ACAD
1000
AcDbSavedByObjectVersion
1070
     0
  0
VISUALSTYLE
  5
23F7
102
{ACAD_XDICTIONARY
360
5376
102
}
102
{ACAD_REACTORS
330
23E9
102
}
330
23E9
100
AcDbVisualStyle
  2

 70
    14
177
     2
291
     1
 71
     2
176
     1
 72
     2
176
     1
 73
     0
176
     1
 90
        0
176
     1
 40
0.6
176
     1
 41
30.0
176
     1
 63
     7
176
     1
 74
     1
176
     1
 91
        4
176
     1
 64
     7
176
     1
 65
   257
176
     1
 75
     7
176
     1
175
     7
176
     1
 42
1.0
176
     1
 92
        8
176
     1
 66
     7
176
     1
 43
1.0
176
     1
 76
     1
176
     1
 77
     6
176
     1
 78
     2
176
     1
 67
     7
176
     1
 79
     5
176
     1
170
     0
176
     1
171
     0
176
     1
290
     0
176
     1
 93
        1
176
     1
 44
0.0
176
     1
173
     0
176
     1
1001
ACAD
1000
AcRTDxfName
1000
VISUALSTYLE
1000
AcDbSavedByObjectVersion
1070
     0
  0
VISUALSTYLE
  5
2E36
102
{ACAD_XDICTIONARY
360
538C
102
}
102
{ACAD_REACTORS
330
23E9
102
}
330
23E9
100
AcDbVisualStyle
  2

 70
    21
177
     2
291
     1
 71
     2
176
     0
 72
     2
176
     0
 73
     0
176
     0
 90
        0
176
     0
 40
0.6
176
     0
 41
30.0
176
     0
 63
     7
176
     0
 74
     1
176
     0
 91
        4
176
     0
 64
     7
176
     0
 65
   257
176
     0
 75
     1
176
     0
175
     1
176
     0
 42
1.0
176
     0
 92
        9
176
     2
 66
     7
176
     0
 43
1.0
176
     0
 76
     1
176
     0
 77
     6
176
     0
 78
     2
176
     0
 67
     7
176
     0
 79
     5
176
     0
170
     0
176
     0
171
     0
176
     0
290
     0
176
     0
 93
        1
176
     0
 44
0.0
176
     0
173
     0
176
     0
1001
ACAD
1000
AcDbSavedByObjectVersion
1070
     0
  0
VISUALSTYLE
  5
23F3
102
{ACAD_XDICTIONARY
360
536E
102
}
102
{ACAD_REACTORS
330
23E9
102
}
330
23E9
100
AcDbVisualStyle
  2

 70
     8
177
     2
291
     0
 71
     2
176
     1
 72
     2
176
     1
 73
     0
176
     1
 90
        0
176
     1
 40
0.6
176
     1
 41
30.0
176
     1
 63
     7
176
     1
 74
     1
176
     1
 91
        0
176
     1
 64
     7
176
     1
 65
   257
176
     1
 75
     1
176
     1
175
     1
176
     1
 42
1.0
176
     1
 92
        8
176
     1
 66
     8
176
     1
 43
1.0
176
     1
 76
     1
176
     1
 77
     6
176
     1
 78
     2
176
     1
 67
     7
176
     1
 79
     5
176
     1
170
     0
176
     1
171
     0
176
     1
290
     0
176
     1
 93
       13
176
     1
 44
0.0
176
     1
173
     0
176
     1
1001
ACAD
1000
AcRTDxfName
1000
VISUALSTYLE
1000
AcDbSavedByObjectVersion
1070
     0
  0
VISUALSTYLE
  5
2E34
102
{ACAD_XDICTIONARY
360
5388
102
}
102
{ACAD_REACTORS
330
23E9
102
}
330
23E9
100
AcDbVisualStyle
  2

 70
    27
177
     2
291
     0
 71
     2
176
     1
 72
     2
176
     1
 73
     1
176
     1
 90
        2
176
     1
 40
0.6
176
     1
 41
30.0
176
     1
 63
     7
176
     1
 74
     0
176
     1
 91
        4
176
     1
 64
     7
176
     1
 65
   257
176
     1
 75
     1
176
     1
175
     1
176
     1
 42
1.0
176
     1
 92
        8
176
     1
 66
   257
176
     1
 43
1.0
176
     1
 76
     1
176
     1
 77
     6
176
     1
 78
     2
176
     1
 67
     8
176
     1
 79
     3
176
     1
170
     0
176
     1
171
     0
176
     1
290
     0
176
     1
 93
        5
176
     1
 44
0.0
176
     1
173
     0
176
     1
1001
ACAD
1000
AcDbSavedByObjectVersion
1070
     0
  0
VISUALSTYLE
  5
2E33
102
{ACAD_XDICTIONARY
360
5386
102
}
102
{ACAD_REACTORS
330
23E9
102
}
330
23E9
100
AcDbVisualStyle
  2

 70
    26
177
     2
291
     0
 71
     2
176
     1
 72
     2
176
     1
 73
     1
176
     1
 90
        2
176
     1
 40
0.6
176
     1
 41
30.0
176
     1
 63
     7
176
     1
 74
     1
176
     1
 91
        2
176
     1
 64
     7
176
     1
 65
   257
176
     1
 75
     2
176
     1
175
     1
176
     1
 42
1.0
176
     1
 92
        8
176
     1
 66
   257
176
     1
 43
1.0
176
     1
 76
     1
176
     1
 77
     6
176
     1
 78
     2
176
     1
 67
     7
176
     1
 79
     3
176
     1
170
     0
176
     1
171
     0
176
     1
290
     0
176
     1
 93
        5
176
     1
 44
0.0
176
     1
173
     0
176
     1
1001
ACAD
1000
AcDbSavedByObjectVersion
1070
     0
  0
VISUALSTYLE
  5
2E30
102
{ACAD_XDICTIONARY
360
5380
102
}
102
{ACAD_REACTORS
330
23E9
102
}
330
23E9
100
AcDbVisualStyle
  2

 70
    23
177
     2
291
     0
 71
     2
176
     1
 72
     2
176
     1
 73
     3
176
     1
 90
        0
176
     1
 40
0.6
176
     1
 41
30.0
176
     1
 63
     7
176
     1
 74
     2
176
     1
 91
        2
176
     1
 64
     7
176
     1
 65
     7
176
     1
 75
     1
176
     1
175
     1
176
     1
 42
40.0
176
     1
 92
        8
176
     1
 66
     7
176
     1
 43
1.0
176
     1
 76
     1
176
     1
 77
     6
176
     1
 78
     2
176
     1
 67
     7
176
     1
 79
     3
176
     1
170
     0
176
     1
171
     0
176
     1
290
     0
176
     1
 93
        1
176
     1
 44
0.0
176
     1
173
     0
176
     1
1001
ACAD
1000
AcDbSavedByObjectVersion
1070
     0
  0
VISUALSTYLE
  5
2E31
102
{ACAD_XDICTIONARY
360
5382
102
}
102
{ACAD_REACTORS
330
23E9
102
}
330
23E9
100
AcDbVisualStyle
  2

 70
    24
177
     2
291
     0
 71
     1
176
     1
 72
     2
176
     1
 73
     2
176
     1
 90
        0
176
     1
 40
0.6
176
     1
 41
30.0
176
     1
 63
     7
176
     1
 74
     2
176
     1
 91
        2
176
     1
 64
     7
176
     1
 65
     7
176
     1
 75
     1
176
     1
175
     1
176
     1
 42
40.0
176
     1
 92
       11
176
     1
 66
     7
176
     1
 43
1.0
176
     1
 76
     1
176
     1
 77
     6
176
     1
 78
     2
176
     1
 67
     7
176
     1
 79
     6
176
     1
170
     0
176
     1
171
     0
176
     1
290
     0
176
     1
 93
        1
176
     1
 44
0.0
176
     1
173
     0
176
     1
1001
ACAD
1000
AcDbSavedByObjectVersion
1070
     0
  0
VISUALSTYLE
  5
23F6
102
{ACAD_XDICTIONARY
360
5374
102
}
102
{ACAD_REACTORS
330
23E9
102
}
330
23E9
100
AcDbVisualStyle
  2

 70
    13
177
     2
291
     1
 71
     2
176
     1
 72
     2
176
     1
 73
     0
176
     1
 90
        0
176
     1
 40
0.6
176
     1
 41
30.0
176
     1
 63
     7
176
     1
 74
     1
176
     1
 91
        4
176
     1
 64
     7
176
     1
 65
   257
176
     1
 75
     1
176
     1
175
     1
176
     1
 42
1.0
176
     1
 92
       12
176
     1
 66
     7
176
     1
 43
1.0
176
     1
 76
     1
176
     1
 77
     6
176
     1
 78
     2
176
     1
 67
     7
176
     1
 79
     5
176
     1
170
     0
176
     1
171
     0
176
     1
290
     0
176
     1
 93
        1
176
     1
 44
0.0
176
     1
173
     0
176
     1
1001
ACAD
1000
AcRTDxfName
1000
VISUALSTYLE
1000
AcDbSavedByObjectVersion
1070
     0
  0
VISUALSTYLE
  5
2E2E
102
{ACAD_XDICTIONARY
360
537C
102
}
102
{ACAD_REACTORS
330
23E9
102
}
330
23E9
100
AcDbVisualStyle
  2

 70
     5
177
     2
291
     0
 71
     0
176
     1
 72
     2
176
     1
 73
     0
176
     1
 90
        0
176
     1
 40
0.6
176
     1
 41
30.0
176
     1
 63
     7
176
     1
 74
     1
176
     1
 91
        4
176
     1
 64
     7
176
     1
 65
   257
176
     1
 75
     1
176
     1
175
     1
176
     1
 42
1.0
176
     1
 92
        0
176
     1
 66
   257
176
     1
 43
1.0
176
     1
 76
     1
176
     1
 77
     6
176
     1
 78
     2
176
     1
 67
     7
176
     1
 79
     3
176
     1
170
     0
176
     1
171
     0
176
     1
290
     0
176
     1
 93
        1
176
     1
 44
0.0
176
     1
173
     0
176
     1
1001
ACAD
1000
AcDbSavedByObjectVersion
1070
     0
  0
VISUALSTYLE
  5
2E32
102
{ACAD_XDICTIONARY
360
5384
102
}
102
{ACAD_REACTORS
330
23E9
102
}
330
23E9
100
AcDbVisualStyle
  2

 70
    25
177
     2
291
     0
 71
     2
176
     1
 72
     2
176
     1
 73
     1
176
     1
 90
        1
176
     1
 40
0.5
176
     1
 41
30.0
176
     1
 63
     7
176
     1
 74
     1
176
     1
 91
        0
176
     1
 64
     7
176
     1
 65
   257
176
     1
 75
     1
176
     1
175
     1
176
     1
 42
1.0
176
     1
 92
        8
176
     1
 66
     7
176
     1
 43
1.0
176
     1
 76
     1
176
     1
 77
     6
176
     1
 78
     2
176
     1
 67
     7
176
     1
 79
     3
176
     1
170
     0
176
     1
171
     0
176
     1
290
     0
176
     1
 93
       13
176
     1
 44
0.0
176
     1
173
     0
176
     1
1001
ACAD
1000
AcDbSavedByObjectVersion
1070
     0
  0
DICTIONARYVAR
  5
2F11
102
{ACAD_REACTORS
330
1904
102
}
330
1904
100
DictionaryVariables
280
     0
  1
1:2
  0
DICTIONARYVAR
  5
2F10
102
{ACAD_REACTORS
330
1904
102
}
330
1904
100
DictionaryVariables
280
     0
  1
STANDARD
  0
DICTIONARYVAR
  5
1905
102
{ACAD_REACTORS
330
1904
102
}
330
1904
100
DictionaryVariables
280
     0
  1
STANDARD
  0
DICTIONARYVAR
  5
335F
102
{ACAD_REACTORS
330
1904
102
}
330
1904
100
DictionaryVariables
280
     0
  1
Metric50
  0
DICTIONARYVAR
  5
3360
102
{ACAD_REACTORS
330
1904
102
}
330
1904
100
DictionaryVariables
280
     0
  1
Metric50
  0
DICTIONARYVAR
  5
22C6
102
{ACAD_REACTORS
330
1904
102
}
330
1904
100
DictionaryVariables
280
     0
  1
1
  0
DICTIONARYVAR
  5
527F
102
{ACAD_REACTORS
330
1904
102
}
330
1904
100
DictionaryVariables
280
     0
  1
7
  0
DICTIONARYVAR
  5
527E
102
{ACAD_REACTORS
330
1904
102
}
330
1904
100
DictionaryVariables
280
     0
  1
ByLayer
  0
DICTIONARYVAR
  5
2F3C
102
{ACAD_REACTORS
330
1904
102
}
330
1904
100
DictionaryVariables
280
     0
  1
0
  0
DICTIONARYVAR
  5
3874
102
{ACAD_REACTORS
330
1904
102
}
330
1904
100
DictionaryVariables
280
     0
  1
1
  0
DICTIONARYVAR
  5
3875
102
{ACAD_REACTORS
330
1904
102
}
330
1904
100
DictionaryVariables
280
     0
  1
15
  0
DICTIONARYVAR
  5
3873
102
{ACAD_REACTORS
330
1904
102
}
330
1904
100
DictionaryVariables
280
     0
  1
0
  0
DICTIONARYVAR
  5
3872
102
{ACAD_REACTORS
330
1904
102
}
330
1904
100
DictionaryVariables
280
     0
  1
0
  0
DICTIONARYVAR
  5
22C7
102
{ACAD_REACTORS
330
1904
102
}
330
1904
100
DictionaryVariables
280
     0
  1

  0
DICTIONARYVAR
  5
2F3B
102
{ACAD_REACTORS
330
1904
102
}
330
1904
100
DictionaryVariables
280
     0
  1
127
  0
DICTIONARY
  5
535B
102
{ACAD_REACTORS
330
5359
102
}
330
5359
100
AcDbDictionary
281
     1
  0
DICTIONARY
  5
535A
102
{ACAD_REACTORS
330
5359
102
}
330
5359
100
AcDbDictionary
281
     1
  3
2467219737408
350
5354
  3
2467219737424
350
5355
  3
2467219737440
350
5356
  3
2467219737456
350
5357
  3
2467219737472
350
5358
  0
DICTIONARY
  5
5284
330
32C0
100
AcDbDictionary
280
     1
281
     1
  3
ACAD_XREC_ROUNDTRIP
360
5393
  0
DICTIONARY
  5
2ECA
330
3B3
100
AcDbDictionary
280
     1
281
     1
  0
DICTIONARY
  5
460C
330
23E7
100
AcDbDictionary
280
     1
281
     1
  3
ACAD_XREC_ROUNDTRIP
360
460D
  0
DICTIONARY
  5
460A
330
23E6
100
AcDbDictionary
280
     1
281
     1
  3
ACAD_XREC_ROUNDTRIP
360
460B
  0
DICTIONARY
  5
460E
330
23E8
100
AcDbDictionary
280
     1
281
     1
  3
ACAD_XREC_ROUNDTRIP
360
460F
  0
DICTIONARY
  5
5390
330
2E4B
100
AcDbDictionary
280
     1
281
     1
  3
ACAD_XREC_ROUNDTRIP
360
5391
  0
DICTIONARY
  5
5282
330
32BE
100
AcDbDictionary
280
     1
281
     1
  3
ACAD_XREC_ROUNDTRIP
360
5392
  0
DICTIONARY
  5
2ECC
330
14DE
100
AcDbDictionary
280
     1
281
     1
  3
ACAD_ROUNDTRIP_2008_TABLESTYLE_CELLSTYLEMAP
360
5350
  0
DICTIONARY
  5
5366
330
23EF
100
AcDbDictionary
280
     1
281
     1
  3
ACAD_XREC_ROUNDTRIP
360
5367
  0
DICTIONARY
  5
536A
330
23F1
100
AcDbDictionary
280
     1
281
     1
  3
ACAD_XREC_ROUNDTRIP
360
536B
  0
DICTIONARY
  5
5368
330
23F0
100
AcDbDictionary
280
     1
281
     1
  3
ACAD_XREC_ROUNDTRIP
360
5369
  0
DICTIONARY
  5
5364
330
23EE
100
AcDbDictionary
280
     1
281
     1
  3
ACAD_XREC_ROUNDTRIP
360
5365
  0
DICTIONARY
  5
5372
330
23F5
100
AcDbDictionary
280
     1
281
     1
  3
ACAD_XREC_ROUNDTRIP
360
5373
  0
DICTIONARY
  5
537A
330
23F9
100
AcDbDictionary
280
     1
281
     1
  3
ACAD_XREC_ROUNDTRIP
360
537B
  0
DICTIONARY
  5
536C
330
23F2
100
AcDbDictionary
280
     1
281
     1
  3
ACAD_XREC_ROUNDTRIP
360
536D
  0
DICTIONARY
  5
5370
330
23F4
100
AcDbDictionary
280
     1
281
     1
  3
ACAD_XREC_ROUNDTRIP
360
5371
  0
DICTIONARY
  5
538E
330
2E37
100
AcDbDictionary
280
     1
281
     1
  3
ACAD_XREC_ROUNDTRIP
360
538F
  0
DICTIONARY
  5
5378
330
23F8
100
AcDbDictionary
280
     1
281
     1
  3
ACAD_XREC_ROUNDTRIP
360
5379
  0
DICTIONARY
  5
535C
330
23EA
100
AcDbDictionary
280
     1
281
     1
  3
ACAD_XREC_ROUNDTRIP
360
535D
  0
DICTIONARY
  5
535E
330
23EB
100
AcDbDictionary
280
     1
281
     1
  3
ACAD_XREC_ROUNDTRIP
360
535F
  0
DICTIONARY
  5
5360
330
23EC
100
AcDbDictionary
280
     1
281
     1
  3
ACAD_XREC_ROUNDTRIP
360
5361
  0
DICTIONARY
  5
5362
330
23ED
100
AcDbDictionary
280
     1
281
     1
  3
ACAD_XREC_ROUNDTRIP
360
5363
  0
DICTIONARY
  5
537E
330
2E2F
100
AcDbDictionary
280
     1
281
     1
  3
ACAD_XREC_ROUNDTRIP
360
537F
  0
DICTIONARY
  5
538A
330
2E35
100
AcDbDictionary
280
     1
281
     1
  3
ACAD_XREC_ROUNDTRIP
360
538B
  0
DICTIONARY
  5
5376
330
23F7
100
AcDbDictionary
280
     1
281
     1
  3
ACAD_XREC_ROUNDTRIP
360
5377
  0
DICTIONARY
  5
538C
330
2E36
100
AcDbDictionary
280
     1
281
     1
  3
ACAD_XREC_ROUNDTRIP
360
538D
  0
DICTIONARY
  5
536E
330
23F3
100
AcDbDictionary
280
     1
281
     1
  3
ACAD_XREC_ROUNDTRIP
360
536F
  0
DICTIONARY
  5
5388
330
2E34
100
AcDbDictionary
280
     1
281
     1
  3
ACAD_XREC_ROUNDTRIP
360
5389
  0
DICTIONARY
  5
5386
330
2E33
100
AcDbDictionary
280
     1
281
     1
  3
ACAD_XREC_ROUNDTRIP
360
5387
  0
DICTIONARY
  5
5380
330
2E30
100
AcDbDictionary
280
     1
281
     1
  3
ACAD_XREC_ROUNDTRIP
360
5381
  0
DICTIONARY
  5
5382
330
2E31
100
AcDbDictionary
280
     1
281
     1
  3
ACAD_XREC_ROUNDTRIP
360
5383
  0
DICTIONARY
  5
5374
330
23F6
100
AcDbDictionary
280
     1
281
     1
  3
ACAD_XREC_ROUNDTRIP
360
5375
  0
DICTIONARY
  5
537C
330
2E2E
100
AcDbDictionary
280
     1
281
     1
  3
ACAD_XREC_ROUNDTRIP
360
537D
  0
DICTIONARY
  5
5384
330
2E32
100
AcDbDictionary
280
     1
281
     1
  3
ACAD_XREC_ROUNDTRIP
360
5385
  0
XRECORD
  5
5354
102
{ACAD_REACTORS
330
535A
102
}
330
535A
100
AcDbXrecord
280
     1
  1
AcDb_Thumbnail_Schema
102
{ATTRRECORD
341
5355
  2
AcDbDs::TreatedAsObjectData
280
     1
291
     1
102
ATTRRECORD}
102
{ATTRRECORD
341
5356
  2
AcDbDs::Legacy
280
     1
291
     1
102
ATTRRECORD}
  2
AcDbDs::ID
280
    10
 91
        8
102
{ATTRRECORD
341
5357
  2
AcDs:Indexable
280
     1
291
     1
102
ATTRRECORD}
102
{ATTRRECORD
341
5358
  2
AcDbDs::HandleAttribute
280
     7
282
     1
102
ATTRRECORD}
  2
Thumbnail_Data
280
    15
 91
        0
  0
XRECORD
  5
5355
102
{ACAD_REACTORS
330
535A
102
}
330
535A
100
AcDbXrecord
280
     1
  1
AcDbDs::TreatedAsObjectDataSchema
  2
AcDbDs::TreatedAsObjectData
280
     1
 91
        0
  0
XRECORD
  5
5356
102
{ACAD_REACTORS
330
535A
102
}
330
535A
100
AcDbXrecord
280
     1
  1
AcDbDs::LegacySchema
  2
AcDbDs::Legacy
280
     1
 91
        0
  0
XRECORD
  5
5357
102
{ACAD_REACTORS
330
535A
102
}
330
535A
100
AcDbXrecord
280
     1
  1
AcDbDs::IndexedPropertySchema
  2
AcDs:Indexable
280
     1
 91
        0
  0
XRECORD
  5
5358
102
{ACAD_REACTORS
330
535A
102
}
330
535A
100
AcDbXrecord
280
     1
  1
AcDbDs::HandleAttributeSchema
  2
AcDbDs::HandleAttribute
280
     7
 91
        1
284
     1
  0
XRECORD
  5
5393
102
{ACAD_REACTORS
330
5284
102
}
330
5284
100
AcDbXrecord
280
     1
102
DISPLAYNAME
  1
Metric50
102
FLAGS
 90
        0
  0
XRECORD
  5
460D
102
{ACAD_REACTORS
330
460C
102
}
330
460C
100
AcDbXrecord
280
     1
102
MATERIAL
148
0.0
149
0.0
149
0.0
 93
        0
 94
       63
282
     0
 72
     1
 77
     1
171
     1
175
     1
179
     1
273
     0
  0
XRECORD
  5
460B
102
{ACAD_REACTORS
330
460A
102
}
330
460A
100
AcDbXrecord
280
     1
102
MATERIAL
148
0.0
149
0.0
149
0.0
 93
        0
 94
       63
282
     0
 72
     1
 77
     1
171
     1
175
     1
179
     1
273
     0
  0
XRECORD
  5
460F
102
{ACAD_REACTORS
330
460E
102
}
330
460E
100
AcDbXrecord
280
     1
102
MATERIAL
148
0.0
149
0.0
149
0.0
 93
        0
 94
       63
282
     0
 72
     1
 77
     1
171
     1
175
     1
179
     1
273
     0
  0
XRECORD
  5
5391
102
{ACAD_REACTORS
330
5390
102
}
330
5390
100
AcDbXrecord
280
     1
102
ACAD_ROUNDTRIP_2012_MLEADER_STYLE
298
     1
  0
XRECORD
  5
5392
102
{ACAD_REACTORS
330
5282
102
}
330
5282
100
AcDbXrecord
280
     1
102
DISPLAYNAME
  1
Metric50
102
FLAGS
 90
        0
  0
CELLSTYLEMAP
  5
5350
102
{ACAD_REACTORS
330
2ECC
102
}
330
2ECC
100
AcDbCellStyleMap
 90
        3
300
CELLSTYLE
  1
TABLEFORMAT_BEGIN
 90
        5
170
     1
 91
        0
 92
    32768
 62
   257
 93
        1
300
CONTENTFORMAT
  1
CONTENTFORMAT_BEGIN
 90
        0
 91
        0
 92
        4
 93
        0
300

 40
0.0
140
1.0
 94
        5
 62
     0
340
10
144
6.0
309
CONTENTFORMAT_END
171
     1
301
MARGIN
  1
CELLMARGIN_BEGIN
 40
1.5
 40
1.5
 40
1.5
 40
1.5
 40
0.18
 40
0.18
309
CELLMARGIN_END
 94
        6
 95
        1
302
GRIDFORMAT
  1
GRIDFORMAT_BEGIN
 90
        0
 91
        1
 62
     0
 92
       -2
340
0
 93
        0
 40
0.045
309
GRIDFORMAT_END
 95
        2
302
GRIDFORMAT
  1
GRIDFORMAT_BEGIN
 90
        0
 91
        1
 62
     0
 92
       -2
340
0
 93
        0
 40
0.045
309
GRIDFORMAT_END
 95
        4
302
GRIDFORMAT
  1
GRIDFORMAT_BEGIN
 90
        0
 91
        1
 62
     0
 92
       -2
340
0
 93
        0
 40
0.045
309
GRIDFORMAT_END
 95
        8
302
GRIDFORMAT
  1
GRIDFORMAT_BEGIN
 90
        0
 91
        1
 62
     0
 92
       -2
340
0
 93
        0
 40
0.045
309
GRIDFORMAT_END
 95
       16
302
GRIDFORMAT
  1
GRIDFORMAT_BEGIN
 90
        0
 91
        1
 62
     0
 92
       -2
340
0
 93
        0
 40
0.045
309
GRIDFORMAT_END
 95
       32
302
GRIDFORMAT
  1
GRIDFORMAT_BEGIN
 90
        0
 91
        1
 62
     0
 92
       -2
340
0
 93
        0
 40
0.045
309
GRIDFORMAT_END
309
TABLEFORMAT_END
  1
CELLSTYLE_BEGIN
 90
        1
 91
        1
300
_TITLE
309
CELLSTYLE_END
300
CELLSTYLE
  1
TABLEFORMAT_BEGIN
 90
        5
170
     1
 91
        0
 92
        0
 62
   257
 93
        1
300
CONTENTFORMAT
  1
CONTENTFORMAT_BEGIN
 90
        0
 91
        0
 92
        4
 93
        0
300

 40
0.0
140
1.0
 94
        5
 62
     0
340
10
144
4.5
309
CONTENTFORMAT_END
171
     1
301
MARGIN
  1
CELLMARGIN_BEGIN
 40
1.5
 40
1.5
 40
1.5
 40
1.5
 40
0.18
 40
0.18
309
CELLMARGIN_END
 94
        6
 95
        1
302
GRIDFORMAT
  1
GRIDFORMAT_BEGIN
 90
        0
 91
        1
 62
     0
 92
       -2
340
0
 93
        0
 40
0.045
309
GRIDFORMAT_END
 95
        2
302
GRIDFORMAT
  1
GRIDFORMAT_BEGIN
 90
        0
 91
        1
 62
     0
 92
       -2
340
0
 93
        0
 40
0.045
309
GRIDFORMAT_END
 95
        4
302
GRIDFORMAT
  1
GRIDFORMAT_BEGIN
 90
        0
 91
        1
 62
     0
 92
       -2
340
0
 93
        0
 40
0.045
309
GRIDFORMAT_END
 95
        8
302
GRIDFORMAT
  1
GRIDFORMAT_BEGIN
 90
        0
 91
        1
 62
     0
 92
       -2
340
0
 93
        0
 40
0.045
309
GRIDFORMAT_END
 95
       16
302
GRIDFORMAT
  1
GRIDFORMAT_BEGIN
 90
        0
 91
        1
 62
     0
 92
       -2
340
0
 93
        0
 40
0.045
309
GRIDFORMAT_END
 95
       32
302
GRIDFORMAT
  1
GRIDFORMAT_BEGIN
 90
        0
 91
        1
 62
     0
 92
       -2
340
0
 93
        0
 40
0.045
309
GRIDFORMAT_END
309
TABLEFORMAT_END
  1
CELLSTYLE_BEGIN
 90
        2
 91
        1
300
_HEADER
309
CELLSTYLE_END
300
CELLSTYLE
  1
TABLEFORMAT_BEGIN
 90
        5
170
     1
 91
        0
 92
        0
 62
   257
 93
        1
300
CONTENTFORMAT
  1
CONTENTFORMAT_BEGIN
 90
        0
 91
        0
 92
        4
 93
        0
300

 40
0.0
140
1.0
 94
        2
 62
     0
340
10
144
4.5
309
CONTENTFORMAT_END
171
     1
301
MARGIN
  1
CELLMARGIN_BEGIN
 40
1.5
 40
1.5
 40
1.5
 40
1.5
 40
0.18
 40
0.18
309
CELLMARGIN_END
 94
        6
 95
        1
302
GRIDFORMAT
  1
GRIDFORMAT_BEGIN
 90
        0
 91
        1
 62
     0
 92
       -2
340
0
 93
        0
 40
0.045
309
GRIDFORMAT_END
 95
        2
302
GRIDFORMAT
  1
GRIDFORMAT_BEGIN
 90
        0
 91
        1
 62
     0
 92
       -2
340
0
 93
        0
 40
0.045
309
GRIDFORMAT_END
 95
        4
302
GRIDFORMAT
  1
GRIDFORMAT_BEGIN
 90
        0
 91
        1
 62
     0
 92
       -2
340
0
 93
        0
 40
0.045
309
GRIDFORMAT_END
 95
        8
302
GRIDFORMAT
  1
GRIDFORMAT_BEGIN
 90
        0
 91
        1
 62
     0
 92
       -2
340
0
 93
        0
 40
0.045
309
GRIDFORMAT_END
 95
       16
302
GRIDFORMAT
  1
GRIDFORMAT_BEGIN
 90
        0
 91
        1
 62
     0
 92
       -2
340
0
 93
        0
 40
0.045
309
GRIDFORMAT_END
 95
       32
302
GRIDFORMAT
  1
GRIDFORMAT_BEGIN
 90
        0
 91
        1
 62
     0
 92
       -2
340
0
 93
        0
 40
0.045
309
GRIDFORMAT_END
309
TABLEFORMAT_END
  1
CELLSTYLE_BEGIN
 90
        3
 91
        2
300
_DATA
309
CELLSTYLE_END
  0
XRECORD
  5
5367
102
{ACAD_REACTORS
330
5366
102
}
330
5366
100
AcDbXrecord
280
     1
102
RTVSPost2010Prop28
280
     1
102
RTVSPost2010PropOp28
 70
     1
102
RTVSPost2010Prop29
280
     1
102
RTVSPost2010PropOp29
 70
     1
102
RTVSPost2010Prop30
280
     0
102
RTVSPost2010PropOp30
 70
     1
102
RTVSPost2010Prop31
280
     0
102
RTVSPost2010PropOp31
 70
     1
102
RTVSPost2010Prop32
280
     0
102
RTVSPost2010PropOp32
 70
     1
102
RTVSPost2010Prop33
280
     0
102
RTVSPost2010PropOp33
 70
     1
102
RTVSPost2010Prop34
280
     0
102
RTVSPost2010PropOp34
 70
     1
102
RTVSPost2010Prop35
280
     0
102
RTVSPost2010PropOp35
 70
     1
102
RTVSPost2010Prop36
280
     0
102
RTVSPost2010PropOp36
 70
     1
102
RTVSPost2010Prop37
 90
       50
102
RTVSPost2010PropOp37
 70
     1
102
RTVSPost2010Prop38
140
0.0
102
RTVSPost2010PropOp38
 70
     1
102
RTVSPost2010Prop39
140
1.0
102
RTVSPost2010PropOp39
 70
     1
102
RTVSPost2010Prop40
 90
        0
102
RTVSPost2010PropOp40
 70
     1
102
RTVSPost2010Prop41ColorIndex
 90
       18
102
RTVSPost2010Prop41ColorRGB
 90
        0
102
RTVSPost2010PropOp41
 70
     1
102
RTVSPost2010Prop42
 90
       50
102
RTVSPost2010PropOp42
 70
     1
102
RTVSPost2010Prop43
 90
        3
102
RTVSPost2010PropOp43
 70
     1
102
RTVSPost2010Prop44ColorIndex
 90
        5
102
RTVSPost2010Prop44ColorRGB
 90
      255
102
RTVSPost2010PropOp44
 70
     1
102
RTVSPost2010Prop45
280
     0
102
RTVSPost2010PropOp45
 70
     1
102
RTVSPost2010Prop46
 90
       50
102
RTVSPost2010PropOp46
 70
     1
102
RTVSPost2010Prop47
 90
       50
102
RTVSPost2010PropOp47
 70
     1
102
RTVSPost2010Prop48
 90
       50
102
RTVSPost2010PropOp48
 70
     1
102
RTVSPost2010Prop49
280
     0
102
RTVSPost2010PropOp49
 70
     1
102
RTVSPost2010Prop50
 90
       50
102
RTVSPost2010PropOp50
 70
     1
102
RTVSPost2010Prop51ColorIndex
 90
      256
102
RTVSPost2010Prop51ColorRGB
 90
-16777216
102
RTVSPost2010PropOp51
 70
     0
102
RTVSPost2010Prop52
140
1.0
102
RTVSPost2010PropOp52
 70
     0
102
RTVSPost2010Prop53
 90
        2
102
RTVSPost2010PropOp53
 70
     1
102
RTVSPost2010Prop54
  1
strokes_ogs.tif
102
RTVSPost2010PropOp54
 70
     1
102
RTVSPost2010Prop55
280
     0
102
RTVSPost2010PropOp55
 70
     1
102
RTVSPost2010Prop56
140
1.0
102
RTVSPost2010PropOp56
 70
     1
102
RTVSPost2010Prop57
140
1.0
102
RTVSPost2010PropOp57
 70
     1
  0
XRECORD
  5
536B
102
{ACAD_REACTORS
330
536A
102
}
330
536A
100
AcDbXrecord
280
     1
102
RTVSPost2010Prop28
280
     0
102
RTVSPost2010PropOp28
 70
     1
102
RTVSPost2010Prop29
280
     1
102
RTVSPost2010PropOp29
 70
     1
102
RTVSPost2010Prop30
280
     1
102
RTVSPost2010PropOp30
 70
     1
102
RTVSPost2010Prop31
280
     0
102
RTVSPost2010PropOp31
 70
     1
102
RTVSPost2010Prop32
280
     0
102
RTVSPost2010PropOp32
 70
     1
102
RTVSPost2010Prop33
280
     0
102
RTVSPost2010PropOp33
 70
     1
102
RTVSPost2010Prop34
280
     0
102
RTVSPost2010PropOp34
 70
     1
102
RTVSPost2010Prop35
280
     0
102
RTVSPost2010PropOp35
 70
     1
102
RTVSPost2010Prop36
280
     0
102
RTVSPost2010PropOp36
 70
     1
102
RTVSPost2010Prop37
 90
       50
102
RTVSPost2010PropOp37
 70
     1
102
RTVSPost2010Prop38
140
0.0
102
RTVSPost2010PropOp38
 70
     1
102
RTVSPost2010Prop39
140
1.0
102
RTVSPost2010PropOp39
 70
     1
102
RTVSPost2010Prop40
 90
        0
102
RTVSPost2010PropOp40
 70
     1
102
RTVSPost2010Prop41ColorIndex
 90
       18
102
RTVSPost2010Prop41ColorRGB
 90
        0
102
RTVSPost2010PropOp41
 70
     1
102
RTVSPost2010Prop42
 90
       50
102
RTVSPost2010PropOp42
 70
     1
102
RTVSPost2010Prop43
 90
        3
102
RTVSPost2010PropOp43
 70
     1
102
RTVSPost2010Prop44ColorIndex
 90
        5
102
RTVSPost2010Prop44ColorRGB
 90
      255
102
RTVSPost2010PropOp44
 70
     1
102
RTVSPost2010Prop45
280
     0
102
RTVSPost2010PropOp45
 70
     1
102
RTVSPost2010Prop46
 90
       50
102
RTVSPost2010PropOp46
 70
     1
102
RTVSPost2010Prop47
 90
       50
102
RTVSPost2010PropOp47
 70
     1
102
RTVSPost2010Prop48
 90
       50
102
RTVSPost2010PropOp48
 70
     1
102
RTVSPost2010Prop49
280
     0
102
RTVSPost2010PropOp49
 70
     1
102
RTVSPost2010Prop50
 90
       50
102
RTVSPost2010PropOp50
 70
     1
102
RTVSPost2010Prop51ColorIndex
 90
      256
102
RTVSPost2010Prop51ColorRGB
 90
-16777216
102
RTVSPost2010PropOp51
 70
     0
102
RTVSPost2010Prop52
140
1.0
102
RTVSPost2010PropOp52
 70
     0
102
RTVSPost2010Prop53
 90
        2
102
RTVSPost2010PropOp53
 70
     1
102
RTVSPost2010Prop54
  1
strokes_ogs.tif
102
RTVSPost2010PropOp54
 70
     1
102
RTVSPost2010Prop55
280
     0
102
RTVSPost2010PropOp55
 70
     1
102
RTVSPost2010Prop56
140
1.0
102
RTVSPost2010PropOp56
 70
     1
102
RTVSPost2010Prop57
140
1.0
102
RTVSPost2010PropOp57
 70
     1
  0
XRECORD
  5
5369
102
{ACAD_REACTORS
330
5368
102
}
330
5368
100
AcDbXrecord
280
     1
102
RTVSPost2010Prop28
280
     0
102
RTVSPost2010PropOp28
 70
     1
102
RTVSPost2010Prop29
280
     1
102
RTVSPost2010PropOp29
 70
     1
102
RTVSPost2010Prop30
280
     1
102
RTVSPost2010PropOp30
 70
     1
102
RTVSPost2010Prop31
280
     0
102
RTVSPost2010PropOp31
 70
     1
102
RTVSPost2010Prop32
280
     0
102
RTVSPost2010PropOp32
 70
     1
102
RTVSPost2010Prop33
280
     0
102
RTVSPost2010PropOp33
 70
     1
102
RTVSPost2010Prop34
280
     0
102
RTVSPost2010PropOp34
 70
     1
102
RTVSPost2010Prop35
280
     0
102
RTVSPost2010PropOp35
 70
     1
102
RTVSPost2010Prop36
280
     0
102
RTVSPost2010PropOp36
 70
     1
102
RTVSPost2010Prop37
 90
       50
102
RTVSPost2010PropOp37
 70
     1
102
RTVSPost2010Prop38
140
0.0
102
RTVSPost2010PropOp38
 70
     1
102
RTVSPost2010Prop39
140
1.0
102
RTVSPost2010PropOp39
 70
     1
102
RTVSPost2010Prop40
 90
        0
102
RTVSPost2010PropOp40
 70
     1
102
RTVSPost2010Prop41ColorIndex
 90
       18
102
RTVSPost2010Prop41ColorRGB
 90
        0
102
RTVSPost2010PropOp41
 70
     1
102
RTVSPost2010Prop42
 90
       50
102
RTVSPost2010PropOp42
 70
     1
102
RTVSPost2010Prop43
 90
        3
102
RTVSPost2010PropOp43
 70
     1
102
RTVSPost2010Prop44ColorIndex
 90
        5
102
RTVSPost2010Prop44ColorRGB
 90
      255
102
RTVSPost2010PropOp44
 70
     1
102
RTVSPost2010Prop45
280
     0
102
RTVSPost2010PropOp45
 70
     1
102
RTVSPost2010Prop46
 90
       50
102
RTVSPost2010PropOp46
 70
     1
102
RTVSPost2010Prop47
 90
       50
102
RTVSPost2010PropOp47
 70
     1
102
RTVSPost2010Prop48
 90
       50
102
RTVSPost2010PropOp48
 70
     1
102
RTVSPost2010Prop49
280
     0
102
RTVSPost2010PropOp49
 70
     1
102
RTVSPost2010Prop50
 90
       50
102
RTVSPost2010PropOp50
 70
     1
102
RTVSPost2010Prop51ColorIndex
 90
      256
102
RTVSPost2010Prop51ColorRGB
 90
-16777216
102
RTVSPost2010PropOp51
 70
     0
102
RTVSPost2010Prop52
140
1.0
102
RTVSPost2010PropOp52
 70
     0
102
RTVSPost2010Prop53
 90
        2
102
RTVSPost2010PropOp53
 70
     1
102
RTVSPost2010Prop54
  1
strokes_ogs.tif
102
RTVSPost2010PropOp54
 70
     1
102
RTVSPost2010Prop55
280
     0
102
RTVSPost2010PropOp55
 70
     1
102
RTVSPost2010Prop56
140
1.0
102
RTVSPost2010PropOp56
 70
     1
102
RTVSPost2010Prop57
140
1.0
102
RTVSPost2010PropOp57
 70
     1
  0
XRECORD
  5
5365
102
{ACAD_REACTORS
330
5364
102
}
330
5364
100
AcDbXrecord
280
     1
102
RTVSPost2010Prop28
280
     0
102
RTVSPost2010PropOp28
 70
     1
102
RTVSPost2010Prop29
280
     1
102
RTVSPost2010PropOp29
 70
     1
102
RTVSPost2010Prop30
280
     1
102
RTVSPost2010PropOp30
 70
     1
102
RTVSPost2010Prop31
280
     0
102
RTVSPost2010PropOp31
 70
     1
102
RTVSPost2010Prop32
280
     0
102
RTVSPost2010PropOp32
 70
     1
102
RTVSPost2010Prop33
280
     0
102
RTVSPost2010PropOp33
 70
     1
102
RTVSPost2010Prop34
280
     0
102
RTVSPost2010PropOp34
 70
     1
102
RTVSPost2010Prop35
280
     0
102
RTVSPost2010PropOp35
 70
     1
102
RTVSPost2010Prop36
280
     0
102
RTVSPost2010PropOp36
 70
     1
102
RTVSPost2010Prop37
 90
       50
102
RTVSPost2010PropOp37
 70
     1
102
RTVSPost2010Prop38
140
0.0
102
RTVSPost2010PropOp38
 70
     1
102
RTVSPost2010Prop39
140
1.0
102
RTVSPost2010PropOp39
 70
     1
102
RTVSPost2010Prop40
 90
        0
102
RTVSPost2010PropOp40
 70
     1
102
RTVSPost2010Prop41ColorIndex
 90
       18
102
RTVSPost2010Prop41ColorRGB
 90
        0
102
RTVSPost2010PropOp41
 70
     1
102
RTVSPost2010Prop42
 90
       50
102
RTVSPost2010PropOp42
 70
     1
102
RTVSPost2010Prop43
 90
        3
102
RTVSPost2010PropOp43
 70
     1
102
RTVSPost2010Prop44ColorIndex
 90
        5
102
RTVSPost2010Prop44ColorRGB
 90
      255
102
RTVSPost2010PropOp44
 70
     1
102
RTVSPost2010Prop45
280
     0
102
RTVSPost2010PropOp45
 70
     1
102
RTVSPost2010Prop46
 90
       50
102
RTVSPost2010PropOp46
 70
     1
102
RTVSPost2010Prop47
 90
       50
102
RTVSPost2010PropOp47
 70
     1
102
RTVSPost2010Prop48
 90
       50
102
RTVSPost2010PropOp48
 70
     1
102
RTVSPost2010Prop49
280
     0
102
RTVSPost2010PropOp49
 70
     1
102
RTVSPost2010Prop50
 90
       50
102
RTVSPost2010PropOp50
 70
     1
102
RTVSPost2010Prop51ColorIndex
 90
      256
102
RTVSPost2010Prop51ColorRGB
 90
-16777216
102
RTVSPost2010PropOp51
 70
     0
102
RTVSPost2010Prop52
140
1.0
102
RTVSPost2010PropOp52
 70
     0
102
RTVSPost2010Prop53
 90
        2
102
RTVSPost2010PropOp53
 70
     1
102
RTVSPost2010Prop54
  1
strokes_ogs.tif
102
RTVSPost2010PropOp54
 70
     1
102
RTVSPost2010Prop55
280
     0
102
RTVSPost2010PropOp55
 70
     1
102
RTVSPost2010Prop56
140
1.0
102
RTVSPost2010PropOp56
 70
     1
102
RTVSPost2010Prop57
140
1.0
102
RTVSPost2010PropOp57
 70
     1
  0
XRECORD
  5
5373
102
{ACAD_REACTORS
330
5372
102
}
330
5372
100
AcDbXrecord
280
     1
102
RTVSPost2010Prop28
280
     0
102
RTVSPost2010PropOp28
 70
     1
102
RTVSPost2010Prop29
280
     1
102
RTVSPost2010PropOp29
 70
     1
102
RTVSPost2010Prop30
280
     1
102
RTVSPost2010PropOp30
 70
     1
102
RTVSPost2010Prop31
280
     0
102
RTVSPost2010PropOp31
 70
     1
102
RTVSPost2010Prop32
280
     0
102
RTVSPost2010PropOp32
 70
     1
102
RTVSPost2010Prop33
280
     0
102
RTVSPost2010PropOp33
 70
     1
102
RTVSPost2010Prop34
280
     0
102
RTVSPost2010PropOp34
 70
     1
102
RTVSPost2010Prop35
280
     0
102
RTVSPost2010PropOp35
 70
     1
102
RTVSPost2010Prop36
280
     0
102
RTVSPost2010PropOp36
 70
     1
102
RTVSPost2010Prop37
 90
       50
102
RTVSPost2010PropOp37
 70
     1
102
RTVSPost2010Prop38
140
0.0
102
RTVSPost2010PropOp38
 70
     1
102
RTVSPost2010Prop39
140
1.0
102
RTVSPost2010PropOp39
 70
     1
102
RTVSPost2010Prop40
 90
        0
102
RTVSPost2010PropOp40
 70
     1
102
RTVSPost2010Prop41ColorIndex
 90
       18
102
RTVSPost2010Prop41ColorRGB
 90
        0
102
RTVSPost2010PropOp41
 70
     1
102
RTVSPost2010Prop42
 90
       50
102
RTVSPost2010PropOp42
 70
     1
102
RTVSPost2010Prop43
 90
        3
102
RTVSPost2010PropOp43
 70
     1
102
RTVSPost2010Prop44ColorIndex
 90
        5
102
RTVSPost2010Prop44ColorRGB
 90
      255
102
RTVSPost2010PropOp44
 70
     1
102
RTVSPost2010Prop45
280
     0
102
RTVSPost2010PropOp45
 70
     1
102
RTVSPost2010Prop46
 90
       50
102
RTVSPost2010PropOp46
 70
     1
102
RTVSPost2010Prop47
 90
       50
102
RTVSPost2010PropOp47
 70
     1
102
RTVSPost2010Prop48
 90
       50
102
RTVSPost2010PropOp48
 70
     1
102
RTVSPost2010Prop49
280
     0
102
RTVSPost2010PropOp49
 70
     1
102
RTVSPost2010Prop50
 90
       50
102
RTVSPost2010PropOp50
 70
     1
102
RTVSPost2010Prop51ColorIndex
 90
      256
102
RTVSPost2010Prop51ColorRGB
 90
-16777216
102
RTVSPost2010PropOp51
 70
     0
102
RTVSPost2010Prop52
140
1.0
102
RTVSPost2010PropOp52
 70
     0
102
RTVSPost2010Prop53
 90
        2
102
RTVSPost2010PropOp53
 70
     1
102
RTVSPost2010Prop54
  1
strokes_ogs.tif
102
RTVSPost2010PropOp54
 70
     1
102
RTVSPost2010Prop55
280
     0
102
RTVSPost2010PropOp55
 70
     1
102
RTVSPost2010Prop56
140
1.0
102
RTVSPost2010PropOp56
 70
     1
102
RTVSPost2010Prop57
140
1.0
102
RTVSPost2010PropOp57
 70
     1
  0
XRECORD
  5
537B
102
{ACAD_REACTORS
330
537A
102
}
330
537A
100
AcDbXrecord
280
     1
102
RTVSPost2010Prop28
280
     0
102
RTVSPost2010PropOp28
 70
     1
102
RTVSPost2010Prop29
280
     1
102
RTVSPost2010PropOp29
 70
     1
102
RTVSPost2010Prop30
280
     1
102
RTVSPost2010PropOp30
 70
     1
102
RTVSPost2010Prop31
280
     0
102
RTVSPost2010PropOp31
 70
     1
102
RTVSPost2010Prop32
280
     0
102
RTVSPost2010PropOp32
 70
     1
102
RTVSPost2010Prop33
280
     0
102
RTVSPost2010PropOp33
 70
     1
102
RTVSPost2010Prop34
280
     0
102
RTVSPost2010PropOp34
 70
     1
102
RTVSPost2010Prop35
280
     0
102
RTVSPost2010PropOp35
 70
     1
102
RTVSPost2010Prop36
280
     0
102
RTVSPost2010PropOp36
 70
     1
102
RTVSPost2010Prop37
 90
       50
102
RTVSPost2010PropOp37
 70
     1
102
RTVSPost2010Prop38
140
0.0
102
RTVSPost2010PropOp38
 70
     1
102
RTVSPost2010Prop39
140
1.0
102
RTVSPost2010PropOp39
 70
     1
102
RTVSPost2010Prop40
 90
        0
102
RTVSPost2010PropOp40
 70
     1
102
RTVSPost2010Prop41ColorIndex
 90
       18
102
RTVSPost2010Prop41ColorRGB
 90
        0
102
RTVSPost2010PropOp41
 70
     1
102
RTVSPost2010Prop42
 90
       50
102
RTVSPost2010PropOp42
 70
     1
102
RTVSPost2010Prop43
 90
        3
102
RTVSPost2010PropOp43
 70
     1
102
RTVSPost2010Prop44ColorIndex
 90
        5
102
RTVSPost2010Prop44ColorRGB
 90
      255
102
RTVSPost2010PropOp44
 70
     1
102
RTVSPost2010Prop45
280
     0
102
RTVSPost2010PropOp45
 70
     1
102
RTVSPost2010Prop46
 90
       50
102
RTVSPost2010PropOp46
 70
     1
102
RTVSPost2010Prop47
 90
       50
102
RTVSPost2010PropOp47
 70
     1
102
RTVSPost2010Prop48
 90
       50
102
RTVSPost2010PropOp48
 70
     1
102
RTVSPost2010Prop49
280
     0
102
RTVSPost2010PropOp49
 70
     1
102
RTVSPost2010Prop50
 90
       50
102
RTVSPost2010PropOp50
 70
     1
102
RTVSPost2010Prop51ColorIndex
 90
      256
102
RTVSPost2010Prop51ColorRGB
 90
-16777216
102
RTVSPost2010PropOp51
 70
     0
102
RTVSPost2010Prop52
140
1.0
102
RTVSPost2010PropOp52
 70
     0
102
RTVSPost2010Prop53
 90
        2
102
RTVSPost2010PropOp53
 70
     1
102
RTVSPost2010Prop54
  1
strokes_ogs.tif
102
RTVSPost2010PropOp54
 70
     1
102
RTVSPost2010Prop55
280
     0
102
RTVSPost2010PropOp55
 70
     1
102
RTVSPost2010Prop56
140
1.0
102
RTVSPost2010PropOp56
 70
     1
102
RTVSPost2010Prop57
140
1.0
102
RTVSPost2010PropOp57
 70
     1
  0
XRECORD
  5
536D
102
{ACAD_REACTORS
330
536C
102
}
330
536C
100
AcDbXrecord
280
     1
102
RTVSPost2010Prop28
280
     0
102
RTVSPost2010PropOp28
 70
     1
102
RTVSPost2010Prop29
280
     1
102
RTVSPost2010PropOp29
 70
     1
102
RTVSPost2010Prop30
280
     1
102
RTVSPost2010PropOp30
 70
     1
102
RTVSPost2010Prop31
280
     0
102
RTVSPost2010PropOp31
 70
     1
102
RTVSPost2010Prop32
280
     0
102
RTVSPost2010PropOp32
 70
     1
102
RTVSPost2010Prop33
280
     0
102
RTVSPost2010PropOp33
 70
     1
102
RTVSPost2010Prop34
280
     0
102
RTVSPost2010PropOp34
 70
     1
102
RTVSPost2010Prop35
280
     0
102
RTVSPost2010PropOp35
 70
     1
102
RTVSPost2010Prop36
280
     0
102
RTVSPost2010PropOp36
 70
     1
102
RTVSPost2010Prop37
 90
       50
102
RTVSPost2010PropOp37
 70
     1
102
RTVSPost2010Prop38
140
0.0
102
RTVSPost2010PropOp38
 70
     1
102
RTVSPost2010Prop39
140
1.0
102
RTVSPost2010PropOp39
 70
     1
102
RTVSPost2010Prop40
 90
        0
102
RTVSPost2010PropOp40
 70
     1
102
RTVSPost2010Prop41ColorIndex
 90
       18
102
RTVSPost2010Prop41ColorRGB
 90
        0
102
RTVSPost2010PropOp41
 70
     1
102
RTVSPost2010Prop42
 90
       50
102
RTVSPost2010PropOp42
 70
     1
102
RTVSPost2010Prop43
 90
        3
102
RTVSPost2010PropOp43
 70
     1
102
RTVSPost2010Prop44ColorIndex
 90
        5
102
RTVSPost2010Prop44ColorRGB
 90
      255
102
RTVSPost2010PropOp44
 70
     1
102
RTVSPost2010Prop45
280
     0
102
RTVSPost2010PropOp45
 70
     1
102
RTVSPost2010Prop46
 90
       50
102
RTVSPost2010PropOp46
 70
     1
102
RTVSPost2010Prop47
 90
       50
102
RTVSPost2010PropOp47
 70
     1
102
RTVSPost2010Prop48
 90
       50
102
RTVSPost2010PropOp48
 70
     1
102
RTVSPost2010Prop49
280
     0
102
RTVSPost2010PropOp49
 70
     1
102
RTVSPost2010Prop50
 90
       50
102
RTVSPost2010PropOp50
 70
     1
102
RTVSPost2010Prop51ColorIndex
 90
      256
102
RTVSPost2010Prop51ColorRGB
 90
-16777216
102
RTVSPost2010PropOp51
 70
     0
102
RTVSPost2010Prop52
140
1.0
102
RTVSPost2010PropOp52
 70
     0
102
RTVSPost2010Prop53
 90
        2
102
RTVSPost2010PropOp53
 70
     1
102
RTVSPost2010Prop54
  1
strokes_ogs.tif
102
RTVSPost2010PropOp54
 70
     1
102
RTVSPost2010Prop55
280
     0
102
RTVSPost2010PropOp55
 70
     1
102
RTVSPost2010Prop56
140
1.0
102
RTVSPost2010PropOp56
 70
     1
102
RTVSPost2010Prop57
140
1.0
102
RTVSPost2010PropOp57
 70
     1
  0
XRECORD
  5
5371
102
{ACAD_REACTORS
330
5370
102
}
330
5370
100
AcDbXrecord
280
     1
102
RTVSPost2010Prop28
280
     0
102
RTVSPost2010PropOp28
 70
     1
102
RTVSPost2010Prop29
280
     1
102
RTVSPost2010PropOp29
 70
     1
102
RTVSPost2010Prop30
280
     1
102
RTVSPost2010PropOp30
 70
     1
102
RTVSPost2010Prop31
280
     0
102
RTVSPost2010PropOp31
 70
     1
102
RTVSPost2010Prop32
280
     0
102
RTVSPost2010PropOp32
 70
     1
102
RTVSPost2010Prop33
280
     0
102
RTVSPost2010PropOp33
 70
     1
102
RTVSPost2010Prop34
280
     0
102
RTVSPost2010PropOp34
 70
     1
102
RTVSPost2010Prop35
280
     0
102
RTVSPost2010PropOp35
 70
     1
102
RTVSPost2010Prop36
280
     0
102
RTVSPost2010PropOp36
 70
     1
102
RTVSPost2010Prop37
 90
       50
102
RTVSPost2010PropOp37
 70
     1
102
RTVSPost2010Prop38
140
0.0
102
RTVSPost2010PropOp38
 70
     1
102
RTVSPost2010Prop39
140
1.0
102
RTVSPost2010PropOp39
 70
     1
102
RTVSPost2010Prop40
 90
        0
102
RTVSPost2010PropOp40
 70
     1
102
RTVSPost2010Prop41ColorIndex
 90
       18
102
RTVSPost2010Prop41ColorRGB
 90
        0
102
RTVSPost2010PropOp41
 70
     1
102
RTVSPost2010Prop42
 90
       50
102
RTVSPost2010PropOp42
 70
     1
102
RTVSPost2010Prop43
 90
        3
102
RTVSPost2010PropOp43
 70
     1
102
RTVSPost2010Prop44ColorIndex
 90
        5
102
RTVSPost2010Prop44ColorRGB
 90
      255
102
RTVSPost2010PropOp44
 70
     1
102
RTVSPost2010Prop45
280
     0
102
RTVSPost2010PropOp45
 70
     1
102
RTVSPost2010Prop46
 90
       50
102
RTVSPost2010PropOp46
 70
     1
102
RTVSPost2010Prop47
 90
       50
102
RTVSPost2010PropOp47
 70
     1
102
RTVSPost2010Prop48
 90
       50
102
RTVSPost2010PropOp48
 70
     1
102
RTVSPost2010Prop49
280
     0
102
RTVSPost2010PropOp49
 70
     1
102
RTVSPost2010Prop50
 90
       50
102
RTVSPost2010PropOp50
 70
     1
102
RTVSPost2010Prop51ColorIndex
 90
      256
102
RTVSPost2010Prop51ColorRGB
 90
-16777216
102
RTVSPost2010PropOp51
 70
     0
102
RTVSPost2010Prop52
140
1.0
102
RTVSPost2010PropOp52
 70
     0
102
RTVSPost2010Prop53
 90
        2
102
RTVSPost2010PropOp53
 70
     1
102
RTVSPost2010Prop54
  1
strokes_ogs.tif
102
RTVSPost2010PropOp54
 70
     1
102
RTVSPost2010Prop55
280
     0
102
RTVSPost2010PropOp55
 70
     1
102
RTVSPost2010Prop56
140
1.0
102
RTVSPost2010PropOp56
 70
     1
102
RTVSPost2010Prop57
140
1.0
102
RTVSPost2010PropOp57
 70
     1
  0
XRECORD
  5
538F
102
{ACAD_REACTORS
330
538E
102
}
330
538E
100
AcDbXrecord
280
     1
102
RTVSPost2010Prop28
280
     0
102
RTVSPost2010PropOp28
 70
     1
102
RTVSPost2010Prop29
280
     1
102
RTVSPost2010PropOp29
 70
     1
102
RTVSPost2010Prop30
280
     1
102
RTVSPost2010PropOp30
 70
     1
102
RTVSPost2010Prop31
280
     0
102
RTVSPost2010PropOp31
 70
     1
102
RTVSPost2010Prop32
280
     0
102
RTVSPost2010PropOp32
 70
     1
102
RTVSPost2010Prop33
280
     0
102
RTVSPost2010PropOp33
 70
     1
102
RTVSPost2010Prop34
280
     0
102
RTVSPost2010PropOp34
 70
     1
102
RTVSPost2010Prop35
280
     0
102
RTVSPost2010PropOp35
 70
     1
102
RTVSPost2010Prop36
280
     0
102
RTVSPost2010PropOp36
 70
     1
102
RTVSPost2010Prop37
 90
       50
102
RTVSPost2010PropOp37
 70
     1
102
RTVSPost2010Prop38
140
0.0
102
RTVSPost2010PropOp38
 70
     1
102
RTVSPost2010Prop39
140
1.0
102
RTVSPost2010PropOp39
 70
     1
102
RTVSPost2010Prop40
 90
        0
102
RTVSPost2010PropOp40
 70
     1
102
RTVSPost2010Prop41ColorIndex
 90
       18
102
RTVSPost2010Prop41ColorRGB
 90
        0
102
RTVSPost2010PropOp41
 70
     1
102
RTVSPost2010Prop42
 90
       50
102
RTVSPost2010PropOp42
 70
     1
102
RTVSPost2010Prop43
 90
        3
102
RTVSPost2010PropOp43
 70
     1
102
RTVSPost2010Prop44ColorIndex
 90
        5
102
RTVSPost2010Prop44ColorRGB
 90
      255
102
RTVSPost2010PropOp44
 70
     1
102
RTVSPost2010Prop45
280
     0
102
RTVSPost2010PropOp45
 70
     1
102
RTVSPost2010Prop46
 90
       50
102
RTVSPost2010PropOp46
 70
     1
102
RTVSPost2010Prop47
 90
       50
102
RTVSPost2010PropOp47
 70
     1
102
RTVSPost2010Prop48
 90
       50
102
RTVSPost2010PropOp48
 70
     1
102
RTVSPost2010Prop49
280
     0
102
RTVSPost2010PropOp49
 70
     1
102
RTVSPost2010Prop50
 90
       50
102
RTVSPost2010PropOp50
 70
     1
102
RTVSPost2010Prop51ColorIndex
 90
      256
102
RTVSPost2010Prop51ColorRGB
 90
-16777216
102
RTVSPost2010PropOp51
 70
     0
102
RTVSPost2010Prop52
140
1.0
102
RTVSPost2010PropOp52
 70
     0
102
RTVSPost2010Prop53
 90
        2
102
RTVSPost2010PropOp53
 70
     1
102
RTVSPost2010Prop54
  1
strokes_ogs.tif
102
RTVSPost2010PropOp54
 70
     1
102
RTVSPost2010Prop55
280
     0
102
RTVSPost2010PropOp55
 70
     1
102
RTVSPost2010Prop56
140
1.0
102
RTVSPost2010PropOp56
 70
     1
102
RTVSPost2010Prop57
140
1.0
102
RTVSPost2010PropOp57
 70
     1
  0
XRECORD
  5
5379
102
{ACAD_REACTORS
330
5378
102
}
330
5378
100
AcDbXrecord
280
     1
102
RTVSPost2010Prop28
280
     0
102
RTVSPost2010PropOp28
 70
     1
102
RTVSPost2010Prop29
280
     1
102
RTVSPost2010PropOp29
 70
     1
102
RTVSPost2010Prop30
280
     1
102
RTVSPost2010PropOp30
 70
     1
102
RTVSPost2010Prop31
280
     0
102
RTVSPost2010PropOp31
 70
     1
102
RTVSPost2010Prop32
280
     0
102
RTVSPost2010PropOp32
 70
     1
102
RTVSPost2010Prop33
280
     0
102
RTVSPost2010PropOp33
 70
     1
102
RTVSPost2010Prop34
280
     0
102
RTVSPost2010PropOp34
 70
     1
102
RTVSPost2010Prop35
280
     0
102
RTVSPost2010PropOp35
 70
     1
102
RTVSPost2010Prop36
280
     0
102
RTVSPost2010PropOp36
 70
     1
102
RTVSPost2010Prop37
 90
       50
102
RTVSPost2010PropOp37
 70
     1
102
RTVSPost2010Prop38
140
0.0
102
RTVSPost2010PropOp38
 70
     1
102
RTVSPost2010Prop39
140
1.0
102
RTVSPost2010PropOp39
 70
     1
102
RTVSPost2010Prop40
 90
        0
102
RTVSPost2010PropOp40
 70
     1
102
RTVSPost2010Prop41ColorIndex
 90
       18
102
RTVSPost2010Prop41ColorRGB
 90
        0
102
RTVSPost2010PropOp41
 70
     1
102
RTVSPost2010Prop42
 90
       50
102
RTVSPost2010PropOp42
 70
     1
102
RTVSPost2010Prop43
 90
        3
102
RTVSPost2010PropOp43
 70
     1
102
RTVSPost2010Prop44ColorIndex
 90
        5
102
RTVSPost2010Prop44ColorRGB
 90
      255
102
RTVSPost2010PropOp44
 70
     1
102
RTVSPost2010Prop45
280
     0
102
RTVSPost2010PropOp45
 70
     1
102
RTVSPost2010Prop46
 90
       50
102
RTVSPost2010PropOp46
 70
     1
102
RTVSPost2010Prop47
 90
       50
102
RTVSPost2010PropOp47
 70
     1
102
RTVSPost2010Prop48
 90
       50
102
RTVSPost2010PropOp48
 70
     1
102
RTVSPost2010Prop49
280
     0
102
RTVSPost2010PropOp49
 70
     1
102
RTVSPost2010Prop50
 90
       50
102
RTVSPost2010PropOp50
 70
     1
102
RTVSPost2010Prop51ColorIndex
 90
      256
102
RTVSPost2010Prop51ColorRGB
 90
-16777216
102
RTVSPost2010PropOp51
 70
     0
102
RTVSPost2010Prop52
140
1.0
102
RTVSPost2010PropOp52
 70
     0
102
RTVSPost2010Prop53
 90
        2
102
RTVSPost2010PropOp53
 70
     1
102
RTVSPost2010Prop54
  1
strokes_ogs.tif
102
RTVSPost2010PropOp54
 70
     1
102
RTVSPost2010Prop55
280
     0
102
RTVSPost2010PropOp55
 70
     1
102
RTVSPost2010Prop56
140
1.0
102
RTVSPost2010PropOp56
 70
     1
102
RTVSPost2010Prop57
140
1.0
102
RTVSPost2010PropOp57
 70
     1
  0
XRECORD
  5
535D
102
{ACAD_REACTORS
330
535C
102
}
330
535C
100
AcDbXrecord
280
     1
102
RTVSPost2010Prop28
280
     0
102
RTVSPost2010PropOp28
 70
     1
102
RTVSPost2010Prop29
280
     1
102
RTVSPost2010PropOp29
 70
     1
102
RTVSPost2010Prop30
280
     1
102
RTVSPost2010PropOp30
 70
     1
102
RTVSPost2010Prop31
280
     0
102
RTVSPost2010PropOp31
 70
     1
102
RTVSPost2010Prop32
280
     0
102
RTVSPost2010PropOp32
 70
     1
102
RTVSPost2010Prop33
280
     0
102
RTVSPost2010PropOp33
 70
     1
102
RTVSPost2010Prop34
280
     0
102
RTVSPost2010PropOp34
 70
     1
102
RTVSPost2010Prop35
280
     0
102
RTVSPost2010PropOp35
 70
     1
102
RTVSPost2010Prop36
280
     0
102
RTVSPost2010PropOp36
 70
     1
102
RTVSPost2010Prop37
 90
       50
102
RTVSPost2010PropOp37
 70
     1
102
RTVSPost2010Prop38
140
0.0
102
RTVSPost2010PropOp38
 70
     1
102
RTVSPost2010Prop39
140
1.0
102
RTVSPost2010PropOp39
 70
     1
102
RTVSPost2010Prop40
 90
        0
102
RTVSPost2010PropOp40
 70
     1
102
RTVSPost2010Prop41ColorIndex
 90
       18
102
RTVSPost2010Prop41ColorRGB
 90
        0
102
RTVSPost2010PropOp41
 70
     1
102
RTVSPost2010Prop42
 90
       50
102
RTVSPost2010PropOp42
 70
     1
102
RTVSPost2010Prop43
 90
        3
102
RTVSPost2010PropOp43
 70
     1
102
RTVSPost2010Prop44ColorIndex
 90
        5
102
RTVSPost2010Prop44ColorRGB
 90
      255
102
RTVSPost2010PropOp44
 70
     1
102
RTVSPost2010Prop45
280
     0
102
RTVSPost2010PropOp45
 70
     1
102
RTVSPost2010Prop46
 90
       50
102
RTVSPost2010PropOp46
 70
     1
102
RTVSPost2010Prop47
 90
       50
102
RTVSPost2010PropOp47
 70
     1
102
RTVSPost2010Prop48
 90
       50
102
RTVSPost2010PropOp48
 70
     1
102
RTVSPost2010Prop49
280
     0
102
RTVSPost2010PropOp49
 70
     1
102
RTVSPost2010Prop50
 90
       50
102
RTVSPost2010PropOp50
 70
     1
102
RTVSPost2010Prop51ColorIndex
 90
      256
102
RTVSPost2010Prop51ColorRGB
 90
-16777216
102
RTVSPost2010PropOp51
 70
     0
102
RTVSPost2010Prop52
140
1.0
102
RTVSPost2010PropOp52
 70
     0
102
RTVSPost2010Prop53
 90
        2
102
RTVSPost2010PropOp53
 70
     1
102
RTVSPost2010Prop54
  1
strokes_ogs.tif
102
RTVSPost2010PropOp54
 70
     1
102
RTVSPost2010Prop55
280
     0
102
RTVSPost2010PropOp55
 70
     1
102
RTVSPost2010Prop56
140
1.0
102
RTVSPost2010PropOp56
 70
     1
102
RTVSPost2010Prop57
140
1.0
102
RTVSPost2010PropOp57
 70
     1
  0
XRECORD
  5
535F
102
{ACAD_REACTORS
330
535E
102
}
330
535E
100
AcDbXrecord
280
     1
102
RTVSPost2010Prop28
280
     0
102
RTVSPost2010PropOp28
 70
     1
102
RTVSPost2010Prop29
280
     1
102
RTVSPost2010PropOp29
 70
     1
102
RTVSPost2010Prop30
280
     1
102
RTVSPost2010PropOp30
 70
     1
102
RTVSPost2010Prop31
280
     0
102
RTVSPost2010PropOp31
 70
     1
102
RTVSPost2010Prop32
280
     0
102
RTVSPost2010PropOp32
 70
     1
102
RTVSPost2010Prop33
280
     0
102
RTVSPost2010PropOp33
 70
     1
102
RTVSPost2010Prop34
280
     0
102
RTVSPost2010PropOp34
 70
     1
102
RTVSPost2010Prop35
280
     0
102
RTVSPost2010PropOp35
 70
     1
102
RTVSPost2010Prop36
280
     0
102
RTVSPost2010PropOp36
 70
     1
102
RTVSPost2010Prop37
 90
       50
102
RTVSPost2010PropOp37
 70
     1
102
RTVSPost2010Prop38
140
0.0
102
RTVSPost2010PropOp38
 70
     1
102
RTVSPost2010Prop39
140
1.0
102
RTVSPost2010PropOp39
 70
     1
102
RTVSPost2010Prop40
 90
        0
102
RTVSPost2010PropOp40
 70
     1
102
RTVSPost2010Prop41ColorIndex
 90
       18
102
RTVSPost2010Prop41ColorRGB
 90
        0
102
RTVSPost2010PropOp41
 70
     1
102
RTVSPost2010Prop42
 90
       50
102
RTVSPost2010PropOp42
 70
     1
102
RTVSPost2010Prop43
 90
        3
102
RTVSPost2010PropOp43
 70
     1
102
RTVSPost2010Prop44ColorIndex
 90
        5
102
RTVSPost2010Prop44ColorRGB
 90
      255
102
RTVSPost2010PropOp44
 70
     1
102
RTVSPost2010Prop45
280
     0
102
RTVSPost2010PropOp45
 70
     1
102
RTVSPost2010Prop46
 90
       50
102
RTVSPost2010PropOp46
 70
     1
102
RTVSPost2010Prop47
 90
       50
102
RTVSPost2010PropOp47
 70
     1
102
RTVSPost2010Prop48
 90
       50
102
RTVSPost2010PropOp48
 70
     1
102
RTVSPost2010Prop49
280
     0
102
RTVSPost2010PropOp49
 70
     1
102
RTVSPost2010Prop50
 90
       50
102
RTVSPost2010PropOp50
 70
     1
102
RTVSPost2010Prop51ColorIndex
 90
      256
102
RTVSPost2010Prop51ColorRGB
 90
-16777216
102
RTVSPost2010PropOp51
 70
     0
102
RTVSPost2010Prop52
140
1.0
102
RTVSPost2010PropOp52
 70
     0
102
RTVSPost2010Prop53
 90
        2
102
RTVSPost2010PropOp53
 70
     1
102
RTVSPost2010Prop54
  1
strokes_ogs.tif
102
RTVSPost2010PropOp54
 70
     1
102
RTVSPost2010Prop55
280
     0
102
RTVSPost2010PropOp55
 70
     1
102
RTVSPost2010Prop56
140
1.0
102
RTVSPost2010PropOp56
 70
     1
102
RTVSPost2010Prop57
140
1.0
102
RTVSPost2010PropOp57
 70
     1
  0
XRECORD
  5
5361
102
{ACAD_REACTORS
330
5360
102
}
330
5360
100
AcDbXrecord
280
     1
102
RTVSPost2010Prop28
280
     0
102
RTVSPost2010PropOp28
 70
     1
102
RTVSPost2010Prop29
280
     1
102
RTVSPost2010PropOp29
 70
     1
102
RTVSPost2010Prop30
280
     1
102
RTVSPost2010PropOp30
 70
     1
102
RTVSPost2010Prop31
280
     0
102
RTVSPost2010PropOp31
 70
     1
102
RTVSPost2010Prop32
280
     0
102
RTVSPost2010PropOp32
 70
     1
102
RTVSPost2010Prop33
280
     0
102
RTVSPost2010PropOp33
 70
     1
102
RTVSPost2010Prop34
280
     0
102
RTVSPost2010PropOp34
 70
     1
102
RTVSPost2010Prop35
280
     0
102
RTVSPost2010PropOp35
 70
     1
102
RTVSPost2010Prop36
280
     0
102
RTVSPost2010PropOp36
 70
     1
102
RTVSPost2010Prop37
 90
       50
102
RTVSPost2010PropOp37
 70
     1
102
RTVSPost2010Prop38
140
0.0
102
RTVSPost2010PropOp38
 70
     1
102
RTVSPost2010Prop39
140
1.0
102
RTVSPost2010PropOp39
 70
     1
102
RTVSPost2010Prop40
 90
        0
102
RTVSPost2010PropOp40
 70
     1
102
RTVSPost2010Prop41ColorIndex
 90
       18
102
RTVSPost2010Prop41ColorRGB
 90
        0
102
RTVSPost2010PropOp41
 70
     1
102
RTVSPost2010Prop42
 90
       50
102
RTVSPost2010PropOp42
 70
     1
102
RTVSPost2010Prop43
 90
        3
102
RTVSPost2010PropOp43
 70
     1
102
RTVSPost2010Prop44ColorIndex
 90
        5
102
RTVSPost2010Prop44ColorRGB
 90
      255
102
RTVSPost2010PropOp44
 70
     1
102
RTVSPost2010Prop45
280
     0
102
RTVSPost2010PropOp45
 70
     1
102
RTVSPost2010Prop46
 90
       50
102
RTVSPost2010PropOp46
 70
     1
102
RTVSPost2010Prop47
 90
       50
102
RTVSPost2010PropOp47
 70
     1
102
RTVSPost2010Prop48
 90
       50
102
RTVSPost2010PropOp48
 70
     1
102
RTVSPost2010Prop49
280
     0
102
RTVSPost2010PropOp49
 70
     1
102
RTVSPost2010Prop50
 90
       50
102
RTVSPost2010PropOp50
 70
     1
102
RTVSPost2010Prop51ColorIndex
 90
      256
102
RTVSPost2010Prop51ColorRGB
 90
-16777216
102
RTVSPost2010PropOp51
 70
     0
102
RTVSPost2010Prop52
140
1.0
102
RTVSPost2010PropOp52
 70
     0
102
RTVSPost2010Prop53
 90
        2
102
RTVSPost2010PropOp53
 70
     1
102
RTVSPost2010Prop54
  1
strokes_ogs.tif
102
RTVSPost2010PropOp54
 70
     1
102
RTVSPost2010Prop55
280
     0
102
RTVSPost2010PropOp55
 70
     1
102
RTVSPost2010Prop56
140
1.0
102
RTVSPost2010PropOp56
 70
     1
102
RTVSPost2010Prop57
140
1.0
102
RTVSPost2010PropOp57
 70
     1
  0
XRECORD
  5
5363
102
{ACAD_REACTORS
330
5362
102
}
330
5362
100
AcDbXrecord
280
     1
102
RTVSPost2010Prop28
280
     0
102
RTVSPost2010PropOp28
 70
     1
102
RTVSPost2010Prop29
280
     1
102
RTVSPost2010PropOp29
 70
     1
102
RTVSPost2010Prop30
280
     1
102
RTVSPost2010PropOp30
 70
     1
102
RTVSPost2010Prop31
280
     0
102
RTVSPost2010PropOp31
 70
     1
102
RTVSPost2010Prop32
280
     0
102
RTVSPost2010PropOp32
 70
     1
102
RTVSPost2010Prop33
280
     0
102
RTVSPost2010PropOp33
 70
     1
102
RTVSPost2010Prop34
280
     0
102
RTVSPost2010PropOp34
 70
     1
102
RTVSPost2010Prop35
280
     0
102
RTVSPost2010PropOp35
 70
     1
102
RTVSPost2010Prop36
280
     0
102
RTVSPost2010PropOp36
 70
     1
102
RTVSPost2010Prop37
 90
       50
102
RTVSPost2010PropOp37
 70
     1
102
RTVSPost2010Prop38
140
0.0
102
RTVSPost2010PropOp38
 70
     1
102
RTVSPost2010Prop39
140
1.0
102
RTVSPost2010PropOp39
 70
     1
102
RTVSPost2010Prop40
 90
        0
102
RTVSPost2010PropOp40
 70
     1
102
RTVSPost2010Prop41ColorIndex
 90
       18
102
RTVSPost2010Prop41ColorRGB
 90
        0
102
RTVSPost2010PropOp41
 70
     1
102
RTVSPost2010Prop42
 90
       50
102
RTVSPost2010PropOp42
 70
     1
102
RTVSPost2010Prop43
 90
        3
102
RTVSPost2010PropOp43
 70
     1
102
RTVSPost2010Prop44ColorIndex
 90
        5
102
RTVSPost2010Prop44ColorRGB
 90
      255
102
RTVSPost2010PropOp44
 70
     1
102
RTVSPost2010Prop45
280
     0
102
RTVSPost2010PropOp45
 70
     1
102
RTVSPost2010Prop46
 90
       50
102
RTVSPost2010PropOp46
 70
     1
102
RTVSPost2010Prop47
 90
       50
102
RTVSPost2010PropOp47
 70
     1
102
RTVSPost2010Prop48
 90
       50
102
RTVSPost2010PropOp48
 70
     1
102
RTVSPost2010Prop49
280
     0
102
RTVSPost2010PropOp49
 70
     1
102
RTVSPost2010Prop50
 90
       50
102
RTVSPost2010PropOp50
 70
     1
102
RTVSPost2010Prop51ColorIndex
 90
      256
102
RTVSPost2010Prop51ColorRGB
 90
-16777216
102
RTVSPost2010PropOp51
 70
     0
102
RTVSPost2010Prop52
140
1.0
102
RTVSPost2010PropOp52
 70
     0
102
RTVSPost2010Prop53
 90
        2
102
RTVSPost2010PropOp53
 70
     1
102
RTVSPost2010Prop54
  1
strokes_ogs.tif
102
RTVSPost2010PropOp54
 70
     1
102
RTVSPost2010Prop55
280
     0
102
RTVSPost2010PropOp55
 70
     1
102
RTVSPost2010Prop56
140
1.0
102
RTVSPost2010PropOp56
 70
     1
102
RTVSPost2010Prop57
140
1.0
102
RTVSPost2010PropOp57
 70
     1
  0
XRECORD
  5
537F
102
{ACAD_REACTORS
330
537E
102
}
330
537E
100
AcDbXrecord
280
     1
102
RTVSPost2010Prop28
280
     0
102
RTVSPost2010PropOp28
 70
     1
102
RTVSPost2010Prop29
280
     1
102
RTVSPost2010PropOp29
 70
     1
102
RTVSPost2010Prop30
280
     1
102
RTVSPost2010PropOp30
 70
     1
102
RTVSPost2010Prop31
280
     0
102
RTVSPost2010PropOp31
 70
     1
102
RTVSPost2010Prop32
280
     0
102
RTVSPost2010PropOp32
 70
     1
102
RTVSPost2010Prop33
280
     0
102
RTVSPost2010PropOp33
 70
     1
102
RTVSPost2010Prop34
280
     0
102
RTVSPost2010PropOp34
 70
     1
102
RTVSPost2010Prop35
280
     0
102
RTVSPost2010PropOp35
 70
     1
102
RTVSPost2010Prop36
280
     0
102
RTVSPost2010PropOp36
 70
     1
102
RTVSPost2010Prop37
 90
       50
102
RTVSPost2010PropOp37
 70
     1
102
RTVSPost2010Prop38
140
0.0
102
RTVSPost2010PropOp38
 70
     1
102
RTVSPost2010Prop39
140
1.0
102
RTVSPost2010PropOp39
 70
     1
102
RTVSPost2010Prop40
 90
        0
102
RTVSPost2010PropOp40
 70
     1
102
RTVSPost2010Prop41ColorIndex
 90
       18
102
RTVSPost2010Prop41ColorRGB
 90
        0
102
RTVSPost2010PropOp41
 70
     1
102
RTVSPost2010Prop42
 90
       50
102
RTVSPost2010PropOp42
 70
     1
102
RTVSPost2010Prop43
 90
        3
102
RTVSPost2010PropOp43
 70
     1
102
RTVSPost2010Prop44ColorIndex
 90
        5
102
RTVSPost2010Prop44ColorRGB
 90
      255
102
RTVSPost2010PropOp44
 70
     1
102
RTVSPost2010Prop45
280
     0
102
RTVSPost2010PropOp45
 70
     1
102
RTVSPost2010Prop46
 90
       50
102
RTVSPost2010PropOp46
 70
     1
102
RTVSPost2010Prop47
 90
       50
102
RTVSPost2010PropOp47
 70
     1
102
RTVSPost2010Prop48
 90
       50
102
RTVSPost2010PropOp48
 70
     1
102
RTVSPost2010Prop49
280
     0
102
RTVSPost2010PropOp49
 70
     1
102
RTVSPost2010Prop50
 90
       50
102
RTVSPost2010PropOp50
 70
     1
102
RTVSPost2010Prop51ColorIndex
 90
      256
102
RTVSPost2010Prop51ColorRGB
 90
-16777216
102
RTVSPost2010PropOp51
 70
     0
102
RTVSPost2010Prop52
140
1.0
102
RTVSPost2010PropOp52
 70
     0
102
RTVSPost2010Prop53
 90
        2
102
RTVSPost2010PropOp53
 70
     1
102
RTVSPost2010Prop54
  1
strokes_ogs.tif
102
RTVSPost2010PropOp54
 70
     1
102
RTVSPost2010Prop55
280
     0
102
RTVSPost2010PropOp55
 70
     1
102
RTVSPost2010Prop56
140
1.0
102
RTVSPost2010PropOp56
 70
     1
102
RTVSPost2010Prop57
140
1.0
102
RTVSPost2010PropOp57
 70
     1
  0
XRECORD
  5
538B
102
{ACAD_REACTORS
330
538A
102
}
330
538A
100
AcDbXrecord
280
     1
102
RTVSPost2010Prop28
280
     0
102
RTVSPost2010PropOp28
 70
     1
102
RTVSPost2010Prop29
280
     1
102
RTVSPost2010PropOp29
 70
     1
102
RTVSPost2010Prop30
280
     1
102
RTVSPost2010PropOp30
 70
     1
102
RTVSPost2010Prop31
280
     0
102
RTVSPost2010PropOp31
 70
     1
102
RTVSPost2010Prop32
280
     0
102
RTVSPost2010PropOp32
 70
     1
102
RTVSPost2010Prop33
280
     0
102
RTVSPost2010PropOp33
 70
     1
102
RTVSPost2010Prop34
280
     0
102
RTVSPost2010PropOp34
 70
     1
102
RTVSPost2010Prop35
280
     0
102
RTVSPost2010PropOp35
 70
     1
102
RTVSPost2010Prop36
280
     0
102
RTVSPost2010PropOp36
 70
     1
102
RTVSPost2010Prop37
 90
       50
102
RTVSPost2010PropOp37
 70
     1
102
RTVSPost2010Prop38
140
0.0
102
RTVSPost2010PropOp38
 70
     1
102
RTVSPost2010Prop39
140
1.0
102
RTVSPost2010PropOp39
 70
     1
102
RTVSPost2010Prop40
 90
        0
102
RTVSPost2010PropOp40
 70
     1
102
RTVSPost2010Prop41ColorIndex
 90
       18
102
RTVSPost2010Prop41ColorRGB
 90
        0
102
RTVSPost2010PropOp41
 70
     1
102
RTVSPost2010Prop42
 90
       50
102
RTVSPost2010PropOp42
 70
     1
102
RTVSPost2010Prop43
 90
        3
102
RTVSPost2010PropOp43
 70
     1
102
RTVSPost2010Prop44ColorIndex
 90
        5
102
RTVSPost2010Prop44ColorRGB
 90
      255
102
RTVSPost2010PropOp44
 70
     1
102
RTVSPost2010Prop45
280
     0
102
RTVSPost2010PropOp45
 70
     1
102
RTVSPost2010Prop46
 90
       50
102
RTVSPost2010PropOp46
 70
     1
102
RTVSPost2010Prop47
 90
       50
102
RTVSPost2010PropOp47
 70
     1
102
RTVSPost2010Prop48
 90
       50
102
RTVSPost2010PropOp48
 70
     1
102
RTVSPost2010Prop49
280
     0
102
RTVSPost2010PropOp49
 70
     1
102
RTVSPost2010Prop50
 90
       50
102
RTVSPost2010PropOp50
 70
     1
102
RTVSPost2010Prop51ColorIndex
 90
      256
102
RTVSPost2010Prop51ColorRGB
 90
-16777216
102
RTVSPost2010PropOp51
 70
     0
102
RTVSPost2010Prop52
140
1.0
102
RTVSPost2010PropOp52
 70
     0
102
RTVSPost2010Prop53
 90
        2
102
RTVSPost2010PropOp53
 70
     1
102
RTVSPost2010Prop54
  1
strokes_ogs.tif
102
RTVSPost2010PropOp54
 70
     1
102
RTVSPost2010Prop55
280
     0
102
RTVSPost2010PropOp55
 70
     1
102
RTVSPost2010Prop56
140
1.0
102
RTVSPost2010PropOp56
 70
     1
102
RTVSPost2010Prop57
140
1.0
102
RTVSPost2010PropOp57
 70
     1
  0
XRECORD
  5
5377
102
{ACAD_REACTORS
330
5376
102
}
330
5376
100
AcDbXrecord
280
     1
102
RTVSPost2010Prop28
280
     0
102
RTVSPost2010PropOp28
 70
     1
102
RTVSPost2010Prop29
280
     1
102
RTVSPost2010PropOp29
 70
     1
102
RTVSPost2010Prop30
280
     1
102
RTVSPost2010PropOp30
 70
     1
102
RTVSPost2010Prop31
280
     0
102
RTVSPost2010PropOp31
 70
     1
102
RTVSPost2010Prop32
280
     0
102
RTVSPost2010PropOp32
 70
     1
102
RTVSPost2010Prop33
280
     0
102
RTVSPost2010PropOp33
 70
     1
102
RTVSPost2010Prop34
280
     0
102
RTVSPost2010PropOp34
 70
     1
102
RTVSPost2010Prop35
280
     0
102
RTVSPost2010PropOp35
 70
     1
102
RTVSPost2010Prop36
280
     0
102
RTVSPost2010PropOp36
 70
     1
102
RTVSPost2010Prop37
 90
       50
102
RTVSPost2010PropOp37
 70
     1
102
RTVSPost2010Prop38
140
0.0
102
RTVSPost2010PropOp38
 70
     1
102
RTVSPost2010Prop39
140
1.0
102
RTVSPost2010PropOp39
 70
     1
102
RTVSPost2010Prop40
 90
        0
102
RTVSPost2010PropOp40
 70
     1
102
RTVSPost2010Prop41ColorIndex
 90
       18
102
RTVSPost2010Prop41ColorRGB
 90
        0
102
RTVSPost2010PropOp41
 70
     1
102
RTVSPost2010Prop42
 90
       50
102
RTVSPost2010PropOp42
 70
     1
102
RTVSPost2010Prop43
 90
        3
102
RTVSPost2010PropOp43
 70
     1
102
RTVSPost2010Prop44ColorIndex
 90
        5
102
RTVSPost2010Prop44ColorRGB
 90
      255
102
RTVSPost2010PropOp44
 70
     1
102
RTVSPost2010Prop45
280
     0
102
RTVSPost2010PropOp45
 70
     1
102
RTVSPost2010Prop46
 90
       50
102
RTVSPost2010PropOp46
 70
     1
102
RTVSPost2010Prop47
 90
       50
102
RTVSPost2010PropOp47
 70
     1
102
RTVSPost2010Prop48
 90
       50
102
RTVSPost2010PropOp48
 70
     1
102
RTVSPost2010Prop49
280
     0
102
RTVSPost2010PropOp49
 70
     1
102
RTVSPost2010Prop50
 90
       50
102
RTVSPost2010PropOp50
 70
     1
102
RTVSPost2010Prop51ColorIndex
 90
      256
102
RTVSPost2010Prop51ColorRGB
 90
-16777216
102
RTVSPost2010PropOp51
 70
     0
102
RTVSPost2010Prop52
140
1.0
102
RTVSPost2010PropOp52
 70
     0
102
RTVSPost2010Prop53
 90
        2
102
RTVSPost2010PropOp53
 70
     1
102
RTVSPost2010Prop54
  1
strokes_ogs.tif
102
RTVSPost2010PropOp54
 70
     1
102
RTVSPost2010Prop55
280
     0
102
RTVSPost2010PropOp55
 70
     1
102
RTVSPost2010Prop56
140
1.0
102
RTVSPost2010PropOp56
 70
     1
102
RTVSPost2010Prop57
140
1.0
102
RTVSPost2010PropOp57
 70
     1
  0
XRECORD
  5
538D
102
{ACAD_REACTORS
330
538C
102
}
330
538C
100
AcDbXrecord
280
     1
102
RTVSPost2010Prop28
280
     0
102
RTVSPost2010PropOp28
 70
     1
102
RTVSPost2010Prop29
280
     1
102
RTVSPost2010PropOp29
 70
     1
102
RTVSPost2010Prop30
280
     1
102
RTVSPost2010PropOp30
 70
     1
102
RTVSPost2010Prop31
280
     0
102
RTVSPost2010PropOp31
 70
     1
102
RTVSPost2010Prop32
280
     0
102
RTVSPost2010PropOp32
 70
     1
102
RTVSPost2010Prop33
280
     0
102
RTVSPost2010PropOp33
 70
     1
102
RTVSPost2010Prop34
280
     0
102
RTVSPost2010PropOp34
 70
     1
102
RTVSPost2010Prop35
280
     0
102
RTVSPost2010PropOp35
 70
     1
102
RTVSPost2010Prop36
280
     0
102
RTVSPost2010PropOp36
 70
     1
102
RTVSPost2010Prop37
 90
       50
102
RTVSPost2010PropOp37
 70
     1
102
RTVSPost2010Prop38
140
0.0
102
RTVSPost2010PropOp38
 70
     1
102
RTVSPost2010Prop39
140
1.0
102
RTVSPost2010PropOp39
 70
     1
102
RTVSPost2010Prop40
 90
        0
102
RTVSPost2010PropOp40
 70
     1
102
RTVSPost2010Prop41ColorIndex
 90
       18
102
RTVSPost2010Prop41ColorRGB
 90
        0
102
RTVSPost2010PropOp41
 70
     1
102
RTVSPost2010Prop42
 90
       50
102
RTVSPost2010PropOp42
 70
     1
102
RTVSPost2010Prop43
 90
        3
102
RTVSPost2010PropOp43
 70
     1
102
RTVSPost2010Prop44ColorIndex
 90
        5
102
RTVSPost2010Prop44ColorRGB
 90
      255
102
RTVSPost2010PropOp44
 70
     1
102
RTVSPost2010Prop45
280
     0
102
RTVSPost2010PropOp45
 70
     1
102
RTVSPost2010Prop46
 90
       50
102
RTVSPost2010PropOp46
 70
     1
102
RTVSPost2010Prop47
 90
       50
102
RTVSPost2010PropOp47
 70
     1
102
RTVSPost2010Prop48
 90
       50
102
RTVSPost2010PropOp48
 70
     1
102
RTVSPost2010Prop49
280
     0
102
RTVSPost2010PropOp49
 70
     1
102
RTVSPost2010Prop50
 90
       50
102
RTVSPost2010PropOp50
 70
     1
102
RTVSPost2010Prop51ColorIndex
 90
      256
102
RTVSPost2010Prop51ColorRGB
 90
-16777216
102
RTVSPost2010PropOp51
 70
     0
102
RTVSPost2010Prop52
140
1.0
102
RTVSPost2010PropOp52
 70
     0
102
RTVSPost2010Prop53
 90
        2
102
RTVSPost2010PropOp53
 70
     1
102
RTVSPost2010Prop54
  1
strokes_ogs.tif
102
RTVSPost2010PropOp54
 70
     1
102
RTVSPost2010Prop55
280
     0
102
RTVSPost2010PropOp55
 70
     1
102
RTVSPost2010Prop56
140
1.0
102
RTVSPost2010PropOp56
 70
     1
102
RTVSPost2010Prop57
140
1.0
102
RTVSPost2010PropOp57
 70
     1
  0
XRECORD
  5
536F
102
{ACAD_REACTORS
330
536E
102
}
330
536E
100
AcDbXrecord
280
     1
102
RTVSPost2010Prop28
280
     0
102
RTVSPost2010PropOp28
 70
     1
102
RTVSPost2010Prop29
280
     1
102
RTVSPost2010PropOp29
 70
     1
102
RTVSPost2010Prop30
280
     1
102
RTVSPost2010PropOp30
 70
     1
102
RTVSPost2010Prop31
280
     0
102
RTVSPost2010PropOp31
 70
     1
102
RTVSPost2010Prop32
280
     0
102
RTVSPost2010PropOp32
 70
     1
102
RTVSPost2010Prop33
280
     0
102
RTVSPost2010PropOp33
 70
     1
102
RTVSPost2010Prop34
280
     0
102
RTVSPost2010PropOp34
 70
     1
102
RTVSPost2010Prop35
280
     0
102
RTVSPost2010PropOp35
 70
     1
102
RTVSPost2010Prop36
280
     0
102
RTVSPost2010PropOp36
 70
     1
102
RTVSPost2010Prop37
 90
       50
102
RTVSPost2010PropOp37
 70
     1
102
RTVSPost2010Prop38
140
0.0
102
RTVSPost2010PropOp38
 70
     1
102
RTVSPost2010Prop39
140
1.0
102
RTVSPost2010PropOp39
 70
     1
102
RTVSPost2010Prop40
 90
        0
102
RTVSPost2010PropOp40
 70
     1
102
RTVSPost2010Prop41ColorIndex
 90
       18
102
RTVSPost2010Prop41ColorRGB
 90
        0
102
RTVSPost2010PropOp41
 70
     1
102
RTVSPost2010Prop42
 90
       50
102
RTVSPost2010PropOp42
 70
     1
102
RTVSPost2010Prop43
 90
        3
102
RTVSPost2010PropOp43
 70
     1
102
RTVSPost2010Prop44ColorIndex
 90
        5
102
RTVSPost2010Prop44ColorRGB
 90
      255
102
RTVSPost2010PropOp44
 70
     1
102
RTVSPost2010Prop45
280
     0
102
RTVSPost2010PropOp45
 70
     1
102
RTVSPost2010Prop46
 90
       50
102
RTVSPost2010PropOp46
 70
     1
102
RTVSPost2010Prop47
 90
       50
102
RTVSPost2010PropOp47
 70
     1
102
RTVSPost2010Prop48
 90
       50
102
RTVSPost2010PropOp48
 70
     1
102
RTVSPost2010Prop49
280
     0
102
RTVSPost2010PropOp49
 70
     1
102
RTVSPost2010Prop50
 90
       50
102
RTVSPost2010PropOp50
 70
     1
102
RTVSPost2010Prop51ColorIndex
 90
      256
102
RTVSPost2010Prop51ColorRGB
 90
-16777216
102
RTVSPost2010PropOp51
 70
     0
102
RTVSPost2010Prop52
140
1.0
102
RTVSPost2010PropOp52
 70
     0
102
RTVSPost2010Prop53
 90
        2
102
RTVSPost2010PropOp53
 70
     1
102
RTVSPost2010Prop54
  1
strokes_ogs.tif
102
RTVSPost2010PropOp54
 70
     1
102
RTVSPost2010Prop55
280
     0
102
RTVSPost2010PropOp55
 70
     1
102
RTVSPost2010Prop56
140
1.0
102
RTVSPost2010PropOp56
 70
     1
102
RTVSPost2010Prop57
140
1.0
102
RTVSPost2010PropOp57
 70
     1
  0
XRECORD
  5
5389
102
{ACAD_REACTORS
330
5388
102
}
330
5388
100
AcDbXrecord
280
     1
102
RTVSPost2010Prop28
280
     0
102
RTVSPost2010PropOp28
 70
     1
102
RTVSPost2010Prop29
280
     1
102
RTVSPost2010PropOp29
 70
     1
102
RTVSPost2010Prop30
280
     1
102
RTVSPost2010PropOp30
 70
     1
102
RTVSPost2010Prop31
280
     0
102
RTVSPost2010PropOp31
 70
     1
102
RTVSPost2010Prop32
280
     0
102
RTVSPost2010PropOp32
 70
     1
102
RTVSPost2010Prop33
280
     0
102
RTVSPost2010PropOp33
 70
     1
102
RTVSPost2010Prop34
280
     0
102
RTVSPost2010PropOp34
 70
     1
102
RTVSPost2010Prop35
280
     0
102
RTVSPost2010PropOp35
 70
     1
102
RTVSPost2010Prop36
280
     0
102
RTVSPost2010PropOp36
 70
     1
102
RTVSPost2010Prop37
 90
       50
102
RTVSPost2010PropOp37
 70
     1
102
RTVSPost2010Prop38
140
0.0
102
RTVSPost2010PropOp38
 70
     1
102
RTVSPost2010Prop39
140
1.0
102
RTVSPost2010PropOp39
 70
     1
102
RTVSPost2010Prop40
 90
        0
102
RTVSPost2010PropOp40
 70
     1
102
RTVSPost2010Prop41ColorIndex
 90
       18
102
RTVSPost2010Prop41ColorRGB
 90
        0
102
RTVSPost2010PropOp41
 70
     1
102
RTVSPost2010Prop42
 90
       50
102
RTVSPost2010PropOp42
 70
     1
102
RTVSPost2010Prop43
 90
        3
102
RTVSPost2010PropOp43
 70
     1
102
RTVSPost2010Prop44ColorIndex
 90
        5
102
RTVSPost2010Prop44ColorRGB
 90
      255
102
RTVSPost2010PropOp44
 70
     1
102
RTVSPost2010Prop45
280
     0
102
RTVSPost2010PropOp45
 70
     1
102
RTVSPost2010Prop46
 90
       50
102
RTVSPost2010PropOp46
 70
     1
102
RTVSPost2010Prop47
 90
       50
102
RTVSPost2010PropOp47
 70
     1
102
RTVSPost2010Prop48
 90
       50
102
RTVSPost2010PropOp48
 70
     1
102
RTVSPost2010Prop49
280
     0
102
RTVSPost2010PropOp49
 70
     1
102
RTVSPost2010Prop50
 90
       50
102
RTVSPost2010PropOp50
 70
     1
102
RTVSPost2010Prop51ColorIndex
 90
      256
102
RTVSPost2010Prop51ColorRGB
 90
-16777216
102
RTVSPost2010PropOp51
 70
     0
102
RTVSPost2010Prop52
140
1.0
102
RTVSPost2010PropOp52
 70
     0
102
RTVSPost2010Prop53
 90
        2
102
RTVSPost2010PropOp53
 70
     1
102
RTVSPost2010Prop54
  1
strokes_ogs.tif
102
RTVSPost2010PropOp54
 70
     1
102
RTVSPost2010Prop55
280
     0
102
RTVSPost2010PropOp55
 70
     1
102
RTVSPost2010Prop56
140
1.0
102
RTVSPost2010PropOp56
 70
     1
102
RTVSPost2010Prop57
140
1.0
102
RTVSPost2010PropOp57
 70
     1
  0
XRECORD
  5
5387
102
{ACAD_REACTORS
330
5386
102
}
330
5386
100
AcDbXrecord
280
     1
102
RTVSPost2010Prop28
280
     0
102
RTVSPost2010PropOp28
 70
     1
102
RTVSPost2010Prop29
280
     1
102
RTVSPost2010PropOp29
 70
     1
102
RTVSPost2010Prop30
280
     1
102
RTVSPost2010PropOp30
 70
     1
102
RTVSPost2010Prop31
280
     0
102
RTVSPost2010PropOp31
 70
     1
102
RTVSPost2010Prop32
280
     0
102
RTVSPost2010PropOp32
 70
     1
102
RTVSPost2010Prop33
280
     0
102
RTVSPost2010PropOp33
 70
     1
102
RTVSPost2010Prop34
280
     0
102
RTVSPost2010PropOp34
 70
     1
102
RTVSPost2010Prop35
280
     0
102
RTVSPost2010PropOp35
 70
     1
102
RTVSPost2010Prop36
280
     0
102
RTVSPost2010PropOp36
 70
     1
102
RTVSPost2010Prop37
 90
       50
102
RTVSPost2010PropOp37
 70
     1
102
RTVSPost2010Prop38
140
0.0
102
RTVSPost2010PropOp38
 70
     1
102
RTVSPost2010Prop39
140
1.0
102
RTVSPost2010PropOp39
 70
     1
102
RTVSPost2010Prop40
 90
        0
102
RTVSPost2010PropOp40
 70
     1
102
RTVSPost2010Prop41ColorIndex
 90
       18
102
RTVSPost2010Prop41ColorRGB
 90
        0
102
RTVSPost2010PropOp41
 70
     1
102
RTVSPost2010Prop42
 90
       50
102
RTVSPost2010PropOp42
 70
     1
102
RTVSPost2010Prop43
 90
        3
102
RTVSPost2010PropOp43
 70
     1
102
RTVSPost2010Prop44ColorIndex
 90
        5
102
RTVSPost2010Prop44ColorRGB
 90
      255
102
RTVSPost2010PropOp44
 70
     1
102
RTVSPost2010Prop45
280
     0
102
RTVSPost2010PropOp45
 70
     1
102
RTVSPost2010Prop46
 90
       50
102
RTVSPost2010PropOp46
 70
     1
102
RTVSPost2010Prop47
 90
       50
102
RTVSPost2010PropOp47
 70
     1
102
RTVSPost2010Prop48
 90
       50
102
RTVSPost2010PropOp48
 70
     1
102
RTVSPost2010Prop49
280
     0
102
RTVSPost2010PropOp49
 70
     1
102
RTVSPost2010Prop50
 90
       50
102
RTVSPost2010PropOp50
 70
     1
102
RTVSPost2010Prop51ColorIndex
 90
      256
102
RTVSPost2010Prop51ColorRGB
 90
-16777216
102
RTVSPost2010PropOp51
 70
     0
102
RTVSPost2010Prop52
140
1.0
102
RTVSPost2010PropOp52
 70
     0
102
RTVSPost2010Prop53
 90
        2
102
RTVSPost2010PropOp53
 70
     1
102
RTVSPost2010Prop54
  1
strokes_ogs.tif
102
RTVSPost2010PropOp54
 70
     1
102
RTVSPost2010Prop55
280
     0
102
RTVSPost2010PropOp55
 70
     1
102
RTVSPost2010Prop56
140
1.0
102
RTVSPost2010PropOp56
 70
     1
102
RTVSPost2010Prop57
140
1.0
102
RTVSPost2010PropOp57
 70
     1
  0
XRECORD
  5
5381
102
{ACAD_REACTORS
330
5380
102
}
330
5380
100
AcDbXrecord
280
     1
102
RTVSPost2010Prop28
280
     0
102
RTVSPost2010PropOp28
 70
     1
102
RTVSPost2010Prop29
280
     1
102
RTVSPost2010PropOp29
 70
     1
102
RTVSPost2010Prop30
280
     1
102
RTVSPost2010PropOp30
 70
     1
102
RTVSPost2010Prop31
280
     0
102
RTVSPost2010PropOp31
 70
     1
102
RTVSPost2010Prop32
280
     0
102
RTVSPost2010PropOp32
 70
     1
102
RTVSPost2010Prop33
280
     0
102
RTVSPost2010PropOp33
 70
     1
102
RTVSPost2010Prop34
280
     0
102
RTVSPost2010PropOp34
 70
     1
102
RTVSPost2010Prop35
280
     0
102
RTVSPost2010PropOp35
 70
     1
102
RTVSPost2010Prop36
280
     0
102
RTVSPost2010PropOp36
 70
     1
102
RTVSPost2010Prop37
 90
       50
102
RTVSPost2010PropOp37
 70
     1
102
RTVSPost2010Prop38
140
0.0
102
RTVSPost2010PropOp38
 70
     1
102
RTVSPost2010Prop39
140
1.0
102
RTVSPost2010PropOp39
 70
     1
102
RTVSPost2010Prop40
 90
        0
102
RTVSPost2010PropOp40
 70
     1
102
RTVSPost2010Prop41ColorIndex
 90
       18
102
RTVSPost2010Prop41ColorRGB
 90
        0
102
RTVSPost2010PropOp41
 70
     1
102
RTVSPost2010Prop42
 90
       50
102
RTVSPost2010PropOp42
 70
     1
102
RTVSPost2010Prop43
 90
        3
102
RTVSPost2010PropOp43
 70
     1
102
RTVSPost2010Prop44ColorIndex
 90
        5
102
RTVSPost2010Prop44ColorRGB
 90
      255
102
RTVSPost2010PropOp44
 70
     1
102
RTVSPost2010Prop45
280
     0
102
RTVSPost2010PropOp45
 70
     1
102
RTVSPost2010Prop46
 90
       50
102
RTVSPost2010PropOp46
 70
     1
102
RTVSPost2010Prop47
 90
       50
102
RTVSPost2010PropOp47
 70
     1
102
RTVSPost2010Prop48
 90
       50
102
RTVSPost2010PropOp48
 70
     1
102
RTVSPost2010Prop49
280
     0
102
RTVSPost2010PropOp49
 70
     1
102
RTVSPost2010Prop50
 90
       50
102
RTVSPost2010PropOp50
 70
     1
102
RTVSPost2010Prop51ColorIndex
 90
      256
102
RTVSPost2010Prop51ColorRGB
 90
-16777216
102
RTVSPost2010PropOp51
 70
     0
102
RTVSPost2010Prop52
140
1.0
102
RTVSPost2010PropOp52
 70
     0
102
RTVSPost2010Prop53
 90
        2
102
RTVSPost2010PropOp53
 70
     1
102
RTVSPost2010Prop54
  1
strokes_ogs.tif
102
RTVSPost2010PropOp54
 70
     1
102
RTVSPost2010Prop55
280
     0
102
RTVSPost2010PropOp55
 70
     1
102
RTVSPost2010Prop56
140
1.0
102
RTVSPost2010PropOp56
 70
     1
102
RTVSPost2010Prop57
140
1.0
102
RTVSPost2010PropOp57
 70
     1
  0
XRECORD
  5
5383
102
{ACAD_REACTORS
330
5382
102
}
330
5382
100
AcDbXrecord
280
     1
102
RTVSPost2010Prop28
280
     0
102
RTVSPost2010PropOp28
 70
     1
102
RTVSPost2010Prop29
280
     1
102
RTVSPost2010PropOp29
 70
     1
102
RTVSPost2010Prop30
280
     1
102
RTVSPost2010PropOp30
 70
     1
102
RTVSPost2010Prop31
280
     0
102
RTVSPost2010PropOp31
 70
     1
102
RTVSPost2010Prop32
280
     0
102
RTVSPost2010PropOp32
 70
     1
102
RTVSPost2010Prop33
280
     0
102
RTVSPost2010PropOp33
 70
     1
102
RTVSPost2010Prop34
280
     0
102
RTVSPost2010PropOp34
 70
     1
102
RTVSPost2010Prop35
280
     0
102
RTVSPost2010PropOp35
 70
     1
102
RTVSPost2010Prop36
280
     0
102
RTVSPost2010PropOp36
 70
     1
102
RTVSPost2010Prop37
 90
       50
102
RTVSPost2010PropOp37
 70
     1
102
RTVSPost2010Prop38
140
0.0
102
RTVSPost2010PropOp38
 70
     1
102
RTVSPost2010Prop39
140
1.0
102
RTVSPost2010PropOp39
 70
     1
102
RTVSPost2010Prop40
 90
        0
102
RTVSPost2010PropOp40
 70
     1
102
RTVSPost2010Prop41ColorIndex
 90
       18
102
RTVSPost2010Prop41ColorRGB
 90
        0
102
RTVSPost2010PropOp41
 70
     1
102
RTVSPost2010Prop42
 90
       50
102
RTVSPost2010PropOp42
 70
     1
102
RTVSPost2010Prop43
 90
        3
102
RTVSPost2010PropOp43
 70
     1
102
RTVSPost2010Prop44ColorIndex
 90
        5
102
RTVSPost2010Prop44ColorRGB
 90
      255
102
RTVSPost2010PropOp44
 70
     1
102
RTVSPost2010Prop45
280
     0
102
RTVSPost2010PropOp45
 70
     1
102
RTVSPost2010Prop46
 90
       50
102
RTVSPost2010PropOp46
 70
     1
102
RTVSPost2010Prop47
 90
       50
102
RTVSPost2010PropOp47
 70
     1
102
RTVSPost2010Prop48
 90
       50
102
RTVSPost2010PropOp48
 70
     1
102
RTVSPost2010Prop49
280
     0
102
RTVSPost2010PropOp49
 70
     1
102
RTVSPost2010Prop50
 90
       50
102
RTVSPost2010PropOp50
 70
     1
102
RTVSPost2010Prop51ColorIndex
 90
      256
102
RTVSPost2010Prop51ColorRGB
 90
-16777216
102
RTVSPost2010PropOp51
 70
     0
102
RTVSPost2010Prop52
140
1.0
102
RTVSPost2010PropOp52
 70
     0
102
RTVSPost2010Prop53
 90
        2
102
RTVSPost2010PropOp53
 70
     1
102
RTVSPost2010Prop54
  1
strokes_ogs.tif
102
RTVSPost2010PropOp54
 70
     1
102
RTVSPost2010Prop55
280
     0
102
RTVSPost2010PropOp55
 70
     1
102
RTVSPost2010Prop56
140
1.0
102
RTVSPost2010PropOp56
 70
     1
102
RTVSPost2010Prop57
140
1.0
102
RTVSPost2010PropOp57
 70
     1
  0
XRECORD
  5
5375
102
{ACAD_REACTORS
330
5374
102
}
330
5374
100
AcDbXrecord
280
     1
102
RTVSPost2010Prop28
280
     0
102
RTVSPost2010PropOp28
 70
     1
102
RTVSPost2010Prop29
280
     1
102
RTVSPost2010PropOp29
 70
     1
102
RTVSPost2010Prop30
280
     1
102
RTVSPost2010PropOp30
 70
     1
102
RTVSPost2010Prop31
280
     0
102
RTVSPost2010PropOp31
 70
     1
102
RTVSPost2010Prop32
280
     0
102
RTVSPost2010PropOp32
 70
     1
102
RTVSPost2010Prop33
280
     0
102
RTVSPost2010PropOp33
 70
     1
102
RTVSPost2010Prop34
280
     0
102
RTVSPost2010PropOp34
 70
     1
102
RTVSPost2010Prop35
280
     0
102
RTVSPost2010PropOp35
 70
     1
102
RTVSPost2010Prop36
280
     0
102
RTVSPost2010PropOp36
 70
     1
102
RTVSPost2010Prop37
 90
       50
102
RTVSPost2010PropOp37
 70
     1
102
RTVSPost2010Prop38
140
0.0
102
RTVSPost2010PropOp38
 70
     1
102
RTVSPost2010Prop39
140
1.0
102
RTVSPost2010PropOp39
 70
     1
102
RTVSPost2010Prop40
 90
        0
102
RTVSPost2010PropOp40
 70
     1
102
RTVSPost2010Prop41ColorIndex
 90
       18
102
RTVSPost2010Prop41ColorRGB
 90
        0
102
RTVSPost2010PropOp41
 70
     1
102
RTVSPost2010Prop42
 90
       50
102
RTVSPost2010PropOp42
 70
     1
102
RTVSPost2010Prop43
 90
        3
102
RTVSPost2010PropOp43
 70
     1
102
RTVSPost2010Prop44ColorIndex
 90
        5
102
RTVSPost2010Prop44ColorRGB
 90
      255
102
RTVSPost2010PropOp44
 70
     1
102
RTVSPost2010Prop45
280
     0
102
RTVSPost2010PropOp45
 70
     1
102
RTVSPost2010Prop46
 90
       50
102
RTVSPost2010PropOp46
 70
     1
102
RTVSPost2010Prop47
 90
       50
102
RTVSPost2010PropOp47
 70
     1
102
RTVSPost2010Prop48
 90
       50
102
RTVSPost2010PropOp48
 70
     1
102
RTVSPost2010Prop49
280
     0
102
RTVSPost2010PropOp49
 70
     1
102
RTVSPost2010Prop50
 90
       50
102
RTVSPost2010PropOp50
 70
     1
102
RTVSPost2010Prop51ColorIndex
 90
      256
102
RTVSPost2010Prop51ColorRGB
 90
-16777216
102
RTVSPost2010PropOp51
 70
     0
102
RTVSPost2010Prop52
140
1.0
102
RTVSPost2010PropOp52
 70
     0
102
RTVSPost2010Prop53
 90
        2
102
RTVSPost2010PropOp53
 70
     1
102
RTVSPost2010Prop54
  1
strokes_ogs.tif
102
RTVSPost2010PropOp54
 70
     1
102
RTVSPost2010Prop55
280
     0
102
RTVSPost2010PropOp55
 70
     1
102
RTVSPost2010Prop56
140
1.0
102
RTVSPost2010PropOp56
 70
     1
102
RTVSPost2010Prop57
140
1.0
102
RTVSPost2010PropOp57
 70
     1
  0
XRECORD
  5
537D
102
{ACAD_REACTORS
330
537C
102
}
330
537C
100
AcDbXrecord
280
     1
102
RTVSPost2010Prop28
280
     0
102
RTVSPost2010PropOp28
 70
     1
102
RTVSPost2010Prop29
280
     1
102
RTVSPost2010PropOp29
 70
     1
102
RTVSPost2010Prop30
280
     1
102
RTVSPost2010PropOp30
 70
     1
102
RTVSPost2010Prop31
280
     0
102
RTVSPost2010PropOp31
 70
     1
102
RTVSPost2010Prop32
280
     0
102
RTVSPost2010PropOp32
 70
     1
102
RTVSPost2010Prop33
280
     0
102
RTVSPost2010PropOp33
 70
     1
102
RTVSPost2010Prop34
280
     0
102
RTVSPost2010PropOp34
 70
     1
102
RTVSPost2010Prop35
280
     0
102
RTVSPost2010PropOp35
 70
     1
102
RTVSPost2010Prop36
280
     0
102
RTVSPost2010PropOp36
 70
     1
102
RTVSPost2010Prop37
 90
       50
102
RTVSPost2010PropOp37
 70
     1
102
RTVSPost2010Prop38
140
0.0
102
RTVSPost2010PropOp38
 70
     1
102
RTVSPost2010Prop39
140
1.0
102
RTVSPost2010PropOp39
 70
     1
102
RTVSPost2010Prop40
 90
        0
102
RTVSPost2010PropOp40
 70
     1
102
RTVSPost2010Prop41ColorIndex
 90
       18
102
RTVSPost2010Prop41ColorRGB
 90
        0
102
RTVSPost2010PropOp41
 70
     1
102
RTVSPost2010Prop42
 90
       50
102
RTVSPost2010PropOp42
 70
     1
102
RTVSPost2010Prop43
 90
        3
102
RTVSPost2010PropOp43
 70
     1
102
RTVSPost2010Prop44ColorIndex
 90
        5
102
RTVSPost2010Prop44ColorRGB
 90
      255
102
RTVSPost2010PropOp44
 70
     1
102
RTVSPost2010Prop45
280
     0
102
RTVSPost2010PropOp45
 70
     1
102
RTVSPost2010Prop46
 90
       50
102
RTVSPost2010PropOp46
 70
     1
102
RTVSPost2010Prop47
 90
       50
102
RTVSPost2010PropOp47
 70
     1
102
RTVSPost2010Prop48
 90
       50
102
RTVSPost2010PropOp48
 70
     1
102
RTVSPost2010Prop49
280
     0
102
RTVSPost2010PropOp49
 70
     1
102
RTVSPost2010Prop50
 90
       50
102
RTVSPost2010PropOp50
 70
     1
102
RTVSPost2010Prop51ColorIndex
 90
      256
102
RTVSPost2010Prop51ColorRGB
 90
-16777216
102
RTVSPost2010PropOp51
 70
     0
102
RTVSPost2010Prop52
140
1.0
102
RTVSPost2010PropOp52
 70
     0
102
RTVSPost2010Prop53
 90
        2
102
RTVSPost2010PropOp53
 70
     1
102
RTVSPost2010Prop54
  1
strokes_ogs.tif
102
RTVSPost2010PropOp54
 70
     1
102
RTVSPost2010Prop55
280
     0
102
RTVSPost2010PropOp55
 70
     1
102
RTVSPost2010Prop56
140
1.0
102
RTVSPost2010PropOp56
 70
     1
102
RTVSPost2010Prop57
140
1.0
102
RTVSPost2010PropOp57
 70
     1
  0
XRECORD
  5
5385
102
{ACAD_REACTORS
330
5384
102
}
330
5384
100
AcDbXrecord
280
     1
102
RTVSPost2010Prop28
280
     0
102
RTVSPost2010PropOp28
 70
     1
102
RTVSPost2010Prop29
280
     1
102
RTVSPost2010PropOp29
 70
     1
102
RTVSPost2010Prop30
280
     1
102
RTVSPost2010PropOp30
 70
     1
102
RTVSPost2010Prop31
280
     0
102
RTVSPost2010PropOp31
 70
     1
102
RTVSPost2010Prop32
280
     0
102
RTVSPost2010PropOp32
 70
     1
102
RTVSPost2010Prop33
280
     0
102
RTVSPost2010PropOp33
 70
     1
102
RTVSPost2010Prop34
280
     0
102
RTVSPost2010PropOp34
 70
     1
102
RTVSPost2010Prop35
280
     0
102
RTVSPost2010PropOp35
 70
     1
102
RTVSPost2010Prop36
280
     0
102
RTVSPost2010PropOp36
 70
     1
102
RTVSPost2010Prop37
 90
       50
102
RTVSPost2010PropOp37
 70
     1
102
RTVSPost2010Prop38
140
0.0
102
RTVSPost2010PropOp38
 70
     1
102
RTVSPost2010Prop39
140
1.0
102
RTVSPost2010PropOp39
 70
     1
102
RTVSPost2010Prop40
 90
        0
102
RTVSPost2010PropOp40
 70
     1
102
RTVSPost2010Prop41ColorIndex
 90
       18
102
RTVSPost2010Prop41ColorRGB
 90
        0
102
RTVSPost2010PropOp41
 70
     1
102
RTVSPost2010Prop42
 90
       50
102
RTVSPost2010PropOp42
 70
     1
102
RTVSPost2010Prop43
 90
        3
102
RTVSPost2010PropOp43
 70
     1
102
RTVSPost2010Prop44ColorIndex
 90
        5
102
RTVSPost2010Prop44ColorRGB
 90
      255
102
RTVSPost2010PropOp44
 70
     1
102
RTVSPost2010Prop45
280
     0
102
RTVSPost2010PropOp45
 70
     1
102
RTVSPost2010Prop46
 90
       50
102
RTVSPost2010PropOp46
 70
     1
102
RTVSPost2010Prop47
 90
       50
102
RTVSPost2010PropOp47
 70
     1
102
RTVSPost2010Prop48
 90
       50
102
RTVSPost2010PropOp48
 70
     1
102
RTVSPost2010Prop49
280
     0
102
RTVSPost2010PropOp49
 70
     1
102
RTVSPost2010Prop50
 90
       50
102
RTVSPost2010PropOp50
 70
     1
102
RTVSPost2010Prop51ColorIndex
 90
      256
102
RTVSPost2010Prop51ColorRGB
 90
-16777216
102
RTVSPost2010PropOp51
 70
     0
102
RTVSPost2010Prop52
140
1.0
102
RTVSPost2010PropOp52
 70
     0
102
RTVSPost2010Prop53
 90
        2
102
RTVSPost2010PropOp53
 70
     1
102
RTVSPost2010Prop54
  1
strokes_ogs.tif
102
RTVSPost2010PropOp54
 70
     1
102
RTVSPost2010Prop55
280
     0
102
RTVSPost2010PropOp55
 70
     1
102
RTVSPost2010Prop56
140
1.0
102
RTVSPost2010PropOp56
 70
     1
102
RTVSPost2010Prop57
140
1.0
102
RTVSPost2010PropOp57
 70
     1
  0
ENDSEC
  0
EOF
