  0
SECTION
  2
HEADER
  9
$ACADVER
  1
AC1024
  9
$ACADMAINTVER
 70
   225
  9
$DWGCODEPAGE
  3
ANSI_932
  9
$LASTSAVEDBY
  1
takanashi
  9
$INSBASE
 10
0.0
 20
0.0
 30
0.0
  9
$EXTMIN
 10
19.9694844009
 20
9.997285330199247
 30
-0.0000000001133611
  9
$EXTMAX
 10
800.0354022998775
 20
560.0291761481542
 30
0.0000000001108662
  9
$LIMMIN
 10
0.0
 20
0.0
  9
$LIMMAX
 10
840.0
 20
594.0
  9
$ORTHOMODE
 70
     0
  9
$REGENMODE
 70
     1
  9
$FILLMODE
 70
     1
  9
$QTEXTMODE
 70
     0
  9
$MIRRTEXT
 70
     0
  9
$LTSCALE
 40
1.0
  9
$ATTMODE
 70
     1
  9
$TEXTSIZE
 40
5.0
  9
$TRACEWID
 40
1.0
  9
$TEXTSTYLE
  7
STANDARD
  9
$CLAYER
  8
0
  9
$CELTYPE
  6
BYLAYER
  9
$CECOLOR
 62
   256
  9
$CELTSCALE
 40
1.0
  9
$DISPSILH
 70
     0
  9
$DIMSCALE
 40
1.0
  9
$DIMASZ
 40
1.5
  9
$DIMEXO
 40
5.0
  9
$DIMDLI
 40
3.75
  9
$DIMRND
 40
0.0
  9
$DIMDLE
 40
0.0
  9
$DIMEXE
 40
0.0
  9
$DIMTP
 40
0.0
  9
$DIMTM
 40
0.0
  9
$DIMTXT
 40
5.0
  9
$DIMCEN
 40
2.5
  9
$DIMTSZ
 40
0.0
  9
$DIMTOL
 70
     0
  9
$DIMLIM
 70
     0
  9
$DIMTIH
 70
     0
  9
$DIMTOH
 70
     0
  9
$DIMSE1
 70
     0
  9
$DIMSE2
 70
     0
  9
$DIMTAD
 70
     1
  9
$DIMZIN
 70
     8
  9
$DIMBLK
  1
DotBlank
  9
$DIMASO
 70
     1
  9
$DIMSHO
 70
     1
  9
$DIMPOST
  1

  9
$DIMAPOST
  1

  9
$DIMALT
 70
     0
  9
$DIMALTD
 70
     2
  9
$DIMALTF
 40
25.4
  9
$DIMLFAC
 40
1.0
  9
$DIMTOFL
 70
     1
  9
$DIMTVP
 40
0.0
  9
$DIMTIX
 70
     0
  9
$DIMSOXD
 70
     0
  9
$DIMSAH
 70
     0
  9
$DIMBLK1
  1

  9
$DIMBLK2
  1

  9
$DIMSTYLE
  2
STANDARD
  9
$DIMCLRD
 70
     0
  9
$DIMCLRE
 70
     0
  9
$DIMCLRT
 70
     0
  9
$DIMTFAC
 40
1.0
  9
$DIMGAP
 40
0.625
  9
$DIMJUST
 70
     0
  9
$DIMSD1
 70
     0
  9
$DIMSD2
 70
     0
  9
$DIMTOLJ
 70
     1
  9
$DIMTZIN
 70
     0
  9
$DIMALTZ
 70
     0
  9
$DIMALTTZ
 70
     0
  9
$DIMUPT
 70
     0
  9
$DIMDEC
 70
     1
  9
$DIMTDEC
 70
     1
  9
$DIMALTU
 70
     2
  9
$DIMALTTD
 70
     2
  9
$DIMTXSTY
  7
STANDARD
  9
$DIMAUNIT
 70
     0
  9
$DIMADEC
 70
     0
  9
$DIMALTRND
 40
0.0
  9
$DIMAZIN
 70
     0
  9
$DIMDSEP
 70
    46
  9
$DIMATFIT
 70
     3
  9
$DIMFRAC
 70
     0
  9
$DIMLDRBLK
  1
NONE
  9
$DIMLUNIT
 70
     2
  9
$DIMLWD
 70
    -2
  9
$DIMLWE
 70
    -2
  9
$DIMTMOVE
 70
     0
  9
$DIMFXL
 40
1.0
  9
$DIMFXLON
 70
     0
  9
$DIMJOGANG
 40
0.7853981633974483
  9
$DIMTFILL
 70
     0
  9
$DIMTFILLCLR
 70
     0
  9
$DIMARCSYM
 70
     0
  9
$DIMLTYPE
  6

  9
$DIMLTEX1
  6

  9
$DIMLTEX2
  6

  9
$DIMTXTDIRECTION
 70
     0
  9
$LUNITS
 70
     2
  9
$LUPREC
 70
     4
  9
$SKETCHINC
 40
1.0
  9
$FILLETRAD
 40
10.0
  9
$AUNITS
 70
     0
  9
$AUPREC
 70
     1
  9
$MENU
  1
.
  9
$ELEVATION
 40
0.0
  9
$PELEVATION
 40
0.0
  9
$THICKNESS
 40
0.0
  9
$LIMCHECK
 70
     0
  9
$CHAMFERA
 40
10.0
  9
$CHAMFERB
 40
10.0
  9
$CHAMFERC
 40
20.0
  9
$CHAMFERD
 40
0.0
  9
$SKPOLY
 70
     0
  9
$TDCREATE
 40
2450431.623194444
  9
$TDUCREATE
 40
2450431.248202778
  9
$TDUPDATE
 40
2459545.362719907
  9
$TDUUPDATE
 40
2459544.987719908
  9
$TDINDWG
 40
2.3881718403
  9
$TDUSRTIMER
 40
2.3881718403
  9
$USRTIMER
 70
     1
  9
$ANGBASE
 50
0.0
  9
$ANGDIR
 70
     0
  9
$PDMODE
 70
    34
  9
$PDSIZE
 40
0.0
  9
$PLINEWID
 40
0.0
  9
$SPLFRAME
 70
     0
  9
$SPLINETYPE
 70
     6
  9
$SPLINESEGS
 70
     8
  9
$HANDSEED
  5
985A
  9
$SURFTAB1
 70
     6
  9
$SURFTAB2
 70
     6
  9
$SURFTYPE
 70
     6
  9
$SURFU
 70
     6
  9
$SURFV
 70
     6
  9
$UCSBASE
  2

  9
$UCSNAME
  2

  9
$UCSORG
 10
0.0
 20
0.0
 30
0.0
  9
$UCSXDIR
 10
1.0
 20
0.0
 30
0.0
  9
$UCSYDIR
 10
0.0
 20
1.0
 30
0.0
  9
$UCSORTHOREF
  2

  9
$UCSORTHOVIEW
 70
     1
  9
$UCSORGTOP
 10
0.0
 20
0.0
 30
0.0
  9
$UCSORGBOTTOM
 10
0.0
 20
0.0
 30
0.0
  9
$UCSORGLEFT
 10
0.0
 20
0.0
 30
0.0
  9
$UCSORGRIGHT
 10
0.0
 20
0.0
 30
0.0
  9
$UCSORGFRONT
 10
0.0
 20
0.0
 30
0.0
  9
$UCSORGBACK
 10
0.0
 20
0.0
 30
0.0
  9
$PUCSBASE
  2

  9
$PUCSNAME
  2

  9
$PUCSORG
 10
0.0
 20
0.0
 30
0.0
  9
$PUCSXDIR
 10
1.0
 20
0.0
 30
0.0
  9
$PUCSYDIR
 10
0.0
 20
1.0
 30
0.0
  9
$PUCSORTHOREF
  2

  9
$PUCSORTHOVIEW
 70
     0
  9
$PUCSORGTOP
 10
0.0
 20
0.0
 30
0.0
  9
$PUCSORGBOTTOM
 10
0.0
 20
0.0
 30
0.0
  9
$PUCSORGLEFT
 10
0.0
 20
0.0
 30
0.0
  9
$PUCSORGRIGHT
 10
0.0
 20
0.0
 30
0.0
  9
$PUCSORGFRONT
 10
0.0
 20
0.0
 30
0.0
  9
$PUCSORGBACK
 10
0.0
 20
0.0
 30
0.0
  9
$USERI1
 70
     0
  9
$USERI2
 70
     0
  9
$USERI3
 70
     0
  9
$USERI4
 70
     0
  9
$USERI5
 70
     0
  9
$USERR1
 40
0.0
  9
$USERR2
 40
0.0
  9
$USERR3
 40
0.0
  9
$USERR4
 40
0.0
  9
$USERR5
 40
0.0
  9
$WORLDVIEW
 70
     1
  9
$SHADEDGE
 70
     3
  9
$SHADEDIF
 70
    70
  9
$TILEMODE
 70
     1
  9
$MAXACTVP
 70
    16
  9
$PINSBASE
 10
0.0
 20
0.0
 30
0.0
  9
$PLIMCHECK
 70
     0
  9
$PEXTMIN
 10
1.000000000000000E+20
 20
1.000000000000000E+20
 30
1.000000000000000E+20
  9
$PEXTMAX
 10
-1.000000000000000E+20
 20
-1.000000000000000E+20
 30
-1.000000000000000E+20
  9
$PLIMMIN
 10
0.0
 20
0.0
  9
$PLIMMAX
 10
420.0
 20
297.0
  9
$UNITMODE
 70
     0
  9
$VISRETAIN
 70
     0
  9
$PLINEGEN
 70
     0
  9
$PSLTSCALE
 70
     1
  9
$TREEDEPTH
 70
  3020
  9
$CMLSTYLE
  2
STANDARD
  9
$CMLJUST
 70
     0
  9
$CMLSCALE
 40
1.0
  9
$PROXYGRAPHICS
 70
     1
  9
$MEASUREMENT
 70
     1
  9
$CELWEIGHT
370
    -1
  9
$ENDCAPS
280
     0
  9
$JOINSTYLE
280
     0
  9
$LWDISPLAY
290
     0
  9
$INSUNITS
 70
     0
  9
$HYPERLINKBASE
  1

  9
$STYLESHEET
  1
MONOCHROME.CTB
  9
$XEDIT
290
     1
  9
$CEPSNTYPE
380
     0
  9
$PSTYLEMODE
290
     1
  9
$FINGERPRINTGUID
  2
{87E49A17-DA8C-4230-82A7-C569D142D783}
  9
$VERSIONGUID
  2
{DBB7D975-AB20-9941-B990-988F96ADF8BE}
  9
$EXTNAMES
290
     1
  9
$PSVPSCALE
 40
0.0
  9
$OLESTARTUP
290
     0
  9
$SORTENTS
280
   127
  9
$INDEXCTL
280
     0
  9
$HIDETEXT
280
     0
  9
$XCLIPFRAME
280
     2
  9
$HALOGAP
280
     0
  9
$OBSCOLOR
 70
   257
  9
$OBSLTYPE
280
     0
  9
$INTERSECTIONDISPLAY
280
     0
  9
$INTERSECTIONCOLOR
 70
   257
  9
$DIMASSOC
280
     1
  9
$PROJECTNAME
  1

  9
$CAMERADISPLAY
290
     0
  9
$LENSLENGTH
 40
50.0
  9
$CAMERAHEIGHT
 40
0.0
  9
$STEPSPERSEC
 40
2.0
  9
$STEPSIZE
 40
6.0
  9
$3DDWFPREC
 40
2.0
  9
$PSOLWIDTH
 40
0.25
  9
$PSOLHEIGHT
 40
4.0
  9
$LOFTANG1
 40
1.570795999999999
  9
$LOFTANG2
 40
1.570795999999999
  9
$LOFTMAG1
 40
0.0
  9
$LOFTMAG2
 40
0.0
  9
$LOFTPARAM
 70
     7
  9
$LOFTNORMALS
280
     1
  9
$LATITUDE
 40
37.795
  9
$LONGITUDE
 40
-122.394
  9
$NORTHDIRECTION
 40
0.0
  9
$TIMEZONE
 70
 -8000
  9
$LIGHTGLYPHDISPLAY
280
     1
  9
$TILEMODELIGHTSYNCH
280
     1
  9
$CMATERIAL
347
499B
  9
$SOLIDHIST
280
     0
  9
$SHOWHIST
280
     1
  9
$DWFFRAME
280
     2
  9
$DGNFRAME
280
     0
  9
$REALWORLDSCALE
290
     1
  9
$INTERFERECOLOR
 62
     1
  9
$INTERFEREOBJVS
345
49B5
  9
$INTERFEREVPVS
346
4BB0
  9
$CSHADOW
280
     0
  9
$SHADOWPLANELOCATION
 40
0.0
  0
ENDSEC
  0
SECTION
  2
CLASSES
  0
CLASS
  1
ACDBDICTIONARYWDFLT
  2
AcDbDictionaryWithDefault
  3
ObjectDBX Classes
 90
        0
 91
        1
280
     0
281
     0
  0
CLASS
  1
DICTIONARYVAR
  2
AcDbDictionaryVar
  3
ObjectDBX Classes
 90
        0
 91
       15
280
     0
281
     0
  0
CLASS
  1
MATERIAL
  2
AcDbMaterial
  3
ObjectDBX Classes
 90
     1153
 91
        3
280
     0
281
     0
  0
CLASS
  1
SORTENTSTABLE
  2
AcDbSortentsTable
  3
ObjectDBX Classes
 90
        0
 91
        2
280
     0
281
     0
  0
CLASS
  1
DIMASSOC
  2
AcDbDimAssoc
  3
"AcDbDimAssoc|Product Desc:     AcDim ARX App For Dimension|Company:          Autodesk, Inc.|WEB Address:      www.autodesk.com"
 90
        0
 91
        0
280
     0
281
     0
  0
CLASS
  1
VISUALSTYLE
  2
AcDbVisualStyle
  3
ObjectDBX Classes
 90
     4095
 91
       26
280
     0
281
     0
  0
CLASS
  1
TABLESTYLE
  2
AcDbTableStyle
  3
ObjectDBX Classes
 90
     4095
 91
        1
280
     0
281
     0
  0
CLASS
  1
SCALE
  2
AcDbScale
  3
ObjectDBX Classes
 90
     1153
 91
       33
280
     0
281
     0
  0
CLASS
  1
MLEADERSTYLE
  2
AcDbMLeaderStyle
  3
ACDB_MLEADERSTYLE_CLASS
 90
     4095
 91
        1
280
     0
281
     0
  0
CLASS
  1
CELLSTYLEMAP
  2
AcDbCellStyleMap
  3
ObjectDBX Classes
 90
     1152
 91
        1
280
     0
281
     0
  0
CLASS
  1
ACDBSECTIONVIEWSTYLE
  2
AcDbSectionViewStyle
  3
ObjectDBX Classes
 90
     1025
 91
        1
280
     0
281
     0
  0
CLASS
  1
ACDBDETAILVIEWSTYLE
  2
AcDbDetailViewStyle
  3
ObjectDBX Classes
 90
     1025
 91
        1
280
     0
281
     0
  0
CLASS
  1
MULTILEADER
  2
AcDbMLeader
  3
ACDB_MLEADER_CLASS
 90
     1025
 91
       10
280
     0
281
     1
  0
ENDSEC
  0
SECTION
  2
TABLES
  0
TABLE
  2
VPORT
  5
8
102
{ACAD_XDICTIONARY
360
4AD6
102
}
330
0
100
AcDbSymbolTable
 70
     1
  0
VPORT
  5
8EF2
330
8
100
AcDbSymbolTableRecord
100
AcDbViewportTableRecord
  2
*Active
 70
     0
 10
0.0
 20
0.0
 11
1.0
 21
1.0
 12
420.0000000000001
 22
297.0
 13
0.0
 23
0.0
 14
5.0
 24
5.0
 15
10.0
 25
10.0
 16
0.0
 26
0.0
 36
1.0
 17
0.0
 27
0.0
 37
0.0
 40
598.1684210526316
 41
1.879391100702576
 42
50.0
 43
0.0
 44
0.0
 50
0.0
 51
0.0
 71
     0
 72
   100
 73
     1
 74
     0
 75
     0
 76
     0
 77
     0
 78
     0
281
     0
 65
     1
110
0.0
120
0.0
130
0.0
111
1.0
121
0.0
131
0.0
112
0.0
122
1.0
132
0.0
 79
     0
146
0.0
348
49B1
 60
     3
 61
     5
292
     1
282
     1
141
0.0
142
0.0
 63
   250
421
  3355443
1001
ACAD_NAV_VCDISPLAY
1070
     3
  0
ENDTAB
  0
TABLE
  2
LTYPE
  5
5
330
0
100
AcDbSymbolTable
 70
     5
  0
LTYPE
  5
14
330
5
100
AcDbSymbolTableRecord
100
AcDbLinetypeTableRecord
  2
BYBLOCK
 70
     0
  3

 72
    65
 73
     0
 40
0.0
  0
LTYPE
  5
15
330
5
100
AcDbSymbolTableRecord
100
AcDbLinetypeTableRecord
  2
BYLAYER
 70
     0
  3

 72
    65
 73
     0
 40
0.0
  0
LTYPE
  5
16
330
5
100
AcDbSymbolTableRecord
100
AcDbLinetypeTableRecord
  2
CONTINUOUS
 70
     0
  3
Solid line
 72
    65
 73
     0
 40
0.0
  0
LTYPE
  5
E7E
330
5
100
AcDbSymbolTableRecord
100
AcDbLinetypeTableRecord
  2
DASHED2
 70
     0
  3
Dashed (.5x) _ _ _ _ _ _ _ _ _ _ _ _ _ _ _ _ _
 72
    65
 73
     2
 40
9.524999999999996
 49
6.349999999999997
 74
     0
 49
-3.174999999999998
 74
     0
  0
LTYPE
  5
1500
330
5
100
AcDbSymbolTableRecord
100
AcDbLinetypeTableRecord
  2
CENTER2
 70
     0
  3
Center (.5x) ___ _ ___ _ ___ _ ___ _ ___ _ ___
 72
    65
 73
     4
 40
28.57499999999999
 49
19.05
 74
     0
 49
-3.174999999999998
 74
     0
 49
3.174999999999998
 74
     0
 49
-3.174999999999998
 74
     0
  0
ENDTAB
  0
TABLE
  2
LAYER
  5
2
102
{ACAD_XDICTIONARY
360
16F6
102
}
330
0
100
AcDbSymbolTable
 70
    13
  0
LAYER
  5
F
102
{ACAD_XDICTIONARY
360
4AC4
102
}
330
2
100
AcDbSymbolTableRecord
100
AcDbLayerTableRecord
  2
0
 70
     0
 62
     7
  6
CONTINUOUS
370
    -3
390
3AE
347
16F3
  0
LAYER
  5
87
102
{ACAD_XDICTIONARY
360
4AC6
102
}
330
2
100
AcDbSymbolTableRecord
100
AcDbLayerTableRecord
  2
WAKU
 70
     0
 62
     7
  6
CONTINUOUS
370
    -3
390
3AE
347
16F3
  0
LAYER
  5
9C
330
2
100
AcDbSymbolTableRecord
100
AcDbLayerTableRecord
  2
DEFPOINTS
 70
     0
 62
     7
  6
CONTINUOUS
290
     0
370
    -3
390
3AE
347
16F3
  0
LAYER
  5
1502
102
{ACAD_XDICTIONARY
360
4AC8
102
}
330
2
100
AcDbSymbolTableRecord
100
AcDbLayerTableRecord
  2
SUNPOU
 70
     0
 62
     7
  6
CONTINUOUS
370
     5
390
3AE
347
16F3
  0
LAYER
  5
23D8
102
{ACAD_XDICTIONARY
360
23D9
102
}
330
2
100
AcDbSymbolTableRecord
100
AcDbLayerTableRecord
  2
HIKIDASI
 70
     0
 62
     7
  6
CONTINUOUS
370
     5
390
3AE
347
16F3
  0
LAYER
  5
4498
102
{ACAD_XDICTIONARY
360
4499
102
}
330
2
100
AcDbSymbolTableRecord
100
AcDbLayerTableRecord
  2
TEKUSU
 70
     0
 62
     7
  6
CONTINUOUS
370
    -3
390
3AE
347
16F3
  0
LAYER
  5
449C
102
{ACAD_XDICTIONARY
360
449D
102
}
330
2
100
AcDbSymbolTableRecord
100
AcDbLayerTableRecord
  2
SITAJI
 70
     0
 62
     7
  6
CONTINUOUS
370
    -3
390
3AE
347
16F3
  0
LAYER
  5
44A0
102
{ACAD_XDICTIONARY
360
44A1
102
}
330
2
100
AcDbSymbolTableRecord
100
AcDbLayerTableRecord
  2
SEIHIN
 70
     0
 62
     4
  6
CONTINUOUS
370
     9
390
3AE
347
16F3
  0
LAYER
  5
44A4
102
{ACAD_XDICTIONARY
360
4ACC
102
}
330
2
100
AcDbSymbolTableRecord
100
AcDbLayerTableRecord
  2
YAKUMONO
 70
     0
 62
     1
  6
CONTINUOUS
370
    -3
390
3AE
347
16F3
  0
LAYER
  5
44A7
102
{ACAD_XDICTIONARY
360
4ACE
102
}
330
2
100
AcDbSymbolTableRecord
100
AcDbLayerTableRecord
  2
SUTEITA
 70
     0
 62
     1
  6
CONTINUOUS
370
    -3
390
3AE
347
16F3
1001
AcAecLayerStandard
1000

1000

  0
LAYER
  5
44AA
102
{ACAD_XDICTIONARY
360
4AD0
102
}
330
2
100
AcDbSymbolTableRecord
100
AcDbLayerTableRecord
  2
DOOR
 70
     0
 62
     7
  6
CONTINUOUS
370
    -3
390
3AE
347
16F3
  0
LAYER
  5
4DB3
102
{ACAD_XDICTIONARY
360
4DB4
102
}
330
2
100
AcDbSymbolTableRecord
100
AcDbLayerTableRecord
  2
SEALING
 70
     0
 62
     7
  6
CONTINUOUS
370
    -3
390
3AE
347
16F3
  0
LAYER
  5
4FE1
102
{ACAD_XDICTIONARY
360
4FE2
102
}
330
2
100
AcDbSymbolTableRecord
100
AcDbLayerTableRecord
  2
PACKING
 70
     0
 62
     7
  6
CONTINUOUS
370
     9
390
3AE
347
16F3
  0
ENDTAB
  0
TABLE
  2
STYLE
  5
3
330
0
100
AcDbSymbolTable
 70
     2
  0
STYLE
  5
10
330
3
100
AcDbSymbolTableRecord
100
AcDbTextStyleTableRecord
  2
STANDARD
 70
     0
 40
5.0
 41
1.0
 50
0.0
 71
     0
 42
5.0
  3
txt.shx
  4
extfont.shx
  0
STYLE
  5
EA1
330
3
100
AcDbSymbolTableRecord
100
AcDbTextStyleTableRecord
  2
WAKU
 70
     0
 40
5.0
 41
1.0
 50
0.0
 71
     0
 42
5.0
  3

  4

1001
ACAD
1000
MS Gothic
1071
    32817
  0
ENDTAB
  0
TABLE
  2
VIEW
  5
6
330
0
100
AcDbSymbolTable
 70
     2
  0
ENDTAB
  0
TABLE
  2
UCS
  5
7
330
0
100
AcDbSymbolTable
 70
     0
  0
ENDTAB
  0
TABLE
  2
APPID
  5
9
330
0
100
AcDbSymbolTable
 70
    15
  0
APPID
  5
11
330
9
100
AcDbSymbolTableRecord
100
AcDbRegAppTableRecord
  2
ACAD
 70
     0
  0
APPID
  5
2102
330
9
100
AcDbSymbolTableRecord
100
AcDbRegAppTableRecord
  2
GENIUS_GENODEF_13
 70
     0
  0
APPID
  5
2103
330
9
100
AcDbSymbolTableRecord
100
AcDbRegAppTableRecord
  2
GENIUS_GENOBJ-N-FIL_13
 70
     0
  0
APPID
  5
23E0
330
9
100
AcDbSymbolTableRecord
100
AcDbRegAppTableRecord
  2
AcAecLayerStandard
 70
     0
  0
APPID
  5
27C8
330
9
100
AcDbSymbolTableRecord
100
AcDbRegAppTableRecord
  2
ACAD_PSEXT
 70
     0
  0
APPID
  5
3527
330
9
100
AcDbSymbolTableRecord
100
AcDbRegAppTableRecord
  2
ACAD_DSTYLE_DIMJAG
 70
     0
  0
APPID
  5
3528
330
9
100
AcDbSymbolTableRecord
100
AcDbRegAppTableRecord
  2
ACAD_DSTYLE_DIMTALN
 70
     0
  0
APPID
  5
3529
330
9
100
AcDbSymbolTableRecord
100
AcDbRegAppTableRecord
  2
ACAD_DSTYLE_DIMBREAK
 70
     0
  0
APPID
  5
49E2
330
9
100
AcDbSymbolTableRecord
100
AcDbRegAppTableRecord
  2
ACAD_MLEADERVER
 70
     0
  0
APPID
  5
4BC0
330
9
100
AcDbSymbolTableRecord
100
AcDbRegAppTableRecord
  2
ACAD_EXEMPT_FROM_CAD_STANDARDS
 70
     0
  0
APPID
  5
4BC2
330
9
100
AcDbSymbolTableRecord
100
AcDbRegAppTableRecord
  2
ACAD_NAV_VCDISPLAY
 70
     0
  0
APPID
  5
4E50
330
9
100
AcDbSymbolTableRecord
100
AcDbRegAppTableRecord
  2
GradientColor1ACI
 70
     0
  0
APPID
  5
4E51
330
9
100
AcDbSymbolTableRecord
100
AcDbRegAppTableRecord
  2
GradientColor2ACI
 70
     0
  0
APPID
  5
5248
330
9
100
AcDbSymbolTableRecord
100
AcDbRegAppTableRecord
  2
AcCmTransparency
 70
     0
  0
APPID
  5
8F52
330
9
100
AcDbSymbolTableRecord
100
AcDbRegAppTableRecord
  2
AcadAnnoMonitorAlertIconDisabled
 70
     0
  0
ENDTAB
  0
TABLE
  2
DIMSTYLE
  5
A
330
0
100
AcDbSymbolTable
 70
     2
100
AcDbDimStyleTable
 71
     1
340
1D
  0
DIMSTYLE
105
1D
102
{ACAD_REACTORS
330
480C
330
4BD4
330
76D5
330
7EDF
330
8F9B
330
901D
330
908B
102
}
330
A
100
AcDbSymbolTableRecord
100
AcDbDimStyleTableRecord
  2
STANDARD
 70
     0
 41
1.5
 42
5.0
 43
3.75
 44
0.0
 73
     0
 74
     0
 77
     1
 78
     8
140
5.0
141
2.5
147
0.625
172
     1
271
     1
272
     1
340
10
341
B0
342
14C3
1001
ACAD_DSTYLE_DIMJAG
1070
   388
1040
1.5
1001
ACAD_DSTYLE_DIMTALN
1070
   392
1070
     0
  0
ENDTAB
  0
TABLE
  2
BLOCK_RECORD
  5
1
330
0
100
AcDbSymbolTable
 70
    11
  0
BLOCK_RECORD
  5
1A
102
{ACAD_XDICTIONARY
360
4D4D
102
}
330
1
100
AcDbSymbolTableRecord
100
AcDbBlockTableRecord
  2
*MODEL_SPACE
340
3B3
 70
     0
280
     1
281
     0
  0
BLOCK_RECORD
  5
17
330
1
100
AcDbSymbolTableRecord
100
AcDbBlockTableRecord
  2
*PAPER_SPACE
340
3B4
 70
     0
280
     1
281
     0
  0
BLOCK_RECORD
  5
B0
330
1
100
AcDbSymbolTableRecord
100
AcDbBlockTableRecord
  2
_NONE
340
0
 70
     0
280
     1
281
     0
  0
BLOCK_RECORD
  5
E1F
330
1
100
AcDbSymbolTableRecord
100
AcDbBlockTableRecord
  2
IGロゴ
340
0
 70
     0
280
     1
281
     0
  0
BLOCK_RECORD
  5
14C3
330
1
100
AcDbSymbolTableRecord
100
AcDbBlockTableRecord
  2
_DotBlank
340
0
102
{BLKREFS
331
90BB
331
90BC
331
90C4
331
90C5
331
90CD
331
90CE
331
90D6
331
90D7
331
90F2
331
90F3
331
94F8
331
94F9
331
9501
331
9502
102
}
 70
     0
280
     1
281
     0
  0
BLOCK_RECORD
  5
48CD
330
1
100
AcDbSymbolTableRecord
100
AcDbBlockTableRecord
  2
*D3
340
0
 70
     0
280
     1
281
     0
  0
BLOCK_RECORD
  5
4BD5
330
1
100
AcDbSymbolTableRecord
100
AcDbBlockTableRecord
  2
*D4
340
0
 70
     0
280
     1
281
     0
  0
BLOCK_RECORD
  5
76D6
330
1
100
AcDbSymbolTableRecord
100
AcDbBlockTableRecord
  2
*D5
340
0
 70
     0
280
     1
281
     0
  0
BLOCK_RECORD
  5
7EE0
330
1
100
AcDbSymbolTableRecord
100
AcDbBlockTableRecord
  2
*D6
340
0
 70
     0
280
     1
281
     0
  0
BLOCK_RECORD
  5
8F9C
330
1
100
AcDbSymbolTableRecord
100
AcDbBlockTableRecord
  2
*D7
340
0
 70
     0
280
     1
281
     0
  0
BLOCK_RECORD
  5
901E
330
1
100
AcDbSymbolTableRecord
100
AcDbBlockTableRecord
  2
*D8
340
0
 70
     0
280
     1
281
     0
  0
BLOCK_RECORD
  5
908C
330
1
100
AcDbSymbolTableRecord
100
AcDbBlockTableRecord
  2
*D9
340
0
 70
     0
280
     1
281
     0
  0
ENDTAB
  0
ENDSEC
  0
SECTION
  2
BLOCKS
  0
BLOCK
  5
1B
330
1A
100
AcDbEntity
  8
0
100
AcDbBlockBegin
  2
*MODEL_SPACE
 70
     0
 10
0.0
 20
0.0
 30
0.0
  3
*MODEL_SPACE
  1

  0
ENDBLK
  5
1C
330
1A
100
AcDbEntity
  8
0
100
AcDbBlockEnd
  0
BLOCK
  5
18
330
17
100
AcDbEntity
 67
     1
  8
0
100
AcDbBlockBegin
  2
*PAPER_SPACE
 70
     0
 10
0.0
 20
0.0
 30
0.0
  3
*PAPER_SPACE
  1

  0
ENDBLK
  5
19
330
17
100
AcDbEntity
 67
     1
  8
0
100
AcDbBlockEnd
  0
BLOCK
  5
B1
330
B0
100
AcDbEntity
  8
0
100
AcDbBlockBegin
  2
_NONE
 70
     0
 10
0.0
 20
0.0
 30
0.0
  3
_NONE
  1

  0
CIRCLE
  5
B2
330
B0
100
AcDbEntity
  8
0
  6
ByBlock
 62
     0
100
AcDbCircle
 10
0.0
 20
0.0
 30
0.0
 40
0.25
  0
ENDBLK
  5
B3
330
B0
100
AcDbEntity
  8
0
100
AcDbBlockEnd
  0
BLOCK
  5
E20
330
E1F
100
AcDbEntity
  8
0
100
AcDbBlockBegin
  2
IGロゴ
 70
     0
 10
0.0
 20
0.0
 30
0.0
  3
IGロゴ
  1

  0
CIRCLE
  5
E21
330
E1F
100
AcDbEntity
  8
WAKU
100
AcDbCircle
 10
-7.133294257549736
 20
40.74217652150603
 30
0.0
 40
0.8702311197916666
  0
POLYLINE
  5
E22
330
E1F
100
AcDbEntity
  8
WAKU
100
AcDb2dPolyline
 66
     1
 10
0.0
 20
0.0
 30
0.0
 70
     1
  0
VERTEX
  5
E23
330
E22
100
AcDbEntity
  8
WAKU
100
AcDbVertex
100
AcDb2dVertex
 10
-6.558996840015013
 20
36.03789863522132
 30
0.0
  0
VERTEX
  5
E24
330
E22
100
AcDbEntity
  8
WAKU
100
AcDbVertex
100
AcDb2dVertex
 10
-7.774082017966402
 20
36.03789863522132
 30
0.0
  0
VERTEX
  5
E25
330
E22
100
AcDbEntity
  8
WAKU
100
AcDbVertex
100
AcDb2dVertex
 10
-7.774082017966402
 20
38.72059449025604
 30
0.0
  0
VERTEX
  5
E26
330
E22
100
AcDbEntity
  8
WAKU
100
AcDbVertex
100
AcDb2dVertex
 10
-6.558996840015013
 20
38.72059449025604
 30
0.0
  0
SEQEND
  5
E27
330
E22
100
AcDbEntity
  8
WAKU
  0
SPLINE
  5
E28
330
E1F
100
AcDbEntity
  8
WAKU
100
AcDbSpline
210
0.0
220
0.0
230
1.0
 70
     9
 71
     3
 72
    56
 73
    52
 74
     0
 42
0.000000001
 43
0.0000000001
 40
0.0
 40
0.0
 40
0.0
 40
0.0
 40
1.0
 40
1.0
 40
1.0
 40
2.0
 40
2.0
 40
2.0
 40
3.0
 40
3.0
 40
3.0
 40
4.0
 40
4.0
 40
4.0
 40
5.0
 40
5.0
 40
5.0
 40
6.0
 40
6.0
 40
6.0
 40
7.0
 40
7.0
 40
7.0
 40
8.0
 40
8.0
 40
8.0
 40
9.0
 40
9.0
 40
9.0
 40
10.0
 40
10.0
 40
10.0
 40
11.0
 40
11.0
 40
11.0
 40
12.0
 40
12.0
 40
12.0
 40
13.0
 40
13.0
 40
13.0
 40
14.0
 40
14.0
 40
14.0
 40
15.0
 40
15.0
 40
15.0
 40
16.0
 40
16.0
 40
16.0
 40
17.0
 40
17.0
 40
17.0
 40
17.0
 10
-3.33025335043168
 20
41.50009752845046
 30
0.0
 10
-3.33025335043168
 20
41.50009752845046
 30
0.0
 10
-3.254805759285846
 20
41.50698771942269
 30
0.0
 10
-3.254805759285846
 20
41.50698771942269
 30
0.0
 10
-3.014682603903903
 20
41.57795668643657
 30
0.0
 10
-2.824513333070568
 20
41.68785523244353
 30
0.0
 10
-2.840016262758068
 20
42.06302613088103
 30
0.0
 10
-2.853107625605291
 20
42.38342001108935
 30
0.0
 10
-3.100120971959456
 20
42.65248196855464
 30
0.0
 10
-3.420170342619181
 20
42.65248196855464
 30
0.0
 10
-3.420170342619181
 20
42.65248196855464
 30
0.0
 10
-7.55359590685529
 20
42.652137459006
 30
0.0
 10
-7.55359590685529
 20
42.652137459006
 30
0.0
 10
-8.404534491924735
 20
42.68383233747825
 30
0.0
 10
-8.989167195917787
 20
42.06509318817269
 30
0.0
 10
-8.989167195917787
 20
41.3305988305338
 30
0.0
 10
-8.989167195917787
 20
40.88411445553381
 30
0.0
 10
-8.740431301820567
 20
40.46932495900603
 30
0.0
 10
-8.381796861716402
 20
40.22816827497825
 30
0.0
 10
-8.381796861716402
 20
40.22816827497825
 30
0.0
 10
-8.354925116924736
 20
40.20715319251297
 30
0.0
 10
-8.354925116924736
 20
40.20715319251297
 30
0.0
 10
-8.607450616056681
 20
40.05798055796435
 30
0.0
 10
-8.748355021438625
 20
39.8075221161241
 30
0.0
 10
-8.771781670744179
 20
39.50090861786021
 30
0.0
 10
-8.794863810501125
 20
39.19601766733936
 30
0.0
 10
-8.621230998001124
 20
38.83669420813798
 30
0.0
 10
-8.330464938973346
 20
38.69854587914492
 30
0.0
 10
-8.330464938973346
 20
38.69854587914492
 30
0.0
 10
-8.350446492792791
 20
38.68407647810325
 30
0.0
 10
-8.350446492792791
 20
38.68407647810325
 30
0.0
 10
-9.024996188973343
 20
38.26515286699215
 30
0.0
 10
-9.494562703730293
 20
37.59198120900604
 30
0.0
 10
-9.243070733244179
 20
36.46681302324215
 30
0.0
 10
-9.13076062039696
 20
35.96176202497826
 30
0.0
 10
-8.617441392966401
 20
35.58314603105465
 30
0.0
 10
-8.290501831334458
 20
35.41468086178382
 30
0.0
 10
-7.829203545744178
 20
35.17765829233937
 30
0.0
 10
-6.996523966751125
 20
35.05983602671437
 30
0.0
 10
-6.482860229771957
 20
35.04467760657548
 30
0.0
 10
-6.482860229771957
 20
35.04467760657548
 30
0.0
 10
-3.647891154251123
 20
34.73668607011715
 30
0.0
 10
-3.247571058765013
 20
36.70865872636714
 30
0.0
 10
-2.847250963278903
 20
38.68028687306853
 30
0.0
 10
-4.534658732376124
 20
39.39479967688798
 30
0.0
 10
-4.775126397306681
 20
39.40513496334631
 30
0.0
 10
-5.015594062237235
 20
39.41478123070742
 30
0.0
 10
-3.57830022543168
 20
39.8912379364366
 30
0.0
 10
-3.738497165535846
 20
41.33438843556853
 30
0.0
 10
-3.738497165535846
 20
41.33438843556853
 30
0.0
 10
-3.640656453730291
 20
41.4573783444227
 30
0.0
 10
-3.33025335043168
 20
41.50009752845046
 30
0.0
  0
ELLIPSE
  5
E29
330
E1F
100
AcDbEntity
  8
WAKU
100
AcDbEllipse
 10
-6.072204847827513
 20
38.96691881751298
 30
0.0
 11
-5.716791449652776
 21
-5.716791449652776
 31
0.0
210
0.0
220
0.0
230
1.0
 40
0.7036880800289264
 41
0.0
 42
6.283185307179584
  0
POLYLINE
  5
E2A
330
E1F
100
AcDbEntity
  8
WAKU
100
AcDb2dPolyline
 66
     1
 10
0.0
 20
0.0
 30
0.0
 70
     1
  0
VERTEX
  5
E2B
330
E2A
100
AcDbEntity
  8
WAKU
100
AcDbVertex
100
AcDb2dVertex
 10
38.86320910616554
 20
39.71657159529075
 30
0.0
  0
VERTEX
  5
E2C
330
E2A
100
AcDbEntity
  8
WAKU
100
AcDbVertex
100
AcDb2dVertex
 10
38.86320910616554
 20
38.31097263695742
 30
0.0
  0
VERTEX
  5
E2D
330
E2A
100
AcDbEntity
  8
WAKU
100
AcDbVertex
100
AcDb2dVertex
 10
31.17513401935998
 20
38.31097263695742
 30
0.0
  0
VERTEX
  5
E2E
330
E2A
100
AcDbEntity
  8
WAKU
100
AcDbVertex
100
AcDb2dVertex
 10
31.17513401935998
 20
39.71657159529075
 30
0.0
  0
SEQEND
  5
E2F
330
E2A
100
AcDbEntity
  8
WAKU
  0
SPLINE
  5
E30
330
E1F
100
AcDbEntity
  8
WAKU
100
AcDbSpline
210
0.0
220
0.0
230
1.0
 70
     9
 71
     3
 72
    53
 73
    49
 74
     0
 42
0.000000001
 43
0.0000000001
 40
0.0
 40
0.0
 40
0.0
 40
0.0
 40
1.0
 40
1.0
 40
1.0
 40
2.0
 40
2.0
 40
2.0
 40
3.0
 40
3.0
 40
3.0
 40
4.0
 40
4.0
 40
4.0
 40
5.0
 40
5.0
 40
5.0
 40
6.0
 40
6.0
 40
6.0
 40
7.0
 40
7.0
 40
7.0
 40
8.0
 40
8.0
 40
8.0
 40
9.0
 40
9.0
 40
9.0
 40
10.0
 40
10.0
 40
10.0
 40
11.0
 40
11.0
 40
11.0
 40
12.0
 40
12.0
 40
12.0
 40
13.0
 40
13.0
 40
13.0
 40
14.0
 40
14.0
 40
14.0
 40
15.0
 40
15.0
 40
15.0
 40
16.0
 40
16.0
 40
16.0
 40
16.0
 10
92.00725207491553
 20
42.91637628279075
 30
0.0
 10
92.00725207491553
 20
42.87055651282547
 30
0.0
 10
92.00725207491553
 20
40.82899292775603
 30
0.0
 10
92.00725207491553
 20
40.82899292775603
 30
0.0
 10
92.00725207491553
 20
40.82899292775603
 30
0.0
 10
90.36945368081831
 20
40.82899292775603
 30
0.0
 10
90.32397842040165
 20
40.82899292775603
 30
0.0
 10
90.32397842040165
 20
40.78489570553379
 30
0.0
 10
90.32397842040165
 20
39.62424303626298
 30
0.0
 10
90.32397842040165
 20
39.57980130449215
 30
0.0
 10
90.36945368081831
 20
39.57980130449215
 30
0.0
 10
92.00725207491553
 20
39.57980130449215
 30
0.0
 10
92.00725207491553
 20
39.57980130449215
 30
0.0
 10
92.00725207491553
 20
39.57980130449215
 30
0.0
 10
92.00725207491553
 20
36.45303264129771
 30
0.0
 10
92.00725207491553
 20
36.45303264129771
 30
0.0
 10
92.00725207491553
 20
36.45303264129771
 30
0.0
 10
89.91194500026276
 20
36.45303264129771
 30
0.0
 10
89.86646973984608
 20
36.45303264129771
 30
0.0
 10
89.86646973984608
 20
36.40893541907548
 30
0.0
 10
89.86646973984608
 20
35.26481920813797
 30
0.0
 10
89.86646973984608
 20
35.22037747636714
 30
0.0
 10
89.91228950981136
 20
35.22037747636714
 30
0.0
 10
95.3272905948808
 20
35.22037747636714
 30
0.0
 10
95.3734548743947
 20
35.22037747636714
 30
0.0
 10
95.3734548743947
 20
35.26481920813797
 30
0.0
 10
95.3734548743947
 20
36.40893541907548
 30
0.0
 10
95.3734548743947
 20
36.45303264129771
 30
0.0
 10
95.32763510442942
 20
36.45303264129771
 30
0.0
 10
93.41905220512387
 20
36.45303264129771
 30
0.0
 10
93.41905220512387
 20
36.45303264129771
 30
0.0
 10
93.41905220512387
 20
36.45303264129771
 30
0.0
 10
93.41905220512387
 20
39.57980130449215
 30
0.0
 10
93.41905220512387
 20
39.57980130449215
 30
0.0
 10
93.41905220512387
 20
39.57980130449215
 30
0.0
 10
95.18776422769331
 20
39.57980130449215
 30
0.0
 10
95.23323948810995
 20
39.57980130449215
 30
0.0
 10
95.23323948810995
 20
39.62424303626298
 30
0.0
 10
95.23323948810995
 20
40.78489570553379
 30
0.0
 10
95.23323948810995
 20
40.82899292775603
 30
0.0
 10
95.18776422769331
 20
40.82899292775603
 30
0.0
 10
93.41905220512387
 20
40.82899292775603
 30
0.0
 10
93.41905220512387
 20
40.82899292775603
 30
0.0
 10
93.41905220512387
 20
40.82899292775603
 30
0.0
 10
93.41905220512387
 20
42.87055651282547
 30
0.0
 10
93.41905220512387
 20
42.91637628279075
 30
0.0
 10
93.37461047335304
 20
42.91637628279075
 30
0.0
 10
92.05134929713777
 20
42.91637628279075
 30
0.0
 10
92.00725207491553
 20
42.91637628279075
 30
0.0
  0
SPLINE
  5
E31
330
E1F
100
AcDbEntity
  8
WAKU
100
AcDbSpline
210
0.0
220
0.0
230
1.0
 70
     9
 71
     3
 72
    74
 73
    70
 74
     0
 42
0.000000001
 43
0.0000000001
 40
0.0
 40
0.0
 40
0.0
 40
0.0
 40
1.0
 40
1.0
 40
1.0
 40
2.0
 40
2.0
 40
2.0
 40
3.0
 40
3.0
 40
3.0
 40
4.0
 40
4.0
 40
4.0
 40
5.0
 40
5.0
 40
5.0
 40
6.0
 40
6.0
 40
6.0
 40
7.0
 40
7.0
 40
7.0
 40
8.0
 40
8.0
 40
8.0
 40
9.0
 40
9.0
 40
9.0
 40
10.0
 40
10.0
 40
10.0
 40
11.0
 40
11.0
 40
11.0
 40
12.0
 40
12.0
 40
12.0
 40
13.0
 40
13.0
 40
13.0
 40
14.0
 40
14.0
 40
14.0
 40
15.0
 40
15.0
 40
15.0
 40
16.0
 40
16.0
 40
16.0
 40
17.0
 40
17.0
 40
17.0
 40
18.0
 40
18.0
 40
18.0
 40
19.0
 40
19.0
 40
19.0
 40
20.0
 40
20.0
 40
20.0
 40
21.0
 40
21.0
 40
21.0
 40
22.0
 40
22.0
 40
22.0
 40
23.0
 40
23.0
 40
23.0
 40
23.0
 10
87.80871420599192
 20
42.92464451195741
 30
0.0
 10
87.80871420599192
 20
42.87951376108935
 30
0.0
 10
87.80871420599192
 20
41.76330282358935
 30
0.0
 10
87.80871420599192
 20
41.76330282358935
 30
0.0
 10
87.80871420599192
 20
41.76330282358935
 30
0.0
 10
86.67562230060999
 20
41.76330282358935
 30
0.0
 10
86.63083605929054
 20
41.76330282358935
 30
0.0
 10
86.63083605929054
 20
41.71920560136714
 30
0.0
 10
86.63083605929054
 20
40.67603068817269
 30
0.0
 10
86.63083605929054
 20
40.63193346595046
 30
0.0
 10
86.6763113197072
 20
40.63193346595046
 30
0.0
 10
88.69479276501968
 20
40.63193346595046
 30
0.0
 10
88.69479276501968
 20
40.63193346595046
 30
0.0
 10
88.69479276501968
 20
40.63193346595046
 30
0.0
 10
88.67550023029748
 20
40.59713800154074
 30
0.0
 10
88.67550023029748
 20
40.59713800154074
 30
0.0
 10
88.34959419731138
 20
40.01112725935325
 30
0.0
 10
87.48694228758914
 20
39.1315943817491
 30
0.0
 10
86.4654714759572
 20
38.57727851803382
 30
0.0
 10
86.47305068602666
 20
38.54558363956158
 30
0.0
 10
86.79516711397804
 20
37.19545071855464
 30
0.0
 10
86.8092920054711
 20
37.13585056664492
 30
0.0
 10
87.15896919731136
 20
37.34944648678381
 30
0.0
 10
87.41011665824888
 20
37.51377754147132
 30
0.0
 10
87.77116266519332
 20
37.79076321855465
 30
0.0
 10
87.77116266519332
 20
37.79076321855465
 30
0.0
 10
87.80871420599192
 20
37.81970202063798
 30
0.0
 10
87.80871420599192
 20
37.81970202063798
 30
0.0
 10
87.80871420599192
 20
37.81970202063798
 30
0.0
 10
87.80871420599192
 20
35.03089722463104
 30
0.0
 10
87.80871420599192
 20
34.98507745466576
 30
0.0
 10
87.85315593776275
 20
34.98507745466576
 30
0.0
 10
89.13886557317942
 20
34.98507745466576
 30
0.0
 10
89.18330730495027
 20
34.98507745466576
 30
0.0
 10
89.18330730495027
 20
35.03089722463104
 30
0.0
 10
89.18330730495027
 20
38.15973294511714
 30
0.0
 10
89.18330730495027
 20
38.15973294511714
 30
0.0
 10
89.18330730495027
 20
38.15973294511714
 30
0.0
 10
89.22499296033221
 20
38.10667847463103
 30
0.0
 10
89.22499296033221
 20
38.10667847463103
 30
0.0
 10
89.51128039522803
 20
37.74494344858937
 30
0.0
 10
89.71695259574886
 20
37.5471949676866
 30
0.0
 10
89.98635906276275
 20
37.32050768470048
 30
0.0
 10
90.01323080755442
 20
37.36598294511714
 30
0.0
 10
90.63782661918637
 20
38.43051745032548
 30
0.0
 10
90.6609087589433
 20
38.47013604841576
 30
0.0
 10
90.28470433186001
 20
38.66168335744354
 30
0.0
 10
89.8726709117211
 20
38.9052516083116
 30
0.0
 10
89.40551596380442
 20
39.37171753713104
 30
0.0
 10
89.40551596380442
 20
39.37171753713104
 30
0.0
 10
89.39070205321415
 20
39.38618693817272
 30
0.0
 10
89.39070205321415
 20
39.38618693817272
 30
0.0
 10
89.39070205321415
 20
39.38618693817272
 30
0.0
 10
89.40344890651275
 20
39.40237888695742
 30
0.0
 10
89.40344890651275
 20
39.40237888695742
 30
0.0
 10
89.81479330755439
 20
39.93740221595048
 30
0.0
 10
89.99256023463775
 20
40.29224705101992
 30
0.0
 10
90.13932130234607
 20
40.60988485483934
 30
0.0
 10
90.13932130234607
 20
40.60988485483934
 30
0.0
 10
90.13725424505443
 20
41.71851658226992
 30
0.0
 10
90.13725424505443
 20
41.76330282358935
 30
0.0
 10
90.09281251328358
 20
41.76330282358935
 30
0.0
 10
89.18330730495027
 20
41.76330282358935
 30
0.0
 10
89.18330730495027
 20
41.76330282358935
 30
0.0
 10
89.18330730495027
 20
41.76330282358935
 30
0.0
 10
89.18330730495027
 20
42.87951376108935
 30
0.0
 10
89.18330730495027
 20
42.92464451195741
 30
0.0
 10
89.13886557317942
 20
42.92464451195741
 30
0.0
 10
87.85315593776275
 20
42.92464451195741
 30
0.0
 10
87.80871420599192
 20
42.92464451195741
 30
0.0
  0
SPLINE
  5
E32
330
E1F
100
AcDbEntity
  8
WAKU
100
AcDbSpline
210
0.0
220
0.0
230
1.0
 70
     9
 71
     3
 72
    35
 73
    31
 74
     0
 42
0.000000001
 43
0.0000000001
 40
0.0
 40
0.0
 40
0.0
 40
0.0
 40
1.0
 40
1.0
 40
1.0
 40
2.0
 40
2.0
 40
2.0
 40
3.0
 40
3.0
 40
3.0
 40
4.0
 40
4.0
 40
4.0
 40
5.0
 40
5.0
 40
5.0
 40
6.0
 40
6.0
 40
6.0
 40
7.0
 40
7.0
 40
7.0
 40
8.0
 40
8.0
 40
8.0
 40
9.0
 40
9.0
 40
9.0
 40
10.0
 40
10.0
 40
10.0
 40
10.0
 10
80.33940268255442
 20
36.44579794077686
 30
0.0
 10
80.62155600286692
 20
36.95360501542964
 30
0.0
 10
80.80621312092246
 20
37.32808689476993
 30
0.0
 10
81.06804037786693
 20
37.88343628713104
 30
0.0
 10
81.06804037786693
 20
37.88343628713104
 30
0.0
 10
81.07424154974195
 20
37.89652764997825
 30
0.0
 10
81.07424154974195
 20
37.89652764997825
 30
0.0
 10
81.07424154974195
 20
37.89652764997825
 30
0.0
 10
83.71697429713776
 20
37.89652764997825
 30
0.0
 10
83.71697429713776
 20
37.89652764997825
 30
0.0
 10
83.71697429713776
 20
37.89652764997825
 30
0.0
 10
83.72593154540162
 20
37.85174140865882
 30
0.0
 10
83.72593154540162
 20
37.85174140865882
 30
0.0
 10
83.72593154540162
 20
37.85174140865882
 30
0.0
 10
82.7082503388044
 20
37.41731486786021
 30
0.0
 10
82.65209528238081
 20
37.39354370900603
 30
0.0
 10
82.69309191866554
 20
37.34669041039492
 30
0.0
 10
83.43034235269332
 20
36.50505358313797
 30
0.0
 10
83.43034235269332
 20
36.50505358313797
 30
0.0
 10
83.43034235269332
 20
36.50505358313797
 30
0.0
 10
83.38073297769332
 20
36.50367554494354
 30
0.0
 10
83.38073297769332
 20
36.50367554494354
 30
0.0
 10
83.38073297769332
 20
36.50367554494354
 30
0.0
 10
81.27750218342248
 20
36.41927070553381
 30
0.0
 10
81.27750218342248
 20
36.41927070553381
 30
0.0
 10
81.27750218342248
 20
36.41927070553381
 30
0.0
 10
80.3197656382836
 20
36.41065796681854
 30
0.0
 10
80.3197656382836
 20
36.41065796681854
 30
0.0
 10
80.3197656382836
 20
36.41065796681854
 30
0.0
 10
80.33940268255442
 20
36.44579794077686
 30
0.0
 10
80.33940268255442
 20
36.44579794077686
 30
0.0
  0
SPLINE
  5
E33
330
E1F
100
AcDbEntity
  8
WAKU
100
AcDbSpline
210
0.0
220
0.0
230
1.0
 70
     9
 71
     3
 72
    56
 73
    52
 74
     0
 42
0.000000001
 43
0.0000000001
 40
0.0
 40
0.0
 40
0.0
 40
0.0
 40
1.0
 40
1.0
 40
1.0
 40
2.0
 40
2.0
 40
2.0
 40
3.0
 40
3.0
 40
3.0
 40
4.0
 40
4.0
 40
4.0
 40
5.0
 40
5.0
 40
5.0
 40
6.0
 40
6.0
 40
6.0
 40
7.0
 40
7.0
 40
7.0
 40
8.0
 40
8.0
 40
8.0
 40
9.0
 40
9.0
 40
9.0
 40
10.0
 40
10.0
 40
10.0
 40
11.0
 40
11.0
 40
11.0
 40
12.0
 40
12.0
 40
12.0
 40
13.0
 40
13.0
 40
13.0
 40
14.0
 40
14.0
 40
14.0
 40
15.0
 40
15.0
 40
15.0
 40
16.0
 40
16.0
 40
16.0
 40
17.0
 40
17.0
 40
17.0
 40
17.0
 10
77.46619304713775
 20
39.06165894338104
 30
0.0
 10
77.46619304713775
 20
39.01756172115881
 30
0.0
 10
77.46619304713775
 20
37.94062487220048
 30
0.0
 10
77.46619304713775
 20
37.89652764997825
 30
0.0
 10
77.51166830755443
 20
37.89652764997825
 30
0.0
 10
79.56081110269329
 20
37.89652764997825
 30
0.0
 10
79.56081110269329
 20
37.89652764997825
 30
0.0
 10
79.56081110269329
 20
37.89652764997825
 30
0.0
 10
79.54978679713774
 20
37.86552179060326
 30
0.0
 10
79.54978679713774
 20
37.86552179060326
 30
0.0
 10
79.3306787242211
 20
37.2557398895616
 30
0.0
 10
79.0891775306447
 20
36.76998142601993
 30
0.0
 10
78.9031423743947
 20
36.41513659095048
 30
0.0
 10
78.9031423743947
 20
36.41513659095048
 30
0.0
 10
78.8965966929711
 20
36.40273424720048
 30
0.0
 10
78.8965966929711
 20
36.40273424720048
 30
0.0
 10
78.8965966929711
 20
36.40273424720048
 30
0.0
 10
77.83481826415166
 20
36.39446601803382
 30
0.0
 10
77.83481826415166
 20
36.39446601803382
 30
0.0
 10
77.83481826415166
 20
36.39446601803382
 30
0.0
 10
77.58367080321416
 20
36.40066718990882
 30
0.0
 10
77.53543946640859
 20
36.40170071855465
 30
0.0
 10
77.54474122422109
 20
36.34899075761715
 30
0.0
 10
77.74524578151275
 20
35.18317044511714
 30
0.0
 10
77.75179146293637
 20
35.14527439476992
 30
0.0
 10
79.81230307317942
 20
35.20280748938797
 30
0.0
 10
80.21331218776275
 20
35.23140178192271
 30
0.0
 10
83.93367080321414
 20
35.4980521725477
 30
0.0
 10
83.93367080321414
 20
35.4980521725477
 30
0.0
 10
84.18688532144331
 20
35.51596666907548
 30
0.0
 10
84.18688532144331
 20
35.51596666907548
 30
0.0
 10
84.18688532144331
 20
35.51596666907548
 30
0.0
 10
84.54483074245024
 20
34.9585502194227
 30
0.0
 10
84.56653484401275
 20
34.92409926456159
 30
0.0
 10
84.60236383706831
 20
34.94098023244354
 30
0.0
 10
85.82123862005444
 20
35.52010078365881
 30
0.0
 10
85.86946995685995
 20
35.54283841386715
 30
0.0
 10
85.40300402804053
 20
36.20670831404075
 30
0.0
 10
84.80769152804054
 20
36.99804674720048
 30
0.0
 10
83.92505806449888
 20
37.85656454233937
 30
0.0
 10
83.92505806449888
 20
37.85656454233937
 30
0.0
 10
83.88337240911694
 20
37.89652764997825
 30
0.0
 10
83.88337240911694
 20
37.89652764997825
 30
0.0
 10
83.88337240911694
 20
37.89652764997825
 30
0.0
 10
85.80814725720719
 20
37.89652764997825
 30
0.0
 10
85.85362251762388
 20
37.89652764997825
 30
0.0
 10
85.85362251762388
 20
37.94062487220048
 30
0.0
 10
85.85362251762388
 20
39.01756172115881
 30
0.0
 10
85.85362251762388
 20
39.06165894338104
 30
0.0
 10
85.80711372856137
 20
39.06165894338104
 30
0.0
 10
77.51235732665165
 20
39.06165894338104
 30
0.0
 10
77.46619304713775
 20
39.06165894338104
 30
0.0
  0
SPLINE
  5
E34
330
E1F
100
AcDbEntity
  8
WAKU
100
AcDbSpline
210
0.0
220
0.0
230
1.0
 70
     9
 71
     3
 72
    26
 73
    22
 74
     0
 42
0.000000001
 43
0.0000000001
 40
0.0
 40
0.0
 40
0.0
 40
0.0
 40
1.0
 40
1.0
 40
1.0
 40
2.0
 40
2.0
 40
2.0
 40
3.0
 40
3.0
 40
3.0
 40
4.0
 40
4.0
 40
4.0
 40
5.0
 40
5.0
 40
5.0
 40
6.0
 40
6.0
 40
6.0
 40
7.0
 40
7.0
 40
7.0
 40
7.0
 10
80.22502551241553
 20
40.82141371768659
 30
0.0
 10
81.11627171467246
 20
41.42912856143659
 30
0.0
 10
81.43356500894331
 20
41.75055597029075
 30
0.0
 10
81.66094131102665
 20
42.00445950761714
 30
0.0
 10
81.66094131102665
 20
42.00445950761714
 30
0.0
 10
81.67747776935998
 20
42.02237400414492
 30
0.0
 10
81.67747776935998
 20
42.02237400414492
 30
0.0
 10
81.67747776935998
 20
42.02237400414492
 30
0.0
 10
81.69504775633914
 20
42.00514852671434
 30
0.0
 10
81.69504775633914
 20
42.00514852671434
 30
0.0
 10
81.95584148463778
 20
41.74676636525602
 30
0.0
 10
82.3137869056447
 20
41.39226603973519
 30
0.0
 10
83.14991158012388
 20
40.82141371768659
 30
0.0
 10
83.14991158012388
 20
40.82141371768659
 30
0.0
 10
83.21261231797109
 20
40.77869453365879
 30
0.0
 10
83.21261231797109
 20
40.77869453365879
 30
0.0
 10
83.21261231797109
 20
40.77869453365879
 30
0.0
 10
80.1623247745683
 20
40.77869453365879
 30
0.0
 10
80.1623247745683
 20
40.77869453365879
 30
0.0
 10
80.1623247745683
 20
40.77869453365879
 30
0.0
 10
80.22502551241553
 20
40.82141371768659
 30
0.0
 10
80.22502551241553
 20
40.82141371768659
 30
0.0
  0
SPLINE
  5
E35
330
E1F
100
AcDbEntity
  8
WAKU
100
AcDbSpline
210
0.0
220
0.0
230
1.0
 70
     9
 71
     3
 72
    44
 73
    40
 74
     0
 42
0.000000001
 43
0.0000000001
 40
0.0
 40
0.0
 40
0.0
 40
0.0
 40
1.0
 40
1.0
 40
1.0
 40
2.0
 40
2.0
 40
2.0
 40
3.0
 40
3.0
 40
3.0
 40
4.0
 40
4.0
 40
4.0
 40
5.0
 40
5.0
 40
5.0
 40
6.0
 40
6.0
 40
6.0
 40
7.0
 40
7.0
 40
7.0
 40
8.0
 40
8.0
 40
8.0
 40
9.0
 40
9.0
 40
9.0
 40
10.0
 40
10.0
 40
10.0
 40
11.0
 40
11.0
 40
11.0
 40
12.0
 40
12.0
 40
12.0
 40
13.0
 40
13.0
 40
13.0
 40
13.0
 10
80.86581327283218
 20
42.98355564476993
 30
0.0
 10
80.20504395859608
 20
42.15363214216576
 30
0.0
 10
79.03681207925581
 20
41.47322578365881
 30
0.0
 10
77.08344293863081
 20
40.78110610049907
 30
0.0
 10
77.10859213567943
 20
40.73597534963103
 30
0.0
 10
77.7528249915822
 20
39.57635620900603
 30
0.0
 10
77.7714285072072
 20
39.54328329233937
 30
0.0
 10
77.7776296790822
 20
39.54535034963104
 30
0.0
 10
77.7838308509572
 20
39.54776191647132
 30
0.0
 10
77.7838308509572
 20
39.54776191647132
 30
0.0
 10
78.0573714325544
 20
39.64594713782548
 30
0.0
 10
78.46974936224192
 20
39.79443075327687
 30
0.0
 10
79.17048178411693
 20
40.17476929494352
 30
0.0
 10
79.17048178411693
 20
40.17476929494352
 30
0.0
 10
79.20493273897804
 20
40.19337281056853
 30
0.0
 10
79.20493273897804
 20
40.19337281056853
 30
0.0
 10
79.20493273897804
 20
40.19337281056853
 30
0.0
 10
79.20493273897804
 20
39.73999824459632
 30
0.0
 10
79.20493273897804
 20
39.69762357011715
 30
0.0
 10
79.25075250894329
 20
39.69762357011715
 30
0.0
 10
84.08663304279745
 20
39.69762357011715
 30
0.0
 10
84.13279732231137
 20
39.69762357011715
 30
0.0
 10
84.13279732231137
 20
39.74034275414492
 30
0.0
 10
84.13279732231137
 20
40.22679023678381
 30
0.0
 10
84.13279732231137
 20
40.22679023678381
 30
0.0
 10
84.13279732231137
 20
40.22679023678381
 30
0.0
 10
84.16724827717247
 20
40.20818672115882
 30
0.0
 10
84.16724827717247
 20
40.20818672115882
 30
0.0
 10
84.8438650306447
 20
39.83956150414492
 30
0.0
 10
85.26003256536695
 20
39.67695299720047
 30
0.0
 10
85.53874079019331
 20
39.5687769989366
 30
0.0
 10
85.55803332491553
 20
39.60219442515187
 30
0.0
 10
86.21845812960302
 20
40.75216729841574
 30
0.0
 10
86.2446408552975
 20
40.79798706838103
 30
0.0
 10
84.61338814262388
 20
41.35195842254769
 30
0.0
 10
83.39106826415164
 20
42.06681573591575
 30
0.0
 10
82.51015734835304
 20
42.98355564476993
 30
0.0
 10
82.49155383272805
 20
42.98355564476993
 30
0.0
 10
80.88648384574886
 20
42.98355564476993
 30
0.0
 10
80.86581327283218
 20
42.98355564476993
 30
0.0
  0
SPLINE
  5
E36
330
E1F
100
AcDbEntity
  8
WAKU
100
AcDbSpline
210
0.0
220
0.0
230
1.0
 70
     9
 71
     3
 72
    50
 73
    46
 74
     0
 42
0.000000001
 43
0.0000000001
 40
0.0
 40
0.0
 40
0.0
 40
0.0
 40
1.0
 40
1.0
 40
1.0
 40
2.0
 40
2.0
 40
2.0
 40
3.0
 40
3.0
 40
3.0
 40
4.0
 40
4.0
 40
4.0
 40
5.0
 40
5.0
 40
5.0
 40
6.0
 40
6.0
 40
6.0
 40
7.0
 40
7.0
 40
7.0
 40
8.0
 40
8.0
 40
8.0
 40
9.0
 40
9.0
 40
9.0
 40
10.0
 40
10.0
 40
10.0
 40
11.0
 40
11.0
 40
11.0
 40
12.0
 40
12.0
 40
12.0
 40
13.0
 40
13.0
 40
13.0
 40
14.0
 40
14.0
 40
14.0
 40
15.0
 40
15.0
 40
15.0
 40
15.0
 10
68.10483508272804
 20
39.81096721161021
 30
0.0
 10
68.10483508272804
 20
39.76686998938798
 30
0.0
 10
68.10483508272804
 20
38.68166491126298
 30
0.0
 10
68.10483508272804
 20
38.63756768904075
 30
0.0
 10
68.1499658335961
 20
38.63756768904075
 30
0.0
 10
69.59139378498497
 20
38.63756768904075
 30
0.0
 10
69.59139378498497
 20
38.63756768904075
 30
0.0
 10
69.59139378498497
 20
38.63756768904075
 30
0.0
 10
69.59139378498497
 20
36.56396471595048
 30
0.0
 10
69.59139378498497
 20
36.56396471595048
 30
0.0
 10
69.59139378498497
 20
36.56396471595048
 30
0.0
 10
68.2130110809919
 20
36.46991360917964
 30
0.0
 10
68.2130110809919
 20
36.46991360917964
 30
0.0
 10
68.21370010008914
 20
36.46991360917964
 30
0.0
 10
68.00596084227665
 20
36.46026734181854
 30
0.0
 10
68.00596084227665
 20
36.46026734181854
 30
0.0
 10
68.00596084227665
 20
36.46026734181854
 30
0.0
 10
67.88297093342248
 20
36.45578871768659
 30
0.0
 10
67.84541939262386
 20
36.45441067949214
 30
0.0
 10
67.85127605495026
 20
36.40686836178382
 30
0.0
 10
67.99355849852665
 20
35.22347806230464
 30
0.0
 10
67.99872614175581
 20
35.18041436872825
 30
0.0
 10
71.1575341929711
 20
35.4825492428602
 30
0.0
 10
71.73286513915164
 20
35.54077135657548
 30
0.0
 10
72.7794851478322
 20
35.73851983747825
 30
0.0
 10
72.77914063828359
 20
35.77572686872826
 30
0.0
 10
72.76260417995023
 20
36.83509373070742
 30
0.0
 10
72.76191516085304
 20
36.88642565345047
 30
0.0
 10
72.42085070772803
 20
36.82820353973522
 30
0.0
 10
72.03121040824886
 20
36.76205770640186
 30
0.0
 10
71.00078234835304
 20
36.67179620466575
 30
0.0
 10
71.00078234835304
 20
36.67179620466575
 30
0.0
 10
70.9749441322072
 20
36.6697291473741
 30
0.0
 10
70.9749441322072
 20
36.6697291473741
 30
0.0
 10
70.9749441322072
 20
36.6697291473741
 30
0.0
 10
70.9749441322072
 20
38.63756768904075
 30
0.0
 10
70.9749441322072
 20
38.63756768904075
 30
0.0
 10
70.9749441322072
 20
38.63756768904075
 30
0.0
 10
72.3888113197072
 20
38.63756768904075
 30
0.0
 10
72.43394207057527
 20
38.63756768904075
 30
0.0
 10
72.43394207057527
 20
38.68166491126298
 30
0.0
 10
72.43394207057527
 20
39.76686998938798
 30
0.0
 10
72.43394207057527
 20
39.81096721161021
 30
0.0
 10
72.38812230060998
 20
39.81096721161021
 30
0.0
 10
68.15065485269332
 20
39.81096721161021
 30
0.0
 10
68.10483508272804
 20
39.81096721161021
 30
0.0
  0
SPLINE
  5
E37
330
E1F
100
AcDbEntity
  8
WAKU
100
AcDbSpline
210
0.0
220
0.0
230
1.0
 70
     9
 71
     3
 72
    89
 73
    85
 74
     0
 42
0.000000001
 43
0.0000000001
 40
0.0
 40
0.0
 40
0.0
 40
0.0
 40
1.0
 40
1.0
 40
1.0
 40
2.0
 40
2.0
 40
2.0
 40
3.0
 40
3.0
 40
3.0
 40
4.0
 40
4.0
 40
4.0
 40
5.0
 40
5.0
 40
5.0
 40
6.0
 40
6.0
 40
6.0
 40
7.0
 40
7.0
 40
7.0
 40
8.0
 40
8.0
 40
8.0
 40
9.0
 40
9.0
 40
9.0
 40
10.0
 40
10.0
 40
10.0
 40
11.0
 40
11.0
 40
11.0
 40
12.0
 40
12.0
 40
12.0
 40
13.0
 40
13.0
 40
13.0
 40
14.0
 40
14.0
 40
14.0
 40
15.0
 40
15.0
 40
15.0
 40
16.0
 40
16.0
 40
16.0
 40
17.0
 40
17.0
 40
17.0
 40
18.0
 40
18.0
 40
18.0
 40
19.0
 40
19.0
 40
19.0
 40
20.0
 40
20.0
 40
20.0
 40
21.0
 40
21.0
 40
21.0
 40
22.0
 40
22.0
 40
22.0
 40
23.0
 40
23.0
 40
23.0
 40
24.0
 40
24.0
 40
24.0
 40
25.0
 40
25.0
 40
25.0
 40
26.0
 40
26.0
 40
26.0
 40
27.0
 40
27.0
 40
27.0
 40
28.0
 40
28.0
 40
28.0
 40
28.0
 10
74.36939671467247
 20
42.55980889997824
 30
0.0
 10
74.59573948810998
 20
42.36481649546436
 30
0.0
 10
74.79762208359609
 20
42.10436727671435
 30
0.0
 10
75.02844348116553
 20
41.80085436438797
 30
0.0
 10
75.02844348116553
 20
41.80085436438797
 30
0.0
 10
75.05703777370027
 20
41.76330282358935
 30
0.0
 10
75.05703777370027
 20
41.76330282358935
 30
0.0
 10
75.05703777370027
 20
41.76330282358935
 30
0.0
 10
74.07036242647802
 20
41.76330282358935
 30
0.0
 10
74.07036242647802
 20
41.76330282358935
 30
0.0
 10
74.07036242647802
 20
41.76330282358935
 30
0.0
 10
74.07036242647802
 20
42.88743748070742
 30
0.0
 10
74.07036242647802
 20
42.93325725067268
 30
0.0
 10
74.0259206947072
 20
42.93325725067268
 30
0.0
 10
72.6678640540822
 20
42.93325725067268
 30
0.0
 10
72.62169977456832
 20
42.93325725067268
 30
0.0
 10
72.62307781276277
 20
42.89122708574214
 30
0.0
 10
72.6306570228322
 20
42.66178372636714
 30
0.0
 10
72.6306570228322
 20
42.66178372636714
 30
0.0
 10
72.6303125132836
 20
42.66316176456157
 30
0.0
 10
72.64857151935998
 20
42.2325248287977
 30
0.0
 10
72.64857151935998
 20
42.2325248287977
 30
0.0
 10
72.64857151935998
 20
42.2325248287977
 30
0.0
 10
72.66855307317944
 20
41.76399184268658
 30
0.0
 10
72.66855307317944
 20
41.76399184268658
 30
0.0
 10
72.66855307317944
 20
41.76399184268658
 30
0.0
 10
72.64409289522801
 20
41.76330282358935
 30
0.0
 10
72.64409289522801
 20
41.76330282358935
 30
0.0
 10
72.64409289522801
 20
41.76330282358935
 30
0.0
 10
67.97288792560998
 20
41.76330282358935
 30
0.0
 10
67.92672364609609
 20
41.76330282358935
 30
0.0
 10
67.92672364609609
 20
41.71920560136714
 30
0.0
 10
67.92672364609609
 20
40.63400052324214
 30
0.0
 10
67.92672364609609
 20
40.58990330101992
 30
0.0
 10
67.97288792560998
 20
40.58990330101992
 30
0.0
 10
72.71333931449887
 20
40.58990330101992
 30
0.0
 10
72.71333931449887
 20
40.58990330101992
 30
0.0
 10
72.71333931449887
 20
40.58990330101992
 30
0.0
 10
72.71540637179054
 20
40.54511705970047
 30
0.0
 10
72.71540637179054
 20
40.54511705970047
 30
0.0
 10
72.7698388804711
 20
39.22702352671436
 30
0.0
 10
72.87112468776277
 20
36.77411554060326
 30
0.0
 10
74.21333388915164
 20
35.44086358747826
 30
0.0
 10
74.44415528672109
 20
35.21004218990881
 30
0.0
 10
74.88133790390858
 20
34.97646471595048
 30
0.0
 10
75.33712403672109
 20
34.97646471595048
 30
0.0
 10
76.16050185790166
 20
34.97646471595048
 30
0.0
 10
76.64005914956831
 20
35.85393053626297
 30
0.0
 10
76.85503310790164
 20
36.38344171247825
 30
0.0
 10
76.84676487873497
 20
36.40135620900603
 30
0.0
 10
76.32104330755443
 20
37.58371297983936
 30
0.0
 10
76.28176921901277
 20
37.67259644338103
 30
0.0
 10
76.0533593882836
 20
37.11449097463103
 30
0.0
 10
75.56966798203359
 20
36.56224216820742
 30
0.0
 10
75.2999170054711
 20
36.56224216820742
 30
0.0
 10
75.01294055147804
 20
36.56224216820742
 30
0.0
 10
74.7576589759572
 20
37.16754544511714
 30
0.0
 10
74.6611963023461
 20
37.42765015431853
 30
0.0
 10
74.25088542995027
 20
38.53455933400603
 30
0.0
 10
74.14512099852666
 20
39.68591024546436
 30
0.0
 10
74.09861220946416
 20
40.56509861351992
 30
0.0
 10
74.09861220946416
 20
40.56509861351992
 30
0.0
 10
74.0972341712697
 20
40.58990330101992
 30
0.0
 10
74.0972341712697
 20
40.58990330101992
 30
0.0
 10
74.0972341712697
 20
40.58990330101992
 30
0.0
 10
76.6521169837697
 20
40.58990330101992
 30
0.0
 10
76.69793675373495
 20
40.58990330101992
 30
0.0
 10
76.69793675373495
 20
40.63400052324214
 30
0.0
 10
76.69793675373495
 20
41.71920560136714
 30
0.0
 10
76.69793675373495
 20
41.76330282358935
 30
0.0
 10
76.65349502196416
 20
41.76330282358935
 30
0.0
 10
75.84217503498497
 20
41.76330282358935
 30
0.0
 10
75.84217503498497
 20
41.76330282358935
 30
0.0
 10
75.84217503498497
 20
41.76330282358935
 30
0.0
 10
75.83390680581832
 20
41.80843357445739
 30
0.0
 10
75.83390680581832
 20
41.80843357445739
 30
0.0
 10
75.83390680581832
 20
41.80843357445739
 30
0.0
 10
76.34929309054053
 20
42.01169420813797
 30
0.0
 10
76.40269207057524
 20
42.03270929060325
 30
0.0
 10
75.78636448810998
 20
42.81061185136714
 30
0.0
 10
75.65889595512387
 20
42.89639472897131
 30
0.0
 10
75.52625977890859
 20
42.98424466386713
 30
0.0
 10
75.52591526935998
 20
42.97976603973518
 30
0.0
 10
74.53579482665166
 20
42.6200980709852
 30
0.0
 10
74.36939671467247
 20
42.55980889997824
 30
0.0
  0
SPLINE
  5
E38
330
E1F
100
AcDbEntity
  8
WAKU
100
AcDbSpline
210
0.0
220
0.0
230
1.0
 70
     9
 71
     3
 72
   197
 73
   193
 74
     0
 42
0.000000001
 43
0.0000000001
 40
0.0
 40
0.0
 40
0.0
 40
0.0
 40
1.0
 40
1.0
 40
1.0
 40
2.0
 40
2.0
 40
2.0
 40
3.0
 40
3.0
 40
3.0
 40
4.0
 40
4.0
 40
4.0
 40
5.0
 40
5.0
 40
5.0
 40
6.0
 40
6.0
 40
6.0
 40
7.0
 40
7.0
 40
7.0
 40
8.0
 40
8.0
 40
8.0
 40
9.0
 40
9.0
 40
9.0
 40
10.0
 40
10.0
 40
10.0
 40
11.0
 40
11.0
 40
11.0
 40
12.0
 40
12.0
 40
12.0
 40
13.0
 40
13.0
 40
13.0
 40
14.0
 40
14.0
 40
14.0
 40
15.0
 40
15.0
 40
15.0
 40
16.0
 40
16.0
 40
16.0
 40
17.0
 40
17.0
 40
17.0
 40
18.0
 40
18.0
 40
18.0
 40
19.0
 40
19.0
 40
19.0
 40
20.0
 40
20.0
 40
20.0
 40
21.0
 40
21.0
 40
21.0
 40
22.0
 40
22.0
 40
22.0
 40
23.0
 40
23.0
 40
23.0
 40
24.0
 40
24.0
 40
24.0
 40
25.0
 40
25.0
 40
25.0
 40
26.0
 40
26.0
 40
26.0
 40
27.0
 40
27.0
 40
27.0
 40
28.0
 40
28.0
 40
28.0
 40
29.0
 40
29.0
 40
29.0
 40
30.0
 40
30.0
 40
30.0
 40
31.0
 40
31.0
 40
31.0
 40
32.0
 40
32.0
 40
32.0
 40
33.0
 40
33.0
 40
33.0
 40
34.0
 40
34.0
 40
34.0
 40
35.0
 40
35.0
 40
35.0
 40
36.0
 40
36.0
 40
36.0
 40
37.0
 40
37.0
 40
37.0
 40
38.0
 40
38.0
 40
38.0
 40
39.0
 40
39.0
 40
39.0
 40
40.0
 40
40.0
 40
40.0
 40
41.0
 40
41.0
 40
41.0
 40
42.0
 40
42.0
 40
42.0
 40
43.0
 40
43.0
 40
43.0
 40
44.0
 40
44.0
 40
44.0
 40
45.0
 40
45.0
 40
45.0
 40
46.0
 40
46.0
 40
46.0
 40
47.0
 40
47.0
 40
47.0
 40
48.0
 40
48.0
 40
48.0
 40
49.0
 40
49.0
 40
49.0
 40
50.0
 40
50.0
 40
50.0
 40
51.0
 40
51.0
 40
51.0
 40
52.0
 40
52.0
 40
52.0
 40
53.0
 40
53.0
 40
53.0
 40
54.0
 40
54.0
 40
54.0
 40
55.0
 40
55.0
 40
55.0
 40
56.0
 40
56.0
 40
56.0
 40
57.0
 40
57.0
 40
57.0
 40
58.0
 40
58.0
 40
58.0
 40
59.0
 40
59.0
 40
59.0
 40
60.0
 40
60.0
 40
60.0
 40
61.0
 40
61.0
 40
61.0
 40
62.0
 40
62.0
 40
62.0
 40
63.0
 40
63.0
 40
63.0
 40
64.0
 40
64.0
 40
64.0
 40
64.0
 10
64.0265310462697
 20
42.91637628279075
 30
0.0
 10
64.0265310462697
 20
42.87193455101991
 30
0.0
 10
64.0265310462697
 20
41.85563138261714
 30
0.0
 10
64.0265310462697
 20
41.85563138261714
 30
0.0
 10
64.0265310462697
 20
41.85563138261714
 30
0.0
 10
63.48737360269332
 20
41.85563138261714
 30
0.0
 10
63.48737360269332
 20
41.85563138261714
 30
0.0
 10
63.48737360269332
 20
41.85563138261714
 30
0.0
 10
63.66341798203359
 20
42.60872925588103
 30
0.0
 10
63.67478679713776
 20
42.65730510223519
 30
0.0
 10
63.6237993839433
 20
42.66143921681853
 30
0.0
 10
62.49966472682526
 20
42.75170071855463
 30
0.0
 10
62.4603906382836
 20
42.75480130449214
 30
0.0
 10
62.36013835963776
 20
42.10781237220047
 30
0.0
 10
62.1599783118947
 20
41.52317966820739
 30
0.0
 10
61.86301108099192
 20
41.01778416039493
 30
0.0
 10
61.86301108099192
 20
41.01778416039493
 30
0.0
 10
61.81960287786693
 20
40.94337009789492
 30
0.0
 10
61.81960287786693
 20
40.94337009789492
 30
0.0
 10
61.81960287786693
 20
40.94337009789492
 30
0.0
 10
61.81960287786693
 20
41.48493910831159
 30
0.0
 10
61.81960287786693
 20
41.52765829233937
 30
0.0
 10
61.77516114609609
 20
41.52765829233937
 30
0.0
 10
60.93145726154748
 20
41.52765829233937
 30
0.0
 10
60.93145726154748
 20
41.52765829233937
 30
0.0
 10
60.93145726154748
 20
41.52765829233937
 30
0.0
 10
60.93145726154748
 20
42.8712455319227
 30
0.0
 10
60.93145726154748
 20
42.91637628279075
 30
0.0
 10
60.88736003932526
 20
42.91637628279075
 30
0.0
 10
59.73187501328361
 20
42.91637628279075
 30
0.0
 10
59.68777779106137
 20
42.91637628279075
 30
0.0
 10
59.68777779106137
 20
42.8712455319227
 30
0.0
 10
59.68777779106137
 20
41.52765829233937
 30
0.0
 10
59.68777779106137
 20
41.52765829233937
 30
0.0
 10
59.68777779106137
 20
41.52765829233937
 30
0.0
 10
58.59154840738082
 20
41.52765829233937
 30
0.0
 10
58.54710667560998
 20
41.52765829233937
 30
0.0
 10
58.54710667560998
 20
41.48390557966575
 30
0.0
 10
58.54710667560998
 20
40.45692261525603
 30
0.0
 10
58.54710667560998
 20
40.41282539303379
 30
0.0
 10
58.59154840738082
 20
40.41282539303379
 30
0.0
 10
59.59372668429054
 20
40.41282539303379
 30
0.0
 10
59.59372668429054
 20
40.41282539303379
 30
0.0
 10
59.59372668429054
 20
40.41282539303379
 30
0.0
 10
59.58373590738081
 20
40.38250855275602
 30
0.0
 10
59.58373590738081
 20
40.38250855275602
 30
0.0
 10
59.15378799071415
 20
39.0327201412977
 30
0.0
 10
58.73314183185998
 20
38.4835719208116
 30
0.0
 10
58.37140680581832
 20
38.0777396725477
 30
0.0
 10
58.3776079776933
 20
38.05500204233937
 30
0.0
 10
58.77276042995024
 20
36.56534275414492
 30
0.0
 10
58.7958425697072
 20
36.47818183834632
 30
0.0
 10
58.99462457925581
 20
36.74035360483936
 30
0.0
 10
59.3350000132836
 20
37.21164266733936
 30
0.0
 10
59.64230253064471
 20
38.16662313608937
 30
0.0
 10
59.64230253064471
 20
38.16662313608937
 30
0.0
 10
59.68777779106137
 20
38.15973294511714
 30
0.0
 10
59.68777779106137
 20
38.15973294511714
 30
0.0
 10
59.68777779106137
 20
38.15973294511714
 30
0.0
 10
59.68777779106137
 20
35.0391654537977
 30
0.0
 10
59.68777779106137
 20
34.99334568383242
 30
0.0
 10
59.73187501328361
 20
34.99334568383242
 30
0.0
 10
60.88736003932526
 20
34.99334568383242
 30
0.0
 10
60.93145726154748
 20
34.99334568383242
 30
0.0
 10
60.93145726154748
 20
35.0391654537977
 30
0.0
 10
60.93145726154748
 20
38.47943780622826
 30
0.0
 10
60.93145726154748
 20
38.47943780622826
 30
0.0
 10
60.93145726154748
 20
38.47943780622826
 30
0.0
 10
60.97899957925581
 20
38.47943780622826
 30
0.0
 10
60.97899957925581
 20
38.47943780622826
 30
0.0
 10
61.07063911918636
 20
38.14112942949214
 30
0.0
 10
61.11921496554053
 20
37.96611857879771
 30
0.0
 10
61.49128527804053
 20
37.34152276716576
 30
0.0
 10
61.5305593665822
 20
37.38872057532547
 30
0.0
 10
62.2312917884572
 20
38.22450074025603
 30
0.0
 10
62.2591970618947
 20
38.25791816647131
 30
0.0
 10
62.13689617213774
 20
38.36092652150603
 30
0.0
 10
62.03044272161693
 20
38.45601115692272
 30
0.0
 10
61.84440756536693
 20
38.66581747202687
 30
0.0
 10
61.84440756536693
 20
38.66581747202687
 30
0.0
 10
61.8099566105058
 20
38.70474705101992
 30
0.0
 10
61.8099566105058
 20
38.70474705101992
 30
0.0
 10
61.8099566105058
 20
38.70474705101992
 30
0.0
 10
61.81719131102664
 20
38.70474705101992
 30
0.0
 10
61.82098091606136
 20
38.70474705101992
 30
0.0
 10
61.5832693275197
 20
38.98207723765187
 30
0.0
 10
61.15642199679054
 20
39.51572252845048
 30
0.0
 10
60.93386882838776
 20
40.00974922115879
 30
0.0
 10
60.93386882838776
 20
40.00974922115879
 30
0.0
 10
60.93145726154748
 20
40.01422784529075
 30
0.0
 10
60.93145726154748
 20
40.01422784529075
 30
0.0
 10
60.93145726154748
 20
40.01422784529075
 30
0.0
 10
60.93145726154748
 20
40.41282539303379
 30
0.0
 10
60.93145726154748
 20
40.41282539303379
 30
0.0
 10
60.93145726154748
 20
40.41282539303379
 30
0.0
 10
61.81512425373497
 20
40.41282539303379
 30
0.0
 10
61.81512425373497
 20
40.41282539303379
 30
0.0
 10
61.82856012613082
 20
40.40869127845048
 30
0.0
 10
62.54824057317943
 20
39.90364028018659
 30
0.0
 10
62.54824057317943
 20
39.90364028018659
 30
0.0
 10
62.54824057317943
 20
39.90364028018659
 30
0.0
 10
62.5940603431447
 20
39.87228991126297
 30
0.0
 10
62.6033621009572
 20
39.86574422983937
 30
0.0
 10
62.60818523463774
 20
39.87194540171437
 30
0.0
 10
62.62885580755442
 20
39.89916165605464
 30
0.0
 10
62.62885580755442
 20
39.89916165605464
 30
0.0
 10
62.74323297769331
 20
40.05040134789489
 30
0.0
 10
62.91721029974192
 20
40.31085056664492
 30
0.0
 10
63.09359918863082
 20
40.69394518470047
 30
0.0
 10
63.09359918863082
 20
40.69394518470047
 30
0.0
 10
63.10014487005442
 20
40.70738105709629
 30
0.0
 10
63.10014487005442
 20
40.70738105709629
 30
0.0
 10
63.10014487005442
 20
40.70738105709629
 30
0.0
 10
64.0265310462697
 20
40.70738105709629
 30
0.0
 10
64.0265310462697
 20
40.70738105709629
 30
0.0
 10
64.0265310462697
 20
40.70738105709629
 30
0.0
 10
64.0265310462697
 20
39.86161011525604
 30
0.0
 10
64.0265310462697
 20
39.86161011525604
 30
0.0
 10
64.0265310462697
 20
39.86161011525604
 30
0.0
 10
61.90986437960305
 20
39.86161011525604
 30
0.0
 10
61.86645617647805
 20
39.86161011525604
 30
0.0
 10
61.86645617647805
 20
39.8168238739366
 30
0.0
 10
61.86645617647805
 20
38.70750312740881
 30
0.0
 10
61.86645617647805
 20
38.70474705101992
 30
0.0
 10
61.87506891519332
 20
38.70474705101992
 30
0.0
 10
63.55868707925582
 20
38.70474705101992
 30
0.0
 10
63.55868707925582
 20
38.70474705101992
 30
0.0
 10
63.55868707925582
 20
38.70474705101992
 30
0.0
 10
63.53698297769331
 20
38.66891805796436
 30
0.0
 10
63.53698297769331
 20
38.66891805796436
 30
0.0
 10
63.00816082057526
 20
37.8045436004991
 30
0.0
 10
62.30398330321413
 20
37.1165580319227
 30
0.0
 10
61.44581001762386
 20
36.62184232011714
 30
0.0
 10
61.47130372422109
 20
36.58429077931854
 30
0.0
 10
62.21096572508916
 20
35.51768921681853
 30
0.0
 10
62.23956001762386
 20
35.4763480709852
 30
0.0
 10
62.98749024765861
 20
36.09474271074214
 30
0.0
 10
63.5583425697072
 20
36.7940970944227
 30
0.0
 10
63.98208931449886
 20
37.61471883921436
 30
0.0
 10
63.98208931449886
 20
37.61471883921436
 30
0.0
 10
64.0265310462697
 20
37.60403904320742
 30
0.0
 10
64.0265310462697
 20
37.60403904320742
 30
0.0
 10
64.0265310462697
 20
37.60403904320742
 30
0.0
 10
64.0265310462697
 20
35.0391654537977
 30
0.0
 10
64.0265310462697
 20
34.99334568383242
 30
0.0
 10
64.07062826849193
 20
34.99334568383242
 30
0.0
 10
65.27262208359609
 20
34.99334568383242
 30
0.0
 10
65.31671930581831
 20
34.99334568383242
 30
0.0
 10
65.31671930581831
 20
35.0391654537977
 30
0.0
 10
65.31671930581831
 20
37.41042467688798
 30
0.0
 10
65.31671930581831
 20
37.41042467688798
 30
0.0
 10
65.31671930581831
 20
37.41042467688798
 30
0.0
 10
65.36081652804054
 20
37.42144898244354
 30
0.0
 10
65.36081652804054
 20
37.42144898244354
 30
0.0
 10
65.78800836831831
 20
36.60668389997825
 30
0.0
 10
66.33474502196415
 20
35.96038398678382
 30
0.0
 10
66.9848345401933
 20
35.49632962480465
 30
0.0
 10
67.00688315130442
 20
35.55248468122825
 30
0.0
 10
67.50504395859609
 20
36.83612725935326
 30
0.0
 10
67.51813532144331
 20
36.87092272376297
 30
0.0
 10
67.1488210853322
 20
37.09761000674909
 30
0.0
 10
66.40399144123498
 20
37.56373142601992
 30
0.0
 10
65.7039480384572
 20
38.66891805796436
 30
0.0
 10
65.7039480384572
 20
38.66891805796436
 30
0.0
 10
65.68121040824888
 20
38.70474705101992
 30
0.0
 10
65.68121040824888
 20
38.70474705101992
 30
0.0
 10
65.68121040824888
 20
38.70474705101992
 30
0.0
 10
67.31005155408221
 20
38.70474705101992
 30
0.0
 10
67.35552681449886
 20
38.70474705101992
 30
0.0
 10
67.35552681449886
 20
38.74884427324214
 30
0.0
 10
67.35552681449886
 20
39.81751289303382
 30
0.0
 10
67.35552681449886
 20
39.86161011525604
 30
0.0
 10
67.30970704453359
 20
39.86161011525604
 30
0.0
 10
65.31671930581831
 20
39.86161011525604
 30
0.0
 10
65.31671930581831
 20
39.86161011525604
 30
0.0
 10
65.31671930581831
 20
39.86161011525604
 30
0.0
 10
65.31671930581831
 20
40.70738105709629
 30
0.0
 10
65.31671930581831
 20
40.70738105709629
 30
0.0
 10
65.31671930581831
 20
40.70738105709629
 30
0.0
 10
67.16949165824885
 20
40.70738105709629
 30
0.0
 10
67.21496691866554
 20
40.70738105709629
 30
0.0
 10
67.21496691866554
 20
40.75147827931853
 30
0.0
 10
67.21496691866554
 20
41.81187866994353
 30
0.0
 10
67.21496691866554
 20
41.85563138261714
 30
0.0
 10
67.16949165824885
 20
41.85563138261714
 30
0.0
 10
65.31671930581831
 20
41.85563138261714
 30
0.0
 10
65.31671930581831
 20
41.85563138261714
 30
0.0
 10
65.31671930581831
 20
41.85563138261714
 30
0.0
 10
65.31671930581831
 20
42.87193455101991
 30
0.0
 10
65.31671930581831
 20
42.91637628279075
 30
0.0
 10
65.27262208359609
 20
42.91637628279075
 30
0.0
 10
64.07062826849193
 20
42.91637628279075
 30
0.0
 10
64.0265310462697
 20
42.91637628279075
 30
0.0
  0
SPLINE
  5
E39
330
E1F
100
AcDbEntity
  8
WAKU
100
AcDbSpline
210
0.0
220
0.0
230
1.0
 70
     9
 71
     3
 72
    29
 73
    25
 74
     0
 42
0.000000001
 43
0.0000000001
 40
0.0
 40
0.0
 40
0.0
 40
0.0
 40
1.0
 40
1.0
 40
1.0
 40
2.0
 40
2.0
 40
2.0
 40
3.0
 40
3.0
 40
3.0
 40
4.0
 40
4.0
 40
4.0
 40
5.0
 40
5.0
 40
5.0
 40
6.0
 40
6.0
 40
6.0
 40
7.0
 40
7.0
 40
7.0
 40
8.0
 40
8.0
 40
8.0
 40
8.0
 10
52.86201010442942
 20
40.47552613088103
 30
0.0
 10
52.84340658880442
 20
40.53271471595047
 30
0.0
 10
52.72213922769331
 20
40.83450508053378
 30
0.0
 10
52.68596572508915
 20
40.89996189476992
 30
0.0
 10
52.68596572508915
 20
40.89996189476992
 30
0.0
 10
52.66632868081831
 20
40.93475735917964
 30
0.0
 10
52.66632868081831
 20
40.93475735917964
 30
0.0
 10
52.66632868081831
 20
40.93475735917964
 30
0.0
 10
54.5883474525197
 20
40.93475735917964
 30
0.0
 10
54.5883474525197
 20
40.93475735917964
 30
0.0
 10
54.5883474525197
 20
40.93475735917964
 30
0.0
 10
54.58042373290165
 20
40.9054740475477
 30
0.0
 10
54.58042373290165
 20
40.9054740475477
 30
0.0
 10
54.5015310462697
 20
40.61401896942268
 30
0.0
 10
54.46329048637386
 20
40.53374824459631
 30
0.0
 10
54.42815051241554
 20
40.47104750674907
 30
0.0
 10
54.42815051241554
 20
40.47104750674907
 30
0.0
 10
54.42126032144331
 20
40.45898967254768
 30
0.0
 10
54.42126032144331
 20
40.45898967254768
 30
0.0
 10
54.42126032144331
 20
40.45898967254768
 30
0.0
 10
52.86683323810998
 20
40.45898967254768
 30
0.0
 10
52.86683323810998
 20
40.45898967254768
 30
0.0
 10
52.86683323810998
 20
40.45898967254768
 30
0.0
 10
52.86201010442942
 20
40.47552613088103
 30
0.0
 10
52.86201010442942
 20
40.47552613088103
 30
0.0
  0
SPLINE
  5
E3A
330
E1F
100
AcDbEntity
  8
WAKU
100
AcDbSpline
210
0.0
220
0.0
230
1.0
 70
     9
 71
     3
 72
   203
 73
   199
 74
     0
 42
0.000000001
 43
0.0000000001
 40
0.0
 40
0.0
 40
0.0
 40
0.0
 40
1.0
 40
1.0
 40
1.0
 40
2.0
 40
2.0
 40
2.0
 40
3.0
 40
3.0
 40
3.0
 40
4.0
 40
4.0
 40
4.0
 40
5.0
 40
5.0
 40
5.0
 40
6.0
 40
6.0
 40
6.0
 40
7.0
 40
7.0
 40
7.0
 40
8.0
 40
8.0
 40
8.0
 40
9.0
 40
9.0
 40
9.0
 40
10.0
 40
10.0
 40
10.0
 40
11.0
 40
11.0
 40
11.0
 40
12.0
 40
12.0
 40
12.0
 40
13.0
 40
13.0
 40
13.0
 40
14.0
 40
14.0
 40
14.0
 40
15.0
 40
15.0
 40
15.0
 40
16.0
 40
16.0
 40
16.0
 40
17.0
 40
17.0
 40
17.0
 40
18.0
 40
18.0
 40
18.0
 40
19.0
 40
19.0
 40
19.0
 40
20.0
 40
20.0
 40
20.0
 40
21.0
 40
21.0
 40
21.0
 40
22.0
 40
22.0
 40
22.0
 40
23.0
 40
23.0
 40
23.0
 40
24.0
 40
24.0
 40
24.0
 40
25.0
 40
25.0
 40
25.0
 40
26.0
 40
26.0
 40
26.0
 40
27.0
 40
27.0
 40
27.0
 40
28.0
 40
28.0
 40
28.0
 40
29.0
 40
29.0
 40
29.0
 40
30.0
 40
30.0
 40
30.0
 40
31.0
 40
31.0
 40
31.0
 40
32.0
 40
32.0
 40
32.0
 40
33.0
 40
33.0
 40
33.0
 40
34.0
 40
34.0
 40
34.0
 40
35.0
 40
35.0
 40
35.0
 40
36.0
 40
36.0
 40
36.0
 40
37.0
 40
37.0
 40
37.0
 40
38.0
 40
38.0
 40
38.0
 40
39.0
 40
39.0
 40
39.0
 40
40.0
 40
40.0
 40
40.0
 40
41.0
 40
41.0
 40
41.0
 40
42.0
 40
42.0
 40
42.0
 40
43.0
 40
43.0
 40
43.0
 40
44.0
 40
44.0
 40
44.0
 40
45.0
 40
45.0
 40
45.0
 40
46.0
 40
46.0
 40
46.0
 40
47.0
 40
47.0
 40
47.0
 40
48.0
 40
48.0
 40
48.0
 40
49.0
 40
49.0
 40
49.0
 40
50.0
 40
50.0
 40
50.0
 40
51.0
 40
51.0
 40
51.0
 40
52.0
 40
52.0
 40
52.0
 40
53.0
 40
53.0
 40
53.0
 40
54.0
 40
54.0
 40
54.0
 40
55.0
 40
55.0
 40
55.0
 40
56.0
 40
56.0
 40
56.0
 40
57.0
 40
57.0
 40
57.0
 40
58.0
 40
58.0
 40
58.0
 40
59.0
 40
59.0
 40
59.0
 40
60.0
 40
60.0
 40
60.0
 40
61.0
 40
61.0
 40
61.0
 40
62.0
 40
62.0
 40
62.0
 40
63.0
 40
63.0
 40
63.0
 40
64.0
 40
64.0
 40
64.0
 40
65.0
 40
65.0
 40
65.0
 40
66.0
 40
66.0
 40
66.0
 40
66.0
 10
50.02221789522804
 20
42.70346938174909
 30
0.0
 10
50.17380209661692
 20
42.45611152584632
 30
0.0
 10
50.30471572508915
 20
42.2077201412977
 30
0.0
 10
50.40841309922109
 20
41.96449639997825
 30
0.0
 10
50.40841309922109
 20
41.96449639997825
 30
0.0
 10
50.42253799071414
 20
41.93176799286018
 30
0.0
 10
50.42253799071414
 20
41.93176799286018
 30
0.0
 10
50.42253799071414
 20
41.93176799286018
 30
0.0
 10
49.28669000894331
 20
41.93176799286018
 30
0.0
 10
49.24190376762386
 20
41.93176799286018
 30
0.0
 10
49.24190376762386
 20
41.88801528018657
 30
0.0
 10
49.24190376762386
 20
40.97816556230464
 30
0.0
 10
49.24190376762386
 20
40.93475735917964
 30
0.0
 10
49.28737902804054
 20
40.93475735917964
 30
0.0
 10
51.28829048637386
 20
40.93475735917964
 30
0.0
 10
51.28829048637386
 20
40.93475735917964
 30
0.0
 10
51.28829048637386
 20
40.93475735917964
 30
0.0
 10
51.29518067734609
 20
40.9237330536241
 30
0.0
 10
51.29518067734609
 20
40.9237330536241
 30
0.0
 10
51.38130806449886
 20
40.78661825327685
 30
0.0
 10
51.40921333793636
 20
40.7104816430338
 30
0.0
 10
51.48500543863081
 20
40.4899955319227
 30
0.0
 10
51.48500543863081
 20
40.4899955319227
 30
0.0
 10
51.49568523463774
 20
40.45898967254768
 30
0.0
 10
51.49568523463774
 20
40.45898967254768
 30
0.0
 10
51.49568523463774
 20
40.45898967254768
 30
0.0
 10
49.6518701304711
 20
40.45898967254768
 30
0.0
 10
49.60639487005442
 20
40.45898967254768
 30
0.0
 10
49.60639487005442
 20
40.41558146942271
 30
0.0
 10
49.60639487005442
 20
39.6063285397352
 30
0.0
 10
49.60639487005442
 20
39.56326484615882
 30
0.0
 10
49.65255914956832
 20
39.56326484615882
 30
0.0
 10
52.95399415390861
 20
39.56326484615882
 30
0.0
 10
52.95399415390861
 20
39.56326484615882
 30
0.0
 10
52.95399415390861
 20
39.56326484615882
 30
0.0
 10
52.95399415390861
 20
39.17982571855464
 30
0.0
 10
52.95399415390861
 20
39.17982571855464
 30
0.0
 10
52.95399415390861
 20
39.17982571855464
 30
0.0
 10
49.89578289088774
 20
39.17982571855464
 30
0.0
 10
49.84961861137386
 20
39.17982571855464
 30
0.0
 10
49.84961861137386
 20
39.13676202497825
 30
0.0
 10
49.84961861137386
 20
38.46117880015187
 30
0.0
 10
49.84961861137386
 20
38.4184596161241
 30
0.0
 10
49.89578289088774
 20
38.4184596161241
 30
0.0
 10
52.95399415390861
 20
38.4184596161241
 30
0.0
 10
52.95399415390861
 20
38.4184596161241
 30
0.0
 10
52.95399415390861
 20
38.4184596161241
 30
0.0
 10
52.95399415390861
 20
38.03502048851992
 30
0.0
 10
52.95399415390861
 20
38.03502048851992
 30
0.0
 10
52.95399415390861
 20
38.03502048851992
 30
0.0
 10
49.28806804713776
 20
38.03502048851992
 30
0.0
 10
49.24190376762386
 20
38.03502048851992
 30
0.0
 10
49.24190376762386
 20
37.99161228539492
 30
0.0
 10
49.24190376762386
 20
37.14067370032547
 30
0.0
 10
49.24190376762386
 20
37.09726549720048
 30
0.0
 10
49.28772353758915
 20
37.09726549720048
 30
0.0
 10
51.88325847682524
 20
37.09726549720048
 30
0.0
 10
51.88325847682524
 20
37.09726549720048
 30
0.0
 10
51.88325847682524
 20
37.09726549720048
 30
0.0
 10
51.8935937632836
 20
37.05316827497826
 30
0.0
 10
51.8935937632836
 20
37.05316827497826
 30
0.0
 10
50.77669380668638
 20
36.51573337914492
 30
0.0
 10
49.73799751762386
 20
36.26286337046437
 30
0.0
 10
49.19884007404748
 20
36.15709893904075
 30
0.0
 10
49.22915691432526
 20
36.10438897810325
 30
0.0
 10
49.8103445228322
 20
35.10358873938797
 30
0.0
 10
49.82791450981136
 20
35.0732718991102
 30
0.0
 10
51.74442112873498
 20
35.62276462914493
 30
0.0
 10
52.36109322074886
 20
36.04582235483937
 30
0.0
 10
52.91575359401274
 20
36.50264201629771
 30
0.0
 10
52.91575359401274
 20
36.50264201629771
 30
0.0
 10
52.95399415390861
 20
36.53433689476992
 30
0.0
 10
52.95399415390861
 20
36.53433689476992
 30
0.0
 10
52.95399415390861
 20
36.53433689476992
 30
0.0
 10
52.95399415390861
 20
35.04674466386715
 30
0.0
 10
52.95399415390861
 20
35.00161391299909
 30
0.0
 10
52.99809137613081
 20
35.00161391299909
 30
0.0
 10
54.24659398029748
 20
35.00161391299909
 30
0.0
 10
54.2910357120683
 20
35.00161391299909
 30
0.0
 10
54.2910357120683
 20
35.04674466386715
 30
0.0
 10
54.2910357120683
 20
36.5674098114366
 30
0.0
 10
54.2910357120683
 20
36.5674098114366
 30
0.0
 10
54.2910357120683
 20
36.5674098114366
 30
0.0
 10
54.32927627196415
 20
36.5367484616102
 30
0.0
 10
54.32927627196415
 20
36.5367484616102
 30
0.0
 10
55.1619558509572
 20
35.86116523678381
 30
0.0
 10
55.75451227456831
 20
35.53663724199215
 30
0.0
 10
57.39920085963776
 20
35.0732718991102
 30
0.0
 10
57.41642633706831
 20
35.10255521074215
 30
0.0
 10
58.03998862005443
 20
36.13505032792964
 30
0.0
 10
58.07306153672111
 20
36.18982734615882
 30
0.0
 10
57.60142796467248
 20
36.27113159963104
 30
0.0
 10
56.43422961397804
 20
36.47887085744353
 30
0.0
 10
55.3324880775197
 20
37.05316827497826
 30
0.0
 10
55.3324880775197
 20
37.05316827497826
 30
0.0
 10
55.34316787352665
 20
37.09726549720048
 30
0.0
 10
55.34316787352665
 20
37.09726549720048
 30
0.0
 10
55.34316787352665
 20
37.09726549720048
 30
0.0
 10
57.93870281276276
 20
37.09726549720048
 30
0.0
 10
57.98486709227663
 20
37.09726549720048
 30
0.0
 10
57.98486709227663
 20
37.14067370032547
 30
0.0
 10
57.98486709227663
 20
37.99161228539492
 30
0.0
 10
57.98486709227663
 20
38.03502048851992
 30
0.0
 10
57.93870281276276
 20
38.03502048851992
 30
0.0
 10
54.2910357120683
 20
38.03502048851992
 30
0.0
 10
54.2910357120683
 20
38.03502048851992
 30
0.0
 10
54.2910357120683
 20
38.03502048851992
 30
0.0
 10
54.2910357120683
 20
38.4184596161241
 30
0.0
 10
54.2910357120683
 20
38.4184596161241
 30
0.0
 10
54.2910357120683
 20
38.4184596161241
 30
0.0
 10
57.36819500026276
 20
38.4184596161241
 30
0.0
 10
57.41435927977665
 20
38.4184596161241
 30
0.0
 10
57.41435927977665
 20
38.46117880015187
 30
0.0
 10
57.41435927977665
 20
39.13676202497825
 30
0.0
 10
57.41435927977665
 20
39.17982571855464
 30
0.0
 10
57.36819500026276
 20
39.17982571855464
 30
0.0
 10
54.2910357120683
 20
39.17982571855464
 30
0.0
 10
54.2910357120683
 20
39.17982571855464
 30
0.0
 10
54.2910357120683
 20
39.17982571855464
 30
0.0
 10
54.2910357120683
 20
39.56326484615882
 30
0.0
 10
54.2910357120683
 20
39.56326484615882
 30
0.0
 10
54.2910357120683
 20
39.56326484615882
 30
0.0
 10
57.62037598984609
 20
39.56326484615882
 30
0.0
 10
57.66654026935999
 20
39.56326484615882
 30
0.0
 10
57.66654026935999
 20
39.6063285397352
 30
0.0
 10
57.66654026935999
 20
40.41558146942271
 30
0.0
 10
57.66654026935999
 20
40.45898967254768
 30
0.0
 10
57.62140951849192
 20
40.45898967254768
 30
0.0
 10
55.77759441432526
 20
40.45898967254768
 30
0.0
 10
55.77759441432526
 20
40.45898967254768
 30
0.0
 10
55.77759441432526
 20
40.45898967254768
 30
0.0
 10
55.77759441432526
 20
40.48241632185325
 30
0.0
 10
55.77759441432526
 20
40.48241632185325
 30
0.0
 10
55.77759441432526
 20
40.50033081838103
 30
0.0
 10
55.94605958359609
 20
40.91684286265186
 30
0.0
 10
55.94812664088776
 20
40.92097697723519
 30
0.0
 10
55.94812664088776
 20
40.92097697723519
 30
0.0
 10
55.95432781276276
 20
40.93475735917964
 30
0.0
 10
55.95432781276276
 20
40.93475735917964
 30
0.0
 10
55.95432781276276
 20
40.93475735917964
 30
0.0
 10
57.93904732231136
 20
40.93475735917964
 30
0.0
 10
57.98452258272803
 20
40.93475735917964
 30
0.0
 10
57.98452258272803
 20
40.97816556230464
 30
0.0
 10
57.98452258272803
 20
41.88801528018657
 30
0.0
 10
57.98452258272803
 20
41.93176799286018
 30
0.0
 10
57.9400808509572
 20
41.93176799286018
 30
0.0
 10
56.83489421901274
 20
41.93176799286018
 30
0.0
 10
56.83489421901274
 20
41.93176799286018
 30
0.0
 10
56.83489421901274
 20
41.93176799286018
 30
0.0
 10
56.85659832057526
 20
41.96725247636714
 30
0.0
 10
56.85659832057526
 20
41.96725247636714
 30
0.0
 10
57.00645997422109
 20
42.21254327497825
 30
0.0
 10
57.1370290931447
 20
42.49883070987407
 30
0.0
 10
57.22625706623498
 20
42.70243585310325
 30
0.0
 10
57.17044651935998
 20
42.71208212046436
 30
0.0
 10
55.96707466606137
 20
42.91534275414489
 30
0.0
 10
55.92952312526275
 20
42.92154392601992
 30
0.0
 10
55.85993219644332
 20
42.69141154754769
 30
0.0
 10
55.69697917995025
 20
42.24079305796435
 30
0.0
 10
55.53195910616555
 20
41.94382582706157
 30
0.0
 10
55.53195910616555
 20
41.94382582706157
 30
0.0
 10
55.52506891519332
 20
41.93176799286018
 30
0.0
 10
55.52506891519332
 20
41.93176799286018
 30
0.0
 10
55.52506891519332
 20
41.93176799286018
 30
0.0
 10
55.11372451415165
 20
41.93176799286018
 30
0.0
 10
55.11372451415165
 20
41.93176799286018
 30
0.0
 10
55.11372451415165
 20
41.93176799286018
 30
0.0
 10
55.11372451415165
 20
42.85470907358936
 30
0.0
 10
55.11372451415165
 20
42.89949531490881
 30
0.0
 10
55.06997180147804
 20
42.89949531490881
 30
0.0
 10
53.96168458359611
 20
42.89949531490881
 30
0.0
 10
53.91724285182526
 20
42.89949531490881
 30
0.0
 10
53.91724285182526
 20
42.85470907358936
 30
0.0
 10
53.91724285182526
 20
41.93176799286018
 30
0.0
 10
53.91724285182526
 20
41.93176799286018
 30
0.0
 10
53.91724285182526
 20
41.93176799286018
 30
0.0
 10
53.34639052977665
 20
41.93176799286018
 30
0.0
 10
53.34639052977665
 20
41.93176799286018
 30
0.0
 10
53.34639052977665
 20
41.93176799286018
 30
0.0
 10
53.34639052977665
 20
42.85470907358936
 30
0.0
 10
53.34639052977665
 20
42.89949531490881
 30
0.0
 10
53.30229330755443
 20
42.89949531490881
 30
0.0
 10
52.20330784748497
 20
42.89949531490881
 30
0.0
 10
52.15921062526276
 20
42.89949531490881
 30
0.0
 10
52.15921062526276
 20
42.85470907358936
 30
0.0
 10
52.15921062526276
 20
41.93176799286018
 30
0.0
 10
52.15921062526276
 20
41.93176799286018
 30
0.0
 10
52.15921062526276
 20
41.93176799286018
 30
0.0
 10
51.72616212265859
 20
41.93176799286018
 30
0.0
 10
51.72616212265859
 20
41.93176799286018
 30
0.0
 10
51.72616212265859
 20
41.93176799286018
 30
0.0
 10
51.72099447942943
 20
41.94795994164493
 30
0.0
 10
51.72099447942943
 20
41.94795994164493
 30
0.0
 10
51.57836752630442
 20
42.40064548851992
 30
0.0
 10
51.46467937526274
 20
42.65007040171435
 30
0.0
 10
51.31860732665165
 20
42.92188843556853
 30
0.0
 10
51.28691244817943
 20
42.91672079233936
 30
0.0
 10
50.08422961397805
 20
42.7138046682074
 30
0.0
 10
50.02221789522804
 20
42.70346938174909
 30
0.0
  0
SPLINE
  5
E3B
330
E1F
100
AcDbEntity
  8
WAKU
100
AcDbSpline
210
0.0
220
0.0
230
1.0
 70
     9
 71
     3
 72
    41
 73
    37
 74
     0
 42
0.000000001
 43
0.0000000001
 40
0.0
 40
0.0
 40
0.0
 40
0.0
 40
1.0
 40
1.0
 40
1.0
 40
2.0
 40
2.0
 40
2.0
 40
3.0
 40
3.0
 40
3.0
 40
4.0
 40
4.0
 40
4.0
 40
5.0
 40
5.0
 40
5.0
 40
6.0
 40
6.0
 40
6.0
 40
7.0
 40
7.0
 40
7.0
 40
8.0
 40
8.0
 40
8.0
 40
9.0
 40
9.0
 40
9.0
 40
10.0
 40
10.0
 40
10.0
 40
11.0
 40
11.0
 40
11.0
 40
12.0
 40
12.0
 40
12.0
 40
12.0
 10
40.24538141519331
 20
42.52087932098517
 30
0.0
 10
40.24538141519331
 20
42.47678209876297
 30
0.0
 10
40.24538141519331
 20
41.33232137827685
 30
0.0
 10
40.24538141519331
 20
41.28822415605464
 30
0.0
 10
40.2912011851586
 20
41.28822415605464
 30
0.0
 10
43.54647190998497
 20
41.28822415605464
 30
0.0
 10
43.54647190998497
 20
41.28822415605464
 30
0.0
 10
43.54647190998497
 20
41.28822415605464
 30
0.0
 10
43.54647190998497
 20
36.63011054928381
 30
0.0
 10
43.54647190998497
 20
36.63011054928381
 30
0.0
 10
43.54647190998497
 20
36.63011054928381
 30
0.0
 10
39.91740832491553
 20
36.63011054928381
 30
0.0
 10
39.87124404540166
 20
36.63011054928381
 30
0.0
 10
39.87124404540166
 20
36.58566881751298
 30
0.0
 10
39.87124404540166
 20
35.43293986786022
 30
0.0
 10
39.87124404540166
 20
35.38884264563797
 30
0.0
 10
39.91775283446415
 20
35.38884264563797
 30
0.0
 10
48.60525012179054
 20
35.38884264563797
 30
0.0
 10
48.65141440130443
 20
35.38884264563797
 30
0.0
 10
48.65141440130443
 20
35.43293986786022
 30
0.0
 10
48.65141440130443
 20
36.58566881751298
 30
0.0
 10
48.65141440130443
 20
36.63011054928381
 30
0.0
 10
48.60525012179054
 20
36.63011054928381
 30
0.0
 10
44.9765310462697
 20
36.63011054928381
 30
0.0
 10
44.9765310462697
 20
36.63011054928381
 30
0.0
 10
44.9765310462697
 20
36.63011054928381
 30
0.0
 10
44.9765310462697
 20
41.28822415605464
 30
0.0
 10
44.9765310462697
 20
41.28822415605464
 30
0.0
 10
44.9765310462697
 20
41.28822415605464
 30
0.0
 10
48.24075901935998
 20
41.28822415605464
 30
0.0
 10
48.28692329887386
 20
41.28822415605464
 30
0.0
 10
48.28692329887386
 20
41.33232137827685
 30
0.0
 10
48.28692329887386
 20
42.47678209876297
 30
0.0
 10
48.28692329887386
 20
42.52087932098517
 30
0.0
 10
48.24041450981138
 20
42.52087932098517
 30
0.0
 10
40.29154569470721
 20
42.52087932098517
 30
0.0
 10
40.24538141519331
 20
42.52087932098517
 30
0.0
  0
SPLINE
  5
E3C
330
E1F
100
AcDbEntity
  8
WAKU
100
AcDbSpline
210
0.0
220
0.0
230
1.0
 70
     9
 71
     3
 72
    17
 73
    13
 74
     0
 42
0.000000001
 43
0.0000000001
 40
0.0
 40
0.0
 40
0.0
 40
0.0
 40
1.0
 40
1.0
 40
1.0
 40
2.0
 40
2.0
 40
2.0
 40
3.0
 40
3.0
 40
3.0
 40
4.0
 40
4.0
 40
4.0
 40
4.0
 10
22.23166613741554
 20
36.78789592254771
 30
0.0
 10
25.25198135008916
 20
37.05695788001297
 30
0.0
 10
27.22498753498499
 20
37.56200887827687
 30
0.0
 10
28.49691678845721
 20
41.30717218122825
 30
0.0
 10
28.49691678845721
 20
41.30717218122825
 30
0.0
 10
29.86186362005443
 20
40.66741794945742
 30
0.0
 10
29.86186362005443
 20
40.66741794945742
 30
0.0
 10
28.41251194904748
 20
36.82992608747826
 30
0.0
 10
26.33684191866554
 20
35.7860621551866
 30
0.0
 10
22.65265680581832
 20
35.3488795379991
 30
0.0
 10
22.65265680581832
 20
35.3488795379991
 30
0.0
 10
22.23166613741554
 20
36.78789592254771
 30
0.0
 10
22.23166613741554
 20
36.78789592254771
 30
0.0
  0
SPLINE
  5
E3D
330
E1F
100
AcDbEntity
  8
WAKU
100
AcDbSpline
210
0.0
220
0.0
230
1.0
 70
     9
 71
     3
 72
    17
 73
    13
 74
     0
 42
0.000000001
 43
0.0000000001
 40
0.0
 40
0.0
 40
0.0
 40
0.0
 40
1.0
 40
1.0
 40
1.0
 40
2.0
 40
2.0
 40
2.0
 40
3.0
 40
3.0
 40
3.0
 40
4.0
 40
4.0
 40
4.0
 40
4.0
 10
24.45719782144332
 20
38.40364570553381
 30
0.0
 10
23.34443197942943
 20
38.92523316213104
 30
0.0
 10
22.37188152370026
 20
39.2029078583116
 30
0.0
 10
21.70801162352665
 20
39.3799857662977
 30
0.0
 10
21.70801162352665
 20
39.3799857662977
 30
0.0
 10
22.20341635442943
 20
40.52444648678378
 30
0.0
 10
22.20341635442943
 20
40.52444648678378
 30
0.0
 10
22.75532065130443
 20
40.40662422115882
 30
0.0
 10
24.08306045165165
 20
40.06969388261715
 30
0.0
 10
25.00875760876971
 20
39.63216675588103
 30
0.0
 10
25.00875760876971
 20
39.63216675588103
 30
0.0
 10
24.45719782144332
 20
38.40364570553381
 30
0.0
 10
24.45719782144332
 20
38.40364570553381
 30
0.0
  0
SPLINE
  5
E3E
330
E1F
100
AcDbEntity
  8
WAKU
100
AcDbSpline
210
0.0
220
0.0
230
1.0
 70
     9
 71
     3
 72
    17
 73
    13
 74
     0
 42
0.000000001
 43
0.0000000001
 40
0.0
 40
0.0
 40
0.0
 40
0.0
 40
1.0
 40
1.0
 40
1.0
 40
2.0
 40
2.0
 40
2.0
 40
3.0
 40
3.0
 40
3.0
 40
4.0
 40
4.0
 40
4.0
 40
4.0
 10
29.31960559054054
 20
41.70266914303382
 30
0.0
 10
29.24484701849193
 20
42.03925497202686
 30
0.0
 10
29.09532987439471
 20
42.53569323157547
 30
0.0
 10
28.90826118949887
 20
42.92292196421437
 30
0.0
 10
28.90826118949887
 20
42.92292196421437
 30
0.0
 10
29.72130372422109
 20
43.04074422983936
 30
0.0
 10
29.72130372422109
 20
43.04074422983936
 30
0.0
 10
29.96487197508915
 20
42.56945516733935
 30
0.0
 10
30.13299263481137
 20
41.92970093556853
 30
0.0
 10
30.15159615043637
 20
41.85425334442268
 30
0.0
 10
30.15159615043637
 20
41.85425334442268
 30
0.0
 10
29.31960559054054
 20
41.70266914303382
 30
0.0
 10
29.31960559054054
 20
41.70266914303382
 30
0.0
  0
SPLINE
  5
E3F
330
E1F
100
AcDbEntity
  8
WAKU
100
AcDbSpline
210
0.0
220
0.0
230
1.0
 70
     9
 71
     3
 72
    17
 73
    13
 74
     0
 42
0.000000001
 43
0.0000000001
 40
0.0
 40
0.0
 40
0.0
 40
0.0
 40
1.0
 40
1.0
 40
1.0
 40
2.0
 40
2.0
 40
2.0
 40
3.0
 40
3.0
 40
3.0
 40
4.0
 40
4.0
 40
4.0
 40
4.0
 10
27.95431424939471
 20
41.50905477671435
 30
0.0
 10
27.91710721814471
 20
41.70266914303382
 30
0.0
 10
27.78584908012387
 20
42.36722806230464
 30
0.0
 10
27.58982314696415
 20
42.83851712480464
 30
0.0
 10
27.58982314696415
 20
42.83851712480464
 30
0.0
 10
28.42181370685999
 20
42.94772665171436
 30
0.0
 10
28.42181370685999
 20
42.94772665171436
 30
0.0
 10
28.5058740367211
 20
42.75445679494352
 30
0.0
 10
28.63678766519332
 20
42.48505032792964
 30
0.0
 10
28.83315810790165
 20
41.66890720726992
 30
0.0
 10
28.83315810790165
 20
41.66890720726992
 30
0.0
 10
27.95431424939471
 20
41.50905477671435
 30
0.0
 10
27.95431424939471
 20
41.50905477671435
 30
0.0
  0
SPLINE
  5
E40
330
E1F
100
AcDbEntity
  8
WAKU
100
AcDbSpline
210
0.0
220
0.0
230
1.0
 70
     9
 71
     3
 72
    17
 73
    13
 74
     0
 42
0.000000001
 43
0.0000000001
 40
0.0
 40
0.0
 40
0.0
 40
0.0
 40
1.0
 40
1.0
 40
1.0
 40
2.0
 40
2.0
 40
2.0
 40
3.0
 40
3.0
 40
3.0
 40
4.0
 40
4.0
 40
4.0
 40
4.0
 10
25.27988662352665
 20
40.4403861569227
 30
0.0
 10
24.27012913654749
 20
40.88618151282547
 30
0.0
 10
23.50359539088776
 20
41.11355781490881
 30
0.0
 10
22.45594185356138
 20
41.35747057532547
 30
0.0
 10
22.45594185356138
 20
41.35747057532547
 30
0.0
 10
22.98924263481137
 20
42.49366306664492
 30
0.0
 10
22.98924263481137
 20
42.49366306664492
 30
0.0
 10
24.05481066866554
 20
42.28316773244353
 30
0.0
 10
24.84993870685999
 20
42.06440416907547
 30
0.0
 10
25.86899795165165
 20
41.66890720726992
 30
0.0
 10
25.86899795165165
 20
41.66890720726992
 30
0.0
 10
25.27988662352665
 20
40.4403861569227
 30
0.0
 10
25.27988662352665
 20
40.4403861569227
 30
0.0
  0
SPLINE
  5
E41
330
E1F
100
AcDbEntity
  8
WAKU
100
AcDbSpline
210
0.0
220
0.0
230
1.0
 70
    11
 71
     3
 72
    32
 73
    28
 74
     0
 42
0.000000001
 43
0.0000000001
 40
0.0
 40
0.0
 40
0.0
 40
0.0
 40
1.0
 40
1.0
 40
1.0
 40
2.0
 40
2.0
 40
2.0
 40
3.0
 40
3.0
 40
3.0
 40
4.0
 40
4.0
 40
4.0
 40
5.0
 40
5.0
 40
5.0
 40
6.0
 40
6.0
 40
6.0
 40
7.0
 40
7.0
 40
7.0
 40
8.0
 40
8.0
 40
8.0
 40
9.0
 40
9.0
 40
9.0
 40
9.0
 10
17.82917861571415
 20
35.36541599633242
 30
0.0
 10
17.82917861571415
 20
35.36541599633242
 30
0.0
 10
16.24891331623498
 20
35.36541599633242
 30
0.0
 10
16.24891331623498
 20
35.36541599633242
 30
0.0
 10
16.24891331623498
 20
35.36541599633242
 30
0.0
 10
16.24891331623498
 20
38.79914266733937
 30
0.0
 10
16.24891331623498
 20
38.79914266733937
 30
0.0
 10
14.98663033012387
 20
38.13423923851992
 30
0.0
 10
13.86421822074886
 20
37.77250421247825
 30
0.0
 10
13.12558974852665
 20
37.54512791039493
 30
0.0
 10
13.12558974852665
 20
37.54512791039493
 30
0.0
 10
12.30290094644331
 20
38.68132040171437
 30
0.0
 10
12.30290094644331
 20
38.68132040171437
 30
0.0
 10
13.72400283446415
 20
39.04305542775603
 30
0.0
 10
15.06138890217249
 20
39.64077949459632
 30
0.0
 10
16.2864648570336
 20
40.3811305145616
 30
0.0
 10
17.63280817300582
 20
41.19761814476992
 30
0.0
 10
18.52129829887387
 20
42.06440416907547
 30
0.0
 10
19.20377171467248
 20
42.77133776282545
 30
0.0
 10
19.20377171467248
 20
42.77133776282545
 30
0.0
 10
20.54081327283221
 20
41.93831367428381
 30
0.0
 10
20.54081327283221
 20
41.93831367428381
 30
0.0
 10
19.74602974418637
 20
41.16385620900604
 30
0.0
 10
19.02600478758914
 20
40.5582084225477
 30
0.0
 10
17.82917861571415
 20
39.74998902150603
 30
0.0
 10
17.82917861571415
 20
39.74998902150603
 30
0.0
 10
17.82917861571415
 20
35.36541599633242
 30
0.0
 10
17.82917861571415
 20
35.36541599633242
 30
0.0
  0
SPLINE
  5
E42
330
E1F
100
AcDbEntity
  8
WAKU
100
AcDbSpline
210
0.0
220
0.0
230
1.0
 70
     9
 71
     3
 72
    41
 73
    37
 74
     0
 42
0.000000001
 43
0.0000000001
 40
0.0
 40
0.0
 40
0.0
 40
0.0
 40
1.0
 40
1.0
 40
1.0
 40
2.0
 40
2.0
 40
2.0
 40
3.0
 40
3.0
 40
3.0
 40
4.0
 40
4.0
 40
4.0
 40
5.0
 40
5.0
 40
5.0
 40
6.0
 40
6.0
 40
6.0
 40
7.0
 40
7.0
 40
7.0
 40
8.0
 40
8.0
 40
8.0
 40
9.0
 40
9.0
 40
9.0
 40
10.0
 40
10.0
 40
10.0
 40
11.0
 40
11.0
 40
11.0
 40
12.0
 40
12.0
 40
12.0
 40
12.0
 10
3.74907336397804
 20
36.2914576629991
 30
0.0
 10
4.515951619186372
 20
36.56051962046436
 30
0.0
 10
6.133423949915536
 20
37.12448175154076
 30
0.0
 10
6.526509344880821
 20
38.98448880449215
 30
0.0
 10
6.666724731165542
 20
39.62389852671437
 30
0.0
 10
6.657078463804432
 20
40.14548598331159
 30
0.0
 10
6.648121215540541
 20
40.58335761959629
 30
0.0
 10
6.648121215540541
 20
40.58335761959629
 30
0.0
 10
8.2094384898461
 20
40.57508939042963
 30
0.0
 10
8.2094384898461
 20
40.57508939042963
 30
0.0
 10
8.200136732033596
 20
40.21300985483935
 30
0.0
 10
8.190834974221097
 20
39.94360338782548
 30
0.0
 10
8.134335408248871
 20
39.48919529320742
 30
0.0
 10
8.836101358769711
 20
39.78375095726992
 30
0.0
 10
9.54682455755443
 20
40.21300985483935
 30
0.0
 10
9.9767724742211
 20
41.1473197506727
 30
0.0
 10
9.9767724742211
 20
41.1473197506727
 30
0.0
 10
3.67431479192943
 20
41.1473197506727
 30
0.0
 10
3.67431479192943
 20
41.1473197506727
 30
0.0
 10
3.67431479192943
 20
41.1473197506727
 30
0.0
 10
3.67431479192943
 20
42.43440742428381
 30
0.0
 10
3.67431479192943
 20
42.43440742428381
 30
0.0
 10
3.67431479192943
 20
42.43440742428381
 30
0.0
 10
11.88432184488082
 20
42.43440742428381
 30
0.0
 10
11.88432184488082
 20
42.43440742428381
 30
0.0
 10
11.59458931449887
 20
40.36424954667963
 30
0.0
 10
10.65924589001971
 20
39.27869995900604
 30
0.0
 10
9.097928615714151
 20
38.46255683834632
 30
0.0
 10
9.097928615714151
 20
38.46255683834632
 30
0.0
 10
8.115731892623877
 20
39.3799857662977
 30
0.0
 10
8.115731892623877
 20
39.3799857662977
 30
0.0
 10
7.86355090304054
 20
37.67121840518659
 30
0.0
 10
7.246189791929432
 20
36.34175605709631
 30
0.0
 10
4.721623819707209
 20
35.22244453365882
 30
0.0
 10
4.721623819707209
 20
35.22244453365882
 30
0.0
 10
3.74907336397804
 20
36.2914576629991
 30
0.0
 10
3.74907336397804
 20
36.2914576629991
 30
0.0
  0
ENDBLK
  5
E43
330
E1F
100
AcDbEntity
  8
0
100
AcDbBlockEnd
  0
BLOCK
  5
14C6
330
14C3
100
AcDbEntity
  8
0
100
AcDbBlockBegin
  2
_DotBlank
 70
     0
 10
0.0
 20
0.0
 30
0.0
  3
_DotBlank
  1

  0
CIRCLE
  5
14C4
330
14C3
100
AcDbEntity
  8
0
  6
ByBlock
 62
     0
370
    -2
100
AcDbCircle
 10
0.0
 20
0.0
 30
0.0
 40
0.5
  0
LINE
  5
14C5
330
14C3
100
AcDbEntity
  8
0
  6
ByBlock
 62
     0
370
    -2
100
AcDbLine
 10
-0.5
 20
0.0
 30
0.0
 11
-1.0
 21
0.0
 31
0.0
  0
ENDBLK
  5
14C7
330
14C3
100
AcDbEntity
  8
0
100
AcDbBlockEnd
  0
BLOCK
  5
48D7
330
48CD
100
AcDbEntity
  8
0
100
AcDbBlockBegin
  2
*D3
 70
     1
 10
0.0
 20
0.0
 30
0.0
  3
*D3
  1

  0
LINE
  5
90B8
330
48CD
100
AcDbEntity
  8
SUNPOU
 62
     0
440
 16777216
370
    -2
100
AcDbLine
 10
351.6683445661071
 20
486.4196463877684
 30
0.0000000000004456
 11
351.6683445661071
 21
511.4196463877684
 31
0.0000000000004456
  0
LINE
  5
90B9
330
48CD
100
AcDbEntity
  8
SUNPOU
 62
     0
440
 16777216
370
    -2
100
AcDbLine
 10
401.668344566107
 20
486.4196463877684
 30
0.0000000000004456
 11
401.668344566107
 21
511.4196463877684
 31
0.0000000000004456
  0
LINE
  5
90BA
330
48CD
100
AcDbEntity
  8
SUNPOU
 62
     0
440
 16777216
370
    -2
100
AcDbLine
 10
353.1683445661071
 20
511.4196463877684
 30
0.0000000000004456
 11
400.168344566107
 21
511.4196463877684
 31
0.0000000000004456
  0
INSERT
  5
90BB
330
48CD
100
AcDbEntity
  8
SUNPOU
 62
     0
440
 16777216
370
    -2
100
AcDbBlockReference
  2
_DotBlank
 10
351.6683445661071
 20
511.4196463877684
 30
0.0000000000004456
 41
1.5
 42
1.5
 43
1.5
 50
180.0
  0
INSERT
  5
90BC
330
48CD
100
AcDbEntity
  8
SUNPOU
 62
     0
440
 16777216
370
    -2
100
AcDbBlockReference
  2
_DotBlank
 10
401.668344566107
 20
511.4196463877684
 30
0.0000000000004456
 41
1.5
 42
1.5
 43
1.5
  0
MTEXT
  5
90BD
330
48CD
100
AcDbEntity
  8
SUNPOU
 62
     0
440
 16777216
100
AcDbMText
 10
376.6683445661071
 20
514.5446463877683
 30
0.0000000000004456
 40
5.0
 41
0.0
 46
0.0
 71
     5
 72
     1
  1
\A1;50
 73
     1
 44
1.0
  0
POINT
  5
90BE
330
48CD
100
AcDbEntity
  8
DEFPOINTS
 62
     0
440
 16777216
100
AcDbPoint
 10
351.6683445661071
 20
481.4196463877684
 30
-0.0000000000094575
  0
POINT
  5
90BF
330
48CD
100
AcDbEntity
  8
DEFPOINTS
 62
     0
440
 16777216
100
AcDbPoint
 10
401.668344566107
 20
481.4196463877684
 30
-0.0000000000094575
  0
POINT
  5
90C0
330
48CD
100
AcDbEntity
  8
DEFPOINTS
 62
     0
440
 16777216
100
AcDbPoint
 10
401.668344566107
 20
511.4196463877684
 30
0.0000000000004456
  0
ENDBLK
  5
48D8
330
48CD
100
AcDbEntity
  8
0
100
AcDbBlockEnd
  0
BLOCK
  5
4BD6
330
4BD5
100
AcDbEntity
  8
0
100
AcDbBlockBegin
  2
*D4
 70
     1
 10
0.0
 20
0.0
 30
0.0
  3
*D4
  1

  0
LINE
  5
90C1
330
4BD5
100
AcDbEntity
  8
SUNPOU
 62
     0
440
 16777216
370
    -2
100
AcDbLine
 10
404.6683441168712
 20
486.4196467513623
 30
0.0
 11
404.6683441168712
 21
511.4196463877684
 31
0.0
  0
LINE
  5
90C2
330
4BD5
100
AcDbEntity
  8
SUNPOU
 62
     0
440
 16777216
370
    -2
100
AcDbLine
 10
504.6683441168696
 20
486.4196467513623
 30
0.0
 11
504.6683441168696
 21
511.4196463877684
 31
0.0
  0
LINE
  5
90C3
330
4BD5
100
AcDbEntity
  8
SUNPOU
 62
     0
440
 16777216
370
    -2
100
AcDbLine
 10
406.1683441168715
 20
511.4196463877684
 30
0.0
 11
503.1683441168696
 21
511.4196463877684
 31
0.0
  0
INSERT
  5
90C4
330
4BD5
100
AcDbEntity
  8
SUNPOU
 62
     0
440
 16777216
370
    -2
100
AcDbBlockReference
  2
_DotBlank
 10
404.6683441168712
 20
511.4196463877684
 30
0.0
 41
1.5
 42
1.5
 43
1.5
 50
180.0
  0
INSERT
  5
90C5
330
4BD5
100
AcDbEntity
  8
SUNPOU
 62
     0
440
 16777216
370
    -2
100
AcDbBlockReference
  2
_DotBlank
 10
504.6683441168696
 20
511.4196463877684
 30
0.0
 41
1.5
 42
1.5
 43
1.5
  0
MTEXT
  5
90C6
330
4BD5
100
AcDbEntity
  8
SUNPOU
 62
     0
440
 16777216
100
AcDbMText
 10
454.6683441168706
 20
514.5446463877683
 30
0.0
 40
5.0
 41
0.0
 46
0.0
 71
     5
 72
     1
  1
\A1;100
 73
     1
 44
1.0
  0
POINT
  5
90C7
330
4BD5
100
AcDbEntity
  8
DEFPOINTS
 62
     0
440
 16777216
100
AcDbPoint
 10
404.6683441168712
 20
481.4196467513623
 30
-0.000000000010188
  0
POINT
  5
90C8
330
4BD5
100
AcDbEntity
  8
DEFPOINTS
 62
     0
440
 16777216
100
AcDbPoint
 10
504.6683441168696
 20
481.4196467513623
 30
-0.000000000010188
  0
POINT
  5
90C9
330
4BD5
100
AcDbEntity
  8
DEFPOINTS
 62
     0
440
 16777216
100
AcDbPoint
 10
504.6683441168696
 20
511.4196463877684
 30
0.0
  0
ENDBLK
  5
4BD7
330
4BD5
100
AcDbEntity
  8
0
100
AcDbBlockEnd
  0
BLOCK
  5
76D7
330
76D6
100
AcDbEntity
  8
0
100
AcDbBlockBegin
  2
*D5
 70
     1
 10
0.0
 20
0.0
 30
0.0
  3
*D5
  1

  0
LINE
  5
90CA
330
76D6
100
AcDbEntity
  8
SUNPOU
 62
     0
440
 16777216
370
    -2
100
AcDbLine
 10
407.3183441168696
 20
364.4901279675555
 30
0.0
 11
432.3183441168696
 21
364.4901279675555
 31
0.0
  0
LINE
  5
90CB
330
76D6
100
AcDbEntity
  8
SUNPOU
 62
     0
440
 16777216
370
    -2
100
AcDbLine
 10
407.6683532759848
 20
320.4901279675559
 30
0.0
 11
432.3183441168696
 21
320.4901279675559
 31
0.0
  0
LINE
  5
90CC
330
76D6
100
AcDbEntity
  8
SUNPOU
 62
     0
440
 16777216
370
    -2
100
AcDbLine
 10
432.3183441168696
 20
362.9901279675554
 30
0.0
 11
432.3183441168696
 21
321.9901279675559
 31
0.0
  0
INSERT
  5
90CD
330
76D6
100
AcDbEntity
  8
SUNPOU
 62
     0
440
 16777216
370
    -2
100
AcDbBlockReference
  2
_DotBlank
 10
432.3183441168696
 20
364.4901279675555
 30
0.0
 41
1.5
 42
1.5
 43
1.5
 50
90.0
  0
INSERT
  5
90CE
330
76D6
100
AcDbEntity
  8
SUNPOU
 62
     0
440
 16777216
370
    -2
100
AcDbBlockReference
  2
_DotBlank
 10
432.3183441168696
 20
320.4901279675559
 30
0.0
 41
1.5
 42
1.5
 43
1.5
 50
270.0
  0
MTEXT
  5
90CF
330
76D6
100
AcDbEntity
  8
SUNPOU
 62
     0
440
 16777216
100
AcDbMText
 10
429.1933441168696
 20
342.4901279675558
 30
0.0
 40
5.0
 41
0.0
 46
0.0
 71
     5
 72
     1
  1
\A1;44
 11
0.0000000000000001
 21
1.0
 31
0.0
 73
     1
 44
1.0
  0
POINT
  5
90D0
330
76D6
100
AcDbEntity
  8
DEFPOINTS
 62
     0
440
 16777216
100
AcDbPoint
 10
402.3183441168696
 20
364.4901279675555
 30
0.0000000000033878
  0
POINT
  5
90D1
330
76D6
100
AcDbEntity
  8
DEFPOINTS
 62
     0
440
 16777216
100
AcDbPoint
 10
402.6683532759848
 20
320.4901279675559
 30
0.0000000000033878
  0
POINT
  5
90D2
330
76D6
100
AcDbEntity
  8
DEFPOINTS
 62
     0
440
 16777216
100
AcDbPoint
 10
432.3183441168696
 20
320.4901279675559
 30
0.0
  0
ENDBLK
  5
76D8
330
76D6
100
AcDbEntity
  8
0
100
AcDbBlockEnd
  0
BLOCK
  5
7EE1
330
7EE0
100
AcDbEntity
  8
0
100
AcDbBlockBegin
  2
*D6
 70
     1
 10
0.0
 20
0.0
 30
0.0
  3
*D6
  1

  0
LINE
  5
90D3
330
7EE0
100
AcDbEntity
  8
SUNPOU
 62
     0
440
 16777216
370
    -2
100
AcDbLine
 10
497.668805084588
 20
105.2843776863018
 30
0.0
 11
547.6688050845881
 21
105.2843776863018
 31
0.0
  0
LINE
  5
90D4
330
7EE0
100
AcDbEntity
  8
SUNPOU
 62
     0
440
 16777216
370
    -2
100
AcDbLine
 10
497.4892765312843
 20
273.0449576334253
 30
0.0
 11
547.6688050845881
 21
273.0449576334253
 31
0.0
  0
LINE
  5
90D5
330
7EE0
100
AcDbEntity
  8
SUNPOU
 62
     0
440
 16777216
370
    -2
100
AcDbLine
 10
547.6688050845881
 20
106.7843776863018
 30
0.0
 11
547.6688050845881
 21
271.5449576334253
 31
0.0
  0
INSERT
  5
90D6
330
7EE0
100
AcDbEntity
  8
SUNPOU
 62
     0
440
 16777216
370
    -2
100
AcDbBlockReference
  2
_DotBlank
 10
547.6688050845881
 20
105.2843776863018
 30
0.0
 41
1.5
 42
1.5
 43
1.5
 50
270.0
  0
INSERT
  5
90D7
330
7EE0
100
AcDbEntity
  8
SUNPOU
 62
     0
440
 16777216
370
    -2
100
AcDbBlockReference
  2
_DotBlank
 10
547.6688050845881
 20
273.0449576334253
 30
0.0
 41
1.5
 42
1.5
 43
1.5
 50
90.0
  0
MTEXT
  5
90D8
330
7EE0
100
AcDbEntity
  8
SUNPOU
 62
     0
440
 16777216
100
AcDbMText
 10
544.5438050845881
 20
189.1646676598635
 30
0.0
 40
5.0
 41
0.0
 46
0.0
 71
     5
 72
     1
  1
\A1;Ｈ
 11
0.0000000000000001
 21
1.0
 31
0.0
 73
     1
 44
1.0
  0
POINT
  5
90D9
330
7EE0
100
AcDbEntity
  8
DEFPOINTS
 62
     0
440
 16777216
100
AcDbPoint
 10
492.668805084588
 20
105.2843776863018
 30
-0.0000000000795925
  0
POINT
  5
90DA
330
7EE0
100
AcDbEntity
  8
DEFPOINTS
 62
     0
440
 16777216
100
AcDbPoint
 10
492.4892765312844
 20
273.0449576334253
 30
0.0
  0
POINT
  5
90DB
330
7EE0
100
AcDbEntity
  8
DEFPOINTS
 62
     0
440
 16777216
100
AcDbPoint
 10
547.6688050845881
 20
273.0449576334253
 30
0.0
  0
ENDBLK
  5
7EE2
330
7EE0
100
AcDbEntity
  8
0
100
AcDbBlockEnd
  0
BLOCK
  5
8F9D
330
8F9C
100
AcDbEntity
  8
0
100
AcDbBlockBegin
  2
*D7
 70
     1
 10
0.0
 20
0.0
 30
0.0
  3
*D7
  1

  0
LINE
  5
94F5
330
8F9C
100
AcDbEntity
  8
SUNPOU
 62
     0
440
 16777216
370
    -2
100
AcDbLine
 10
348.6683447217338
 20
335.4901279675709
 30
0.0
 11
292.3228532345067
 21
335.4901279675709
 31
0.0
  0
LINE
  5
94F6
330
8F9C
100
AcDbEntity
  8
SUNPOU
 62
     0
440
 16777216
370
    -2
100
AcDbLine
 10
397.668353275985
 20
320.4901279675561
 30
0.0
 11
292.3228532345067
 21
320.4901279675561
 31
0.0
  0
LINE
  5
94F7
330
8F9C
100
AcDbEntity
  8
SUNPOU
 62
     0
440
 16777216
370
    -2
100
AcDbLine
 10
292.3228532345067
 20
333.9901279675709
 30
0.0
 11
292.3228532345067
 21
321.9901279675561
 31
0.0
  0
INSERT
  5
94F8
330
8F9C
100
AcDbEntity
  8
SUNPOU
 62
     0
440
 16777216
370
    -2
100
AcDbBlockReference
  2
_DotBlank
 10
292.3228532345067
 20
335.4901279675709
 30
0.0
 41
1.5
 42
1.5
 43
1.5
 50
90.0
  0
INSERT
  5
94F9
330
8F9C
100
AcDbEntity
  8
SUNPOU
 62
     0
440
 16777216
370
    -2
100
AcDbBlockReference
  2
_DotBlank
 10
292.3228532345067
 20
320.4901279675561
 30
0.0
 41
1.5
 42
1.5
 43
1.5
 50
270.0
  0
MTEXT
  5
94FA
330
8F9C
100
AcDbEntity
  8
SUNPOU
 62
     0
440
 16777216
100
AcDbMText
 10
289.1978532345067
 20
327.9901279675633
 30
0.0
 40
5.0
 41
0.0
 46
0.0
 71
     5
 72
     1
  1
\A1;15
 11
0.0000000000000001
 21
1.0
 31
0.0
 73
     1
 44
1.0
  0
POINT
  5
94FB
330
8F9C
100
AcDbEntity
  8
DEFPOINTS
 62
     0
440
 16777216
100
AcDbPoint
 10
353.668344721734
 20
335.4901279675709
 30
-0.0000000000084046
  0
POINT
  5
94FC
330
8F9C
100
AcDbEntity
  8
DEFPOINTS
 62
     0
440
 16777216
100
AcDbPoint
 10
402.668353275985
 20
320.4901279675561
 30
0.0000000000096722
  0
POINT
  5
94FD
330
8F9C
100
AcDbEntity
  8
DEFPOINTS
 62
     0
440
 16777216
100
AcDbPoint
 10
292.3228532345067
 20
320.4901279675561
 30
0.0
  0
ENDBLK
  5
8F9E
330
8F9C
100
AcDbEntity
  8
0
100
AcDbBlockEnd
  0
BLOCK
  5
901F
330
901E
100
AcDbEntity
  8
0
100
AcDbBlockBegin
  2
*D8
 70
     1
 10
0.0
 20
0.0
 30
0.0
  3
*D8
  1

  0
LINE
  5
94FE
330
901E
100
AcDbEntity
  8
SUNPOU
 62
     0
440
 16777216
370
    -2
100
AcDbLine
 10
397.668353275985
 20
320.490127967556
 30
0.0
 11
292.3228532345068
 21
320.490127967556
 31
0.0
  0
LINE
  5
94FF
330
901E
100
AcDbEntity
  8
SUNPOU
 62
     0
440
 16777216
370
    -2
100
AcDbLine
 10
317.1915387764773
 20
312.5984416748604
 30
0.0
 11
292.3228532345068
 21
312.5984416748604
 31
0.0
  0
LINE
  5
9500
330
901E
100
AcDbEntity
  8
SUNPOU
 62
     0
440
 16777216
370
    -2
100
AcDbLine
 10
292.3228532345068
 20
318.990127967556
 30
0.0
 11
292.3228532345068
 21
314.0984416748604
 31
0.0
  0
INSERT
  5
9501
330
901E
100
AcDbEntity
  8
SUNPOU
 62
     0
440
 16777216
370
    -2
100
AcDbBlockReference
  2
_DotBlank
 10
292.3228532345068
 20
320.490127967556
 30
0.0
 41
1.5
 42
1.5
 43
1.5
 50
90.0
  0
INSERT
  5
9502
330
901E
100
AcDbEntity
  8
SUNPOU
 62
     0
440
 16777216
370
    -2
100
AcDbBlockReference
  2
_DotBlank
 10
292.3228532345068
 20
312.5984416748604
 30
0.0
 41
1.5
 42
1.5
 43
1.5
 50
270.0
  0
MTEXT
  5
9503
330
901E
100
AcDbEntity
  8
SUNPOU
 62
     0
440
 16777216
100
AcDbMText
 10
289.1978532345068
 20
316.5442848212081
 30
0.0
 40
5.0
 41
0.0
 46
0.0
 71
     5
 72
     1
  1
\A1;8
 11
0.0000000000000001
 21
1.0
 31
0.0
 73
     1
 44
1.0
  0
POINT
  5
9504
330
901E
100
AcDbEntity
  8
DEFPOINTS
 62
     0
440
 16777216
100
AcDbPoint
 10
402.668353275985
 20
320.490127967556
 30
-0.0000000000084046
  0
POINT
  5
9505
330
901E
100
AcDbEntity
  8
DEFPOINTS
 62
     0
440
 16777216
100
AcDbPoint
 10
322.1915387764775
 20
312.5984416748604
 30
0.0000000000088269
  0
POINT
  5
9506
330
901E
100
AcDbEntity
  8
DEFPOINTS
 62
     0
440
 16777216
100
AcDbPoint
 10
292.3228532345068
 20
312.5984416748604
 30
0.0
  0
ENDBLK
  5
9020
330
901E
100
AcDbEntity
  8
0
100
AcDbBlockEnd
  0
BLOCK
  5
908D
330
908C
100
AcDbEntity
  8
0
100
AcDbBlockBegin
  2
*D9
 70
     1
 10
0.0
 20
0.0
 30
0.0
  3
*D9
  1

  0
LINE
  5
90EF
330
908C
100
AcDbEntity
  8
SUNPOU
 62
     0
440
 16777216
370
    -2
100
AcDbLine
 10
407.6683532759848
 20
320.4901279675559
 30
0.0
 11
529.6016266089707
 21
320.4901279675559
 31
0.0
  0
LINE
  5
90F0
330
908C
100
AcDbEntity
  8
SUNPOU
 62
     0
440
 16777216
370
    -2
100
AcDbLine
 10
504.6683441168695
 20
330.4901283311647
 30
0.0
 11
529.6016266089707
 21
330.4901283311647
 31
0.0
  0
LINE
  5
90F1
330
908C
100
AcDbEntity
  8
SUNPOU
 62
     0
440
 16777216
370
    -2
100
AcDbLine
 10
529.6016266089707
 20
321.9901279675559
 30
0.0
 11
529.6016266089707
 21
328.9901283311646
 31
0.0
  0
INSERT
  5
90F2
330
908C
100
AcDbEntity
  8
SUNPOU
 62
     0
440
 16777216
370
    -2
100
AcDbBlockReference
  2
_DotBlank
 10
529.6016266089707
 20
320.4901279675559
 30
0.0
 41
1.5
 42
1.5
 43
1.5
 50
270.0
  0
INSERT
  5
90F3
330
908C
100
AcDbEntity
  8
SUNPOU
 62
     0
440
 16777216
370
    -2
100
AcDbBlockReference
  2
_DotBlank
 10
529.6016266089707
 20
330.4901283311647
 30
0.0
 41
1.5
 42
1.5
 43
1.5
 50
90.0
  0
MTEXT
  5
90F4
330
908C
100
AcDbEntity
  8
SUNPOU
 62
     0
440
 16777216
100
AcDbMText
 10
526.4766266089706
 20
325.4901281493604
 30
0.0
 40
5.0
 41
0.0
 46
0.0
 71
     5
 72
     1
  1
\A1;10
 11
0.0000000000000001
 21
1.0
 31
0.0
 73
     1
 44
1.0
  0
POINT
  5
90F5
330
908C
100
AcDbEntity
  8
DEFPOINTS
 62
     0
440
 16777216
100
AcDbPoint
 10
402.6683532759848
 20
320.4901279675559
 30
-0.0000000000084046
  0
POINT
  5
90F6
330
908C
100
AcDbEntity
  8
DEFPOINTS
 62
     0
440
 16777216
100
AcDbPoint
 10
499.6683441168695
 20
330.4901283311647
 30
-0.0000000000174641
  0
POINT
  5
90F7
330
908C
100
AcDbEntity
  8
DEFPOINTS
 62
     0
440
 16777216
100
AcDbPoint
 10
529.6016266089707
 20
330.4901283311647
 30
0.0
  0
ENDBLK
  5
908E
330
908C
100
AcDbEntity
  8
0
100
AcDbBlockEnd
  0
ENDSEC
  0
SECTION
  2
ENTITIES
  0
LINE
  5
E15
330
1A
100
AcDbEntity
  8
WAKU
100
AcDbLine
 10
20.0
 20
10.0
 30
0.0
 11
800.0
 21
10.0
 31
0.0
  0
LINE
  5
E16
330
1A
100
AcDbEntity
  8
WAKU
100
AcDbLine
 10
800.0
 20
10.0
 30
0.0
 11
800.0
 21
560.0
 31
0.0
  0
LINE
  5
E17
330
1A
100
AcDbEntity
  8
WAKU
100
AcDbLine
 10
800.0
 20
560.0
 30
0.0
 11
20.0
 21
560.0
 31
0.0
  0
LINE
  5
E18
330
1A
100
AcDbEntity
  8
WAKU
100
AcDbLine
 10
20.0
 20
560.0
 30
0.0
 11
20.0
 21
10.0
 31
0.0
  0
LINE
  5
E1D
330
1A
100
AcDbEntity
  8
WAKU
100
AcDbLine
 10
20.0
 20
30.0
 30
0.0
 11
800.0
 21
30.0
 31
0.0
  0
LINE
  5
E1E
330
1A
100
AcDbEntity
  8
WAKU
100
AcDbLine
 10
120.0
 20
30.0
 30
0.0
 11
120.0
 21
10.0
 31
0.0
  0
LINE
  5
E4F
330
1A
100
AcDbEntity
  8
WAKU
100
AcDbLine
 10
22.0
 20
28.0
 30
0.0
 11
118.0
 21
28.0
 31
0.0
  0
LINE
  5
E50
330
1A
100
AcDbEntity
  8
WAKU
100
AcDbLine
 10
22.0
 20
28.0
 30
0.0
 11
22.0
 21
12.0
 31
0.0
  0
LINE
  5
E51
330
1A
100
AcDbEntity
  8
WAKU
100
AcDbLine
 10
22.0
 20
12.0
 30
0.0
 11
118.0
 21
12.0
 31
0.0
  0
LINE
  5
E52
330
1A
100
AcDbEntity
  8
WAKU
100
AcDbLine
 10
118.0
 20
28.0
 30
0.0
 11
118.0
 21
12.0
 31
0.0
  0
LINE
  5
E59
330
1A
100
AcDbEntity
  8
WAKU
100
AcDbLine
 10
260.0
 20
30.0
 30
0.0
 11
260.0
 21
10.0
 31
0.0
  0
LINE
  5
E5A
330
1A
100
AcDbEntity
  8
WAKU
100
AcDbLine
 10
270.0
 20
30.0
 30
0.0
 11
270.0
 21
10.0
 31
0.0
  0
MTEXT
  5
E5B
330
1A
100
AcDbEntity
  8
WAKU
100
AcDbMText
 10
261.8186178625299
 20
27.72724847366113
 30
0.0
 40
5.0
 41
10.0
 46
0.0
 71
     1
 72
     5
  1
名称
  7
WAKU
 73
     1
 44
1.0
  0
LINE
  5
E5C
330
1A
100
AcDbEntity
  8
WAKU
100
AcDbLine
 10
20.0
 20
30.0
 30
0.0
 11
20.0
 21
10.0
 31
0.0
  0
LINE
  5
E5E
330
1A
100
AcDbEntity
  8
WAKU
100
AcDbLine
 10
520.0
 20
30.0
 30
0.0
 11
520.0
 21
10.0
 31
0.0
  0
LINE
  5
E6C
330
1A
100
AcDbEntity
  8
WAKU
100
AcDbLine
 10
530.0
 20
30.0
 30
0.0
 11
530.0
 21
10.0
 31
0.0
  0
MTEXT
  5
E6D
330
1A
100
AcDbEntity
  8
WAKU
100
AcDbMText
 10
521.8186178625296
 20
27.72724847366113
 30
0.0
 40
5.0
 41
10.0
 46
0.0
 71
     1
 72
     5
  1
縮尺
  7
WAKU
 73
     1
 44
1.0
  0
MTEXT
  5
E6F
330
1A
100
AcDbEntity
  8
WAKU
100
AcDbMText
 10
539.3245405690056
 20
23.21985646788335
 30
0.0
 40
5.0
 41
190.5002997985425
 46
0.0
 71
     1
 72
     5
  1
1/2（A3）
  7
WAKU
 73
     1
 44
1.0
  0
MTEXT
  5
E71
330
1A
100
AcDbEntity
  8
WAKU
100
AcDbMText
 10
581.8186178625299
 20
27.72724847366113
 30
0.0
 40
5.0
 41
10.0
 46
0.0
 71
     1
 72
     5
  1
図番
  7
WAKU
 73
     1
 44
1.0
  0
LINE
  5
E72
330
1A
100
AcDbEntity
  8
WAKU
100
AcDbLine
 10
590.0
 20
30.0
 30
0.0
 11
590.0
 21
10.0
 31
0.0
  0
LINE
  5
E73
330
1A
100
AcDbEntity
  8
WAKU
100
AcDbLine
 10
580.0
 20
30.0
 30
0.0
 11
580.0
 21
10.0
 31
0.0
  0
LINE
  5
E78
330
1A
100
AcDbEntity
  8
WAKU
100
AcDbLine
 10
660.0
 20
30.0
 30
0.0
 11
660.0
 21
10.0
 31
0.0
  0
LINE
  5
E79
330
1A
100
AcDbEntity
  8
WAKU
100
AcDbLine
 10
670.0
 20
30.0
 30
0.0
 11
670.0
 21
10.0
 31
0.0
  0
MTEXT
  5
E7A
330
1A
100
AcDbEntity
  8
WAKU
100
AcDbMText
 10
661.8186178625299
 20
27.72724847366113
 30
0.0
 40
5.0
 41
10.0
 46
0.0
 71
     1
 72
     5
  1
特記
  7
WAKU
 73
     1
 44
1.0
  0
LINE
  5
E7B
330
1A
100
AcDbEntity
  8
WAKU
  6
DASHED2
 48
0.5
100
AcDbLine
 10
670.0
 20
20.0
 30
0.0
 11
800.0
 21
20.0
 31
0.0
  0
LINE
  5
E8B
330
1A
100
AcDbEntity
  8
WAKU
100
AcDbLine
 10
470.0
 20
10.0
 30
0.0
 11
470.0
 21
30.0
 31
0.0
  0
MTEXT
  5
E8C
330
1A
100
AcDbEntity
  8
WAKU
100
AcDbMText
 10
496.3674469153243
 20
23.21985646788335
 30
0.0
 40
5.0
 41
190.5002997985425
 46
0.0
 71
     1
 72
     5
  1
mm
  7
WAKU
 73
     1
 44
1.0
  0
MTEXT
  5
E8D
330
1A
100
AcDbEntity
  8
WAKU
100
AcDbMText
 10
471.8186178625298
 20
27.72724847366113
 30
0.0
 40
5.0
 41
10.0
 46
0.0
 71
     1
 72
     5
  1
単位
  7
WAKU
 73
     1
 44
1.0
  0
LINE
  5
E8E
330
1A
100
AcDbEntity
  8
WAKU
100
AcDbLine
 10
480.0
 20
30.0
 30
0.0
 11
480.0
 21
10.0
 31
0.0
  0
MTEXT
  5
1703
330
1A
100
AcDbEntity
  8
WAKU
100
AcDbMText
 10
274.3245405690059
 20
27.45005375075334
 30
0.0
 40
5.0
 41
190.4834854329754
 46
0.0
 71
     1
 72
     5
  1
断熱ヴァンドＮＺ５０/ＮＺ５０Ｆ　よこ張り　\P　　　　　　　　　　　　　　　　　スチールドア部（Ｈ方向）
  7
WAKU
 73
     1
 44
1.0
  0
MTEXT
  5
1705
330
1A
100
AcDbEntity
  8
WAKU
100
AcDbMText
 10
604.3245405690059
 20
23.21985646788335
 30
0.0
 40
5.0
 41
190.4834854329754
 46
0.0
 71
     1
 72
     5
  1
IGNZ5005_05
  7
WAKU
 73
     1
 44
1.0
  0
DIMENSION
  5
480C
330
1A
100
AcDbEntity
  8
SUNPOU
100
AcDbDimension
280
     0
  2
*D3
 10
401.668344566107
 20
511.4196463877684
 30
0.0000000000004456
 11
376.6683445661071
 21
511.4196463877684
 31
0.0000000000004456
 70
   160
 71
     5
 42
49.99999999999993
 73
     0
 74
     0
 75
     0
  3
STANDARD
100
AcDbAlignedDimension
 13
351.6683445661071
 23
481.4196463877684
 33
-0.0000000000094575
 14
401.668344566107
 24
481.4196463877684
 34
-0.0000000000094575
100
AcDbRotatedDimension
  0
DIMENSION
  5
4BD4
330
1A
100
AcDbEntity
  8
SUNPOU
100
AcDbDimension
280
     0
  2
*D4
 10
504.6683441168696
 20
511.4196463877684
 30
0.000000000036752
 11
454.6683441168706
 21
511.4196463877684
 31
0.000000000036752
 70
   160
 71
     5
 42
99.99999999999818
 73
     0
 74
     0
 75
     0
  3
STANDARD
100
AcDbAlignedDimension
 13
404.6683441168712
 23
481.4196467513623
 33
0.000000000026564
 14
504.6683441168696
 24
481.4196467513623
 34
0.000000000026564
100
AcDbRotatedDimension
  0
LINE
  5
4E1C
330
1A
100
AcDbEntity
  8
SUTEITA
100
AcDbLine
 10
402.6683346616279
 20
420.4580884793448
 30
-0.0000000000105444
 11
402.6683527718792
 21
320.8400772756813
 31
0.0
  0
ARC
  5
4E1D
330
1A
100
AcDbEntity
  8
SUTEITA
100
AcDbCircle
 10
402.3183379925548
 20
320.8401427529516
 30
0.0
 40
0.3500147854487965
100
AcDbArc
 50
270.0010025210232
 51
359.9975797001197
  0
LINE
  5
4E1E
330
1A
100
AcDbEntity
  8
SUTEITA
100
AcDbLine
 10
402.3183441168692
 20
420.4580884793448
 30
-0.0000000000094575
 11
402.3183441168696
 21
320.8401279675576
 31
0.0
  0
LINE
  5
4E1F
330
1A
100
AcDbEntity
  8
SUTEITA
100
AcDbLine
 10
392.6683441168697
 20
320.8401279675568
 30
0.0
 11
392.6683441168697
 21
320.490127967556
 31
0.0
  0
LINE
  5
4E23
330
1A
100
AcDbEntity
  8
SUTEITA
100
AcDbLine
 10
402.3183441168696
 20
320.8401279675576
 30
0.0
 11
392.6683441168697
 21
320.8401279675566
 31
0.0
  0
LINE
  5
4E24
330
1A
100
AcDbEntity
  8
SUTEITA
100
AcDbLine
 10
402.3183441168696
 20
320.4901279675564
 30
0.0
 11
392.6683441168697
 21
320.4901279675564
 31
0.0
  0
LINE
  5
5516
330
1A
100
AcDbEntity
  8
DOOR
100
AcDbLine
 10
402.6683399931884
 20
393.554037699586
 30
-0.0000000000099315
 11
402.6683532759848
 21
320.4901279675559
 31
-0.0000000000084046
  0
ARC
  5
5570
330
1A
100
AcDbEntity
  8
DOOR
100
AcDbCircle
 10
468.7652021534345
 20
328.2401283311719
 30
-0.000000000017862
 40
3.84270311430732
100
AcDbArc
 50
144.1598893262084
 51
215.8401106737572
  0
ARC
  5
5571
330
1A
100
AcDbEntity
  8
DOOR
100
AcDbCircle
 10
458.6253241790982
 20
327.2589109266095
 30
-0.000000000017862
 40
7.732284796476432
100
AcDbArc
 50
344.6816375265645
 51
24.70122492201737
  0
ARC
  5
5572
330
1A
100
AcDbEntity
  8
DOOR
100
AcDbCircle
 10
462.5349959851908
 20
323.7401283311738
 30
-0.000000000017862
 40
3.84270311430732
100
AcDbArc
 50
324.1598893262086
 51
35.84011067375721
  0
ARC
  5
5574
330
1A
100
AcDbEntity
  8
DOOR
100
AcDbCircle
 10
433.1708422810065
 20
317.2815019885482
 30
0.0
 40
3.842703114307319
100
AcDbArc
 50
200.8939453709078
 51
272.5767562470185
  0
LINE
  5
5575
330
1A
100
AcDbEntity
  8
DOOR
100
AcDbLine
 10
421.8466772088103
 20
320.3340319483296
 30
0.0
 11
431.5716602041994
 21
318.3059949549948
 31
0.0
  0
LINE
  5
5576
330
1A
100
AcDbEntity
  8
DOOR
100
AcDbLine
 10
441.4857707225998
 20
316.238517521167
 30
0.0
 11
446.3201828463887
 21
315.2303546654871
 31
0.0
  0
LINE
  5
5577
330
1A
100
AcDbEntity
  8
DOOR
100
AcDbLine
 10
443.7683442049676
 20
302.9936018466977
 30
0.0
 11
446.3201828463887
 21
315.2303546654871
 31
0.0
  0
LINE
  5
5578
330
1A
100
AcDbEntity
  8
DOOR
100
AcDbLine
 10
437.1063139787941
 20
310.9744876600009
 30
0.0000000000360215
 11
445.4831476864946
 21
321.0432942172816
 31
-0.000000000017862
  0
LINE
  5
557A
330
1A
100
AcDbEntity
  8
DOOR
100
AcDbLine
 10
429.5808269972982
 20
315.9110431283668
 30
0.0000000000360215
 11
437.9855075445481
 21
326.0217871922528
 31
-0.000000000017862
  0
ARC
  5
557C
330
1A
100
AcDbEntity
  8
DOOR
100
AcDbCircle
 10
433.5163606377363
 20
309.6038665476086
 30
0.0
 40
3.842703114307319
100
AcDbArc
 50
20.89653489938693
 51
92.57675624701862
  0
ARC
  5
557D
330
1A
100
AcDbEntity
  8
DOOR
100
AcDbCircle
 10
438.2575102844405
 20
318.6205961629938
 30
0.0
 40
7.732284796476428
100
AcDbArc
 50
221.4182830996637
 51
261.4378704953328
  0
LINE
  5
557E
330
1A
100
AcDbEntity
  8
DOOR
100
AcDbLine
 10
465.650099069315
 20
321.4901283311728
 30
-0.000000000017862
 11
446.3162188133771
 21
321.4901283311728
 31
-0.000000000017862
  0
LINE
  5
557F
330
1A
100
AcDbEntity
  8
DOOR
100
AcDbLine
 10
465.6500990693105
 20
330.4901283311647
 30
-0.000000000017862
 11
446.3162188133743
 21
330.4901283311647
 31
-0.000000000017862
  0
ARC
  5
57FC
330
1A
100
AcDbEntity
  8
SEALING
100
AcDbCircle
 10
319.0402723543968
 20
326.8086675177752
 30
-0.0000000000633541
 40
34.41440466368308
100
AcDbArc
 50
341.4584773576437
 51
17.4454200061382
  0
LINE
  5
57FD
330
1A
100
AcDbEntity
  8
SEALING
100
AcDbLine
 10
374.8183441168752
 20
339.0047161990017
 30
-0.0000000000107442
 11
374.818344116875
 21
317.9407659954721
 31
0.0000000000096722
  0
LINE
  5
580A
330
1A
100
AcDbEntity
  8
PACKING
100
AcDbLine
 10
388.7698839066326
 20
324.0297012365489
 30
-0.0000000000094651
 11
379.7698839066324
 21
324.0297012365489
 31
-0.0000000000094651
  0
LINE
  5
580B
330
1A
100
AcDbEntity
  8
PACKING
100
AcDbLine
 10
376.7698839066326
 20
336.0297012365489
 30
-0.0000000000094651
 11
376.7698839066326
 21
327.0297012365489
 31
-0.0000000000094651
  0
ARC
  5
5810
330
1A
100
AcDbEntity
  8
PACKING
100
AcDbCircle
 10
388.7698839066326
 20
327.0297012365488
 30
-0.0000000000094651
 40
3.0
100
AcDbArc
 50
270.0
 51
0.0
  0
ARC
  5
5811
330
1A
100
AcDbEntity
  8
PACKING
100
AcDbCircle
 10
379.7698839066324
 20
327.0297012365488
 30
-0.0000000000094651
 40
3.0
100
AcDbArc
 50
180.0
 51
270.0
  0
HATCH
  5
5824
330
1A
100
AcDbEntity
  8
PACKING
370
     9
100
AcDbHatch
 10
0.0
 20
0.0
 30
-0.0000000000010462
210
0.0
220
0.0
230
1.0
  2
ANSI31
 70
     0
 71
     0
 91
        1
 92
        1
 93
        8
 72
     2
 10
379.7698839066324
 20
336.0297012365489
 40
2.999999999999975
 50
90.0
 51
180.0
 73
     1
 72
     1
 10
376.7698839066325
 20
336.0297012365489
 11
376.7698839066325
 21
327.0297012365491
 72
     2
 10
379.7698839066323
 20
327.0297012365488
 40
2.999999999999941
 50
179.9999999999934
 51
270.0000000000021
 73
     1
 72
     1
 10
379.7698839066324
 20
324.0297012365489
 11
388.7698839066326
 21
324.0297012365488
 72
     2
 10
388.7698839066326
 20
327.0297012365487
 40
2.999999999999998
 50
270.0
 51
360.0000000000022
 73
     1
 72
     1
 10
391.7698839066326
 20
327.0297012365489
 11
391.7698839066325
 21
336.0297012365489
 72
     2
 10
388.7698839066325
 20
336.0297012365489
 40
3.000000000000011
 50
0.0000000000010877
 51
90.0
 73
     1
 72
     1
 10
388.7698839066325
 20
339.0297012365489
 11
379.7698839066324
 21
339.0297012365489
 97
        0
 75
     1
 76
     1
 52
-5.65442057347569
 41
1.0
 77
     0
 78
     1
 53
39.34557942652432
 43
-9.856087771087942
 44
30.79171430759439
 45
-2.012938159147243
 46
2.45534212839044
 79
     0
 98
        1
 10
381.152169042055
 20
338.0222781748939
1001
GradientColor1ACI
1070
     5
1001
GradientColor2ACI
1070
     2
1001
ACAD
1010
0.0
1020
0.0
1030
0.0
  0
LINE
  5
6BDA
330
1A
100
AcDbEntity
  8
YAKUMONO
100
AcDbLine
 10
393.8183441168753
 20
370.5650148442286
 30
-0.0000000000084046
 11
393.8183441168753
 21
363.4901279675628
 31
-0.0000000000084046
  0
LINE
  5
6BDB
330
1A
100
AcDbEntity
  8
YAKUMONO
100
AcDbLine
 10
395.8183441168753
 20
370.99012796755
 30
-0.0000000000084046
 11
395.8183441168753
 21
365.4901279675554
 31
-0.0000000000084046
  0
LINE
  5
6BDC
330
1A
100
AcDbEntity
  8
YAKUMONO
100
AcDbLine
 10
402.3183441168751
 20
364.4901279675555
 30
-0.0000000000084046
 11
396.8183441168753
 21
364.4901279675555
 31
-0.0000000000084046
  0
LINE
  5
6BDD
330
1A
100
AcDbEntity
  8
YAKUMONO
100
AcDbLine
 10
400.3183441168743
 20
355.4901279675555
 30
-0.0000000000084046
 11
400.3183441168743
 21
342.2901279675566
 31
-0.0000000000084046
  0
LINE
  5
6BDE
330
1A
100
AcDbEntity
  8
YAKUMONO
100
AcDbLine
 10
356.8183441168752
 20
358.4901279675519
 30
-0.0000000000084046
 11
356.8183441168752
 21
351.9901279675555
 31
-0.0000000000084046
  0
LINE
  5
6BDF
330
1A
100
AcDbEntity
  8
YAKUMONO
100
AcDbLine
 10
397.3183441168743
 20
358.4901279675682
 30
-0.0000000000084046
 11
359.818344116875
 21
358.4901279675607
 31
-0.0000000000084046
  0
LINE
  5
6BE0
330
1A
100
AcDbEntity
  8
YAKUMONO
100
AcDbLine
 10
358.8183441168734
 20
360.4901279675537
 30
-0.0000000000084046
 11
359.3183441168753
 21
360.4901279675537
 31
-0.0000000000084046
  0
LINE
  5
6BE1
330
1A
100
AcDbEntity
  8
YAKUMONO
100
AcDbLine
 10
402.3183441168751
 20
364.4901279675555
 30
-0.0000000000084046
 11
402.3183441168701
 21
333.9901279675555
 31
-0.0000000000084046
  0
LINE
  5
6BE2
330
1A
100
AcDbEntity
  8
YAKUMONO
100
AcDbLine
 10
400.3183441168753
 20
341.690127967549
 30
-0.0000000000084046
 11
400.3183441168753
 21
333.9901279675555
 31
-0.0000000000084046
  0
LINE
  5
6BE4
330
1A
100
AcDbEntity
  8
YAKUMONO
100
AcDbLine
 10
400.6183441168745
 20
341.9901279675555
 30
-0.0000000000084046
 11
400.3183441168743
 21
341.690127967549
 31
-0.0000000000084046
  0
LINE
  5
6BE5
330
1A
100
AcDbEntity
  8
YAKUMONO
100
AcDbLine
 10
356.8183441168752
 20
351.9901279675555
 30
-0.0000000000084046
 11
358.8183441168752
 21
351.9901279675555
 31
-0.0000000000084046
  0
LINE
  5
6BE6
330
1A
100
AcDbEntity
  8
YAKUMONO
100
AcDbLine
 10
358.8183441168752
 20
357.4901279675554
 30
-0.0000000000084046
 11
358.8183441168752
 21
351.9901279675555
 31
-0.0000000000084046
  0
ARC
  5
6BE7
330
1A
100
AcDbEntity
  8
YAKUMONO
100
AcDbCircle
 10
359.8183441168753
 20
357.4901279675554
 30
-0.0000000000084046
 40
1.0
100
AcDbArc
 50
90.0
 51
180.0
  0
LINE
  5
6BE8
330
1A
100
AcDbEntity
  8
YAKUMONO
100
AcDbLine
 10
395.8183441168753
 20
370.9901279675482
 30
-0.0000000000084046
 11
392.9658811841605
 21
377.3968646106273
 31
-0.0000000000084046
  0
LINE
  5
6BE9
330
1A
100
AcDbEntity
  8
YAKUMONO
100
AcDbLine
 10
393.8183441168753
 20
370.5650148442267
 30
-0.0000000000084046
 11
391.138790268877
 21
376.5833913244764
 31
-0.0000000000084046
  0
ARC
  5
6BEA
330
1A
100
AcDbEntity
  8
YAKUMONO
100
AcDbCircle
 10
392.0523357265178
 20
376.9901279675519
 30
-0.0000000000084046
 40
1.0
100
AcDbArc
 50
23.99999999997732
 51
203.9999999999773
  0
ARC
  5
6BEB
330
1A
100
AcDbEntity
  8
YAKUMONO
100
AcDbCircle
 10
359.3183441168753
 20
361.4901279675554
 30
-0.0000000000084046
 40
1.0
100
AcDbArc
 50
270.0
 51
0.0
  0
ARC
  5
6BEC
330
1A
100
AcDbEntity
  8
YAKUMONO
100
AcDbCircle
 10
363.3183441168753
 20
361.4901279675554
 30
-0.0000000000084046
 40
1.0
100
AcDbArc
 50
180.0
 51
270.0
  0
LINE
  5
6BED
330
1A
100
AcDbEntity
  8
YAKUMONO
100
AcDbLine
 10
360.3183441168753
 20
370.5650148442252
 30
-0.0000000000084046
 11
360.3183441168753
 21
361.4901279675554
 31
-0.0000000000084046
  0
LINE
  5
6BEE
330
1A
100
AcDbEntity
  8
YAKUMONO
100
AcDbLine
 10
362.3183441168753
 20
370.9901279675519
 30
-0.0000000000084046
 11
362.3183441168753
 21
361.4901279675554
 31
-0.0000000000084046
  0
LINE
  5
6BEF
330
1A
100
AcDbEntity
  8
YAKUMONO
100
AcDbLine
 10
362.3183441168753
 20
370.9901279675502
 30
-0.0000000000084046
 11
359.4658811841604
 21
377.3968646106273
 31
-0.0000000000084046
  0
LINE
  5
6BF0
330
1A
100
AcDbEntity
  8
YAKUMONO
100
AcDbLine
 10
360.3183441168753
 20
370.5650148442254
 30
-0.0000000000084046
 11
357.638790268877
 21
376.5833913244764
 31
-0.0000000000084046
  0
ARC
  5
6BF1
330
1A
100
AcDbEntity
  8
YAKUMONO
100
AcDbCircle
 10
358.5523357265178
 20
376.9901279675519
 30
-0.0000000000084046
 40
1.0
100
AcDbArc
 50
23.99999999997732
 51
203.9999999999773
  0
ARC
  5
6BF2
330
1A
100
AcDbEntity
  8
YAKUMONO
100
AcDbCircle
 10
397.3183441168753
 20
355.4901279675555
 30
-0.0000000000084046
 40
3.0
100
AcDbArc
 50
0.0
 51
90.00000000002605
  0
ARC
  5
6BF3
330
1A
100
AcDbEntity
  8
YAKUMONO
100
AcDbCircle
 10
358.8183441168734
 20
358.4901279675519
 30
-0.0000000000084046
 40
2.0
100
AcDbArc
 50
90.0
 51
180.0
  0
LINE
  5
6BF4
330
1A
100
AcDbEntity
  8
YAKUMONO
100
AcDbLine
 10
363.3183441168756
 20
360.4901279675589
 30
-0.0000000000084046
 11
390.8183441168763
 21
360.4901279675646
 31
-0.0000000000084046
  0
ARC
  5
6BF5
330
1A
100
AcDbEntity
  8
YAKUMONO
100
AcDbCircle
 10
396.8183441168753
 20
365.4901279675554
 30
-0.0000000000084046
 40
1.0
100
AcDbArc
 50
180.0
 51
270.0
  0
ARC
  5
6BF6
330
1A
100
AcDbEntity
  8
YAKUMONO
100
AcDbCircle
 10
390.8183441168753
 20
363.4901279675628
 30
-0.0000000000084046
 40
3.0
100
AcDbArc
 50
270.000000000026
 51
0.0
  0
LINE
  5
6C2C
330
1A
100
AcDbEntity
  8
YAKUMONO
100
AcDbLine
 10
402.3183441168751
 20
333.9901279675555
 30
-0.0000000000084046
 11
400.3183441168753
 21
333.9901279675555
 31
-0.0000000000084046
  0
LINE
  5
6C2D
330
1A
100
AcDbEntity
  8
SEALING
100
AcDbLine
 10
374.818344116875
 20
338.4901279675606
 30
-0.0000000000084046
 11
355.6683445661142
 21
338.4901279675606
 31
-0.0000000000084046
  0
LINE
  5
6C3E
330
1A
100
AcDbEntity
  8
SUTEITA
100
AcDbLine
 10
394.8183441168751
 20
358.4901279675498
 30
-0.0000000000084046
 11
359.818344116875
 21
358.4901279675607
 31
-0.0000000000084046
  0
LINE
  5
6C40
330
1A
100
AcDbEntity
  8
SUTEITA
100
AcDbLine
 10
359.818344116875
 20
358.4901279675607
 30
-0.0000000000084046
 11
359.818344116875
 21
338.4901279675606
 31
-0.0000000000084046
  0
LINE
  5
6C42
330
1A
100
AcDbEntity
  8
SUTEITA
100
AcDbLine
 10
359.818344116875
 20
338.4901279675607
 30
-0.0000000000084046
 11
374.818344116875
 21
338.4901279675607
 31
-0.0000000000084046
  0
LINE
  5
6C44
330
1A
100
AcDbEntity
  8
SUTEITA
100
AcDbLine
 10
374.818344116875
 20
338.4901279675607
 30
-0.0000000000084046
 11
374.818344116875
 21
338.8401279675606
 31
-0.0000000000084046
  0
LINE
  5
6C45
330
1A
100
AcDbEntity
  8
SUTEITA
100
AcDbLine
 10
394.8183441168751
 20
358.4901279675498
 30
-0.0000000000084046
 11
394.8183441168751
 21
358.1401279675497
 31
-0.0000000000084046
  0
ARC
  5
6C4F
330
1A
100
AcDbEntity
  8
PACKING
100
AcDbCircle
 10
379.7698839066326
 20
336.0297012365489
 30
-0.0000000000094651
 40
3.0
100
AcDbArc
 50
90.00000000000161
 51
180.0000000000004
  0
LINE
  5
6C9B
330
1A
100
AcDbEntity
  8
SITAJI
100
AcDbLine
 10
408.9389160559455
 20
332.8905255338232
 30
-0.000000000017862
 11
407.1937963706075
 21
331.1454058484851
 31
-0.000000000017862
  0
LINE
  5
6C9C
330
1A
100
AcDbEntity
  8
SITAJI
100
AcDbLine
 10
411.6669459780293
 20
332.7901283311621
 30
-0.000000000017862
 11
409.375527499427
 21
330.4987098525598
 31
-0.000000000017862
  0
ARC
  5
6C9D
330
1A
100
AcDbEntity
  8
SITAJI
100
AcDbCircle
 10
409.6683441168694
 20
335.490128331161
 30
-0.0000000000174641
 40
2.7
100
AcDbArc
 50
180.0
 51
270.0
  0
ARC
  5
6C9E
330
1A
100
AcDbEntity
  8
SITAJI
100
AcDbCircle
 10
409.6683441168694
 20
335.490128331161
 30
-0.0000000000174641
 40
5.0
100
AcDbArc
 50
180.0
 51
270.0
  0
LINE
  5
6C9F
330
1A
100
AcDbEntity
  8
SITAJI
100
AcDbLine
 10
406.9683441168652
 20
425.4901283311627
 30
-0.000000000017862
 11
406.9683441168652
 21
335.4901283311629
 31
-0.000000000017862
  0
LINE
  5
6CA0
330
1A
100
AcDbEntity
  8
SITAJI
100
AcDbLine
 10
404.6683441168695
 20
425.4901283311646
 30
-0.000000000017862
 11
404.6683441168695
 21
335.4901283311629
 31
-0.000000000017862
  0
LINE
  5
6CA1
330
1A
100
AcDbEntity
  8
SITAJI
100
AcDbLine
 10
409.6683441168694
 20
332.7901283311603
 30
-0.000000000017862
 11
499.6683441168713
 21
332.7901283311621
 31
-0.000000000017862
  0
LINE
  5
6CA2
330
1A
100
AcDbEntity
  8
SITAJI
100
AcDbLine
 10
409.6683441168694
 20
330.4901283311647
 30
-0.000000000017862
 11
499.6683441168695
 21
330.4901283311647
 31
-0.000000000017862
  0
LINE
  5
6CA3
330
1A
100
AcDbEntity
  8
SITAJI
100
AcDbLine
 10
424.5141322356482
 20
430.4901283311663
 30
-0.000000000017862
 11
422.2141322356455
 21
428.190128331162
 31
-0.000000000017862
  0
LINE
  5
6CA5
330
1A
100
AcDbEntity
  8
SITAJI
100
AcDbLine
 10
421.6857051108942
 20
430.4901283311683
 30
-0.000000000017862
 11
419.385705110886
 21
428.1901283311619
 31
-0.000000000017862
  0
LINE
  5
6CA7
330
1A
100
AcDbEntity
  8
SITAJI
100
AcDbLine
 10
466.9405391068409
 20
430.4901283311647
 30
-0.000000000017862
 11
464.6405391068372
 21
428.1901283311627
 31
-0.000000000017862
  0
LINE
  5
6CA8
330
1A
100
AcDbEntity
  8
SITAJI
100
AcDbLine
 10
464.112111982087
 20
430.4901283311683
 30
-0.000000000017862
 11
461.8121119820852
 21
428.1901283311627
 31
-0.000000000017862
  0
LINE
  5
6CA9
330
1A
100
AcDbEntity
  8
SITAJI
100
AcDbLine
 10
504.0130665995436
 20
427.9646760774267
 30
-0.000000000017862
 11
502.2679469142071
 21
426.2195563920922
 31
-0.000000000017862
  0
LINE
  5
6CAA
330
1A
100
AcDbEntity
  8
SITAJI
100
AcDbLine
 10
504.6597625954723
 20
425.7829449486052
 30
-0.000000000017862
 11
502.3683441168666
 21
423.4915264699993
 31
-0.000000000017862
  0
ARC
  5
6CAB
330
1A
100
AcDbEntity
  8
SITAJI
100
AcDbCircle
 10
409.6683441168694
 20
425.4901283311646
 30
-0.0000000000171231
 40
2.7
100
AcDbArc
 50
90.0
 51
180.0
  0
ARC
  5
6CAC
330
1A
100
AcDbEntity
  8
SITAJI
100
AcDbCircle
 10
409.6683441168694
 20
425.4901283311646
 30
-0.0000000000171231
 40
5.0
100
AcDbArc
 50
90.0
 51
180.0
  0
LINE
  5
6CAD
330
1A
100
AcDbEntity
  8
SITAJI
100
AcDbLine
 10
409.668344116871
 20
428.1901283311618
 30
-0.000000000017862
 11
499.6683441168713
 21
428.1901283311634
 31
-0.000000000017862
  0
ARC
  5
6CAE
330
1A
100
AcDbEntity
  8
SITAJI
100
AcDbCircle
 10
499.6683441168695
 20
425.4901283311646
 30
-0.0000000000171231
 40
2.7
100
AcDbArc
 50
0.0
 51
90.0
  0
LINE
  5
6CAF
330
1A
100
AcDbEntity
  8
SITAJI
100
AcDbLine
 10
409.6683441168694
 20
430.4901283311647
 30
-0.000000000017862
 11
499.6683441168695
 21
430.4901283311647
 31
-0.000000000017862
  0
ARC
  5
6CB0
330
1A
100
AcDbEntity
  8
SITAJI
100
AcDbCircle
 10
499.6683441168695
 20
425.4901283311646
 30
-0.0000000000171231
 40
5.0
100
AcDbArc
 50
0.0
 51
90.0
  0
LINE
  5
6CB1
330
1A
100
AcDbEntity
  8
SITAJI
100
AcDbLine
 10
504.6683441168695
 20
425.4901283311646
 30
-0.000000000017862
 11
504.6683441168695
 21
335.4901283311647
 31
-0.000000000017862
  0
LINE
  5
6CB2
330
1A
100
AcDbEntity
  8
SITAJI
100
AcDbLine
 10
502.3683441168666
 20
425.4901283311646
 30
-0.000000000017862
 11
502.3683441168666
 21
335.4901283311629
 31
-0.000000000017862
  0
LINE
  5
6CB5
330
1A
100
AcDbEntity
  8
SITAJI
100
AcDbLine
 10
504.6683441168695
 20
388.3651195988095
 30
-0.000000000017862
 11
502.3683441168666
 21
386.0651195988067
 31
-0.000000000017862
  0
LINE
  5
6CB7
330
1A
100
AcDbEntity
  8
SITAJI
100
AcDbLine
 10
504.6683441168712
 20
391.1935467235544
 30
-0.000000000017862
 11
502.3683441168647
 21
388.8935467235569
 31
-0.000000000017862
  0
ARC
  5
6CB9
330
1A
100
AcDbEntity
  8
SITAJI
100
AcDbCircle
 10
499.6683441168695
 20
335.490128331161
 30
-0.0000000000174641
 40
2.7
100
AcDbArc
 50
270.0
 51
0.0
  0
LINE
  5
6CBA
330
1A
100
AcDbEntity
  8
SITAJI
100
AcDbLine
 10
504.6683441168712
 20
340.9387127276113
 30
-0.000000000017862
 11
502.3683441168666
 21
338.6387127276139
 31
-0.000000000017862
  0
LINE
  5
6CBB
330
1A
100
AcDbEntity
  8
SITAJI
100
AcDbLine
 10
496.5197597203983
 20
332.790128331164
 30
-0.000000000017862
 11
494.2197597203918
 21
330.4901283311647
 31
-0.000000000017862
  0
LINE
  5
6CBC
330
1A
100
AcDbEntity
  8
SITAJI
100
AcDbLine
 10
504.6683441168695
 20
343.7671398523598
 30
-0.000000000017862
 11
502.3683441168666
 21
341.4671398523588
 31
-0.000000000017862
  0
LINE
  5
6CBD
330
1A
100
AcDbEntity
  8
SITAJI
100
AcDbLine
 10
493.6913325956626
 20
332.7901283311603
 30
-0.000000000017862
 11
491.3913325956652
 21
330.4901283311665
 31
-0.000000000017862
  0
ARC
  5
6CBE
330
1A
100
AcDbEntity
  8
SITAJI
100
AcDbCircle
 10
499.6683441168695
 20
335.490128331161
 30
-0.0000000000174641
 40
5.0
100
AcDbArc
 50
270.0
 51
0.0
  0
LINE
  5
72D5
330
1A
100
AcDbEntity
  8
PACKING
100
AcDbLine
 10
388.7698839066325
 20
339.0297012365489
 30
-0.0000000000094651
 11
379.7698839066324
 21
339.0297012365489
 31
-0.0000000000094651
  0
LINE
  5
72D6
330
1A
100
AcDbEntity
  8
PACKING
100
AcDbLine
 10
391.7698839066325
 20
336.0297012365489
 30
-0.0000000000094651
 11
391.7698839066326
 21
327.029701236549
 31
-0.0000000000094651
  0
ARC
  5
72D7
330
1A
100
AcDbEntity
  8
PACKING
100
AcDbCircle
 10
388.7698839066325
 20
336.0297012365489
 30
-0.0000000000094651
 40
3.0
100
AcDbArc
 50
0.0000000000004071
 51
90.0
  0
DIMENSION
  5
76D5
330
1A
100
AcDbEntity
  8
SUNPOU
100
AcDbDimension
280
     0
  2
*D5
 10
432.3183441168696
 20
320.4901279675559
 30
-0.0000000000117923
 11
432.3183441168696
 21
342.4901279675558
 31
-0.0000000000117923
 70
   160
 71
     5
 42
43.9999999999996
 73
     0
 74
     0
 75
     0
  3
STANDARD
100
AcDbAlignedDimension
 13
402.3183441168696
 23
364.4901279675555
 33
-0.0000000000084046
 14
402.6683532759848
 24
320.4901279675559
 34
-0.0000000000084046
 50
90.0
100
AcDbRotatedDimension
  0
LINE
  5
7810
330
1A
100
AcDbEntity
  8
SITAJI
100
AcDbLine
 10
406.9683441168652
 20
412.9443402123691
 30
-0.000000000017862
 11
404.6683441168695
 21
410.6443402123718
 31
-0.000000000017862
  0
LINE
  5
7811
330
1A
100
AcDbEntity
  8
SITAJI
100
AcDbLine
 10
406.9683441168652
 20
415.7727673371506
 30
-0.000000000017862
 11
404.6683441168695
 21
413.4727673371568
 31
-0.000000000017862
  0
LINE
  5
7812
330
1A
100
AcDbEntity
  8
SITAJI
100
AcDbLine
 10
406.968344116865
 20
370.5179333412362
 30
-0.000000000017862
 11
404.6683441168695
 21
368.2179333412424
 31
-0.000000000017862
  0
LINE
  5
7813
330
1A
100
AcDbEntity
  8
SITAJI
100
AcDbLine
 10
406.968344116865
 20
373.346360465856
 30
-0.000000000017862
 11
404.6683441168694
 21
371.0463604658567
 31
-0.000000000017862
  0
LINE
  5
7CA8
330
1A
100
AcDbEntity
  8
0
100
AcDbLine
 10
313.9646925936252
 20
184.2843776863017
 30
0.000000000010807
 11
536.4557890580063
 21
184.2843776863018
 31
0.0000000000067312
  0
CIRCLE
  5
7CA9
330
1A
100
AcDbEntity
  8
0
370
     9
100
AcDbCircle
 10
509.3290190617168
 20
69.1290781957903
 30
0.0000000000208525
 40
0.3092572073229055
  0
CIRCLE
  5
7CAA
330
1A
100
AcDbEntity
  8
0
370
     9
100
AcDbCircle
 10
524.7831748790629
 20
70.77437893551658
 30
0.0000000000208525
 40
0.4540272577309861
  0
CIRCLE
  5
7CAB
330
1A
100
AcDbEntity
  8
0
370
     9
100
AcDbCircle
 10
532.3807005302003
 20
69.19777947302762
 30
0.0000000000208525
 40
0.4540272577309861
  0
CIRCLE
  5
7CAC
330
1A
100
AcDbEntity
  8
0
370
     9
100
AcDbCircle
 10
512.8828679964771
 20
86.13959997870301
 30
0.0000000000208525
 40
0.3092572073229055
  0
CIRCLE
  5
7CAD
330
1A
100
AcDbEntity
  8
0
370
     9
100
AcDbCircle
 10
517.8197964210924
 20
80.91215171767274
 30
0.0000000000208525
 40
0.4540272577309861
  0
CIRCLE
  5
7CAE
330
1A
100
AcDbEntity
  8
0
370
     9
100
AcDbCircle
 10
512.7141203319654
 20
74.30817066104035
 30
0.0000000000208525
 40
0.4373030624550763
  0
CIRCLE
  5
7CAF
330
1A
100
AcDbEntity
  8
0
370
     9
100
AcDbCircle
 10
526.4413047521943
 20
84.76998248747079
 30
0.0000000000208525
 40
0.3092572073229055
  0
CIRCLE
  5
7CB0
330
1A
100
AcDbEntity
  8
0
370
     9
100
AcDbCircle
 10
531.7567926892309
 20
78.55096819329472
 30
0.0000000000208525
 40
0.3092572073229055
  0
LINE
  5
7CB1
330
1A
100
AcDbEntity
  8
DOOR
100
AcDbLine
 10
341.6688050845881
 20
174.2843776863018
 30
0.00000000002748
 11
341.6688050845881
 21
84.55223482915901
 31
0.00000000002748
  0
LINE
  5
7CB2
330
1A
100
AcDbEntity
  8
DOOR
100
AcDbLine
 10
394.6688050845881
 20
103.2843776863018
 30
0.0000000000213627
 11
394.6688050845881
 21
89.28437768630184
 31
0.0000000000213627
  0
LINE
  5
7CB3
330
1A
100
AcDbEntity
  8
DOOR
100
AcDbLine
 10
396.6688050845881
 20
103.2843776863018
 30
0.0000000000213627
 11
396.6688050845881
 21
89.28437768630184
 31
0.0000000000213627
  0
ARC
  5
7CB4
330
1A
100
AcDbEntity
  8
DOOR
100
AcDbCircle
 10
394.6688050845881
 20
89.28437768630184
 30
-0.0000000000359949
 40
2.0
100
AcDbArc
 50
275.1021652523583
 51
0.0
  0
LINE
  5
7CB5
330
1A
100
AcDbEntity
  8
DOOR
100
AcDbLine
 10
494.6688050845883
 20
103.2843776863018
 30
0.0000000000366869
 11
494.6688050845883
 21
65.78437768630184
 31
0.0000000000366869
  0
LINE
  5
7CB6
330
1A
100
AcDbEntity
  8
DOOR
100
AcDbLine
 10
492.668805084588
 20
103.2843776863018
 30
0.0000000000366869
 11
492.668805084588
 21
65.78437768630184
 31
0.0000000000366869
  0
ARC
  5
7CB7
330
1A
100
AcDbEntity
  8
DOOR
100
AcDbCircle
 10
492.668805084588
 20
103.2843776863018
 30
-0.0000000000526306
 40
2.0
100
AcDbArc
 50
0.0
 51
90.0
  0
LINE
  5
7CB8
330
1A
100
AcDbEntity
  8
DOOR
100
AcDbLine
 10
338.668805084588
 20
82.45499300103464
 30
0.0000000000123856
 11
338.668805084588
 21
65.78437768630185
 31
0.0000000000123856
  0
LINE
  5
7CB9
330
1A
100
AcDbEntity
  8
DOOR
100
AcDbLine
 10
340.668805084588
 20
82.45499300103462
 30
0.0000000000123856
 11
340.6688050845882
 21
65.78437768630185
 31
0.0000000000123856
  0
LINE
  5
7CBA
330
1A
100
AcDbEntity
  8
0
100
AcDbLine
 10
494.6688050845883
 20
102.2843776863018
 30
0.0000000000191038
 11
534.6687685537196
 21
102.2843776863018
 31
0.0000000000191038
  0
CIRCLE
  5
7CBB
330
1A
100
AcDbEntity
  8
0
370
     9
100
AcDbCircle
 10
523.4941256310268
 20
95.83234241145808
 30
0.0000000000208525
 40
0.3092572073229055
  0
CIRCLE
  5
7CBC
330
1A
100
AcDbEntity
  8
0
370
     9
100
AcDbCircle
 10
500.4598349681371
 20
70.60484401967872
 30
0.0000000000208525
 40
0.3092572073229055
  0
CIRCLE
  5
7CBD
330
1A
100
AcDbEntity
  8
0
370
     9
100
AcDbCircle
 10
498.1425152700869
 20
95.36416225287306
 30
0.0000000000225333
 40
0.4540272577309861
  0
CIRCLE
  5
7CBE
330
1A
100
AcDbEntity
  8
0
370
     9
100
AcDbCircle
 10
505.5102728885564
 20
97.36842018216524
 30
0.0000000000225333
 40
0.3092572073229055
  0
CIRCLE
  5
7CBF
330
1A
100
AcDbEntity
  8
0
370
     9
100
AcDbCircle
 10
508.6342195023905
 20
94.82869438386115
 30
0.0000000000225333
 40
0.4540272577309861
  0
CIRCLE
  5
7CC0
330
1A
100
AcDbEntity
  8
0
370
     9
100
AcDbCircle
 10
515.9288130833416
 20
98.03436245319613
 30
0.0000000000225333
 40
0.3092572073229055
  0
CIRCLE
  5
7CC1
330
1A
100
AcDbEntity
  8
0
370
     9
100
AcDbCircle
 10
518.5689740239454
 20
87.43185015206334
 30
0.0000000000193314
 40
0.4540272577309861
  0
CIRCLE
  5
7CC2
330
1A
100
AcDbEntity
  8
0
370
     9
100
AcDbCircle
 10
509.1751336135716
 20
88.88728196580265
 30
0.0000000000193314
 40
0.3092572073229055
  0
CIRCLE
  5
7CC3
330
1A
100
AcDbEntity
  8
0
370
     9
100
AcDbCircle
 10
499.7693251876881
 20
78.78461487712209
 30
0.0000000000208525
 40
0.3092572073229055
  0
CIRCLE
  5
7CC4
330
1A
100
AcDbEntity
  8
0
370
     9
100
AcDbCircle
 10
531.0488341580237
 20
90.59855605846562
 30
0.0000000000193314
 40
0.4540272577309861
  0
CIRCLE
  5
7CC5
330
1A
100
AcDbEntity
  8
0
370
     9
100
AcDbCircle
 10
522.603727420781
 20
75.92726027455277
 30
0.0000000000208525
 40
0.3092572073229055
  0
CIRCLE
  5
7CC6
330
1A
100
AcDbEntity
  8
0
370
     9
100
AcDbCircle
 10
518.3374443332627
 20
73.14386849716696
 30
0.0000000000208525
 40
0.3092572073229055
  0
CIRCLE
  5
7CC7
330
1A
100
AcDbEntity
  8
0
370
     9
100
AcDbCircle
 10
529.0252660905819
 20
97.41177638605044
 30
0.0000000000208525
 40
0.3092572073229055
  0
CIRCLE
  5
7CC8
330
1A
100
AcDbEntity
  8
0
370
     9
100
AcDbCircle
 10
506.4458520078185
 20
80.77002211443531
 30
0.0000000000208525
 40
0.3092572073229055
  0
CIRCLE
  5
7CC9
330
1A
100
AcDbEntity
  8
0
370
     9
100
AcDbCircle
 10
500.6440490158832
 20
87.04955781663134
 30
0.0000000000193314
 40
0.3092572073229055
  0
LINE
  5
7CCF
330
1A
100
AcDbEntity
  8
0
100
AcDbLine
 10
313.9646925936252
 20
174.2843776863017
 30
0.000000000010807
 11
536.4557890580063
 21
174.2843776863018
 31
0.0000000000067312
  0
LINE
  5
7CD0
330
1A
100
AcDbEntity
  8
DOOR
 48
0.5
100
AcDbLine
 10
394.6688050845881
 20
184.2843776863018
 30
0.0000000000144757
 11
394.6688050845882
 21
275.0368837110067
 31
0.0000000000144757
  0
LINE
  5
7CD1
330
1A
100
AcDbEntity
  8
DOOR
 48
0.5
100
AcDbLine
 10
494.6688050845883
 20
275.0368837110066
 30
0.0000000000269619
 11
494.6688050845883
 21
184.2843776863018
 31
0.0000000000269619
  0
LINE
  5
7CD2
330
1A
100
AcDbEntity
  8
DOOR
 48
0.5
100
AcDbLine
 10
321.6688050845884
 20
311.2502264639538
 30
0.0000000000067329
 11
321.6688050845884
 21
288.0368837110067
 31
0.0000000000074791
  0
LINE
  5
7CD3
330
1A
100
AcDbEntity
  8
DOOR
 48
0.5
100
AcDbLine
 10
321.6688050845884
 20
288.0368837110067
 30
-0.0000000000012244
 11
323.6688050845884
 21
288.0368837110067
 31
-0.0000000000012244
  0
LINE
  5
7CD4
330
1A
100
AcDbEntity
  8
DOOR
 48
0.5
100
AcDbLine
 10
323.6688050845885
 20
288.0368837110067
 30
0.0000000000074183
 11
323.6688050845884
 21
311.2502264639538
 31
0.0000000000074183
  0
LINE
  5
7CD5
330
1A
100
AcDbEntity
  8
DOOR
  6
CENTER2
 48
0.5
370
     9
100
AcDbLine
 10
323.6688050845885
 20
288.0368837110067
 30
0.0000000000074183
 11
394.6688050845882
 21
317.7494954223177
 31
0.0000000000096721
  0
LINE
  5
7CD6
330
1A
100
AcDbEntity
  8
DOOR
  6
CENTER2
 48
0.5
370
     9
100
AcDbLine
 10
323.6688050845884
 20
311.2502264639538
 30
0.0000000000096723
 11
394.6688050845882
 21
288.0368837110067
 31
0.0000000000077526
  0
LINE
  5
7CD7
330
1A
100
AcDbEntity
  8
DOOR
 48
0.5
100
AcDbLine
 10
323.6688050845884
 20
288.0368837110067
 30
0.0000000000077526
 11
394.6688050845882
 21
288.0368837110066
 31
0.0000000000077526
  0
LINE
  5
7CD8
330
1A
100
AcDbEntity
  8
DOOR
  6
DASHED2
 48
0.5
100
AcDbLine
 10
482.6688050845881
 20
293.7368837110067
 30
0.0000000000269619
 11
482.6688050845881
 21
296.0368837110067
 31
0.0000000000269619
  0
LINE
  5
7CD9
330
1A
100
AcDbEntity
  8
DOOR
  6
DASHED2
 48
0.5
100
AcDbLine
 10
482.6688050845881
 20
296.0368837110067
 30
0.0000000000269619
 11
474.6688050845881
 21
296.0368837110067
 31
0.0000000000269619
  0
LINE
  5
7CDA
330
1A
100
AcDbEntity
  8
DOOR
  6
DASHED2
 48
0.5
100
AcDbLine
 10
474.6688050844481
 20
293.7368837109939
 30
0.0000000000269619
 11
482.668805084388
 21
293.7368837103065
 31
0.0000000000269619
  0
LINE
  5
7CDB
330
1A
100
AcDbEntity
  8
DOOR
 48
0.5
100
AcDbLine
 10
396.6688050845882
 20
275.0368837110067
 30
0.0000000000077526
 11
492.668805084588
 21
275.0368837110067
 31
0.0000000000077526
  0
LINE
  5
7CDC
330
1A
100
AcDbEntity
  8
DOOR
 48
0.5
100
AcDbLine
 10
492.668805084588
 20
275.0368837110066
 30
0.0000000000269619
 11
492.668805084588
 21
296.0368837110067
 31
0.0000000000269619
  0
LINE
  5
7CDD
330
1A
100
AcDbEntity
  8
DOOR
 48
0.5
100
AcDbLine
 10
492.668805084588
 20
296.0368837110067
 30
0.0000000000269619
 11
474.6688050845881
 21
296.0368837110067
 31
0.0000000000269619
  0
LINE
  5
7CDE
330
1A
100
AcDbEntity
  8
DOOR
 48
0.5
100
AcDbLine
 10
474.6688050845881
 20
296.0368837110067
 30
0.0000000000269619
 11
474.6688050845881
 21
298.0368837110066
 31
0.0000000000269619
  0
LINE
  5
7CDF
330
1A
100
AcDbEntity
  8
DOOR
 48
0.5
100
AcDbLine
 10
474.6688050845881
 20
298.0368837110066
 30
0.0000000000269619
 11
492.668805084588
 21
298.0368837110066
 31
0.0000000000269619
  0
ARC
  5
7CE0
330
1A
100
AcDbEntity
  8
DOOR
 48
0.5
100
AcDbCircle
 10
492.668805084588
 20
296.0368837110067
 30
0.0000000000269619
 40
2.0
100
AcDbArc
 50
0.0
 51
90.0
  0
LINE
  5
7CE1
330
1A
100
AcDbEntity
  8
DOOR
 48
0.5
100
AcDbLine
 10
494.6688050845883
 20
296.0368837110067
 30
0.0000000000269619
 11
494.6688050845883
 21
275.0368837110066
 31
0.0000000000269619
  0
ARC
  5
7CE2
330
1A
100
AcDbEntity
  8
DOOR
 48
0.5
100
AcDbCircle
 10
492.668805084588
 20
275.0368837110066
 30
0.0000000000269619
 40
2.0
100
AcDbArc
 50
270.0
 51
0.0
  0
LINE
  5
7CE3
330
1A
100
AcDbEntity
  8
DOOR
 48
0.5
100
AcDbLine
 10
492.668805084588
 20
273.0368837110067
 30
0.0000000000077526
 11
396.6688050845882
 21
273.0368837110067
 31
0.0000000000077526
  0
ARC
  5
7CE4
330
1A
100
AcDbEntity
  8
DOOR
 48
0.5
100
AcDbCircle
 10
396.6688050845882
 20
275.0368837110067
 30
0.0000000000077526
 40
2.0
100
AcDbArc
 50
180.0
 51
270.0
  0
LINE
  5
7CE5
330
1A
100
AcDbEntity
  8
DOOR
 48
0.5
100
AcDbLine
 10
350.6688050845881
 20
288.0368837110067
 30
0.0000000000077526
 11
394.6688050845882
 21
288.0368837110067
 31
0.0000000000077526
  0
LINE
  5
7CE6
330
1A
100
AcDbEntity
  8
DOOR
 48
0.5
100
AcDbLine
 10
394.6688050845882
 20
288.0368837110067
 30
0.0000000000077526
 11
394.6688050845882
 21
275.0368837110067
 31
0.0000000000077526
  0
LINE
  5
7CE7
330
1A
100
AcDbEntity
  8
DOOR
 48
0.5
100
AcDbLine
 10
396.6688050845883
 20
275.0368837110067
 30
0.0000000000077526
 11
396.6688050845882
 21
288.0368837110067
 31
0.0000000000077526
  0
ARC
  5
7CE8
330
1A
100
AcDbEntity
  8
DOOR
 48
0.5
100
AcDbCircle
 10
394.6688050845882
 20
288.0368837110067
 30
0.0000000000077526
 40
2.0
100
AcDbArc
 50
0.0
 51
90.0
  0
LINE
  5
7CE9
330
1A
100
AcDbEntity
  8
DOOR
 48
0.5
100
AcDbLine
 10
394.6688050845882
 20
290.0368837110067
 30
0.0000000000077526
 11
343.6688050845881
 21
290.0368837110067
 31
0.0000000000077526
  0
LINE
  5
7CEA
330
1A
100
AcDbEntity
  8
DOOR
  6
CENTER2
 48
0.5
370
     9
100
AcDbLine
 10
394.6688050845882
 20
288.0368837110067
 30
0.0000000000077526
 11
394.6688050845882
 21
317.7494954223176
 31
0.0000000000077526
  0
LWPOLYLINE
  5
7CEB
330
1A
100
AcDbEntity
  8
DOOR
 48
0.5
100
AcDbPolyline
 90
        7
 70
     0
 43
0.0
 10
391.6688050845881
 20
184.2843776863018
 10
391.6688050845881
 20
283.4368837110067
 42
0.4142135623730951
 10
390.068805084588
 20
285.0368837110067
 10
371.6688050845882
 20
285.0368837110067
 10
371.6688050845882
 20
283.4368837110067
 10
390.068805084588
 20
283.4368837110067
 10
390.068805084588
 20
184.2843776863018
  0
LWPOLYLINE
  5
7CEC
330
1A
100
AcDbEntity
  8
DOOR
 48
0.5
100
AcDbPolyline
 90
        7
 70
     0
 43
0.0
 10
353.2688050845881
 20
184.2843776863018
 10
353.2688050845881
 20
283.4368837110066
 10
371.6688050845882
 20
283.4368837110067
 10
371.6688050845882
 20
285.0368837110067
 10
353.2688050845881
 20
285.0368837110067
 42
0.4142135623730951
 10
351.6688050845881
 20
283.4368837110067
 10
351.6688050845881
 20
184.2843776863018
  0
LWPOLYLINE
  5
7CED
330
1A
100
AcDbEntity
  8
DOOR
 48
0.5
100
AcDbPolyline
 90
       10
 70
     1
 43
0.0
 10
353.2688050845881
 20
281.1368837110066
 10
353.2688050845881
 20
268.4368837110067
 10
355.5688050845881
 20
268.4368837110067
 10
355.5688050845881
 20
281.1368837110066
 10
387.7688050845881
 20
281.1368837110066
 10
387.7688050845881
 20
268.4368837110067
 10
390.068805084588
 20
268.4368837110067
 10
390.0688050845883
 20
281.1368837110066
 42
0.4142135623730986
 10
387.7688050845881
 20
283.4368837110067
 10
355.5688050845881
 20
283.4368837110067
 42
0.4142135623730951
  0
LINE
  5
7CEE
330
1A
100
AcDbEntity
  8
DOOR
 48
0.5
100
AcDbLine
 10
343.6688050845881
 20
288.0368837110067
 30
0.0000000000144757
 11
368.2624327508881
 21
288.0368837110067
 31
0.0000000000144757
  0
LINE
  5
7CEF
330
1A
100
AcDbEntity
  8
DOOR
  6
DASHED2
 48
0.5
100
AcDbLine
 10
388.5615193494765
 20
315.0727913045878
 30
0.0000000000077549
 11
474.6688050845881
 21
296.0368837110067
 31
0.0000000000269619
  0
LINE
  5
7CF3
330
1A
100
AcDbEntity
  8
DOOR
 48
0.5
100
AcDbLine
 10
323.4864893395083
 20
313.2418993711088
 30
0.0000000000096722
 11
402.6683532759848
 21
320.490127967556
 31
0.0000000000096722
  0
ARC
  5
7CF4
330
1A
100
AcDbEntity
  8
DOOR
 48
0.5
100
AcDbCircle
 10
323.6688050845884
 20
311.2502264639538
 30
-0.0000000004470769
 40
2.0
210
0.0000000000001474
220
-0.0000000000016104
230
1.0
100
AcDbArc
 50
95.230222140309
 51
180.0
  0
LINE
  5
7CF5
330
1A
100
AcDbEntity
  8
DOOR
 48
0.5
100
AcDbLine
 10
323.6688050845885
 20
311.2502264639538
 30
0.0000000000096723
 11
402.8506690210648
 21
318.4984550604008
 31
0.0000000000152396
  0
LINE
  5
7CF6
330
1A
100
AcDbEntity
  8
DOOR
 48
0.5
100
AcDbLine
 10
343.6688050845881
 20
311.072644544188
 30
0.0000000000077562
 11
387.7947484913989
 21
315.1118892518276
 31
0.0000000000077562
  0
LINE
  5
7CF7
330
1A
100
AcDbEntity
  8
DOOR
 48
0.5
100
AcDbLine
 10
387.7947484913989
 20
315.1118892518276
 30
0.0000000000077526
 11
387.6124327463185
 21
317.1035621589829
 31
0.0000000000077526
  0
LINE
  5
7CF8
330
1A
100
AcDbEntity
  8
DOOR
  6
DASHED2
 48
0.5
100
AcDbLine
 10
378.0460470624652
 20
311.9098866831988
 30
0.0000000000077526
 11
388.0650412347724
 21
312.8270153848621
 31
0.0000000000077526
  0
LINE
  5
7CF9
330
1A
100
AcDbEntity
  8
DOOR
  6
DASHED2
 48
0.5
100
AcDbLine
 10
378.0460470624652
 20
311.9098866831989
 30
0.0000000000077526
 11
377.8363839556231
 21
314.2003105264263
 31
0.0000000000077526
  0
LINE
  5
7CFA
330
1A
100
AcDbEntity
  8
DOOR
  6
DASHED2
 48
0.5
100
AcDbLine
 10
377.8363839556231
 20
314.2003105264263
 30
0.0000000000077526
 11
387.8553781279332
 21
315.1174392280899
 31
0.0000000000077526
  0
LINE
  5
7CFB
330
1A
100
AcDbEntity
  8
DOOR
 48
0.5
100
AcDbLine
 10
341.6688050845882
 20
290.9522737051424
 30
0.0000000000161579
 11
341.6688050845883
 21
184.2843776863018
 31
0.0000000000161579
  0
LINE
  5
7CFC
330
1A
100
AcDbEntity
  8
DOOR
 48
0.5
100
AcDbLine
 10
341.6688050845882
 20
311.0726445441882
 30
0.0000000000077581
 11
341.6688050845882
 21
290.0368837110067
 31
0.0000000000077562
  0
ARC
  5
7CFD
330
1A
100
AcDbEntity
  8
DOOR
 48
0.5
100
AcDbCircle
 10
343.6688050845881
 20
290.0368837110067
 30
0.0000000000077562
 40
2.0
100
AcDbArc
 50
180.0
 51
270.0
  0
LINE
  5
7CFE
330
1A
100
AcDbEntity
  8
DOOR
 48
0.5
100
AcDbLine
 10
343.6688050845881
 20
290.0368837110067
 30
0.0000000000077562
 11
343.6688050845881
 21
311.072644544188
 31
0.0000000000077562
  0
ARC
  5
7CFF
330
1A
100
AcDbEntity
  8
DOOR
 48
0.5
100
AcDbCircle
 10
343.6688050845881
 20
311.0726445441882
 30
0.0000000000096721
 40
2.0
100
AcDbArc
 50
95.230222140309
 51
180.0
  0
LINE
  5
7D00
330
1A
100
AcDbEntity
  8
DOOR
 48
0.5
100
AcDbLine
 10
355.5688050845881
 20
268.4368837110067
 30
0.0000000000054987
 11
387.7688050845881
 21
268.4368837110067
 31
0.0000000000054987
  0
LINE
  5
7D05
330
1A
100
AcDbEntity
  8
DOOR
 48
0.5
100
AcDbLine
 10
391.6688050845881
 20
174.2843776863018
 30
0.0000000000068452
 11
391.6688050845881
 21
95.28437768630183
 31
0.0000000000068452
  0
LINE
  5
7D06
330
1A
100
AcDbEntity
  8
DOOR
 48
0.5
100
AcDbLine
 10
391.6688050845881
 20
95.28437768630183
 30
0.0000000000068452
 11
371.668805084588
 21
95.28437768630183
 31
0.0000000000068452
  0
LINE
  5
7D07
330
1A
100
AcDbEntity
  8
DOOR
 48
0.5
100
AcDbLine
 10
390.0688050845878
 20
95.28437768630183
 30
0.0000000000068452
 11
390.0688050845878
 21
174.2843776863018
 31
0.0000000000068452
  0
LINE
  5
7D08
330
1A
100
AcDbEntity
  8
DOOR
 48
0.5
100
AcDbLine
 10
353.2688050845879
 20
174.2843776863018
 30
0.0000000000068452
 11
353.2688050845879
 21
95.28437768630181
 31
0.0000000000068452
  0
LINE
  5
7D09
330
1A
100
AcDbEntity
  8
DOOR
 48
0.5
100
AcDbLine
 10
371.668805084588
 20
95.28437768630183
 30
0.0000000000068452
 11
351.6688050845881
 21
95.28437768630183
 31
0.0000000000068452
  0
LINE
  5
7D0A
330
1A
100
AcDbEntity
  8
DOOR
 48
0.5
100
AcDbLine
 10
351.6688050845881
 20
95.28437768630183
 30
0.0000000000068452
 11
351.668805084588
 21
174.2843776863018
 31
0.0000000000068452
  0
LINE
  5
7D0B
330
1A
100
AcDbEntity
  8
DOOR
100
AcDbLine
 10
396.6688050845881
 20
105.2843776863018
 30
0.0000000000068452
 11
492.668805084588
 21
105.2843776863018
 31
0.0000000000066018
  0
ARC
  5
7D0C
330
1A
100
AcDbEntity
  8
DOOR
100
AcDbCircle
 10
396.6688050845881
 20
103.2843776863018
 30
0.0000000000213627
 40
2.0
100
AcDbArc
 50
90.0
 51
180.0
  0
LINE
  5
7D0D
330
1A
100
AcDbEntity
  8
DOOR
100
AcDbLine
 10
396.6688050845881
 20
103.2843776863018
 30
0.0000000000068452
 11
492.6688050845883
 21
103.2843776863018
 31
0.0000000000068452
  0
LINE
  5
7D0E
330
1A
100
AcDbEntity
  8
DOOR
100
AcDbLine
 10
340.490941208639
 20
84.44706841166356
 30
0.0000000000126777
 11
394.6688050845881
 21
89.28437768630184
 31
0.0000000000213627
  0
ARC
  5
7D0F
330
1A
100
AcDbEntity
  8
DOOR
100
AcDbCircle
 10
340.668805084588
 20
82.45499300103464
 30
-0.0000000000378327
 40
2.0
100
AcDbArc
 50
95.10216525235831
 51
180.0
  0
LINE
  5
7D10
330
1A
100
AcDbEntity
  8
DOOR
100
AcDbLine
 10
340.668805084588
 20
82.45499300103462
 30
0.0000000000126777
 11
394.8466689605371
 21
87.2923022756729
 31
0.0000000000213627
  0
LINE
  5
7D11
330
1A
100
AcDbEntity
  8
DOOR
 48
0.5
100
AcDbLine
 10
394.6688050845881
 20
103.2843776863018
 30
0.0000000000213627
 11
394.6688050845882
 21
174.2843776863018
 31
0.0000000000213627
  0
LINE
  5
7D12
330
1A
100
AcDbEntity
  8
DOOR
 48
0.5
100
AcDbLine
 10
494.6688050845883
 20
174.2843776863018
 30
0.0000000000366869
 11
494.6688050845883
 21
103.2843776863018
 31
0.0000000000366869
  0
LWPOLYLINE
  5
7D13
330
1A
100
AcDbEntity
  8
DOOR
 48
0.5
100
AcDbPolyline
 90
       10
 70
     1
 43
0.0
 10
353.2688050845877
 20
112.4486726034182
 10
353.2688050845881
 20
99.74867260341827
 10
355.5688050845881
 20
99.74867260341836
 10
355.5688050845877
 20
112.4486726034183
 10
387.7688050845877
 20
112.4486726034194
 10
387.7688050845882
 20
99.7486726034195
 10
390.068805084588
 20
99.74867260341959
 10
390.0688050845878
 20
112.4486726034195
 42
0.4142135623730986
 10
387.7688050845876
 20
114.7486726034195
 10
355.5688050845876
 20
114.7486726034183
 42
0.4142135623730951
  0
LINE
  5
7D14
330
1A
100
AcDbEntity
  8
0
100
AcDbLine
 10
298.6688416154565
 20
65.78437768630185
 30
0.0000000000123856
 11
338.668805084588
 21
65.78437768630185
 31
0.0000000000123856
  0
LINE
  5
7D2C
330
1A
100
AcDbEntity
  8
DOOR
  6
DASHED2
 48
0.5
100
AcDbLine
 10
388.0650412347724
 20
312.8270153848622
 30
0.0000000000077731
 11
474.1723269699447
 21
293.7911077912675
 31
0.0000000000269619
  0
ARC
  5
7D2D
330
1A
100
AcDbEntity
  8
DOOR
  6
DASHED2
 48
0.5
100
AcDbCircle
 10
388.0650412347753
 20
312.8270153848615
 30
0.0000000000322964
 40
2.299999999999998
100
AcDbArc
 50
77.53401057871956
 51
95.2302221403081
  0
ARC
  5
7D2E
330
1A
100
AcDbEntity
  8
DOOR
  6
DASHED2
 48
0.5
100
AcDbCircle
 10
474.6688050846456
 20
296.0368837109939
 30
0.0000000007154571
 40
2.299999999999998
210
0.0000000000002176
220
0.0000000000019923
230
1.0
100
AcDbArc
 50
257.5340105787195
 51
269.9999999950768
  0
LINE
  5
7D33
330
1A
100
AcDbEntity
  8
DOOR
100
AcDbLine
 10
419.2948385673888
 20
308.0972791295403
 30
0.0
 11
421.8466772088103
 21
320.3340319483296
 31
0.0
  0
LINE
  5
7D34
330
1A
100
AcDbEntity
  8
DOOR
100
AcDbLine
 10
404.6683399931883
 20
393.554037699586
 30
-0.0000000000099315
 11
404.6683532759848
 21
320.4901283311499
 31
-0.0000000000084046
  0
LINE
  5
7D3E
330
1A
100
AcDbEntity
  8
DOOR
 48
0.5
100
AcDbLine
 10
404.6683399931883
 20
393.554037699586
 30
-0.0000000000099315
 11
402.6683399931884
 21
393.554037699586
 31
-0.0000000000099315
  0
ARC
  5
7D3F
330
1A
100
AcDbEntity
  8
DOOR
100
AcDbCircle
 10
402.6683532759848
 20
320.490127967556
 30
0.0000000001108406
 40
2.0
100
AcDbArc
 50
275.2302221403084
 51
0.0000104161983033
  0
DIMENSION
  5
7EDF
330
1A
100
AcDbEntity
  8
SUNPOU
100
AcDbDimension
280
     0
  2
*D6
 10
547.6688050845881
 20
273.0449576334253
 30
0.0000000000861943
 11
547.6688050845881
 21
189.1646676598635
 31
0.0000000000861943
 70
   160
  1
Ｈ
 71
     5
 42
167.7605799471234
 73
     0
 74
     0
 75
     0
  3
STANDARD
100
AcDbAlignedDimension
 13
492.668805084588
 23
105.2843776863018
 33
0.0000000000066018
 14
492.4892765312844
 24
273.0449576334253
 34
0.0000000000861943
 50
90.0
100
AcDbRotatedDimension
  0
ARC
  5
8820
330
1A
100
AcDbEntity
  8
SEIHIN
100
AcDbCircle
 10
394.7928277201734
 20
378.4901279675702
 30
-0.0000000000084046
 40
1.0
100
AcDbArc
 50
7.594643368490627
 51
90.0
  0
ARC
  5
8822
330
1A
100
AcDbEntity
  8
SEIHIN
100
AcDbCircle
 10
398.7802499406732
 20
365.7601279675598
 30
-0.0000000000084046
 40
1.27
100
AcDbArc
 50
187.5946433684906
 51
269.9999999993746
  0
LINE
  5
8824
330
1A
100
AcDbEntity
  8
SEIHIN
100
AcDbLine
 10
397.5213905068065
 20
365.5922800430432
 30
-0.0000000000084046
 11
395.7840556208555
 21
378.6222916876592
 31
-0.0000000000084046
  0
LINE
  5
8825
330
1A
100
AcDbEntity
  8
SEIHIN
100
AcDbLine
 10
351.6683441168695
 20
337.4901279675703
 30
-0.0000000000084046
 11
351.6683445661071
 21
481.4196463877684
 31
-0.0000000000094575
  0
LINE
  5
8826
330
1A
100
AcDbEntity
  8
SEIHIN
100
AcDbLine
 10
352.1683441168697
 20
337.4901279675703
 30
-0.0000000000084046
 11
352.1683441168697
 21
481.4196463877683
 31
-0.0000000000084046
  0
LINE
  5
8827
330
1A
100
AcDbEntity
  8
SEIHIN
100
AcDbLine
 10
401.6683441168694
 20
481.4196463877684
 30
-0.0000000000084046
 11
401.6683441168694
 21
365.7601279675598
 31
-0.0000000000084046
  0
LINE
  5
8828
330
1A
100
AcDbEntity
  8
SEIHIN
100
AcDbLine
 10
383.1683441168697
 20
364.4901279675701
 30
-0.0000000000084046
 11
388.3983441168709
 21
364.4901279675701
 31
-0.0000000000084046
  0
LINE
  5
8829
330
1A
100
AcDbEntity
  8
SEIHIN
100
AcDbLine
 10
383.1683441168697
 20
364.9901279675701
 30
-0.0000000000084046
 11
383.1683441168697
 21
364.4901279675701
 31
-0.0000000000084046
  0
LINE
  5
882A
330
1A
100
AcDbEntity
  8
SEIHIN
100
AcDbLine
 10
389.6683441168697
 20
378.4901279675702
 30
-0.0000000000084046
 11
389.6683441168697
 21
365.7601279675741
 31
-0.0000000000084046
  0
LINE
  5
882B
330
1A
100
AcDbEntity
  8
SEIHIN
100
AcDbLine
 10
390.6683441168695
 20
379.4901279675702
 30
-0.0000000000084046
 11
394.7928277201734
 21
379.4901279675702
 31
-0.0000000000084046
  0
LINE
  5
882C
330
1A
100
AcDbEntity
  8
SEIHIN
100
AcDbLine
 10
355.1683441168695
 20
377.9901279675702
 30
-0.0000000000084046
 11
355.1683441168695
 21
337.4901279675701
 31
-0.0000000000084046
  0
LINE
  5
882D
330
1A
100
AcDbEntity
  8
SEIHIN
100
AcDbLine
 10
362.1683441168695
 20
379.9901279675702
 30
-0.0000000000084046
 11
357.1683441168695
 21
379.9901279675702
 31
-0.0000000000084046
  0
LINE
  5
882E
330
1A
100
AcDbEntity
  8
SEIHIN
100
AcDbLine
 10
364.1683441168695
 20
365.49012796757
 30
-0.0000000000084046
 11
364.1683441168695
 21
377.9901279675702
 31
-0.0000000000084046
  0
LINE
  5
882F
330
1A
100
AcDbEntity
  8
SEIHIN
100
AcDbLine
 10
369.1683441168696
 20
364.9901279675701
 30
-0.0000000000084046
 11
364.6683441168697
 21
364.9901279675701
 31
-0.0000000000084046
  0
LINE
  5
8830
330
1A
100
AcDbEntity
  8
SEIHIN
100
AcDbLine
 10
369.1683441168696
 20
364.4901279675701
 30
-0.0000000000084046
 11
369.1683441168696
 21
364.9901279675701
 31
-0.0000000000084046
  0
LINE
  5
8831
330
1A
100
AcDbEntity
  8
SEIHIN
100
AcDbLine
 10
363.6683441168695
 20
365.49012796757
 30
-0.0000000000084046
 11
363.6683441168695
 21
377.9901279675702
 31
-0.0000000000084046
  0
LINE
  5
8832
330
1A
100
AcDbEntity
  8
SEIHIN
100
AcDbLine
 10
364.6683441168697
 20
364.4901279675701
 30
-0.0000000000084046
 11
369.1683441168696
 21
364.4901279675701
 31
-0.0000000000084046
  0
LINE
  5
8833
330
1A
100
AcDbEntity
  8
SEIHIN
100
AcDbLine
 10
357.1683441168695
 20
379.4901279675702
 30
-0.0000000000084046
 11
362.1683441168695
 21
379.4901279675702
 31
-0.0000000000084046
  0
LINE
  5
8834
330
1A
100
AcDbEntity
  8
SEIHIN
100
AcDbLine
 10
355.6683441168695
 20
337.4901279675701
 30
-0.0000000000084046
 11
355.6683441168695
 21
377.9901279675702
 31
-0.0000000000084046
  0
ARC
  5
8835
330
1A
100
AcDbEntity
  8
SEIHIN
100
AcDbCircle
 10
353.6683441168695
 20
337.4901279675703
 30
-0.0000000000084046
 40
1.99999999999958
100
AcDbArc
 50
180.0
 51
0.0
  0
ARC
  5
8836
330
1A
100
AcDbEntity
  8
SEIHIN
100
AcDbCircle
 10
353.6683441168695
 20
337.4901279675703
 30
-0.0000000000084046
 40
1.49999999999958
100
AcDbArc
 50
180.0
 51
0.0
  0
ARC
  5
8837
330
1A
100
AcDbEntity
  8
SEIHIN
100
AcDbCircle
 10
357.1683441168695
 20
377.9901279675702
 30
-0.0000000000084046
 40
1.5
100
AcDbArc
 50
90.0
 51
180.0
  0
ARC
  5
8838
330
1A
100
AcDbEntity
  8
SEIHIN
100
AcDbCircle
 10
357.1683441168695
 20
377.9901279675702
 30
-0.0000000000084046
 40
2.0
100
AcDbArc
 50
90.0
 51
180.0
  0
ARC
  5
8839
330
1A
100
AcDbEntity
  8
SEIHIN
100
AcDbCircle
 10
362.1683441168695
 20
377.9901279675702
 30
-0.0000000000084046
 40
1.5
100
AcDbArc
 50
0.0
 51
90.0
  0
ARC
  5
883A
330
1A
100
AcDbEntity
  8
SEIHIN
100
AcDbCircle
 10
362.1683441168695
 20
377.9901279675702
 30
-0.0000000000084046
 40
2.0
100
AcDbArc
 50
0.0
 51
90.0
  0
ARC
  5
883B
330
1A
100
AcDbEntity
  8
SEIHIN
100
AcDbCircle
 10
364.6683441168697
 20
365.4901279675704
 30
-0.0000000000084046
 40
0.5
100
AcDbArc
 50
180.0
 51
270.0
  0
ARC
  5
883C
330
1A
100
AcDbEntity
  8
SEIHIN
100
AcDbCircle
 10
364.6683441168697
 20
365.4901279675704
 30
-0.0000000000084046
 40
1.0
100
AcDbArc
 50
180.0
 51
270.0
  0
LINE
  5
8842
330
1A
100
AcDbEntity
  8
SEIHIN
100
AcDbLine
 10
369.1683441168696
 20
364.9901279675701
 30
-0.0000000000084046
 11
383.1683441168697
 21
364.9901279675701
 31
-0.0000000000084046
  0
ARC
  5
8844
330
1A
100
AcDbEntity
  8
SEIHIN
100
AcDbCircle
 10
390.6683441168695
 20
378.4901279675702
 30
-0.0000000000084046
 40
1.0
100
AcDbArc
 50
90.0
 51
180.0
  0
ARC
  5
8846
330
1A
100
AcDbEntity
  8
SEIHIN
100
AcDbCircle
 10
400.3983441168688
 20
365.7601279675598
 30
-0.0000000000084046
 40
1.27
100
AcDbArc
 50
270.0
 51
0.0
  0
ARC
  5
8848
330
1A
100
AcDbEntity
  8
SEIHIN
100
AcDbCircle
 10
388.3983441168691
 20
365.7601279675743
 30
-0.0000000000084046
 40
1.27
100
AcDbArc
 50
270.0
 51
0.0
  0
ARC
  5
8849
330
1A
100
AcDbEntity
  8
SEIHIN
100
AcDbCircle
 10
362.0274439654969
 20
376.7718874054402
 30
-0.0000000000084046
 40
2.185042900860056
100
AcDbArc
 50
221.3255879138012
 51
318.6744120862083
  0
ARC
  5
884A
330
1A
100
AcDbEntity
  8
SEIHIN
100
AcDbCircle
 10
356.932807686995
 20
376.0350795157084
 30
-0.0000000000084046
 40
1.448235011128755
100
AcDbArc
 50
209.1783198175145
 51
330.821680182642
  0
HATCH
  5
884B
330
1A
100
AcDbEntity
  8
SEIHIN
370
     9
100
AcDbHatch
 10
0.0
 20
0.0
 30
-0.0000000000087457
210
0.0
220
0.0
230
1.0
  2
ANSI31
 70
     0
 71
     0
 91
        1
 92
        1
 93
       10
 72
     2
 10
362.0274439654979
 20
376.7718874054411
 40
2.185042900860784
 50
221.3255879138127
 51
318.6744120862505
 73
     1
 72
     1
 10
363.6683441168695
 20
375.3290224873593
 11
363.6683441168695
 21
377.9901279675702
 72
     2
 10
362.1683441168695
 20
377.9901279675702
 40
1.5
 50
0.0
 51
90.0
 73
     1
 72
     1
 10
362.1683441168695
 20
379.4901279675702
 11
357.1683441168695
 21
379.4901279675702
 72
     2
 10
357.1683441168695
 20
377.9901279675702
 40
1.5
 50
90.0
 51
180.0
 73
     1
 72
     1
 10
355.6683441168695
 20
377.9901279675702
 11
355.6683441168695
 21
375.3290224873576
 72
     2
 10
356.9328076869942
 20
376.0350795157077
 40
1.448235011127418
 50
209.1783198174192
 51
330.8216801825819
 73
     1
 72
     1
 10
358.197271257119
 20
375.3290224873576
 11
357.6387902688737
 21
376.5833913244764
 72
     2
 10
358.5523357265165
 20
376.9901279675519
 40
1.000000000000011
 50
156.0000000000242
 51
336.0000000000241
 73
     0
 72
     1
 10
359.4658811841593
 20
377.3968646106273
 11
360.386543814128
 21
375.3290224873576
 97
        0
 75
     0
 76
     1
 52
0.0
 41
0.5
 77
     0
 78
     1
 53
45.0
 43
-5677.331462315127
 44
-657.7094126041767
 45
-1.122532015133643
 46
1.122532015133643
 79
     0
 98
        1
 10
361.8449012385061
 20
377.265083801162
  0
LINE
  5
8850
330
1A
100
AcDbEntity
  8
SEIHIN
100
AcDbLine
 10
398.7802499406605
 20
364.4901279675555
 30
-0.0000000000084046
 11
400.3983441168688
 21
364.4901279675555
 31
-0.0000000000084046
  0
HATCH
  5
8952
330
1A
100
AcDbEntity
  8
SEALING
370
     9
100
AcDbHatch
 10
0.0
 20
0.0
 30
-0.0000000000094575
210
0.0
220
0.0
230
1.0
  2
ANSI37
 70
     0
 71
     0
 91
        1
 92
        1
 93
        6
 72
     2
 10
362.9927143823712
 20
395.4357288887218
 40
79.19294989208125
 50
60.22601304449983
 51
75.92067164918145
 73
     0
 72
     1
 10
382.2575934692801
 20
318.6217474375794
 11
392.6390241688671
 21
319.572053216301
 72
     1
 10
392.6390241688671
 20
319.572053216301
 11
392.6683363798306
 21
320.4577956532542
 72
     1
 10
392.6683363798306
 20
320.4577956532542
 11
392.6683441168713
 21
320.8077895676901
 72
     1
 10
392.6683441168713
 20
320.8077895676901
 11
402.3183441168701
 21
320.8077895676906
 72
     1
 10
402.3183441168701
 20
320.8077895676906
 11
402.31834411687
 21
326.6969613801697
 97
        0
 75
     1
 76
     1
 52
0.0
 41
1.0
 77
     0
 78
     2
 53
45.0
 43
11.98858635247268
 44
-71.29640667366908
 45
-2.245064030267287
 46
2.245064030267287
 79
     0
 53
135.0
 43
11.98858635247268
 44
-71.29640667366908
 45
-2.245064030267287
 46
-2.245064030267287
 79
     0
 98
        1
 10
398.8758863335992
 20
324.2383716118415
1001
GradientColor1ACI
1070
     5
1001
GradientColor2ACI
1070
     2
1001
ACAD
1010
0.0
1020
0.0
1030
0.0
  0
ARC
  5
8953
330
1A
100
AcDbEntity
  8
SEALING
100
AcDbCircle
 10
362.9927143823522
 20
395.4357288887616
 30
-0.0000000000461436
 40
79.1929498921252
100
AcDbArc
 50
284.0793283508281
 51
299.7739869554978
  0
LINE
  5
89CF
330
1A
100
AcDbEntity
  8
SITAJI
  6
DASHED2
100
AcDbLine
 10
484.6683441168686
 20
481.4196463877684
 30
-0.000000000017862
 11
484.6683441168694
 21
435.490128331164
 31
-0.000000000017862
  0
LINE
  5
89D0
330
1A
100
AcDbEntity
  8
SITAJI
100
AcDbLine
 10
504.6683441168696
 20
481.4196463877684
 30
-0.000000000017862
 11
504.6683441168688
 21
435.490128331164
 31
-0.000000000017862
  0
LINE
  5
89D1
330
1A
100
AcDbEntity
  8
SITAJI
100
AcDbLine
 10
504.6683441168695
 20
435.490128331164
 30
-0.000000000017862
 11
404.6683441168695
 21
435.490128331164
 31
-0.000000000017862
  0
LINE
  5
89D2
330
1A
100
AcDbEntity
  8
SITAJI
100
AcDbLine
 10
404.6683441168694
 20
481.4196463877684
 30
-0.000000000017862
 11
404.6683441168695
 21
435.490128331164
 31
-0.000000000017862
  0
LINE
  5
89D3
330
1A
100
AcDbEntity
  8
SITAJI
  6
DASHED2
100
AcDbLine
 10
424.6683441168697
 20
481.4196463877684
 30
-0.000000000017862
 11
424.6683441168689
 21
435.490128331164
 31
-0.000000000017862
  0
ARC
  5
89FA
330
1A
100
AcDbEntity
  8
DOOR
100
AcDbCircle
 10
446.3162188133771
 20
320.4901283311729
 30
-0.000000000017862
 40
1.0
100
AcDbArc
 50
90.0
 51
146.4155217339239
  0
ARC
  5
89FB
330
1A
100
AcDbEntity
  8
DOOR
100
AcDbCircle
 10
446.3162188133743
 20
320.4901283311647
 30
-0.000000000017862
 40
10.0
100
AcDbArc
 50
90.0
 51
146.4155217339202
  0
LINE
  5
8B18
330
1A
100
AcDbEntity
  8
SUTEITA
100
AcDbLine
 10
394.8183441168749
 20
358.1401279675497
 30
-0.0000000000084046
 11
360.1683441168752
 21
358.1401279675605
 31
-0.0000000000084046
  0
LINE
  5
8B19
330
1A
100
AcDbEntity
  8
SUTEITA
100
AcDbLine
 10
360.1683441168752
 20
358.1401279675605
 30
-0.0000000000084046
 11
360.1683441168749
 21
338.8401279675605
 31
-0.0000000000084046
  0
LINE
  5
8B1A
330
1A
100
AcDbEntity
  8
SUTEITA
100
AcDbLine
 10
360.1683441168749
 20
338.8401279675605
 30
-0.0000000000084046
 11
374.818344116875
 21
338.8401279675605
 31
-0.0000000000084046
  0
LINE
  5
8D01
330
1A
100
AcDbEntity
  8
SUTEITA
100
AcDbLine
 10
402.6683346616279
 20
420.4580884793448
 30
-0.0000000000094575
 11
402.3183441168693
 21
420.4580884793448
 31
-0.0000000000094575
  0
LINE
  5
8D53
330
1A
100
AcDbEntity
  8
YAKUMONO
100
AcDbLine
 10
400.6183441168745
 20
341.9901279675555
 30
-0.0000000000084046
 11
400.3183441168743
 21
342.2901279675621
 31
-0.0000000000084046
  0
LINE
  5
8EDC
330
1A
100
AcDbEntity
  8
SEIHIN
100
AcDbLine
 10
401.1683441168695
 20
481.4196463877684
 30
-0.0000000000084046
 11
401.1683441168695
 21
365.7601279675598
 31
-0.0000000000084046
  0
LINE
  5
8EDD
330
1A
100
AcDbEntity
  8
SEIHIN
100
AcDbLine
 10
390.6683441168695
 20
379.9901279675702
 30
-0.0000000000084046
 11
394.7928277201734
 21
379.9901279675702
 31
-0.0000000000084046
  0
LINE
  5
8EDF
330
1A
100
AcDbEntity
  8
SEIHIN
100
AcDbLine
 10
398.0170044571478
 20
365.6583619030886
 30
-0.0000000000084046
 11
396.2796695711968
 21
378.6883735477048
 31
-0.0000000000084046
  0
ARC
  5
8EE0
330
1A
100
AcDbEntity
  8
SEIHIN
100
AcDbCircle
 10
394.7928277201734
 20
378.4901279675702
 30
-0.0000000000084046
 40
1.5
100
AcDbArc
 50
7.594643368490627
 51
90.0
  0
ARC
  5
8EE1
330
1A
100
AcDbEntity
  8
SEIHIN
100
AcDbCircle
 10
390.6683441168695
 20
378.4901279675702
 30
-0.0000000000084046
 40
1.5
100
AcDbArc
 50
90.0
 51
180.0
  0
LINE
  5
8EE2
330
1A
100
AcDbEntity
  8
SEIHIN
100
AcDbLine
 10
389.1683441168695
 20
378.4901279675702
 30
-0.0000000000084046
 11
389.1683441168695
 21
365.7601279675741
 31
-0.0000000000084046
  0
ARC
  5
8EE3
330
1A
100
AcDbEntity
  8
SEIHIN
100
AcDbCircle
 10
388.3983441168691
 20
365.7601279675743
 30
-0.0000000000084046
 40
0.7700000000000001
100
AcDbArc
 50
270.0
 51
0.0
  0
LINE
  5
8EE4
330
1A
100
AcDbEntity
  8
SEIHIN
100
AcDbLine
 10
383.1683441168697
 20
364.9901279675701
 30
-0.0000000000084046
 11
388.3983441168709
 21
364.9901279675701
 31
-0.0000000000084046
  0
ARC
  5
8EE5
330
1A
100
AcDbEntity
  8
SEIHIN
100
AcDbCircle
 10
398.7802499406732
 20
365.7601279675598
 30
-0.0000000000084046
 40
0.7700000000000001
100
AcDbArc
 50
187.5946433684906
 51
269.9999999993746
  0
LINE
  5
8EE6
330
1A
100
AcDbEntity
  8
SEIHIN
100
AcDbLine
 10
398.7802499406605
 20
364.9901279675554
 30
-0.0000000000084046
 11
400.3983441168688
 21
364.9901279675554
 31
-0.0000000000084046
  0
ARC
  5
8EE7
330
1A
100
AcDbEntity
  8
SEIHIN
100
AcDbCircle
 10
400.3983441168688
 20
365.7601279675598
 30
-0.0000000000084046
 40
0.7700000000000001
100
AcDbArc
 50
270.0
 51
0.0
  0
MULTILEADER
  5
8F0C
330
1A
100
AcDbEntity
  8
HIKIDASI
160
               560
310
30020000150000000C00000016000000000000C00C00000033000000000000000C00000013000000993A0000D8000000260000006C4497A67FB97B40D91ABB953E9A6E4074D1BDDC4627DFBD00000000000000000000000000000000000000000000F03F000000000000F03F00000000000000000000000000000000686366
310
30B730FC30EA30F330B030000007000000010000000000000000001440000000000000F03F0000000000000000000000000000F03F000000000000000000000000000000000000000000000000000000000100000000000000000000007400780074002E00730068007800000065007800740066006F006E0074002E007300
310
6800780000000C00000033000000000000000C00000010000000040000000C00000016000000000000C00C00000012000000FF7F00000C00000013000000010000000C00000013000000891300003C0000000600000002000000D0CF1EB0ACDE7840D487B25C8821744074D1BDDC4627DFBDE6305F256C917B40D71ABB953E
310
EA6E4074D1BDDC4627DFBD0C00000013000000112700003C0000000600000002000000E6305F256C917B40D71ABB953EEA6E4074D1BDDC4627DFBD80CAF8BE059B7B40D71ABB953EEA6E4074D1BDDC4627DFBD0C00000016000000000000C00C00000012000000FF7F00000C00000017000000000000000C00000013000000
310
9A3A00000C00000016000000000000C00C00000012000000FF7F00000C00000017000000FFFFFFFF0C0000003300000000000000
100
AcDbMLeader
270
     2
300
CONTEXT_DATA{
 40
1.0
 10
441.6889028280638
 20
247.3201397566215
 30
-0.0000000001133355
 41
5.0
140
0.0
145
2.0
174
     1
175
     3
176
     0
177
     0
290
     1
304
捨てシーリング
 11
0.0
 21
0.0
 31
1.0
340
10
 12
443.6889028280639
 22
249.8201397566215
 32
-0.0000000001133355
 13
1.0
 23
0.0
 33
0.0
 42
0.0
 43
0.0
 44
0.0
 45
1.0
170
     1
 90
-1073741824
171
     1
172
     5
 91
-1073741824
141
0.0
 92
        0
291
     0
292
     0
173
     0
293
     0
142
0.0
143
0.0
294
     0
295
     0
296
     0
110
396.5992998253532
120
324.3783925658857
130
-0.0000000001133355
111
1.0
121
0.0
131
0.0
112
0.0
122
1.0
132
0.0
297
     0
302
LEADER{
290
     1
291
     1
 10
441.0889028280638
 20
247.3201397566215
 30
-0.0000000001133355
 11
1.0
 21
0.0
 31
0.0
 90
        0
 40
0.6
304
LEADER_LINE{
 10
397.9171601489625
 20
322.0957915281153
 30
-0.0000000001133355
 91
        0
305
}
271
     0
303
}
272
     9
273
     9
301
}
340
49E1
 90
   279552
170
     1
 91
-1056964608
341
14
171
    -2
290
     1
291
     1
 41
0.6
342
B0
 42
0.0
172
     2
343
10
173
     1
 95
        3
174
     1
175
     0
 92
-1056964608
292
     0
 93
-1056964608
 10
1.0
 20
1.0
 30
1.0
 43
0.0
176
     0
293
     0
294
     0
178
     0
179
     1
 45
1.0
271
     0
272
     9
273
     9
  0
MULTILEADER
  5
8F0E
330
1A
100
AcDbEntity
  8
HIKIDASI
160
               564
310
34020000150000000C00000016000000000000C00C00000033000000000000000C00000013000000993A0000DC000000260000006B64665FBD0A6F40FE78A1FB7B4A7040000000000000000000000000000000000000000000000000000000000000F03F000000000000F03F00000000000000000000000000000000C930A2
310
30A06708FF25521490E55D8B4E09FF000009000000010000000000000000001440000000000000F03F0000000000000000000000000000F03F000000000000000000000000000000000000000000000000000000000100000000000000000000007400780074002E00730068007800000065007800740066006F006E007400
310
2E0073006800780000000C00000033000000000000000C00000010000000040000000C00000016000000000000C00C00000012000000FF7F00000C00000013000000010000000C00000013000000891300003C00000006000000020000004ADBF56CB31A7440705E6B004CBA724000000000000000007B76F7F3A2C97240FE
310
78A1FB7B72704000000000000000000C00000013000000112700003C00000006000000020000007B76F7F3A2C97240FE78A1FB7B7270400000000000000000E1DC5D5A09C07240FE78A1FB7B72704000000000000000000C00000016000000000000C00C00000012000000FF7F00000C00000017000000000000000C000000
310
130000009A3A00000C00000016000000000000C00C00000012000000FF7F00000C00000017000000FFFFFFFF0C0000003300000000000000
100
AcDbMLeader
270
     2
300
CONTEXT_DATA{
 40
1.0
 10
248.6689501126463
 20
263.1552692706608
 30
0.0
 41
5.0
140
0.0
145
2.0
174
     1
175
     3
176
     2
177
     0
290
     1
304
ドア枠（別途工事）
 11
0.0
 21
0.0
 31
1.0
340
10
 12
298.0022834459796
 22
265.6552692706608
 32
0.0
 13
1.0
 23
0.0
 33
0.0
 42
0.0
 43
0.0
 44
0.0
 45
1.0
170
     1
 90
-1073741824
171
     3
172
     5
 91
-1073741824
141
0.0
 92
        0
291
     0
292
     0
173
     0
293
     0
142
0.0
143
0.0
294
     0
295
     0
296
     0
110
321.6688050845884
120
299.6435550874803
130
0.0
111
1.0
121
0.0
131
0.0
112
0.0
122
1.0
132
0.0
297
     0
302
LEADER{
290
     1
291
     1
 10
300.6022834459797
 20
263.1552692706608
 30
0.0
 11
-1.0
 21
0.0
 31
0.0
 90
        0
 40
0.6
304
LEADER_LINE{
 10
321.6688050845884
 20
299.6435550874803
 30
0.0
 91
        0
305
}
271
     0
303
}
272
     9
273
     9
301
}
340
49E1
 90
   279552
170
     1
 91
-1056964608
341
14
171
    -2
290
     1
291
     1
 41
0.6
342
B0
 42
0.0
172
     2
343
10
173
     1
 95
        3
174
     1
175
     2
 92
-1056964608
292
     0
 93
-1056964608
 10
1.0
 20
1.0
 30
1.0
 43
0.0
176
     0
293
     0
294
     0
178
     0
179
     3
 45
1.0
271
     0
272
     9
273
     9
  0
MULTILEADER
  5
8F0F
330
1A
100
AcDbEntity
  8
HIKIDASI
160
               580
310
44020000150000000C00000016000000000000C00C00000033000000000000000C00000013000000993A0000EC00000026000000DB7C7E0401AF6D4058C33EDADFFD7C40C8C2DF388994843D00000000000000000000000000000000000000000000F03F000000000000F03F00000000000000000000000000000000AD65B1
310
71F430A130F330C9302EFF3AFF15FF10FF2F002EFF3AFF15FF10FF26FF0000FE1710000000010000000000000000001440000000000000F03F0000000000000000000000000000F03F000000000000000000000000000000000000000000000000000000000100000000000000000000007400780074002E00730068007800
310
000065007800740066006F006E0074002E0073006800780000000C00000033000000000000000C00000010000000040000000C00000016000000000000C00C00000012000000FF7F00000C00000013000000010000000C00000013000000891300003C0000000600000002000000395E128AB1FA754006BCB3476E227B40C8
310
C2DF388994843D06D8D81B1AD1744056C33EDADF257D40C8C2DF388994843D0C00000013000000112700003C000000060000000200000006D8D81B1AD1744056C33EDADF257D40C8C2DF388994843D6C3E3F8280C7744056C33EDADF257D40C8C2DF388994843D0C00000016000000000000C00C00000012000000FF7F0000
310
0C00000017000000000000000C000000130000009A3A00000C00000016000000000000C00C00000012000000FF7F00000C00000017000000FFFFFFFF0C0000003300000000000000
100
AcDbMLeader
270
     2
300
CONTEXT_DATA{
 40
1.0
 10
235.4688742132629
 20
466.7004848275198
 30
0.0000000000023397
 41
5.0
140
0.0
145
2.0
174
     1
175
     3
176
     2
177
     0
290
     1
304
断熱ヴァンドＮＺ５０/ＮＺ５０Ｆ
 11
0.0
 21
0.0
 31
1.0
340
10
 12
330.4688742132628
 22
469.2004848275199
 32
0.0000000000023397
 13
1.0
 23
0.0
 33
0.0
 42
0.0
 43
0.0
 44
0.0
 45
1.0
170
     1
 90
-1073741824
171
     3
172
     5
 91
-1073741824
141
0.0
 92
        0
291
     0
292
     0
173
     0
293
     0
142
0.0
143
0.0
294
     0
295
     0
296
     0
110
351.668344566107
120
434.1519238491895
130
0.0000000000023397
111
1.0
121
0.0
131
0.0
112
0.0
122
1.0
132
0.0
297
     0
302
LEADER{
290
     1
291
     1
 10
333.0688742132628
 20
466.3671514941865
 30
0.0000000000023397
 11
-1.0
 21
0.0
 31
0.0
 90
        0
 40
0.6
304
LEADER_LINE{
 10
351.668344566107
 20
434.1519238491895
 30
0.0000000000023397
 91
        0
305
}
271
     0
303
}
272
     9
273
     9
301
}
340
49E1
 90
   279552
170
     1
 91
-1056964608
341
14
171
    -2
290
     1
291
     1
 41
0.6
342
B0
 42
0.0
172
     2
343
10
173
     1
 95
        3
174
     1
175
     2
 92
-1056964608
292
     0
 93
-1056964608
 10
1.0
 20
1.0
 30
1.0
 43
0.0
176
     0
293
     0
294
     0
178
     0
179
     3
 45
1.0
271
     0
272
     9
273
     9
  0
MULTILEADER
  5
8F10
330
1A
100
AcDbEntity
  8
HIKIDASI
160
               556
310
2C020000150000000C00000016000000000000C00C00000033000000000000000C00000013000000993A0000D400000026000000F1DB58C6A3527240736AA44169137C40C8C2DF388994843D00000000000000000000000000000000000000000000F03F000000000000F03F0000000000000000000000000000000026FF28
310
FF15FF11FF19FF000005000000010000000000000000001440000000000000F03F0000000000000000000000000000F03F000000000000000000000000000000000000000000000000000000000100000000000000000000007400780074002E00730068007800000065007800740066006F006E0074002E00730068007800
310
00000C00000033000000000000000C00000010000000040000000C00000016000000000000C00C00000012000000FF7F00000C00000013000000010000000C00000013000000891300003C000000060000000200000058C688C5F57C774046005614DC8F7640C8C2DF388994843D36209D0AE8367440736AA441693B7C40C8
310
C2DF388994843D0C00000013000000112700003C000000060000000200000036209D0AE8367440736AA441693B7C40C8C2DF388994843D9C8603714E2D7440736AA441693B7C40C8C2DF388994843D0C00000016000000000000C00C00000012000000FF7F00000C00000017000000000000000C000000130000009A3A0000
310
0C00000016000000000000C00C00000012000000FF7F00000C00000017000000FFFFFFFF0C0000003300000000000000
100
AcDbMLeader
270
     2
300
CONTEXT_DATA{
 40
1.0
 10
291.8316507470824
 20
451.7131973669521
 30
0.0000000000023397
 41
5.0
140
0.0
145
2.0
174
     1
175
     3
176
     2
177
     0
290
     1
304
ＦＨ５１９
 11
0.0
 21
0.0
 31
1.0
340
10
 12
320.8316507470824
 22
454.2131973669522
 32
0.0000000000023397
 13
1.0
 23
0.0
 33
0.0
 42
0.0
 43
0.0
 44
0.0
 45
1.0
170
     1
 90
-1073741824
171
     3
172
     5
 91
-1073741824
141
0.0
 92
        0
291
     0
292
     0
173
     0
293
     0
142
0.0
143
0.0
294
     0
295
     0
296
     0
110
375.8100028364911
120
360.9912303313653
130
0.0000000000023397
111
1.0
121
0.0
131
0.0
112
0.0
122
1.0
132
0.0
297
     0
302
LEADER{
290
     1
291
     1
 10
323.4316507470825
 20
451.7131973669521
 30
0.0000000000023397
 11
-1.0
 21
0.0
 31
0.0
 90
        0
 40
0.6
304
LEADER_LINE{
 10
375.8100028364911
 20
360.9912303313653
 30
0.0000000000023397
 91
        0
305
}
271
     0
303
}
272
     9
273
     9
301
}
340
49E1
 90
   279552
170
     1
 91
-1056964608
341
14
171
    -2
290
     1
291
     1
 41
0.6
342
B0
 42
0.0
172
     2
343
10
173
     1
 95
        3
174
     1
175
     2
 92
-1056964608
292
     0
 93
-1056964608
 10
1.0
 20
1.0
 30
1.0
 43
0.0
176
     0
293
     0
294
     0
178
     0
179
     3
 45
1.0
271
     0
272
     9
273
     9
  0
MULTILEADER
  5
8F11
330
1A
100
AcDbEntity
  8
HIKIDASI
160
               564
310
34020000150000000C00000016000000000000C00C00000033000000000000000C00000013000000993A0000DC00000026000000DC1EA9E0496570401A8E24F559327B40C8C2DF388994843D00000000000000000000000000000000000000000000F03F000000000000F03F00000000000000000000000000000000B930BF
310
30FC30BF30FC3032FF3AFF15FF10FF000009000000010000000000000000001440000000000000F03F0000000000000000000000000000F03F000000000000000000000000000000000000000000000000000000000100000000000000000000007400780074002E00730068007800000065007800740066006F006E007400
310
2E0073006800780000000C00000033000000000000000C00000010000000040000000C00000016000000000000C00C00000012000000FF7F00000C00000013000000010000000C00000013000000891300003C0000000600000002000000D62DDADB34967640601BF63613817640C8C2DF388994843D2063ED248EC973401A
310
8E24F5595A7B40C8C2DF388994843D0C00000013000000112700003C00000006000000020000002063ED248EC973401A8E24F5595A7B40C8C2DF388994843D86C9538BF4BF73401A8E24F5595A7B40C8C2DF388994843D0C00000016000000000000C00C00000012000000FF7F00000C00000017000000000000000C000000
310
130000009A3A00000C00000016000000000000C00C00000012000000FF7F00000C00000017000000FFFFFFFF0C0000003300000000000000
100
AcDbMLeader
270
     2
300
CONTEXT_DATA{
 40
1.0
 10
260.9972031853617
 20
437.6469623020108
 30
0.0000000000023397
 41
5.0
140
0.0
145
2.0
174
     1
175
     3
176
     2
177
     0
290
     1
304
スターターＲＺ５０
 11
0.0
 21
0.0
 31
1.0
340
10
 12
313.9972031853617
 22
440.1469623020108
 32
0.0000000000023397
 13
1.0
 23
0.0
 33
0.0
 42
0.0
 43
0.0
 44
0.0
 45
1.0
170
     1
 90
-1073741824
171
     3
172
     5
 91
-1073741824
141
0.0
 92
        0
291
     0
292
     0
173
     0
293
     0
142
0.0
143
0.0
294
     0
295
     0
296
     0
110
361.3879049799556
120
360.0671910871079
130
0.0000000000023397
111
1.0
121
0.0
131
0.0
112
0.0
122
1.0
132
0.0
297
     0
302
LEADER{
290
     1
291
     1
 10
316.5972031853617
 20
437.6469623020108
 30
0.0000000000023397
 11
-1.0
 21
0.0
 31
0.0
 90
        0
 40
0.6
304
LEADER_LINE{
 10
361.3879049799556
 20
360.0671910871079
 30
0.0000000000023397
 91
        0
305
}
271
     0
303
}
272
     9
273
     9
301
}
340
49E1
 90
   279552
170
     1
 91
-1056964608
341
14
171
    -2
290
     1
291
     1
 41
0.6
342
B0
 42
0.0
172
     2
343
10
173
     1
 95
        3
174
     1
175
     2
 92
-1056964608
292
     0
 93
-1056964608
 10
1.0
 20
1.0
 30
1.0
 43
0.0
176
     0
293
     0
294
     0
178
     0
179
     3
 45
1.0
271
     0
272
     9
273
     9
  0
MULTILEADER
  5
8F12
330
1A
100
AcDbEntity
  8
HIKIDASI
160
               568
310
38020000150000000C00000016000000000000C00C00000033000000000000000C00000013000000993A0000E000000026000000AFC025892A5B6F40D02CA35901557A40C8C2DF388994843D00000000000000000000000000000000000000000000F03F000000000000F03F00000000000000000000000000000000B730FC
310
30EB30D753513008FFFE733458A052E55D09FF00000B000000010000000000000000001440000000000000F03F0000000000000000000000000000F03F000000000000000000000000000000000000000000000000000000000100000000000000000000007400780074002E00730068007800000065007800740066006F00
310
6E0074002E0073006800780000000C00000033000000000000000C00000010000000040000000C00000016000000000000C00C00000012000000FF7F00000C00000013000000010000000C00000013000000891300003C0000000600000002000000A22D00F0177D764021346AAF2AA67540C8C2DF388994843D9B24D788D9
310
B17340D22CA359017D7A40C8C2DF388994843D0C00000013000000112700003C00000006000000020000009B24D788D9B17340D22CA359017D7A40C8C2DF388994843D018B3DEF3FA87340D22CA359017D7A40C8C2DF388994843D0C00000016000000000000C00C00000012000000FF7F00000C0000001700000000000000
310
0C000000130000009A3A00000C00000016000000000000C00C00000012000000FF7F00000C00000017000000FFFFFFFF0C0000003300000000000000
100
AcDbMLeader
270
     2
300
CONTEXT_DATA{
 40
1.0
 10
249.515609016802
 20
423.8128296255137
 30
0.0000000000023397
 41
5.0
140
0.0
145
2.0
174
     1
175
     3
176
     2
177
     0
290
     1
304
シール受け（現場加工）
 11
0.0
 21
0.0
 31
1.0
340
10
 12
312.5156090168021
 22
426.3128296255136
 32
0.0000000000023397
 13
1.0
 23
0.0
 33
0.0
 42
0.0
 43
0.0
 44
0.0
 45
1.0
170
     1
 90
-1073741824
171
     3
172
     5
 91
-1073741824
141
0.0
 92
        0
291
     0
292
     0
173
     0
293
     0
142
0.0
143
0.0
294
     0
295
     0
296
     0
110
359.818344116875
120
346.3854211948947
130
0.0000000000023397
111
1.0
121
0.0
131
0.0
112
0.0
122
1.0
132
0.0
297
     0
302
LEADER{
290
     1
291
     1
 10
315.1156090168021
 20
423.8128296255137
 30
0.0000000000023397
 11
-1.0
 21
0.0
 31
0.0
 90
        0
 40
0.6
304
LEADER_LINE{
 10
359.818344116875
 20
346.3854211948947
 30
0.0000000000023397
 91
        0
305
}
271
     0
303
}
272
     9
273
     9
301
}
340
49E1
 90
   279552
170
     1
 91
-1056964608
341
14
171
    -2
290
     1
291
     1
 41
0.6
342
B0
 42
0.0
172
     2
343
10
173
     1
 95
        3
174
     1
175
     2
 92
-1056964608
292
     0
 93
-1056964608
 10
1.0
 20
1.0
 30
1.0
 43
0.0
176
     0
293
     0
294
     0
178
     0
179
     3
 45
1.0
271
     0
272
     9
273
     9
  0
MULTILEADER
  5
8F13
330
1A
100
AcDbEntity
  8
HIKIDASI
160
               568
310
38020000150000000C00000016000000000000C00C00000033000000000000000C00000013000000993A0000E00000002600000047FB005221946E40FE59F40607817940C8C2DF388994843D00000000000000000000000000000000000000000000F03F000000000000F03F00000000000000000000000000000000B730FC
310
30EA30F330B03008FF25521490E55D8B4E09FF00000B000000010000000000000000001440000000000000F03F0000000000000000000000000000F03F000000000000000000000000000000000000000000000000000000000100000000000000000000007400780074002E00730068007800000065007800740066006F00
310
6E0074002E0073006800780000000C00000033000000000000000C00000010000000040000000C00000016000000000000C00C00000012000000FF7F00000C00000013000000010000000C00000013000000891300003C0000000600000002000000B7CC0531CE4A764003E6C190EB7C7440C8C2DF388994843DE8C144ED54
310
4E7340FE59F40607A97940C8C2DF388994843D0C00000013000000112700003C0000000600000002000000E8C144ED544E7340FE59F40607A97940C8C2DF388994843D4E28AB53BB447340FE59F40607A97940C8C2DF388994843D0C00000016000000000000C00C00000012000000FF7F00000C0000001700000000000000
310
0C000000130000009A3A00000C00000016000000000000C00C00000012000000FF7F00000C00000017000000FFFFFFFF0C0000003300000000000000
100
AcDbMLeader
270
     2
300
CONTEXT_DATA{
 40
1.0
 10
243.2957340894544
 20
410.5642156167013
 30
0.0000000000023397
 41
5.0
140
0.0
145
2.0
174
     1
175
     3
176
     2
177
     0
290
     1
304
シーリング（別途工事）
 11
0.0
 21
0.0
 31
1.0
340
10
 12
306.2957340894544
 22
413.0642156167012
 32
0.0000000000023397
 13
1.0
 23
0.0
 33
0.0
 42
0.0
 43
0.0
 44
0.0
 45
1.0
170
     1
 90
-1073741824
171
     3
172
     5
 91
-1073741824
141
0.0
 92
        0
291
     0
292
     0
173
     0
293
     0
142
0.0
143
0.0
294
     0
295
     0
296
     0
110
355.5633204812845
120
329.7335849194416
130
0.0000000000023397
111
1.0
121
0.0
131
0.0
112
0.0
122
1.0
132
0.0
297
     0
302
LEADER{
290
     1
291
     1
 10
308.8957340894544
 20
410.5642156167013
 30
0.0000000000023397
 11
-1.0
 21
0.0
 31
0.0
 90
        0
 40
0.6
304
LEADER_LINE{
 10
356.6753397203969
 20
327.8075110983047
 30
0.0000000000023397
 91
        0
305
}
271
     0
303
}
272
     9
273
     9
301
}
340
49E1
 90
   279552
170
     1
 91
-1056964608
341
14
171
    -2
290
     1
291
     1
 41
0.6
342
B0
 42
0.0
172
     2
343
10
173
     1
 95
        3
174
     1
175
     2
 92
-1056964608
292
     0
 93
-1056964608
 10
1.0
 20
1.0
 30
1.0
 43
0.0
176
     0
293
     0
294
     0
178
     0
179
     3
 45
1.0
271
     0
272
     9
273
     9
  0
MULTILEADER
  5
8F15
330
1A
100
AcDbEntity
  8
HIKIDASI
160
               556
310
2C020000150000000C00000016000000000000C00C00000033000000000000000C00000013000000993A0000D4000000260000008A73FBBF3CE17A40D01FE155C65E7740C8C2DF388994843D00000000000000000000000000000000000000000000F03F000000000000F03F0000000000000000000000000000000026FF28
310
FF15FF11FF19FF000005000000010000000000000000001440000000000000F03F0000000000000000000000000000F03F000000000000000000000000000000000000000000000000000000000100000000000000000000007400780074002E00730068007800000065007800740066006F006E0074002E00730068007800
310
00000C00000033000000000000000C00000010000000040000000C00000016000000000000C00C00000012000000FF7F00000C00000013000000010000000C00000013000000891300003C0000000600000002000000C8D1666A058A794054013B92E2697540C8C2DF388994843D9B840CD14DC27A40D01FE155C6867740C8
310
C2DF388994843D0C00000013000000112700003C00000006000000020000009B840CD14DC27A40D01FE155C6867740C8C2DF388994843D351EA66AE7CB7A40D01FE155C6867740C8C2DF388994843D0C00000016000000000000C00C00000012000000FF7F00000C00000017000000000000000C000000130000009A3A0000
310
0C00000016000000000000C00C00000012000000FF7F00000C00000017000000FFFFFFFF0C0000003300000000000000
100
AcDbMLeader
270
     2
300
CONTEXT_DATA{
 40
1.0
 10
428.7439981926903
 20
376.4234217447202
 30
0.0000000000023397
 41
5.0
140
0.0
145
2.0
174
     1
175
     3
176
     0
177
     0
290
     1
304
ＦＨ５１９
 11
0.0
 21
0.0
 31
1.0
340
10
 12
430.7439981926902
 22
378.9234217447202
 32
0.0000000000023397
 13
1.0
 23
0.0
 33
0.0
 42
0.0
 43
0.0
 44
0.0
 45
1.0
170
     1
 90
-1073741824
171
     1
172
     5
 91
-1073741824
141
0.0
 92
        0
291
     0
292
     0
173
     0
293
     0
142
0.0
143
0.0
294
     0
295
     0
296
     0
110
408.6263221756349
120
342.6178152375117
130
0.0000000000023397
111
1.0
121
0.0
131
0.0
112
0.0
122
1.0
132
0.0
297
     0
302
LEADER{
290
     1
291
     1
 10
428.1439981926903
 20
376.4234217447202
 30
0.0000000000023397
 11
1.0
 21
0.0
 31
0.0
 90
        0
 40
0.6
304
LEADER_LINE{
 10
408.6263221756349
 20
342.6178152375117
 30
0.0000000000023397
 91
        0
305
}
271
     0
303
}
272
     9
273
     9
301
}
340
49E1
 90
   279552
170
     1
 91
-1056964608
341
14
171
    -2
290
     1
291
     1
 41
0.6
342
B0
 42
0.0
172
     2
343
10
173
     1
 95
        3
174
     1
175
     0
 92
-1056964608
292
     0
 93
-1056964608
 10
1.0
 20
1.0
 30
1.0
 43
0.0
176
     0
293
     0
294
     0
178
     0
179
     1
 45
1.0
271
     0
272
     9
273
     9
  0
DIMENSION
  5
8F9B
330
1A
100
AcDbEntity
  8
SUNPOU
100
AcDbDimension
280
     0
  2
*D7
 10
292.3228532345067
 20
320.4901279675561
 30
0.0
 11
289.1978532345067
 21
327.9901279675633
 31
0.0
 70
    32
 71
     5
 42
15.00000000001483
 73
     0
 74
     0
 75
     0
  3
STANDARD
100
AcDbAlignedDimension
 13
353.6683447217338
 23
335.4901279675708
 33
-0.0000000000084046
 14
402.6683532759848
 24
320.490127967556
 34
0.0000000000096722
 50
90.0
100
AcDbRotatedDimension
  0
MULTILEADER
  5
8FA8
330
1A
100
AcDbEntity
  8
HIKIDASI
160
               572
310
3C020000150000000C00000016000000000000C00C00000033000000000000000C00000013000000993A0000E4000000260000004584B6A6F7646F4088BC0C32CCC96C40000000000000000000000000000000000000000000000000000000000000F03F000000000000F03F00000000000000000000000000000000D030C3
310
30AF30A230C330D730506708FF25521490E55D8B4E09FF00000D000000010000000000000000001440000000000000F03F0000000000000000000000000000F03F000000000000000000000000000000000000000000000000000000000100000000000000000000007400780074002E007300680078000000650078007400
310
66006F006E0074002E0073006800780000000C00000033000000000000000C00000010000000040000000C00000016000000000000C00C00000012000000FF7F00000C00000013000000010000000C00000013000000891300003C00000006000000020000006148A70CA5037840000AC76826B37440000000000000000066
310
869F17C076744088BC0C32CC196D4000000000000000000C00000013000000112700003C000000060000000200000066869F17C076744088BC0C32CC196D400000000000000000CCEC057E266D744088BC0C32CC196D4000000000000000000C00000016000000000000C00C00000012000000FF7F00000C00000017000000
310
000000000C000000130000009A3A00000C00000016000000000000C00C00000012000000FF7F00000C00000017000000FFFFFFFF0C0000003300000000000000
100
AcDbMLeader
270
     2
300
CONTEXT_DATA{
 40
1.0
 10
249.8218975287862
 20
232.8061762093314
 30
0.0
 41
5.0
140
0.0
145
2.0
174
     1
175
     3
176
     2
177
     0
290
     1
304
バックアップ材（別途工事）
 11
0.0
 21
0.0
 31
1.0
340
10
 12
324.8218975287862
 22
235.3061762093314
 32
0.0
 13
1.0
 23
0.0
 33
0.0
 42
0.0
 43
0.0
 44
0.0
 45
1.0
170
     1
 90
-1073741824
171
     3
172
     5
 91
-1073741824
141
0.0
 92
        0
291
     0
292
     0
173
     0
293
     0
142
0.0
143
0.0
294
     0
295
     0
296
     0
110
384.2277952703935
120
331.1968772673572
130
0.0
111
1.0
121
0.0
131
0.0
112
0.0
122
1.0
132
0.0
297
     0
302
LEADER{
290
     1
291
     1
 10
327.4218975287862
 20
232.8061762093314
 30
0.0
 11
-1.0
 21
0.0
 31
0.0
 90
        0
 40
0.6
304
LEADER_LINE{
 10
384.2277952703935
 20
331.1968772673572
 30
0.0
 91
        0
305
}
271
     0
303
}
272
     9
273
     9
301
}
340
49E1
 90
   279552
170
     1
 91
-1056964608
341
14
171
    -2
290
     1
291
     1
 41
0.6
342
B0
 42
0.0
172
     2
343
10
173
     1
 95
        3
174
     1
175
     2
 92
-1056964608
292
     0
 93
-1056964608
 10
1.0
 20
1.0
 30
1.0
 43
0.0
176
     0
293
     0
294
     0
178
     0
179
     3
 45
1.0
271
     0
272
     9
273
     9
  0
MULTILEADER
  5
8FA9
330
1A
100
AcDbEntity
  8
HIKIDASI
160
               576
310
40020000150000000C00000016000000000000C00C00000033000000000000000C00000013000000993A0000E8000000260000000951530881A379403907998ADA467940000000000000000000000000000000000000000000000000000000000000F03F000000000000F03F00000000000000000000000000000000D530E9
310
30C330B730F330B03008FF0A4E09FF08FFFE733458A052E55D09FF00000F000000010000000000000000001440000000000000F03F0000000000000000000000000000F03F000000000000000000000000000000000000000000000000000000000100000000000000000000007400780074002E0073006800780000006500
310
7800740066006F006E0074002E0073006800780000000C00000033000000000000000C00000010000000040000000C00000016000000000000C00C00000012000000FF7F00000C00000013000000010000000C00000013000000891300003C000000060000000200000046AB5A5EFC27794004E892F07DCE78400000000000
310
0000001A626419928479403807998ADA6E794000000000000000000C00000013000000112700003C00000006000000020000001A626419928479403807998ADA6E79400000000000000000B4FBFDB22B8E79403807998ADA6E794000000000000000000C00000016000000000000C00C00000012000000FF7F00000C000000
310
17000000000000000C000000130000009A3A00000C00000016000000000000C00C00000012000000FF7F00000C00000017000000FFFFFFFF0C0000003300000000000000
100
AcDbMLeader
270
     2
300
CONTEXT_DATA{
 40
1.0
 10
408.8856687470645
 20
406.9283548333801
 30
0.0
 41
5.0
140
0.0
145
2.0
174
     1
175
     3
176
     0
177
     0
290
     1
304
フラッシング（上）（現場加工）
 11
0.0
 21
0.0
 31
1.0
340
10
 12
410.8856687470645
 22
409.4283548333802
 32
0.0
 13
1.0
 23
0.0
 33
0.0
 42
0.0
 43
0.0
 44
0.0
 45
1.0
170
     1
 90
-1073741824
171
     1
172
     5
 91
-1073741824
141
0.0
 92
        0
291
     0
292
     0
173
     0
293
     0
142
0.0
143
0.0
294
     0
295
     0
296
     0
110
402.4991134206542
120
396.9057470072296
130
0.0
111
1.0
121
0.0
131
0.0
112
0.0
122
1.0
132
0.0
297
     0
302
LEADER{
290
     1
291
     1
 10
408.2856687470645
 20
406.9283548333801
 30
0.0
 11
1.0
 21
0.0
 31
0.0
 90
        0
 40
0.6
304
LEADER_LINE{
 10
402.4991134206542
 20
396.9057470072296
 30
0.0
 91
        0
305
}
271
     0
303
}
272
     9
273
     9
301
}
340
49E1
 90
   279552
170
     1
 91
-1056964608
341
14
171
    -2
290
     1
291
     1
 41
0.6
342
B0
 42
0.0
172
     2
343
10
173
     1
 95
        3
174
     1
175
     0
 92
-1056964608
292
     0
 93
-1056964608
 10
1.0
 20
1.0
 30
1.0
 43
0.0
176
     0
293
     0
294
     0
178
     0
179
     1
 45
1.0
271
     0
272
     9
273
     9
  0
HATCH
  5
8FD3
330
1A
100
AcDbEntity
  8
SEALING
370
     9
100
AcDbHatch
 10
0.0
 20
0.0
 30
0.0
210
0.0
220
0.0
230
1.0
  2
ANSI37
 70
     0
 71
     0
 91
        1
 92
        7
 72
     1
 73
     1
 93
       13
 10
359.818344116875
 20
338.4901279675607
 42
0.0
 10
355.6683441168695
 20
338.4901279675606
 42
0.0
 10
355.6683441168691
 20
337.4901279675703
 42
-0.6954947100761199
 10
352.1526757248718
 20
336.18523359426
 42
-0.0209981895679809
 10
352.8225008854
 20
333.3746620224031
 42
0.0
 10
354.7996777309351
 20
329.9500912703877
 42
-0.5773502691896254
 10
355.1746777309351
 20
329.7335849194416
 42
-1.0
 10
354.6746777309351
 20
329.7335849194416
 42
-0.2679491924311224
 10
354.7996777309351
 20
329.9500912703877
 42
0.0
 10
352.8225008854
 20
333.3746620224031
 42
-0.1299634799869161
 10
351.6532462008504
 20
315.8202561109217
 42
0.0
 10
374.818344116875
 20
317.9407659954721
 42
0.0
 10
374.8183441168752
 20
338.4901279675607
 42
0.0
 97
        0
 75
     1
 76
     1
 52
0.0
 41
1.0
 77
     0
 78
     2
 53
45.0
 43
0.0
 44
0.0
 45
-2.245064030267287
 46
2.245064030267287
 79
     0
 53
135.0
 43
0.0
 44
0.0
 45
-2.245064030267287
 46
-2.245064030267287
 79
     0
 47
0.0536447783520861
 98
        1
 10
361.6752362099678
 20
337.0115708462606
1001
GradientColor1ACI
1070
     5
1001
GradientColor2ACI
1070
     2
1001
ACAD
1010
0.0
1020
0.0
1030
0.0
  0
DIMENSION
  5
901D
330
1A
100
AcDbEntity
  8
SUNPOU
100
AcDbDimension
280
     0
  2
*D8
 10
292.3228532345068
 20
312.5984416748604
 30
0.0
 11
289.1978532345068
 21
316.5442848212081
 31
0.0
 70
    32
  1
8
 71
     5
 42
7.891686292695567
 73
     0
 74
     0
 75
     0
  3
STANDARD
100
AcDbAlignedDimension
 13
402.6683532759848
 23
320.4901279675559
 33
-0.0000000000084046
 14
322.1915387764773
 24
312.5984416748603
 34
0.0000000000088269
 50
90.0
100
AcDbRotatedDimension
  0
DIMENSION
  5
908B
330
1A
100
AcDbEntity
  8
SUNPOU
100
AcDbDimension
280
     0
  2
*D9
 10
529.6016266089707
 20
330.4901283311647
 30
0.0
 11
526.4766266089706
 21
325.4901281493604
 31
0.0
 70
    32
 71
     5
 42
10.00000036360876
 73
     0
 74
     0
 75
     0
  3
STANDARD
100
AcDbAlignedDimension
 13
402.6683532759848
 23
320.4901279675559
 33
-0.0000000000084046
 14
499.6683441168695
 24
330.4901283311647
 34
-0.0000000000174641
 50
90.0
100
AcDbRotatedDimension
  0
MTEXT
  5
9454
102
{ACAD_XDICTIONARY
360
9455
102
}
330
1A
100
AcDbEntity
  8
WAKU
100
AcDbMText
 10
124.3245405690059
 20
23.21985646788335
 30
0.0
 40
5.0
 41
130.7517663064795
 46
0.0
 71
     1
 72
     5
  1
\pi17.11446;アイジーヴァンド参考ディテール
  7
WAKU
 73
     1
 44
1.0
  0
MTEXT
  5
9456
102
{ACAD_XDICTIONARY
360
9457
102
}
330
1A
100
AcDbEntity
  8
WAKU
100
AcDbMText
 10
34.05004475349506
 20
23.21985646788335
 30
0.0
 40
5.0
 41
71.82723587241572
 46
0.0
 71
     1
 72
     5
  1
\pi3.9593;アイジー工業株式会社
  7
WAKU
 73
     1
 44
1.0
  0
HATCH
  5
94DE
330
1A
100
AcDbEntity
  8
SEIHIN
100
AcDbHatch
 10
0.0
 20
0.0
 30
0.0
210
0.0
220
0.0
230
1.0
  2
DOTS
 70
     0
 71
     0
 91
        1
 92
        1
 93
       22
 72
     1
 10
352.1683441168697
 20
481.4196463877683
 11
401.1683441168695
 21
481.4196463877683
 72
     1
 10
401.1683441168695
 20
481.4196463877684
 11
401.1683441168695
 21
365.7601279675598
 72
     2
 10
400.3983441168688
 20
365.7601279675598
 40
0.7700000000000001
 50
360.0
 51
450.0
 73
     0
 72
     1
 10
400.3983441168688
 20
364.9901279675554
 11
398.7802499406605
 21
364.9901279675554
 72
     2
 10
398.7802499406732
 20
365.7601279675598
 40
0.7700000000000001
 50
90.00000000062538
 51
172.4053566315094
 73
     0
 72
     1
 10
398.0170044571478
 20
365.6583619030886
 11
396.2796695711968
 21
378.6883735477048
 72
     2
 10
394.7928277201734
 20
378.4901279675702
 40
1.5
 50
7.594643368490627
 51
90.0
 73
     1
 72
     1
 10
394.7928277201734
 20
379.9901279675702
 11
390.6683441168695
 21
379.9901279675702
 72
     2
 10
390.6683441168695
 20
378.4901279675702
 40
1.5
 50
90.0
 51
180.0
 73
     1
 72
     1
 10
389.1683441168695
 20
378.4901279675702
 11
389.1683441168695
 21
365.7601279675741
 72
     2
 10
388.3983441168691
 20
365.7601279675743
 40
0.7700000000000001
 50
360.0
 51
450.0
 73
     0
 72
     1
 10
388.3983441168709
 20
364.9901279675701
 11
383.1683441168697
 21
364.9901279675701
 72
     1
 10
383.1683441168697
 20
364.9901279675701
 11
369.1683441168696
 21
364.9901279675701
 72
     1
 10
369.1683441168696
 20
364.9901279675701
 11
364.6683441168697
 21
364.9901279675701
 72
     2
 10
364.6683441168697
 20
365.4901279675704
 40
0.5
 50
90.0
 51
180.0
 73
     0
 72
     1
 10
364.1683441168695
 20
365.49012796757
 11
364.1683441168695
 21
377.9901279675702
 72
     2
 10
362.1683441168695
 20
377.9901279675702
 40
2.0
 50
0.0
 51
90.0
 73
     1
 72
     1
 10
362.1683441168695
 20
379.9901279675702
 11
357.1683441168695
 21
379.9901279675702
 72
     2
 10
357.1683441168695
 20
377.9901279675702
 40
2.0
 50
90.0
 51
180.0
 73
     1
 72
     1
 10
355.1683441168695
 20
377.9901279675702
 11
355.1683441168695
 21
337.4901279675701
 72
     2
 10
353.6683441168695
 20
337.4901279675703
 40
1.49999999999958
 50
360.0
 51
540.0
 73
     0
 72
     1
 10
352.1683441168697
 20
337.4901279675703
 11
352.1683441168697
 21
481.4196463877683
 97
        0
 75
     1
 76
     1
 52
0.0
 41
3.0
 77
     0
 78
     1
 53
0.0
 43
0.0
 44
0.0
 45
2.381249999999999
 46
4.762499999999998
 79
     2
 49
0.0
 49
-4.762499999999998
 98
        1
 10
0.0
 20
0.0
1001
GradientColor1ACI
1070
     5
1001
GradientColor2ACI
1070
     2
1001
ACAD
1010
0.0
1020
0.0
1030
0.0
  0
MTEXT
  5
94F3
330
1A
100
AcDbEntity
  8
HIKIDASI
100
AcDbMText
 10
208.2401159229839
 20
341.0556649970242
 30
0.0
 40
5.0
 41
40.59767419763057
 46
0.0
 71
     1
 72
     5
  1
▼パネル下端
 73
     1
 44
1.0
1001
ACAD
1000
ACAD_MTEXT_COLUMN_INFO_BEGIN
1070
    75
1070
     2
1070
    79
1070
     0
1070
    76
1070
     1
1070
    78
1070
     0
1070
    48
1040
40.59767419763057
1070
    49
1040
25.0
1070
    50
1070
     1
1040
0.0
1000
ACAD_MTEXT_COLUMN_INFO_END
  0
LINE
  5
94F4
330
1A
100
AcDbEntity
  8
HIKIDASI
  6
CENTER2
100
AcDbLine
 10
649.8518903861445
 20
335.4901279675708
 30
-0.0000000000084046
 11
205.3421481254404
 21
335.4901279675708
 31
-0.0000000000084046
  0
LINE
  5
95D1
330
1A
100
AcDbEntity
  8
SITAJI
100
AcDbLine
 10
449.0933528492185
 20
332.7901283311612
 30
-0.000000000017862
 11
446.7933528492118
 21
330.4901283311619
 31
-0.000000000017862
  0
LINE
  5
95D2
330
1A
100
AcDbEntity
  8
SITAJI
100
AcDbLine
 10
446.2649257244826
 20
332.7901283311575
 30
-0.000000000017862
 11
443.9649257244853
 21
330.4901283311636
 31
-0.000000000017862
  0
LINE
  5
9773
330
1A
100
AcDbEntity
  8
TEKUSU
100
AcDbLine
 10
399.3683441168836
 20
346.9901279675558
 30
-0.0000000000084046
 11
399.3683441168836
 21
336.9901279675555
 31
-0.0000000000084046
  0
LINE
  5
9774
330
1A
100
AcDbEntity
  8
TEKUSU
100
AcDbLine
 10
400.3183441168743
 20
346.9901279675558
 30
-0.0000000000084046
 11
400.3183441168743
 21
336.9901279675555
 31
-0.0000000000084046
  0
LINE
  5
9775
330
1A
100
AcDbEntity
  8
TEKUSU
  6
CENTER2
 48
0.5
370
     5
100
AcDbLine
 10
422.3183441168738
 20
341.9901279675557
 30
-0.0000000000084046
 11
396.3683441168838
 21
341.9901279675556
 31
-0.0000000000084046
  0
LINE
  5
9776
330
1A
100
AcDbEntity
  8
TEKUSU
100
AcDbLine
 10
417.2183441168753
 20
339.8901279675556
 30
-0.0000000000084046
 11
413.3183441168743
 21
339.8901279675556
 31
-0.0000000000084046
  0
LINE
  5
9777
330
1A
100
AcDbEntity
  8
TEKUSU
100
AcDbLine
 10
417.2183441168748
 20
344.0901279675557
 30
-0.0000000000084046
 11
413.3183441168743
 21
344.0901279675557
 31
-0.0000000000084046
  0
LINE
  5
9778
330
1A
100
AcDbEntity
  8
TEKUSU
100
AcDbLine
 10
400.3183441168743
 20
336.9901279675555
 30
-0.0000000000084046
 11
399.3683441168836
 21
336.9901279675555
 31
-0.0000000000084046
  0
LINE
  5
9779
330
1A
100
AcDbEntity
  8
TEKUSU
100
AcDbLine
 10
400.3183441168743
 20
346.9901279675557
 30
-0.0000000000084046
 11
399.3683441168836
 21
346.9901279675557
 31
-0.0000000000084046
  0
LINE
  5
977A
330
1A
100
AcDbEntity
  8
TEKUSU
100
AcDbLine
 10
413.318344116874
 20
339.4901279675557
 30
-0.0000000000084046
 11
400.3183441168743
 21
339.4901279675557
 31
-0.0000000000084046
  0
LINE
  5
977B
330
1A
100
AcDbEntity
  8
TEKUSU
100
AcDbLine
 10
413.318344116874
 20
344.4901279675557
 30
-0.0000000000084046
 11
400.3183441168743
 21
344.4901279675557
 31
-0.0000000000084046
  0
LINE
  5
977C
330
1A
100
AcDbEntity
  8
TEKUSU
100
AcDbLine
 10
413.3183441168743
 20
344.4901279675557
 30
-0.0000000000084046
 11
413.3183441168743
 21
339.4901279675557
 31
-0.0000000000084046
  0
LINE
  5
977D
330
1A
100
AcDbEntity
  8
TEKUSU
100
AcDbLine
 10
419.3183441168749
 20
341.9901279675555
 30
-0.0000000000084046
 11
417.2183441168753
 21
339.8901279675556
 31
-0.0000000000084046
  0
LINE
  5
977E
330
1A
100
AcDbEntity
  8
TEKUSU
100
AcDbLine
 10
419.3183441168752
 20
341.9901279675555
 30
-0.0000000000084046
 11
417.2183441168748
 21
344.0901279675557
 31
-0.0000000000084046
  0
LINE
  5
977F
330
1A
100
AcDbEntity
  8
TEKUSU
100
AcDbLine
 10
413.3183441168743
 20
342.9191746601597
 30
-0.0000000000084046
 11
419.3183441168752
 21
341.9901279675555
 31
-0.0000000000084046
  0
MTEXT
  5
97C7
330
1A
100
AcDbEntity
  8
0
100
AcDbMText
 10
628.1110199068753
 20
41.28063640536537
 30
0.0
 40
5.0
 41
142.9386335444851
 46
0.0
 71
     1
 72
     5
  1
注）図は、ＮＺ５０Ｆの製品図
  7
WAKU
 73
     1
 44
1.0
  0
LINE
  5
97E7
330
1A
100
AcDbEntity
  8
TEKUSU
100
AcDbLine
 10
382.0683441168761
 20
361.4401279675525
 30
-0.0000000000084046
 11
372.0683441168758
 21
361.4401279675525
 31
-0.0000000000084046
  0
LINE
  5
97E8
330
1A
100
AcDbEntity
  8
TEKUSU
100
AcDbLine
 10
382.0683441168761
 20
360.4901279675618
 30
-0.0000000000084046
 11
372.0683441168758
 21
360.4901279675618
 31
-0.0000000000084046
  0
LINE
  5
97E9
330
1A
100
AcDbEntity
  8
TEKUSU
  6
CENTER2
 48
0.5
370
     5
100
AcDbLine
 10
377.068344116876
 20
338.4901279675622
 30
-0.0000000000084046
 11
377.0683441168758
 21
364.4401279675522
 31
-0.0000000000084046
  0
LINE
  5
97EA
330
1A
100
AcDbEntity
  8
TEKUSU
100
AcDbLine
 10
374.9683441168759
 20
343.5901279675608
 30
-0.0000000000084046
 11
374.9683441168759
 21
347.4901279675618
 31
-0.0000000000084046
  0
LINE
  5
97EB
330
1A
100
AcDbEntity
  8
TEKUSU
100
AcDbLine
 10
379.1683441168759
 20
343.5901279675612
 30
-0.0000000000084046
 11
379.1683441168759
 21
347.4901279675618
 31
-0.0000000000084046
  0
LINE
  5
97EC
330
1A
100
AcDbEntity
  8
TEKUSU
100
AcDbLine
 10
372.0683441168758
 20
360.4901279675618
 30
-0.0000000000084046
 11
372.0683441168758
 21
361.4401279675525
 31
-0.0000000000084046
  0
LINE
  5
97ED
330
1A
100
AcDbEntity
  8
TEKUSU
100
AcDbLine
 10
382.068344116876
 20
360.4901279675618
 30
-0.0000000000084046
 11
382.068344116876
 21
361.4401279675525
 31
-0.0000000000084046
  0
LINE
  5
97EE
330
1A
100
AcDbEntity
  8
TEKUSU
100
AcDbLine
 10
374.568344116876
 20
347.490127967562
 30
-0.0000000000084046
 11
374.568344116876
 21
360.4901279675618
 31
-0.0000000000084046
  0
LINE
  5
97EF
330
1A
100
AcDbEntity
  8
TEKUSU
100
AcDbLine
 10
379.568344116876
 20
347.490127967562
 30
-0.0000000000084046
 11
379.568344116876
 21
360.4901279675618
 31
-0.0000000000084046
  0
LINE
  5
97F0
330
1A
100
AcDbEntity
  8
TEKUSU
100
AcDbLine
 10
379.568344116876
 20
347.4901279675618
 30
-0.0000000000084046
 11
374.568344116876
 21
347.4901279675618
 31
-0.0000000000084046
  0
LINE
  5
97F1
330
1A
100
AcDbEntity
  8
TEKUSU
100
AcDbLine
 10
377.0683441168758
 20
341.4901279675611
 30
-0.0000000000084046
 11
374.9683441168759
 21
343.5901279675608
 31
-0.0000000000084046
  0
LINE
  5
97F2
330
1A
100
AcDbEntity
  8
TEKUSU
100
AcDbLine
 10
377.0683441168758
 20
341.4901279675608
 30
-0.0000000000084046
 11
379.1683441168759
 21
343.5901279675612
 31
-0.0000000000084046
  0
LINE
  5
97F3
330
1A
100
AcDbEntity
  8
TEKUSU
100
AcDbLine
 10
377.9973908094799
 20
347.4901279675618
 30
-0.0000000000084046
 11
377.0683441168758
 21
341.4901279675608
 31
-0.0000000000084046
  0
VIEWPORT
  5
22
330
17
100
AcDbEntity
 67
     1
  8
0
348
49B1
100
AcDbViewport
 10
261.5176991150442
 20
154.7242978687078
 30
0.0
 40
523.0353982300885
 41
309.4485957374157
 68
     1
 69
     1
 12
261.5176991150442
 22
154.7242978687078
 13
0.0
 23
0.0
 14
1.0
 24
1.0
 15
10.0
 25
10.0
 16
0.0
 26
0.0
 36
1.0
 17
0.0
 27
0.0
 37
0.0
 42
50.0
 43
0.0
 44
0.0
 45
309.4485957374157
 50
0.0
 51
0.0
 72
   100
 90
    32768
  1

281
     0
 71
     1
 74
     0
110
0.0
120
0.0
130
0.0
111
1.0
121
0.0
131
0.0
112
0.0
122
1.0
132
0.0
 79
     0
146
0.0
170
     0
 61
     5
292
     1
282
     1
141
0.0
142
0.0
 63
   250
421
  3355443
  0
ENDSEC
  0
SECTION
  2
OBJECTS
  0
DICTIONARY
  5
C
330
0
100
AcDbDictionary
281
     1
  3
ACAD_CIP_PREVIOUS_PRODUCT_INFO
350
4BBF
  3
ACAD_COLOR
350
3B0
  3
ACAD_DETAILVIEWSTYLE
350
4D46
  3
ACAD_GROUP
350
D
  3
ACAD_LAYOUT
350
3B1
  3
ACAD_MATERIAL
350
3AF
  3
ACAD_MLEADERSTYLE
350
49E0
  3
ACAD_MLINESTYLE
350
E
  3
ACAD_PLOTSETTINGS
350
3B2
  3
ACAD_PLOTSTYLENAME
350
3AD
  3
ACAD_SCALELIST
350
49BE
  3
ACAD_SECTIONVIEWSTYLE
350
4D44
  3
ACAD_TABLESTYLE
350
49BC
  3
ACAD_VISUALSTYLE
350
49AB
  3
AcadDim
350
D85
  3
ACDB_RECOMPOSE_DATA
350
981B
  3
AcDbVariableDictionary
350
16B3
  3
AcDsDecomposeData
350
9821
  0
DICTIONARY
  5
4AD6
330
8
100
AcDbDictionary
280
     1
281
     1
  0
DICTIONARY
  5
16F6
330
2
100
AcDbDictionary
280
     1
281
     1
  3
ACAD_LAYERFILTERS
360
20B3
  3
ACAD_LAYERSTATES
360
16F7
  0
DICTIONARY
  5
4AC4
330
F
100
AcDbDictionary
280
     1
281
     1
  3
ADSK_XREC_LAYER_RECONCILED
360
4AC5
  0
DICTIONARY
  5
4AC6
330
87
100
AcDbDictionary
280
     1
281
     1
  3
ADSK_XREC_LAYER_RECONCILED
360
4AC7
  0
DICTIONARY
  5
4AC8
330
1502
100
AcDbDictionary
280
     1
281
     1
  3
ADSK_XREC_LAYER_RECONCILED
360
4AC9
  0
DICTIONARY
  5
23D9
330
23D8
100
AcDbDictionary
280
     1
281
     1
  3
ADSK_XREC_LAYER_RECONCILED
360
23DB
  0
DICTIONARY
  5
4499
330
4498
100
AcDbDictionary
280
     1
281
     1
  3
ADSK_XREC_LAYER_RECONCILED
360
449B
  0
DICTIONARY
  5
449D
330
449C
100
AcDbDictionary
280
     1
281
     1
  3
ADSK_XREC_LAYER_RECONCILED
360
449F
  0
DICTIONARY
  5
44A1
330
44A0
100
AcDbDictionary
280
     1
281
     1
  3
ADSK_XREC_LAYER_RECONCILED
360
44A3
  0
DICTIONARY
  5
4ACC
330
44A4
100
AcDbDictionary
280
     1
281
     1
  3
ADSK_XREC_LAYER_RECONCILED
360
4ACD
  0
DICTIONARY
  5
4ACE
330
44A7
100
AcDbDictionary
280
     1
281
     1
  3
ADSK_XREC_LAYER_RECONCILED
360
4ACF
  0
DICTIONARY
  5
4AD0
330
44AA
100
AcDbDictionary
280
     1
281
     1
  3
ADSK_XREC_LAYER_RECONCILED
360
4AD1
  0
DICTIONARY
  5
4DB4
330
4DB3
100
AcDbDictionary
280
     1
281
     1
  0
DICTIONARY
  5
4FE2
330
4FE1
100
AcDbDictionary
280
     1
281
     1
  0
DICTIONARY
  5
4D4D
330
1A
100
AcDbDictionary
280
     1
281
     1
  3
ACAD_SORTENTS
360
4D4E
  0
DICTIONARY
  5
9455
330
9454
100
AcDbDictionary
280
     1
281
     1
  3
ACAD_MTEXT_2008_RT
360
9819
  0
DICTIONARY
  5
9457
330
9456
100
AcDbDictionary
280
     1
281
     1
  3
ACAD_MTEXT_2008_RT
360
981A
  0
XRECORD
  5
4BBF
102
{ACAD_REACTORS
330
C
102
}
330
C
100
AcDbXrecord
280
     1
300
ACDLT
300
2017
300
86604ACDLT_2017_0F
  0
DICTIONARY
  5
3B0
102
{ACAD_REACTORS
330
C
102
}
330
C
100
AcDbDictionary
281
     1
  0
DICTIONARY
  5
4D46
102
{ACAD_REACTORS
330
C
102
}
330
C
100
AcDbDictionary
281
     1
  3
Metric50
350
4D47
  0
DICTIONARY
  5
D
102
{ACAD_REACTORS
330
C
102
}
330
C
100
AcDbDictionary
281
     1
  0
DICTIONARY
  5
3B1
102
{ACAD_REACTORS
330
C
102
}
330
C
100
AcDbDictionary
281
     1
  3
Model
350
3B3
  3
レイアウト1
350
3B4
  0
DICTIONARY
  5
3AF
102
{ACAD_REACTORS
330
C
102
}
330
C
100
AcDbDictionary
281
     1
  3
ByBlock
350
49A3
  3
ByLayer
350
499B
  3
Global
350
16F3
  0
DICTIONARY
  5
49E0
102
{ACAD_REACTORS
330
C
102
}
330
C
100
AcDbDictionary
281
     1
  3
Standard
350
49E1
  0
DICTIONARY
  5
E
102
{ACAD_REACTORS
330
C
102
}
330
C
100
AcDbDictionary
281
     1
  3
STANDARD
350
13
  0
DICTIONARY
  5
3B2
102
{ACAD_REACTORS
330
C
102
}
330
C
100
AcDbDictionary
281
     1
  0
ACDBDICTIONARYWDFLT
  5
3AD
102
{ACAD_REACTORS
330
C
102
}
330
C
100
AcDbDictionary
281
     1
  3
Normal
350
3AE
100
AcDbDictionaryWithDefault
340
3AE
  0
DICTIONARY
  5
49BE
102
{ACAD_REACTORS
330
C
102
}
330
C
100
AcDbDictionary
281
     1
  3
A0
350
49BF
  3
A1
350
49C0
  3
A2
350
49C1
  3
A3
350
49C2
  3
A4
350
49C3
  3
A5
350
49C4
  3
A6
350
49C5
  3
A7
350
49C6
  3
A8
350
49C7
  3
A9
350
49C8
  3
B0
350
49C9
  3
B1
350
49CA
  3
B2
350
49CB
  3
B3
350
49CC
  3
B4
350
49CD
  3
B5
350
49CE
  3
B6
350
49CF
  3
B7
350
49D0
  3
B8
350
49D1
  3
B9
350
49D2
  3
C0
350
49D3
  3
C1
350
49D4
  3
C2
350
49D5
  3
C3
350
49D6
  3
C4
350
49D7
  3
C5
350
49D8
  3
C6
350
49D9
  3
C7
350
49DA
  3
C8
350
49DB
  3
C9
350
49DC
  3
D0
350
49DD
  3
D1
350
49DE
  3
D2
350
49DF
  0
DICTIONARY
  5
4D44
102
{ACAD_REACTORS
330
C
102
}
330
C
100
AcDbDictionary
281
     1
  3
Metric50
350
4D45
  0
DICTIONARY
  5
49BC
102
{ACAD_REACTORS
330
C
102
}
330
C
100
AcDbDictionary
281
     1
  3
Standard
350
49BD
  0
DICTIONARY
  5
49AB
102
{ACAD_REACTORS
330
C
102
}
330
C
100
AcDbDictionary
281
     1
  3
2dWireframe
350
49B1
  3
3D Hidden
350
49B3
  3
3dWireframe
350
49B2
  3
Basic
350
49B0
  3
Brighten
350
49B7
  3
ColorChange
350
49BB
  3
Conceptual
350
49B4
  3
Dim
350
49B6
  3
EdgeColorOff
350
4BB9
  3
Facepattern
350
49BA
  3
Flat
350
49AC
  3
FlatWithEdges
350
49AD
  3
Gouraud
350
49AE
  3
GouraudWithEdges
350
49AF
  3
Hidden
350
4BB1
  3
JitterOff
350
4BB7
  3
Linepattern
350
49B9
  3
OverhangOff
350
4BB8
  3
Realistic
350
49B5
  3
Shaded
350
4BB6
  3
Shaded with edges
350
4BB5
  3
Shades of Gray
350
4BB2
  3
Sketchy
350
4BB3
  3
Thicken
350
49B8
  3
Wireframe
350
4BB0
  3
X-Ray
350
4BB4
  0
XRECORD
  5
D85
102
{ACAD_REACTORS
330
C
102
}
330
C
100
AcDbXrecord
280
     1
 90
   990106
  3
NONE
 60
     0
 61
     0
 62
     1
 63
     3
 64
     0
 65
     0
 66
     0
 67
     3
 68
     1
 69
     0
 70
     4
 71
     4
 72
     0
 40
0.0
170
     1
340
0
  0
XRECORD
  5
981B
102
{ACAD_REACTORS
330
C
102
}
330
C
100
AcDbXrecord
280
     1
 90
        1
330
49BD
330
9454
330
9456
330
94F3
  0
DICTIONARY
  5
16B3
102
{ACAD_REACTORS
330
C
102
}
330
C
100
AcDbDictionary
281
     1
  3
CANNOSCALE
350
4AF2
  3
CMLEADERSTYLE
350
4AF1
  3
CTABLESTYLE
350
4AF0
  3
CVIEWDETAILSTYLE
350
4EE2
  3
CVIEWSECTIONSTYLE
350
4EE3
  3
DIMASSOC
350
16B4
  3
HPCOLOR
350
94DD
  3
HPTRANSPARENCY
350
94DC
  3
INDEXCTL
350
4AF4
  3
LAYEREVAL
350
80C0
  3
LAYERNOTIFY
350
80C1
  3
LIGHTINGUNITS
350
80BF
  3
MSLTSCALE
350
80BE
  3
PROJECTNAME
350
16B5
  3
SORTENTS
350
4AF3
  0
DICTIONARY
  5
9821
102
{ACAD_REACTORS
330
C
102
}
330
C
100
AcDbDictionary
281
     1
  3
AcDsRecords
350
9823
  3
AcDsSchemas
350
9822
1001
ACAD
1070
     2
  0
DICTIONARY
  5
20B3
102
{ACAD_REACTORS
330
16F6
102
}
330
16F6
100
AcDbDictionary
281
     1
  0
DICTIONARY
  5
16F7
102
{ACAD_REACTORS
330
16F6
102
}
330
16F6
100
AcDbDictionary
281
     1
  0
XRECORD
  5
4AC5
102
{ACAD_REACTORS
330
4AC4
102
}
330
4AC4
100
AcDbXrecord
280
     1
290
     1
  0
XRECORD
  5
4AC7
102
{ACAD_REACTORS
330
4AC6
102
}
330
4AC6
100
AcDbXrecord
280
     1
290
     1
  0
XRECORD
  5
4AC9
102
{ACAD_REACTORS
330
4AC8
102
}
330
4AC8
100
AcDbXrecord
280
     1
290
     1
  0
XRECORD
  5
23DB
102
{ACAD_REACTORS
330
23D9
102
}
330
23D9
100
AcDbXrecord
280
     1
290
     1
  0
XRECORD
  5
449B
102
{ACAD_REACTORS
330
4499
102
}
330
4499
100
AcDbXrecord
280
     1
290
     1
  0
XRECORD
  5
449F
102
{ACAD_REACTORS
330
449D
102
}
330
449D
100
AcDbXrecord
280
     1
290
     1
  0
XRECORD
  5
44A3
102
{ACAD_REACTORS
330
44A1
102
}
330
44A1
100
AcDbXrecord
280
     1
290
     1
  0
XRECORD
  5
4ACD
102
{ACAD_REACTORS
330
4ACC
102
}
330
4ACC
100
AcDbXrecord
280
     1
290
     1
  0
XRECORD
  5
4ACF
102
{ACAD_REACTORS
330
4ACE
102
}
330
4ACE
100
AcDbXrecord
280
     1
290
     1
  0
XRECORD
  5
4AD1
102
{ACAD_REACTORS
330
4AD0
102
}
330
4AD0
100
AcDbXrecord
280
     1
290
     1
  0
SORTENTSTABLE
  5
4D4E
102
{ACAD_REACTORS
330
4D4D
102
}
330
4D4D
100
AcDbSortentsTable
330
1A
331
E51
  5
E6D
331
E59
  5
E72
331
E1D
  5
E5A
331
8B19
  5
8CF7
331
883A
  5
8841
331
8F12
  5
97ED
331
8842
  5
8844
331
8D01
  5
54E7
331
7CB9
  5
7CC4
331
9456
  5
8F10
331
6CB2
  5
74A0
331
8846
  5
884C
331
7CBD
  5
7CC8
331
7CC1
  5
7CCC
331
9775
  5
8F17
331
6CBA
  5
74A5
331
94DE
  5
882A
331
7CC5
  5
7CD5
331
6CBE
  5
7649
331
7CF6
  5
7D04
331
7CFA
  5
7D08
331
6C2D
  5
6C4C
331
7CFE
  5
7D0E
331
580A
  5
6533
331
E6D
  5
E8B
331
E71
  5
E8D
331
884A
  5
8952
331
9779
  5
8FAC
331
977D
  5
908B
331
7CC9
  5
7CD9
331
8EDD
  5
8D55
331
72D6
  5
6BE2
331
7CD1
  5
7CDC
331
7CD5
  5
7CE0
331
7D06
  5
7D12
331
7D0A
  5
7D30
331
6C45
  5
6CAC
331
7D0E
  5
7D44
331
1705
  5
4738
331
E78
  5
1705
331
E8C
  5
4728
331
8EE2
  5
8EE1
331
8953
  5
89D2
331
8EE6
  5
8EE5
331
8FD3
  5
5919
331
89CF
  5
89D3
331
7CDA
  5
7CE6
331
7CDE
  5
7CEA
331
7CE2
  5
7CEE
331
7813
  5
72D5
331
7CE6
  5
7CF5
331
8822
  5
8822
331
97E7
  5
94DB
331
7D13
  5
7EDF
331
97EB
  5
95D2
331
8826
  5
882C
331
6BDB
  5
6BEC
331
6C9E
  5
721D
331
97EF
  5
9776
331
882A
  5
8831
331
6BDF
  5
6BF0
331
882E
  5
8835
331
6CA2
  5
7221
331
6BE7
  5
6BF8
331
5516
  5
54EF
331
5572
  5
56B8
331
5576
  5
56BD
331
480C
  5
977B
331
E15
  5
E51
331
89D3
  5
8B19
331
8F0E
  5
97E9
331
89FB
  5
590B
331
7CEA
  5
7CF9
331
908B
  5
97E7
331
7CAB
  5
7CB6
331
7CEE
  5
7CFD
331
7CAF
  5
7CBA
331
7CB3
  5
7CBE
331
97F3
  5
977A
331
7CB7
  5
7CC2
331
8832
  5
8839
331
7D33
  5
56B9
331
6CAA
  5
72E7
331
8836
  5
883D
331
6BEB
  5
6BFC
331
6CAE
  5
749C
331
6BEF
  5
6C00
331
6BF3
  5
6C04
331
7D3F
  5
54F1
331
557A
  5
572E
331
557E
  5
582B
331
4E1F
  5
48BC
331
4E23
  5
4E45
331
E52
  5
E6F
331
E5A
  5
E73
331
E5E
  5
E7A
331
E1E
  5
E5B
331
8B1A
  5
8D01
331
883B
  5
8842
331
8F13
  5
97EE
331
7CBA
  5
7CC5
331
7CBE
  5
7CC9
331
6CB7
  5
74A2
331
7CC2
  5
7CD2
331
9776
  5
8F9B
331
6CBB
  5
74A7
331
7CC6
  5
7CD6
331
97C7
  5
94D9
331
7CF3
  5
7D01
331
7CF7
  5
7D05
331
7CFB
  5
7D0A
331
7CFF
  5
7D0F
331
580B
  5
6BDA
331
6C3E
  5
6C4D
331
E72
  5
E8E
331
884B
  5
8953
331
8F9B
  5
977F
331
94F3
  5
97F2
331
977A
  5
8FAD
331
977E
  5
9454
331
72D7
  5
6BE3
331
7CD2
  5
7CDD
331
7CD6
  5
7CE1
331
7D07
  5
7D2D
331
6C42
  5
6CAA
331
7D0B
  5
7D32
331
7D0F
  5
7D45
331
E79
  5
46BA
331
E8D
  5
472B
331
8EE3
  5
8EE2
331
8EE7
  5
8EE6
331
7CDB
  5
7CE7
331
7CDF
  5
7CEB
331
7810
  5
7223
331
7CE3
  5
7CEF
331
7D10
  5
7E2A
331
7CE7
  5
7CF6
331
97E8
  5
94F3
331
7D14
  5
881E
331
6C9B
  5
6CB4
331
97EC
  5
9773
331
8827
  5
882D
331
6BDC
  5
6BED
331
6C9F
  5
721E
331
882B
  5
8832
331
6BE0
  5
6BF1
331
7D2C
  5
7CFF
331
6CA3
  5
7222
331
882F
  5
8836
331
6BE4
  5
6BF5
331
6CA7
  5
7226
331
5577
  5
572B
331
E16
  5
E52
331
89D0
  5
8B16
331
8F0F
  5
97EA
331
7CA8
  5
7CB3
331
7CEB
  5
7CFA
331
7CAC
  5
7CB7
331
7CEF
  5
7CFE
331
7CB0
  5
7CBB
331
97F0
  5
9777
331
7CB4
  5
7CBF
331
8833
  5
883A
331
6BE8
  5
6BF9
331
7D34
  5
54F0
331
6CAB
  5
7499
331
8837
  5
883E
331
6BEC
  5
6BFD
331
6CAF
  5
749D
331
6BF0
  5
6C01
331
6BF4
  5
764B
331
4E1C
  5
8F0C
331
557F
  5
582D
331
4E24
  5
8EE7
331
E5B
  5
E78
331
8838
  5
883F
331
8F10
  5
97EB
331
883C
  5
8843
331
9454
  5
8F0F
331
6CB0
  5
749E
331
8844
  5
884A
331
7CBB
  5
7CC6
331
9773
  5
8F13
331
7CBF
  5
7CCA
331
7CC3
  5
7CD3
331
9777
  5
8FA8
331
6CBC
  5
7647
331
7CC7
  5
7CD7
331
7CF4
  5
7D02
331
7EDF
  5
977E
331
57FC
  5
591A
331
7CF8
  5
7D06
331
7CFC
  5
7D0B
331
E6F
  5
E8C
331
E73
  5
1703
331
8848
  5
884E
331
8D53
  5
8D53
331
8850
  5
895B
331
94F4
  5
97F3
331
977B
  5
8FAE
331
8FA8
  5
97F0
331
977F
  5
9456
331
8EDF
  5
8D56
331
7CCF
  5
7CDA
331
7CD3
  5
7CDE
331
7D00
  5
7D10
331
7CD7
  5
7CE2
331
5810
  5
6BD9
331
7D08
  5
7D2E
331
7D0C
  5
7D33
331
5824
  5
6532
331
4BD4
  5
977C
331
6C4F
  5
6CB3
331
1703
  5
4732
331
E7A
  5
46BE
331
E8E
  5
472D
331
8EE0
  5
8D57
331
8EE4
  5
8EE3
331
7CD8
  5
7CE3
331
901D
  5
97C7
331
7CDC
  5
7CE8
331
7CE0
  5
7CEC
331
7811
  5
7225
331
7CE4
  5
7CF0
331
8820
  5
8820
331
7D11
  5
7E2C
331
97E9
  5
94F4
331
8824
  5
8825
331
6C9C
  5
6CBC
331
97ED
  5
9774
331
8828
  5
882E
331
6BDD
  5
6BEE
331
6CA0
  5
721F
331
882C
  5
8833
331
6BE1
  5
6BF2
331
7D2D
  5
7D09
331
6BE5
  5
6BF6
331
5570
  5
561A
331
5574
  5
56BB
331
E4F
  5
E5E
331
E17
  5
E58
331
89D1
  5
8B17
331
8F0C
  5
97E8
331
95D1
  5
8F11
331
7CE8
  5
7CF7
331
7CA9
  5
7CB4
331
7CEC
  5
7CFB
331
7CAD
  5
7CB8
331
7CB1
  5
7CBC
331
97F1
  5
9778
331
7CB5
  5
7CC0
331
8830
  5
8837
331
6CA8
  5
7228
331
8834
  5
883B
331
6BE9
  5
6BFA
331
6CAC
  5
749A
331
6BED
  5
6BFE
331
6BF1
  5
6C02
331
6BF5
  5
6C3D
331
5578
  5
572C
331
4E1D
  5
8F0E
331
557C
  5
5730
331
E50
  5
E6C
331
E5C
  5
E79
331
E18
  5
E59
331
8B18
  5
8B1A
331
8839
  5
8840
331
8F11
  5
97EC
331
8F15
  5
97EF
331
7CB8
  5
7CC3
331
6CB1
  5
749F
331
7CBC
  5
7CC7
331
6CB5
  5
74A1
331
7CC0
  5
7CCB
331
9774
  5
8F15
331
6CB9
  5
74A3
331
7CC4
  5
7CD4
331
6CBD
  5
7648
331
7CF5
  5
7D03
331
6C2C
  5
6C43
331
7CF9
  5
7D07
331
57FD
  5
6531
331
7CFD
  5
7D0C
331
E6C
  5
E7B
331
8849
  5
8911
331
9778
  5
8FAB
331
8FA9
  5
97F1
331
977C
  5
906D
331
7CC8
  5
7CD8
331
8EDC
  5
8D54
331
72D5
  5
6BD8
331
7CD0
  5
7CDB
331
76D5
  5
977D
331
7CD4
  5
7CDF
331
6C40
  5
6C4F
331
7D05
  5
7D11
331
5811
  5
6BE4
331
7D09
  5
7D2F
331
6C44
  5
6CAB
331
7D0D
  5
7D34
331
E7B
  5
471D
331
E8B
  5
471E
331
8EE1
  5
8EE0
331
8952
  5
895C
331
8EE5
  5
8EE4
331
7CD9
  5
7CE4
331
7CDD
  5
7CE9
331
7CE1
  5
7CED
331
7812
  5
7227
331
7CE5
  5
7CF4
331
7D12
  5
7E2D
331
97EA
  5
95D1
331
8825
  5
8826
331
6BDA
  5
6BE5
331
6C9D
  5
6CBD
331
97EE
  5
9775
331
8829
  5
8830
331
6BDE
  5
6BEF
331
6CA1
  5
7220
331
882D
  5
8834
331
6BE2
  5
6BF3
331
7D2E
  5
7D00
331
6CA5
  5
7224
331
6BE6
  5
6BF7
331
5571
  5
56B7
331
5575
  5
56BC
331
89D2
  5
8B18
331
95D2
  5
8F12
331
89FA
  5
582C
331
7CE9
  5
7CF8
331
7CAA
  5
7CB5
331
7CED
  5
7CFC
331
7CAE
  5
7CB9
331
7CB2
  5
7CBD
331
97F2
  5
9779
331
7CB6
  5
7CC1
331
8831
  5
8838
331
6CA9
  5
72D6
331
8835
  5
883C
331
6BEA
  5
6BFB
331
6CAD
  5
749B
331
6BEE
  5
6BFF
331
7D3E
  5
881F
331
6BF2
  5
6C03
331
6BF6
  5
6C3E
331
4E1E
  5
590C
331
557D
  5
5734
  0
XRECORD
  5
9819
102
{ACAD_REACTORS
330
9455
102
}
330
9455
100
AcDbXrecord
280
     1
 40
4386876.0
  1
\pxqc;アイジーヴァンド参考ディテール
  0
XRECORD
  5
981A
102
{ACAD_REACTORS
330
9457
102
}
330
9457
100
AcDbXrecord
280
     1
 40
3316594.0
  1
\pxqc;アイジー工業株式会社
  0
ACDBDETAILVIEWSTYLE
  5
4D47
102
{ACAD_XDICTIONARY
360
978A
102
}
102
{ACAD_REACTORS
330
4D46
102
}
330
4D46
100
AcDbModelDocViewStyle
 70
     0
  3
Metric50
290
     0
100
AcDbDetailViewStyle
 70
     0
 71
     0
 90
        3
 71
     1
340
10
 62
   256
 40
5.0
340
0
 62
   256
 40
5.0
300

 40
0.0
280
     1
 71
     2
340
16
 90
       25
 62
   256
 71
     3
340
10
 62
   256
 40
5.0
 90
        0
 40
15.0
 90
        1
300
%<\AcVar ViewDetailId>% (%<\AcVar ViewScale \f "%sn">%)
 71
     4
340
16
 90
       25
 62
   256
340
16
 90
       25
 62
   256
280
     0
1001
ACAD
1000
AcRTDxfName
1000
ACDBDETAILVIEWSTYLE
1000
AcRTDxfName
1000
ACDBDETAILVIEWSTYLE
1000
AcRTDxfName
1000
ACDBDETAILVIEWSTYLE
1000
AcRTDxfName
1000
ACDBDETAILVIEWSTYLE
1000
AcRTDxfName
1000
ACDBDETAILVIEWSTYLE
1000
AcRTDxfName
1000
ACDBDETAILVIEWSTYLE
1000
AcRTDxfName
1000
ACDBDETAILVIEWSTYLE
1000
AcRTDxfName
1000
ACDBDETAILVIEWSTYLE
1000
AcRTDxfName
1000
ACDBDETAILVIEWSTYLE
1000
AcRTDxfName
1000
ACDBDETAILVIEWSTYLE
1000
AcRTDxfName
1000
ACDBDETAILVIEWSTYLE
1000
AcRTDxfName
1000
ACDBDETAILVIEWSTYLE
1000
AcRTDxfName
1000
ACDBDETAILVIEWSTYLE
1000
AcRTDxfName
1000
ACDBDETAILVIEWSTYLE
1000
AcRTDxfName
1000
ACDBDETAILVIEWSTYLE
1000
AcRTDxfName
1000
ACDBDETAILVIEWSTYLE
1000
AcRTDxfName
1000
ACDBDETAILVIEWSTYLE
1000
AcRTDxfName
1000
ACDBDETAILVIEWSTYLE
1000
AcRTDxfName
1000
ACDBDETAILVIEWSTYLE
1000
AcRTDxfName
1000
ACDBDETAILVIEWSTYLE
1000
AcRTDxfName
1000
ACDBDETAILVIEWSTYLE
  0
LAYOUT
  5
3B3
102
{ACAD_XDICTIONARY
360
9574
102
}
102
{ACAD_REACTORS
330
3B1
102
}
330
3B1
100
AcDbPlotSettings
  1

  2
none_device
  4
ISO_A3_(420.00_x_297.00_MM)
  6

 40
7.5
 41
20.0
 42
7.5
 43
20.0
 44
420.0
 45
297.0
 46
0.0
 47
0.0
 48
0.0
 49
0.0
140
0.0
141
0.0
142
1.0
143
2.0
 70
 11904
 72
     1
 73
     0
 74
     2
  7
monochrome.ctb
 75
     0
147
0.4326599326599327
 76
     0
 77
     2
 78
   300
148
0.0
149
0.0
100
AcDbLayout
  1
Model
 70
     1
 71
     0
 10
0.0
 20
0.0
 11
12.0
 21
9.0
 12
0.0
 22
0.0
 32
0.0
 14
0.0
 24
0.0
 34
0.0
 15
0.0
 25
0.0
 35
0.0
146
0.0
 13
0.0
 23
0.0
 33
0.0
 16
1.0
 26
0.0
 36
0.0
 17
0.0
 27
1.0
 37
0.0
 76
     0
330
1A
331
8EF2
1001
ACAD_PSEXT
1000
なし
1000
なし
1000
適切ではありません
1000
新しいプロッタ環境設定名を選択しない限り、レイアウトは印刷されません。
1070
     0
  0
LAYOUT
  5
3B4
102
{ACAD_REACTORS
330
3B1
102
}
330
3B1
100
AcDbPlotSettings
  1

  2
DocuCentre Color 400 (FAX)
  4

  6

 40
0.0
 41
0.0
 42
0.0
 43
0.0
 44
0.0
 45
0.0
 46
0.0
 47
0.0
 48
0.0
 49
0.0
140
0.0
141
0.0
142
1.0
143
1.0
 70
   688
 72
     0
 73
     0
 74
     5
  7
monochrome.ctb
 75
    16
147
1.0
 76
     0
 77
     2
 78
   300
148
0.0
149
0.0
100
AcDbLayout
  1
レイアウト1
 70
     1
 71
     1
 10
0.0
 20
0.0
 11
420.0
 21
297.0
 12
0.0
 22
0.0
 32
0.0
 14
1.000000000000000E+20
 24
1.000000000000000E+20
 34
1.000000000000000E+20
 15
-1.000000000000000E+20
 25
-1.000000000000000E+20
 35
-1.000000000000000E+20
146
0.0
 13
0.0
 23
0.0
 33
0.0
 16
1.0
 26
0.0
 36
0.0
 17
0.0
 27
1.0
 37
0.0
 76
     0
330
17
331
22
  0
MATERIAL
  5
49A3
102
{ACAD_XDICTIONARY
360
49A4
102
}
102
{ACAD_REACTORS
330
3AF
102
}
330
3AF
100
AcDbMaterial
  1
ByBlock
 72
     0
 43
0.0208333333333333
 43
0.0
 43
0.0
 43
0.0
 43
0.0
 43
0.0208333333333333
 43
0.0
 43
0.0
 43
0.0
 43
0.0
 43
1.0
 43
0.0
 43
0.0
 43
0.0
 43
0.0
 43
1.0
 77
     0
 47
0.0208333333333333
 47
0.0
 47
0.0
 47
0.0
 47
0.0
 47
0.0208333333333333
 47
0.0
 47
0.0
 47
0.0
 47
0.0
 47
1.0
 47
0.0
 47
0.0
 47
0.0
 47
0.0
 47
1.0
171
     0
 49
0.0208333333333333
 49
0.0
 49
0.0
 49
0.0
 49
0.0
 49
0.0208333333333333
 49
0.0
 49
0.0
 49
0.0
 49
0.0
 49
1.0
 49
0.0
 49
0.0
 49
0.0
 49
0.0
 49
1.0
175
     0
142
0.0208333333333333
142
0.0
142
0.0
142
0.0
142
0.0
142
0.0208333333333333
142
0.0
142
0.0
142
0.0
142
0.0
142
1.0
142
0.0
142
0.0
142
0.0
142
0.0
142
1.0
179
     0
144
0.0208333333333333
144
0.0
144
0.0
144
0.0
144
0.0
144
0.0208333333333333
144
0.0
144
0.0
144
0.0
144
0.0
144
1.0
144
0.0
144
0.0
144
0.0
144
0.0
144
1.0
147
0.0208333333333333
147
0.0
147
0.0
147
0.0
147
0.0
147
0.0208333333333333
147
0.0
147
0.0
147
0.0
147
0.0
147
1.0
147
0.0
147
0.0
147
0.0
147
0.0
147
1.0
  0
MATERIAL
  5
499B
102
{ACAD_XDICTIONARY
360
499C
102
}
102
{ACAD_REACTORS
330
3AF
102
}
330
3AF
100
AcDbMaterial
  1
ByLayer
 72
     0
 43
0.0208333333333333
 43
0.0
 43
0.0
 43
0.0
 43
0.0
 43
0.0208333333333333
 43
0.0
 43
0.0
 43
0.0
 43
0.0
 43
1.0
 43
0.0
 43
0.0
 43
0.0
 43
0.0
 43
1.0
 77
     0
 47
0.0208333333333333
 47
0.0
 47
0.0
 47
0.0
 47
0.0
 47
0.0208333333333333
 47
0.0
 47
0.0
 47
0.0
 47
0.0
 47
1.0
 47
0.0
 47
0.0
 47
0.0
 47
0.0
 47
1.0
171
     0
 49
0.0208333333333333
 49
0.0
 49
0.0
 49
0.0
 49
0.0
 49
0.0208333333333333
 49
0.0
 49
0.0
 49
0.0
 49
0.0
 49
1.0
 49
0.0
 49
0.0
 49
0.0
 49
0.0
 49
1.0
175
     0
142
0.0208333333333333
142
0.0
142
0.0
142
0.0
142
0.0
142
0.0208333333333333
142
0.0
142
0.0
142
0.0
142
0.0
142
1.0
142
0.0
142
0.0
142
0.0
142
0.0
142
1.0
179
     0
144
0.0208333333333333
144
0.0
144
0.0
144
0.0
144
0.0
144
0.0208333333333333
144
0.0
144
0.0
144
0.0
144
0.0
144
1.0
144
0.0
144
0.0
144
0.0
144
0.0
144
1.0
147
0.0208333333333333
147
0.0
147
0.0
147
0.0
147
0.0
147
0.0208333333333333
147
0.0
147
0.0
147
0.0
147
0.0
147
1.0
147
0.0
147
0.0
147
0.0
147
0.0
147
1.0
  0
MATERIAL
  5
16F3
102
{ACAD_REACTORS
330
3AF
102
}
330
3AF
100
AcDbMaterial
  1
Global
 73
     1
 78
     1
172
     1
176
     1
270
     1
274
     1
 94
       63
  0
MLEADERSTYLE
  5
49E1
102
{ACAD_REACTORS
330
49E0
330
8F0C
330
8F0E
330
8F0F
330
8F10
330
8F11
330
8F12
330
8F13
330
8F15
330
8FA8
330
8FA9
102
}
330
49E0
100
AcDbMLeaderStyle
179
     2
170
     2
171
     1
172
     0
 90
        2
 40
0.5235987755982988
 41
0.0
173
     1
 91
-1056964608
340
14
 92
       -2
290
     1
 42
2.0
291
     1
 43
0.6
  3
Standard
341
B0
 44
0.0
300

342
10
174
     1
178
     3
175
     1
176
     0
 93
-1056964608
 45
5.0
292
     0
297
     0
 46
4.0
 94
-1056964608
 47
1.0
 49
1.0
140
1.0
293
     1
141
0.0
294
     1
177
     0
142
1.0
295
     0
296
     0
143
0.2
271
     0
272
     9
273
     9
1001
ACAD
1000
AcRTDxfName
1000
MLEADERSTYLE
1000
AcRTDxfName
1000
MLEADERSTYLE
  0
MLINESTYLE
  5
13
102
{ACAD_REACTORS
330
E
102
}
330
E
100
AcDbMlineStyle
  2
STANDARD
 70
     0
  3

 62
     0
 51
90.0
 52
90.0
 71
     2
 49
0.5
 62
   256
  6
BYLAYER
 49
-0.5
 62
   256
  6
BYLAYER
  0
ACDBPLACEHOLDER
  5
3AE
102
{ACAD_REACTORS
330
3AD
102
}
330
3AD
  0
SCALE
  5
49BF
102
{ACAD_REACTORS
330
49BE
102
}
330
49BE
100
AcDbScale
 70
     0
300
1:1
140
1.0
141
1.0
290
     1
1001
ACAD
1000
AcRTDxfName
1000
SCALE
1000
AcRTDxfName
1000
SCALE
  0
SCALE
  5
49C0
102
{ACAD_REACTORS
330
49BE
102
}
330
49BE
100
AcDbScale
 70
     0
300
1:2
140
1.0
141
2.0
290
     0
1001
ACAD
1000
AcRTDxfName
1000
SCALE
1000
AcRTDxfName
1000
SCALE
  0
SCALE
  5
49C1
102
{ACAD_REACTORS
330
49BE
102
}
330
49BE
100
AcDbScale
 70
     0
300
1:4
140
1.0
141
4.0
290
     0
1001
ACAD
1000
AcRTDxfName
1000
SCALE
1000
AcRTDxfName
1000
SCALE
  0
SCALE
  5
49C2
102
{ACAD_REACTORS
330
49BE
102
}
330
49BE
100
AcDbScale
 70
     0
300
1:5
140
1.0
141
5.0
290
     0
1001
ACAD
1000
AcRTDxfName
1000
SCALE
1000
AcRTDxfName
1000
SCALE
  0
SCALE
  5
49C3
102
{ACAD_REACTORS
330
49BE
102
}
330
49BE
100
AcDbScale
 70
     0
300
1:8
140
1.0
141
8.0
290
     0
1001
ACAD
1000
AcRTDxfName
1000
SCALE
1000
AcRTDxfName
1000
SCALE
  0
SCALE
  5
49C4
102
{ACAD_REACTORS
330
49BE
102
}
330
49BE
100
AcDbScale
 70
     0
300
1:10
140
1.0
141
10.0
290
     0
1001
ACAD
1000
AcRTDxfName
1000
SCALE
1000
AcRTDxfName
1000
SCALE
  0
SCALE
  5
49C5
102
{ACAD_REACTORS
330
49BE
102
}
330
49BE
100
AcDbScale
 70
     0
300
1:16
140
1.0
141
16.0
290
     0
1001
ACAD
1000
AcRTDxfName
1000
SCALE
1000
AcRTDxfName
1000
SCALE
  0
SCALE
  5
49C6
102
{ACAD_REACTORS
330
49BE
102
}
330
49BE
100
AcDbScale
 70
     0
300
1:20
140
1.0
141
20.0
290
     0
1001
ACAD
1000
AcRTDxfName
1000
SCALE
1000
AcRTDxfName
1000
SCALE
  0
SCALE
  5
49C7
102
{ACAD_REACTORS
330
49BE
102
}
330
49BE
100
AcDbScale
 70
     0
300
1:30
140
1.0
141
30.0
290
     0
1001
ACAD
1000
AcRTDxfName
1000
SCALE
1000
AcRTDxfName
1000
SCALE
  0
SCALE
  5
49C8
102
{ACAD_REACTORS
330
49BE
102
}
330
49BE
100
AcDbScale
 70
     0
300
1:40
140
1.0
141
40.0
290
     0
1001
ACAD
1000
AcRTDxfName
1000
SCALE
1000
AcRTDxfName
1000
SCALE
  0
SCALE
  5
49C9
102
{ACAD_REACTORS
330
49BE
102
}
330
49BE
100
AcDbScale
 70
     0
300
1:50
140
1.0
141
50.0
290
     0
1001
ACAD
1000
AcRTDxfName
1000
SCALE
1000
AcRTDxfName
1000
SCALE
  0
SCALE
  5
49CA
102
{ACAD_REACTORS
330
49BE
102
}
330
49BE
100
AcDbScale
 70
     0
300
1:100
140
1.0
141
100.0
290
     0
1001
ACAD
1000
AcRTDxfName
1000
SCALE
1000
AcRTDxfName
1000
SCALE
  0
SCALE
  5
49CB
102
{ACAD_REACTORS
330
49BE
102
}
330
49BE
100
AcDbScale
 70
     0
300
2:1
140
2.0
141
1.0
290
     0
1001
ACAD
1000
AcRTDxfName
1000
SCALE
1000
AcRTDxfName
1000
SCALE
  0
SCALE
  5
49CC
102
{ACAD_REACTORS
330
49BE
102
}
330
49BE
100
AcDbScale
 70
     0
300
4:1
140
4.0
141
1.0
290
     0
1001
ACAD
1000
AcRTDxfName
1000
SCALE
1000
AcRTDxfName
1000
SCALE
  0
SCALE
  5
49CD
102
{ACAD_REACTORS
330
49BE
102
}
330
49BE
100
AcDbScale
 70
     0
300
8:1
140
8.0
141
1.0
290
     0
1001
ACAD
1000
AcRTDxfName
1000
SCALE
1000
AcRTDxfName
1000
SCALE
  0
SCALE
  5
49CE
102
{ACAD_REACTORS
330
49BE
102
}
330
49BE
100
AcDbScale
 70
     0
300
10:1
140
10.0
141
1.0
290
     0
1001
ACAD
1000
AcRTDxfName
1000
SCALE
1000
AcRTDxfName
1000
SCALE
  0
SCALE
  5
49CF
102
{ACAD_REACTORS
330
49BE
102
}
330
49BE
100
AcDbScale
 70
     0
300
100:1
140
100.0
141
1.0
290
     0
1001
ACAD
1000
AcRTDxfName
1000
SCALE
1000
AcRTDxfName
1000
SCALE
  0
SCALE
  5
49D0
102
{ACAD_REACTORS
330
49BE
102
}
330
49BE
100
AcDbScale
 70
     0
300
1/128" = 1'-0"
140
0.0078125
141
12.0
290
     0
1001
ACAD
1000
AcRTDxfName
1000
SCALE
1000
AcRTDxfName
1000
SCALE
  0
SCALE
  5
49D1
102
{ACAD_REACTORS
330
49BE
102
}
330
49BE
100
AcDbScale
 70
     0
300
1/64" = 1'-0"
140
0.015625
141
12.0
290
     0
1001
ACAD
1000
AcRTDxfName
1000
SCALE
1000
AcRTDxfName
1000
SCALE
  0
SCALE
  5
49D2
102
{ACAD_REACTORS
330
49BE
102
}
330
49BE
100
AcDbScale
 70
     0
300
1/32" = 1'-0"
140
0.03125
141
12.0
290
     0
1001
ACAD
1000
AcRTDxfName
1000
SCALE
1000
AcRTDxfName
1000
SCALE
  0
SCALE
  5
49D3
102
{ACAD_REACTORS
330
49BE
102
}
330
49BE
100
AcDbScale
 70
     0
300
1/16" = 1'-0"
140
0.0625
141
12.0
290
     0
1001
ACAD
1000
AcRTDxfName
1000
SCALE
1000
AcRTDxfName
1000
SCALE
  0
SCALE
  5
49D4
102
{ACAD_REACTORS
330
49BE
102
}
330
49BE
100
AcDbScale
 70
     0
300
3/32" = 1'-0"
140
0.09375
141
12.0
290
     0
1001
ACAD
1000
AcRTDxfName
1000
SCALE
1000
AcRTDxfName
1000
SCALE
  0
SCALE
  5
49D5
102
{ACAD_REACTORS
330
49BE
102
}
330
49BE
100
AcDbScale
 70
     0
300
1/8" = 1'-0"
140
0.125
141
12.0
290
     0
1001
ACAD
1000
AcRTDxfName
1000
SCALE
1000
AcRTDxfName
1000
SCALE
  0
SCALE
  5
49D6
102
{ACAD_REACTORS
330
49BE
102
}
330
49BE
100
AcDbScale
 70
     0
300
3/16" = 1'-0"
140
0.1875
141
12.0
290
     0
1001
ACAD
1000
AcRTDxfName
1000
SCALE
1000
AcRTDxfName
1000
SCALE
  0
SCALE
  5
49D7
102
{ACAD_REACTORS
330
49BE
102
}
330
49BE
100
AcDbScale
 70
     0
300
1/4" = 1'-0"
140
0.25
141
12.0
290
     0
1001
ACAD
1000
AcRTDxfName
1000
SCALE
1000
AcRTDxfName
1000
SCALE
  0
SCALE
  5
49D8
102
{ACAD_REACTORS
330
49BE
102
}
330
49BE
100
AcDbScale
 70
     0
300
3/8" = 1'-0"
140
0.375
141
12.0
290
     0
1001
ACAD
1000
AcRTDxfName
1000
SCALE
1000
AcRTDxfName
1000
SCALE
  0
SCALE
  5
49D9
102
{ACAD_REACTORS
330
49BE
102
}
330
49BE
100
AcDbScale
 70
     0
300
1/2" = 1'-0"
140
0.5
141
12.0
290
     0
1001
ACAD
1000
AcRTDxfName
1000
SCALE
1000
AcRTDxfName
1000
SCALE
  0
SCALE
  5
49DA
102
{ACAD_REACTORS
330
49BE
102
}
330
49BE
100
AcDbScale
 70
     0
300
3/4" = 1'-0"
140
0.75
141
12.0
290
     0
1001
ACAD
1000
AcRTDxfName
1000
SCALE
1000
AcRTDxfName
1000
SCALE
  0
SCALE
  5
49DB
102
{ACAD_REACTORS
330
49BE
102
}
330
49BE
100
AcDbScale
 70
     0
300
1" = 1'-0"
140
1.0
141
12.0
290
     0
1001
ACAD
1000
AcRTDxfName
1000
SCALE
1000
AcRTDxfName
1000
SCALE
  0
SCALE
  5
49DC
102
{ACAD_REACTORS
330
49BE
102
}
330
49BE
100
AcDbScale
 70
     0
300
1-1/2" = 1'-0"
140
1.5
141
12.0
290
     0
1001
ACAD
1000
AcRTDxfName
1000
SCALE
1000
AcRTDxfName
1000
SCALE
  0
SCALE
  5
49DD
102
{ACAD_REACTORS
330
49BE
102
}
330
49BE
100
AcDbScale
 70
     0
300
3" = 1'-0"
140
3.0
141
12.0
290
     0
1001
ACAD
1000
AcRTDxfName
1000
SCALE
1000
AcRTDxfName
1000
SCALE
  0
SCALE
  5
49DE
102
{ACAD_REACTORS
330
49BE
102
}
330
49BE
100
AcDbScale
 70
     0
300
6" = 1'-0"
140
6.0
141
12.0
290
     0
1001
ACAD
1000
AcRTDxfName
1000
SCALE
1000
AcRTDxfName
1000
SCALE
  0
SCALE
  5
49DF
102
{ACAD_REACTORS
330
49BE
102
}
330
49BE
100
AcDbScale
 70
     0
300
1'-0" = 1'-0"
140
12.0
141
12.0
290
     0
1001
ACAD
1000
AcRTDxfName
1000
SCALE
1000
AcRTDxfName
1000
SCALE
  0
ACDBSECTIONVIEWSTYLE
  5
4D45
102
{ACAD_XDICTIONARY
360
9788
102
}
102
{ACAD_REACTORS
330
4D44
102
}
330
4D44
100
AcDbModelDocViewStyle
 70
     0
  3
Metric50
290
     0
100
AcDbSectionViewStyle
 70
     0
 71
     0
 90
      102
 71
     1
340
10
 62
   256
 40
5.0
340
0
340
0
 62
   256
 40
5.0
300
I, O, Q, S, X, Z
 40
10.0
 90
        0
 40
2.5
 90
        0
 71
     2
340
16
 90
       25
 62
   256
340
16
 90
       50
 62
   256
 40
5.0
 40
2.5
 40
5.0
 71
     3
340
10
 62
   256
 40
5.0
 90
        0
 40
15.0
 90
        1
300
%<\AcVar ViewSectionStartId>%-%<\AcVar ViewSectionEndId>% (%<\AcVar ViewScale \f "%sn">%)
 71
     4
 62
   256
 62
   257
300
ANSI31
 40
1.0
 90
        0
290
     0
290
     0
 90
        6
 40
0.0
 40
1.570796326794896
 40
0.2617993877991494
 40
1.308996938995747
 40
-0.2617993877991494
 40
1.832595714594044
1001
ACAD
1000
AcRTDxfName
1000
ACDBSECTIONVIEWSTYLE
1000
AcRTDxfName
1000
ACDBSECTIONVIEWSTYLE
1000
AcRTDxfName
1000
ACDBSECTIONVIEWSTYLE
1000
AcRTDxfName
1000
ACDBSECTIONVIEWSTYLE
1000
AcRTDxfName
1000
ACDBSECTIONVIEWSTYLE
1000
AcRTDxfName
1000
ACDBSECTIONVIEWSTYLE
1000
AcRTDxfName
1000
ACDBSECTIONVIEWSTYLE
1000
AcRTDxfName
1000
ACDBSECTIONVIEWSTYLE
1000
AcRTDxfName
1000
ACDBSECTIONVIEWSTYLE
1000
AcRTDxfName
1000
ACDBSECTIONVIEWSTYLE
1000
AcRTDxfName
1000
ACDBSECTIONVIEWSTYLE
1000
AcRTDxfName
1000
ACDBSECTIONVIEWSTYLE
1000
AcRTDxfName
1000
ACDBSECTIONVIEWSTYLE
1000
AcRTDxfName
1000
ACDBSECTIONVIEWSTYLE
1000
AcRTDxfName
1000
ACDBSECTIONVIEWSTYLE
1000
AcRTDxfName
1000
ACDBSECTIONVIEWSTYLE
1000
AcRTDxfName
1000
ACDBSECTIONVIEWSTYLE
1000
AcRTDxfName
1000
ACDBSECTIONVIEWSTYLE
1000
AcRTDxfName
1000
ACDBSECTIONVIEWSTYLE
1000
AcRTDxfName
1000
ACDBSECTIONVIEWSTYLE
1000
AcRTDxfName
1000
ACDBSECTIONVIEWSTYLE
  0
TABLESTYLE
  5
49BD
102
{ACAD_XDICTIONARY
360
4AD2
102
}
102
{ACAD_REACTORS
330
49BC
102
}
330
49BC
100
AcDbTableStyle
280
     0
  3
Standard
 70
     0
 71
     0
 40
1.5
 41
1.5
280
     0
281
     0
  7
STANDARD
140
4.5
170
     2
 62
     0
 63
     7
283
     0
 90
      512
 91
        0
  1

274
    -2
284
     1
 64
     0
275
    -2
285
     1
 65
     0
276
    -2
286
     1
 66
     0
277
    -2
287
     1
 67
     0
278
    -2
288
     1
 68
     0
279
    -2
289
     1
 69
     0
  7
STANDARD
140
6.0
170
     5
 62
     0
 63
     7
283
     0
 90
      512
 91
        0
  1

274
    -2
284
     1
 64
     0
275
    -2
285
     1
 65
     0
276
    -2
286
     1
 66
     0
277
    -2
287
     1
 67
     0
278
    -2
288
     1
 68
     0
279
    -2
289
     1
 69
     0
  7
STANDARD
140
4.5
170
     5
 62
     0
 63
     7
283
     0
 90
      512
 91
        0
  1

274
    -2
284
     1
 64
     0
275
    -2
285
     1
 65
     0
276
    -2
286
     1
 66
     0
277
    -2
287
     1
 67
     0
278
    -2
288
     1
 68
     0
279
    -2
289
     1
 69
     0
1001
ACAD
1000
AcRTDxfName
1000
TABLESTYLE
1000
AcRTDxfName
1000
TABLESTYLE
  0
VISUALSTYLE
  5
49B1
102
{ACAD_XDICTIONARY
360
982E
102
}
102
{ACAD_REACTORS
330
49AB
102
}
330
49AB
100
AcDbVisualStyle
  2
2dWireframe
 70
     4
177
     2
291
     0
 71
     0
176
     1
 72
     2
176
     1
 73
     0
176
     1
 90
        0
176
     1
 40
0.6
176
     1
 41
30.0
176
     1
 63
     7
176
     1
 74
     1
176
     1
 91
        4
176
     1
 64
     7
176
     1
 65
   257
176
     1
 75
     1
176
     1
175
     1
176
     1
 42
1.0
176
     1
 92
        0
176
     1
 66
   257
176
     1
 43
1.0
176
     1
 76
     1
176
     1
 77
     6
176
     1
 78
     2
176
     1
 67
     7
176
     1
 79
     5
176
     1
170
     0
176
     1
171
     0
176
     1
290
     0
176
     1
 93
        1
176
     1
 44
0.0
176
     1
173
     0
176
     1
1001
ACAD
1000
AcRTDxfName
1000
VISUALSTYLE
1000
AcRTDxfName
1000
VISUALSTYLE
1000
AcDbSavedByObjectVersion
1070
     0
  0
VISUALSTYLE
  5
49B3
102
{ACAD_XDICTIONARY
360
9832
102
}
102
{ACAD_REACTORS
330
49AB
102
}
330
49AB
100
AcDbVisualStyle
  2
3D Hidden
 70
     6
177
     2
291
     0
 71
     1
176
     1
 72
     2
176
     1
 73
     2
176
     1
 90
        0
176
     1
 40
0.6
176
     1
 41
30.0
176
     1
 63
     7
176
     1
 74
     2
176
     1
 91
        2
176
     1
 64
     7
176
     1
 65
   257
176
     1
 75
     2
176
     1
175
     1
176
     1
 42
40.0
176
     1
 92
        0
176
     1
 66
   257
176
     1
 43
1.0
176
     1
 76
     1
176
     1
 77
     6
176
     1
 78
     2
176
     1
 67
     7
176
     1
 79
     3
176
     1
170
     0
176
     1
171
     0
176
     1
290
     0
176
     1
 93
        1
176
     1
 44
0.0
176
     1
173
     0
176
     1
1001
ACAD
1000
AcRTDxfName
1000
VISUALSTYLE
1000
AcRTDxfName
1000
VISUALSTYLE
1000
AcDbSavedByObjectVersion
1070
     0
  0
VISUALSTYLE
  5
49B2
102
{ACAD_XDICTIONARY
360
9830
102
}
102
{ACAD_REACTORS
330
49AB
102
}
330
49AB
100
AcDbVisualStyle
  2
3dWireframe
 70
     5
177
     2
291
     0
 71
     0
176
     1
 72
     2
176
     1
 73
     0
176
     1
 90
        0
176
     1
 40
0.6
176
     1
 41
30.0
176
     1
 63
     7
176
     1
 74
     1
176
     1
 91
        4
176
     1
 64
     7
176
     1
 65
   257
176
     1
 75
     1
176
     1
175
     1
176
     1
 42
1.0
176
     1
 92
        0
176
     1
 66
   257
176
     1
 43
1.0
176
     1
 76
     1
176
     1
 77
     6
176
     1
 78
     2
176
     1
 67
     7
176
     1
 79
     5
176
     1
170
     0
176
     1
171
     0
176
     1
290
     0
176
     1
 93
        1
176
     1
 44
0.0
176
     1
173
     0
176
     1
1001
ACAD
1000
AcRTDxfName
1000
VISUALSTYLE
1000
AcRTDxfName
1000
VISUALSTYLE
1000
AcDbSavedByObjectVersion
1070
     0
  0
VISUALSTYLE
  5
49B0
102
{ACAD_XDICTIONARY
360
982C
102
}
102
{ACAD_REACTORS
330
49AB
102
}
330
49AB
100
AcDbVisualStyle
  2
Basic
 70
     7
177
     2
291
     1
 71
     1
176
     1
 72
     0
176
     1
 73
     1
176
     1
 90
        0
176
     1
 40
0.6
176
     1
 41
30.0
176
     1
 63
     7
176
     1
 74
     0
176
     1
 91
        4
176
     1
 64
     7
176
     1
 65
   257
176
     1
 75
     1
176
     1
175
     1
176
     1
 42
1.0
176
     1
 92
        8
176
     1
 66
     7
176
     1
 43
1.0
176
     1
 76
     1
176
     1
 77
     6
176
     1
 78
     2
176
     1
 67
     7
176
     1
 79
     5
176
     1
170
     0
176
     1
171
     0
176
     1
290
     0
176
     1
 93
        1
176
     1
 44
0.0
176
     1
173
     0
176
     1
1001
ACAD
1000
AcRTDxfName
1000
VISUALSTYLE
1000
AcRTDxfName
1000
VISUALSTYLE
1000
AcDbSavedByObjectVersion
1070
     0
  0
VISUALSTYLE
  5
49B7
102
{ACAD_XDICTIONARY
360
983A
102
}
102
{ACAD_REACTORS
330
49AB
102
}
330
49AB
100
AcDbVisualStyle
  2
Brighten
 70
    12
177
     2
291
     1
 71
     2
176
     1
 72
     2
176
     1
 73
     0
176
     1
 90
        0
176
     1
 40
0.6
176
     1
 41
30.0
176
     1
 63
     7
176
     1
 74
     1
176
     1
 91
        4
176
     1
 64
     7
176
     1
 65
   257
176
     1
 75
     1
176
     1
175
     1
176
     1
 42
1.0
176
     1
 92
        8
176
     1
 66
     7
176
     1
 43
1.0
176
     1
 76
     1
176
     1
 77
     6
176
     1
 78
     2
176
     1
 67
     7
176
     1
 79
     5
176
     1
170
     0
176
     1
171
     0
176
     1
290
     0
176
     1
 93
        1
176
     1
 44
50.0
176
     1
173
     0
176
     1
1001
ACAD
1000
AcRTDxfName
1000
VISUALSTYLE
1000
AcRTDxfName
1000
VISUALSTYLE
1000
AcDbSavedByObjectVersion
1070
     0
  0
VISUALSTYLE
  5
49BB
102
{ACAD_XDICTIONARY
360
9842
102
}
102
{ACAD_REACTORS
330
49AB
102
}
330
49AB
100
AcDbVisualStyle
  2
ColorChange
 70
    16
177
     2
291
     1
 71
     2
176
     1
 72
     2
176
     1
 73
     3
176
     1
 90
        0
176
     1
 40
0.6
176
     1
 41
30.0
176
     1
 63
     8
176
     1
 74
     1
176
     1
 91
        4
176
     1
 64
     7
176
     1
 65
   257
176
     1
 75
     1
176
     1
175
     1
176
     1
 42
1.0
176
     1
 92
        8
176
     1
 66
     8
176
     1
 43
1.0
176
     1
 76
     1
176
     1
 77
     6
176
     1
 78
     2
176
     1
 67
     7
176
     1
 79
     5
176
     1
170
     0
176
     1
171
     0
176
     1
290
     0
176
     1
 93
        1
176
     1
 44
0.0
176
     1
173
     0
176
     1
1001
ACAD
1000
AcRTDxfName
1000
VISUALSTYLE
1000
AcRTDxfName
1000
VISUALSTYLE
1000
AcDbSavedByObjectVersion
1070
     0
  0
VISUALSTYLE
  5
49B4
102
{ACAD_XDICTIONARY
360
9834
102
}
102
{ACAD_REACTORS
330
49AB
102
}
330
49AB
100
AcDbVisualStyle
  2
Conceptual
 70
     9
177
     2
291
     0
 71
     3
176
     1
 72
     2
176
     1
 73
     0
176
     1
 90
        0
176
     1
 40
0.6
176
     1
 41
30.0
176
     1
 63
     7
176
     1
 74
     2
176
     1
 91
        2
176
     1
 64
     7
176
     1
 65
   257
176
     1
 75
     1
176
     1
175
     1
176
     1
 42
40.0
176
     1
 92
        8
176
     1
 66
     7
176
     1
 43
1.0
176
     1
 76
     1
176
     1
 77
     6
176
     1
 78
     2
176
     1
 67
     7
176
     1
 79
     3
176
     1
170
     0
176
     1
171
     0
176
     1
290
     0
176
     1
 93
        1
176
     1
 44
0.0
176
     1
173
     0
176
     1
1001
ACAD
1000
AcRTDxfName
1000
VISUALSTYLE
1000
AcRTDxfName
1000
VISUALSTYLE
1000
AcDbSavedByObjectVersion
1070
     0
  0
VISUALSTYLE
  5
49B6
102
{ACAD_XDICTIONARY
360
9838
102
}
102
{ACAD_REACTORS
330
49AB
102
}
330
49AB
100
AcDbVisualStyle
  2
Dim
 70
    11
177
     2
291
     1
 71
     2
176
     1
 72
     2
176
     1
 73
     0
176
     1
 90
        0
176
     1
 40
0.6
176
     1
 41
30.0
176
     1
 63
     7
176
     1
 74
     1
176
     1
 91
        4
176
     1
 64
     7
176
     1
 65
   257
176
     1
 75
     1
176
     1
175
     1
176
     1
 42
1.0
176
     1
 92
        8
176
     1
 66
     7
176
     1
 43
1.0
176
     1
 76
     1
176
     1
 77
     6
176
     1
 78
     2
176
     1
 67
     7
176
     1
 79
     5
176
     1
170
     0
176
     1
171
     0
176
     1
290
     0
176
     1
 93
        1
176
     1
 44
-50.0
176
     1
173
     0
176
     1
1001
ACAD
1000
AcRTDxfName
1000
VISUALSTYLE
1000
AcRTDxfName
1000
VISUALSTYLE
1000
AcDbSavedByObjectVersion
1070
     0
  0
VISUALSTYLE
  5
4BB9
102
{ACAD_XDICTIONARY
360
9856
102
}
102
{ACAD_REACTORS
330
49AB
102
}
330
49AB
100
AcDbVisualStyle
  2
EdgeColorOff
 70
    22
177
     2
291
     1
 71
     2
176
     0
 72
     2
176
     0
 73
     0
176
     0
 90
        0
176
     0
 40
0.6
176
     0
 41
30.0
176
     0
 63
     7
176
     0
 74
     1
176
     0
 91
        4
176
     0
 64
     7
176
     0
 65
   257
176
     0
 75
     1
176
     0
175
     1
176
     0
 42
1.0
176
     0
 92
        8
176
     2
 66
     7
176
     0
 43
1.0
176
     0
 76
     1
176
     0
 77
     6
176
     0
 78
     2
176
     0
 67
     7
176
     0
 79
     5
176
     0
170
     0
176
     0
171
     0
176
     0
290
     0
176
     0
 93
        1
176
     0
 44
0.0
176
     0
173
     0
176
     0
1001
ACAD
1000
AcDbSavedByObjectVersion
1070
     0
  0
VISUALSTYLE
  5
49BA
102
{ACAD_XDICTIONARY
360
9840
102
}
102
{ACAD_REACTORS
330
49AB
102
}
330
49AB
100
AcDbVisualStyle
  2
Facepattern
 70
    15
177
     2
291
     1
 71
     2
176
     1
 72
     2
176
     1
 73
     0
176
     1
 90
        0
176
     1
 40
0.6
176
     1
 41
30.0
176
     1
 63
     7
176
     1
 74
     1
176
     1
 91
        4
176
     1
 64
     7
176
     1
 65
   257
176
     1
 75
     1
176
     1
175
     1
176
     1
 42
1.0
176
     1
 92
        8
176
     1
 66
     7
176
     1
 43
1.0
176
     1
 76
     1
176
     1
 77
     6
176
     1
 78
     2
176
     1
 67
     7
176
     1
 79
     5
176
     1
170
     0
176
     1
171
     0
176
     1
290
     0
176
     1
 93
        1
176
     1
 44
0.0
176
     1
173
     0
176
     1
1001
ACAD
1000
AcRTDxfName
1000
VISUALSTYLE
1000
AcRTDxfName
1000
VISUALSTYLE
1000
AcDbSavedByObjectVersion
1070
     0
  0
VISUALSTYLE
  5
49AC
102
{ACAD_XDICTIONARY
360
9824
102
}
102
{ACAD_REACTORS
330
49AB
102
}
330
49AB
100
AcDbVisualStyle
  2
Flat
 70
     0
177
     2
291
     1
 71
     2
176
     1
 72
     1
176
     1
 73
     1
176
     1
 90
        2
176
     1
 40
0.6
176
     1
 41
30.0
176
     1
 63
     7
176
     1
 74
     0
176
     1
 91
        4
176
     1
 64
     7
176
     1
 65
   257
176
     1
 75
     1
176
     1
175
     1
176
     1
 42
1.0
176
     1
 92
        8
176
     1
 66
     7
176
     1
 43
1.0
176
     1
 76
     1
176
     1
 77
     6
176
     1
 78
     2
176
     1
 67
     7
176
     1
 79
     5
176
     1
170
     0
176
     1
171
     0
176
     1
290
     0
176
     1
 93
       13
176
     1
 44
0.0
176
     1
173
     0
176
     1
1001
ACAD
1000
AcRTDxfName
1000
VISUALSTYLE
1000
AcRTDxfName
1000
VISUALSTYLE
1000
AcDbSavedByObjectVersion
1070
     0
  0
VISUALSTYLE
  5
49AD
102
{ACAD_XDICTIONARY
360
9826
102
}
102
{ACAD_REACTORS
330
49AB
102
}
330
49AB
100
AcDbVisualStyle
  2
FlatWithEdges
 70
     1
177
     2
291
     1
 71
     2
176
     1
 72
     1
176
     1
 73
     1
176
     1
 90
        2
176
     1
 40
0.6
176
     1
 41
30.0
176
     1
 63
     7
176
     1
 74
     1
176
     1
 91
        4
176
     1
 64
     7
176
     1
 65
   257
176
     1
 75
     1
176
     1
175
     1
176
     1
 42
1.0
176
     1
 92
        0
176
     1
 66
   257
176
     1
 43
1.0
176
     1
 76
     1
176
     1
 77
     6
176
     1
 78
     2
176
     1
 67
     7
176
     1
 79
     5
176
     1
170
     0
176
     1
171
     0
176
     1
290
     0
176
     1
 93
       13
176
     1
 44
0.0
176
     1
173
     0
176
     1
1001
ACAD
1000
AcRTDxfName
1000
VISUALSTYLE
1000
AcRTDxfName
1000
VISUALSTYLE
1000
AcDbSavedByObjectVersion
1070
     0
  0
VISUALSTYLE
  5
49AE
102
{ACAD_XDICTIONARY
360
9828
102
}
102
{ACAD_REACTORS
330
49AB
102
}
330
49AB
100
AcDbVisualStyle
  2
Gouraud
 70
     2
177
     2
291
     1
 71
     2
176
     1
 72
     2
176
     1
 73
     1
176
     1
 90
        2
176
     1
 40
0.6
176
     1
 41
30.0
176
     1
 63
     7
176
     1
 74
     0
176
     1
 91
        4
176
     1
 64
     7
176
     1
 65
   257
176
     1
 75
     1
176
     1
175
     1
176
     1
 42
1.0
176
     1
 92
        0
176
     1
 66
     7
176
     1
 43
1.0
176
     1
 76
     1
176
     1
 77
     6
176
     1
 78
     2
176
     1
 67
     7
176
     1
 79
     5
176
     1
170
     0
176
     1
171
     0
176
     1
290
     0
176
     1
 93
       13
176
     1
 44
0.0
176
     1
173
     0
176
     1
1001
ACAD
1000
AcRTDxfName
1000
VISUALSTYLE
1000
AcRTDxfName
1000
VISUALSTYLE
1000
AcDbSavedByObjectVersion
1070
     0
  0
VISUALSTYLE
  5
49AF
102
{ACAD_XDICTIONARY
360
982A
102
}
102
{ACAD_REACTORS
330
49AB
102
}
330
49AB
100
AcDbVisualStyle
  2
GouraudWithEdges
 70
     3
177
     2
291
     1
 71
     2
176
     1
 72
     2
176
     1
 73
     1
176
     1
 90
        2
176
     1
 40
0.6
176
     1
 41
30.0
176
     1
 63
     7
176
     1
 74
     1
176
     1
 91
        4
176
     1
 64
     7
176
     1
 65
   257
176
     1
 75
     1
176
     1
175
     1
176
     1
 42
1.0
176
     1
 92
        0
176
     1
 66
   257
176
     1
 43
1.0
176
     1
 76
     1
176
     1
 77
     6
176
     1
 78
     2
176
     1
 67
     7
176
     1
 79
     5
176
     1
170
     0
176
     1
171
     0
176
     1
290
     0
176
     1
 93
       13
176
     1
 44
0.0
176
     1
173
     0
176
     1
1001
ACAD
1000
AcRTDxfName
1000
VISUALSTYLE
1000
AcRTDxfName
1000
VISUALSTYLE
1000
AcDbSavedByObjectVersion
1070
     0
  0
VISUALSTYLE
  5
4BB1
102
{ACAD_XDICTIONARY
360
9846
102
}
102
{ACAD_REACTORS
330
49AB
102
}
330
49AB
100
AcDbVisualStyle
  2
Hidden
 70
     6
177
     2
291
     0
 71
     1
176
     1
 72
     2
176
     1
 73
     2
176
     1
 90
        0
176
     1
 40
0.6
176
     1
 41
30.0
176
     1
 63
     7
176
     1
 74
     2
176
     1
 91
        2
176
     1
 64
     7
176
     1
 65
   257
176
     1
 75
     2
176
     1
175
     1
176
     1
 42
40.0
176
     1
 92
        0
176
     1
 66
   257
176
     1
 43
1.0
176
     1
 76
     1
176
     1
 77
     6
176
     1
 78
     2
176
     1
 67
     7
176
     1
 79
     3
176
     1
170
     0
176
     1
171
     0
176
     1
290
     0
176
     1
 93
        1
176
     1
 44
0.0
176
     1
173
     0
176
     1
1001
ACAD
1000
AcDbSavedByObjectVersion
1070
     0
  0
VISUALSTYLE
  5
4BB7
102
{ACAD_XDICTIONARY
360
9852
102
}
102
{ACAD_REACTORS
330
49AB
102
}
330
49AB
100
AcDbVisualStyle
  2
JitterOff
 70
    20
177
     2
291
     1
 71
     2
176
     0
 72
     2
176
     0
 73
     0
176
     0
 90
        0
176
     0
 40
0.6
176
     0
 41
30.0
176
     0
 63
     7
176
     0
 74
     1
176
     0
 91
        4
176
     0
 64
     7
176
     0
 65
   257
176
     0
 75
     1
176
     0
175
     1
176
     0
 42
1.0
176
     0
 92
       10
176
     2
 66
     7
176
     0
 43
1.0
176
     0
 76
     1
176
     0
 77
     6
176
     0
 78
     2
176
     0
 67
     7
176
     0
 79
     5
176
     0
170
     0
176
     0
171
     0
176
     0
290
     0
176
     0
 93
        1
176
     0
 44
0.0
176
     0
173
     0
176
     0
1001
ACAD
1000
AcDbSavedByObjectVersion
1070
     0
  0
VISUALSTYLE
  5
49B9
102
{ACAD_XDICTIONARY
360
983E
102
}
102
{ACAD_REACTORS
330
49AB
102
}
330
49AB
100
AcDbVisualStyle
  2
Linepattern
 70
    14
177
     2
291
     1
 71
     2
176
     1
 72
     2
176
     1
 73
     0
176
     1
 90
        0
176
     1
 40
0.6
176
     1
 41
30.0
176
     1
 63
     7
176
     1
 74
     1
176
     1
 91
        4
176
     1
 64
     7
176
     1
 65
   257
176
     1
 75
     7
176
     1
175
     7
176
     1
 42
1.0
176
     1
 92
        8
176
     1
 66
     7
176
     1
 43
1.0
176
     1
 76
     1
176
     1
 77
     6
176
     1
 78
     2
176
     1
 67
     7
176
     1
 79
     5
176
     1
170
     0
176
     1
171
     0
176
     1
290
     0
176
     1
 93
        1
176
     1
 44
0.0
176
     1
173
     0
176
     1
1001
ACAD
1000
AcRTDxfName
1000
VISUALSTYLE
1000
AcRTDxfName
1000
VISUALSTYLE
1000
AcDbSavedByObjectVersion
1070
     0
  0
VISUALSTYLE
  5
4BB8
102
{ACAD_XDICTIONARY
360
9854
102
}
102
{ACAD_REACTORS
330
49AB
102
}
330
49AB
100
AcDbVisualStyle
  2
OverhangOff
 70
    21
177
     2
291
     1
 71
     2
176
     0
 72
     2
176
     0
 73
     0
176
     0
 90
        0
176
     0
 40
0.6
176
     0
 41
30.0
176
     0
 63
     7
176
     0
 74
     1
176
     0
 91
        4
176
     0
 64
     7
176
     0
 65
   257
176
     0
 75
     1
176
     0
175
     1
176
     0
 42
1.0
176
     0
 92
        9
176
     2
 66
     7
176
     0
 43
1.0
176
     0
 76
     1
176
     0
 77
     6
176
     0
 78
     2
176
     0
 67
     7
176
     0
 79
     5
176
     0
170
     0
176
     0
171
     0
176
     0
290
     0
176
     0
 93
        1
176
     0
 44
0.0
176
     0
173
     0
176
     0
1001
ACAD
1000
AcDbSavedByObjectVersion
1070
     0
  0
VISUALSTYLE
  5
49B5
102
{ACAD_XDICTIONARY
360
9836
102
}
102
{ACAD_REACTORS
330
49AB
102
}
330
49AB
100
AcDbVisualStyle
  2
Realistic
 70
     8
177
     2
291
     0
 71
     2
176
     1
 72
     2
176
     1
 73
     0
176
     1
 90
        0
176
     1
 40
0.6
176
     1
 41
30.0
176
     1
 63
     7
176
     1
 74
     1
176
     1
 91
        0
176
     1
 64
     7
176
     1
 65
   257
176
     1
 75
     1
176
     1
175
     1
176
     1
 42
1.0
176
     1
 92
        8
176
     1
 66
     8
176
     1
 43
1.0
176
     1
 76
     1
176
     1
 77
     6
176
     1
 78
     2
176
     1
 67
     7
176
     1
 79
     5
176
     1
170
     0
176
     1
171
     0
176
     1
290
     0
176
     1
 93
       13
176
     1
 44
0.0
176
     1
173
     0
176
     1
1001
ACAD
1000
AcRTDxfName
1000
VISUALSTYLE
1000
AcRTDxfName
1000
VISUALSTYLE
1000
AcDbSavedByObjectVersion
1070
     0
  0
VISUALSTYLE
  5
4BB6
102
{ACAD_XDICTIONARY
360
9850
102
}
102
{ACAD_REACTORS
330
49AB
102
}
330
49AB
100
AcDbVisualStyle
  2
Shaded
 70
    27
177
     2
291
     0
 71
     2
176
     1
 72
     2
176
     1
 73
     1
176
     1
 90
        2
176
     1
 40
0.6
176
     1
 41
30.0
176
     1
 63
     7
176
     1
 74
     0
176
     1
 91
        4
176
     1
 64
     7
176
     1
 65
   257
176
     1
 75
     1
176
     1
175
     1
176
     1
 42
1.0
176
     1
 92
        8
176
     1
 66
   257
176
     1
 43
1.0
176
     1
 76
     1
176
     1
 77
     6
176
     1
 78
     2
176
     1
 67
     8
176
     1
 79
     3
176
     1
170
     0
176
     1
171
     0
176
     1
290
     0
176
     1
 93
        5
176
     1
 44
0.0
176
     1
173
     0
176
     1
1001
ACAD
1000
AcDbSavedByObjectVersion
1070
     0
  0
VISUALSTYLE
  5
4BB5
102
{ACAD_XDICTIONARY
360
984E
102
}
102
{ACAD_REACTORS
330
49AB
102
}
330
49AB
100
AcDbVisualStyle
  2
Shaded with edges
 70
    26
177
     2
291
     0
 71
     2
176
     1
 72
     2
176
     1
 73
     1
176
     1
 90
        2
176
     1
 40
0.6
176
     1
 41
30.0
176
     1
 63
     7
176
     1
 74
     1
176
     1
 91
        2
176
     1
 64
     7
176
     1
 65
   257
176
     1
 75
     2
176
     1
175
     1
176
     1
 42
1.0
176
     1
 92
        8
176
     1
 66
   257
176
     1
 43
1.0
176
     1
 76
     1
176
     1
 77
     6
176
     1
 78
     2
176
     1
 67
     7
176
     1
 79
     3
176
     1
170
     0
176
     1
171
     0
176
     1
290
     0
176
     1
 93
        5
176
     1
 44
0.0
176
     1
173
     0
176
     1
1001
ACAD
1000
AcDbSavedByObjectVersion
1070
     0
  0
VISUALSTYLE
  5
4BB2
102
{ACAD_XDICTIONARY
360
9848
102
}
102
{ACAD_REACTORS
330
49AB
102
}
330
49AB
100
AcDbVisualStyle
  2
Shades of Gray
 70
    23
177
     2
291
     0
 71
     2
176
     1
 72
     2
176
     1
 73
     3
176
     1
 90
        0
176
     1
 40
0.6
176
     1
 41
30.0
176
     1
 63
     7
176
     1
 74
     2
176
     1
 91
        2
176
     1
 64
     7
176
     1
 65
     7
176
     1
 75
     1
176
     1
175
     1
176
     1
 42
40.0
176
     1
 92
        8
176
     1
 66
     7
176
     1
 43
1.0
176
     1
 76
     1
176
     1
 77
     6
176
     1
 78
     2
176
     1
 67
     7
176
     1
 79
     3
176
     1
170
     0
176
     1
171
     0
176
     1
290
     0
176
     1
 93
        1
176
     1
 44
0.0
176
     1
173
     0
176
     1
1001
ACAD
1000
AcDbSavedByObjectVersion
1070
     0
  0
VISUALSTYLE
  5
4BB3
102
{ACAD_XDICTIONARY
360
984A
102
}
102
{ACAD_REACTORS
330
49AB
102
}
330
49AB
100
AcDbVisualStyle
  2
Sketchy
 70
    24
177
     2
291
     0
 71
     1
176
     1
 72
     2
176
     1
 73
     2
176
     1
 90
        0
176
     1
 40
0.6
176
     1
 41
30.0
176
     1
 63
     7
176
     1
 74
     2
176
     1
 91
        2
176
     1
 64
     7
176
     1
 65
     7
176
     1
 75
     1
176
     1
175
     1
176
     1
 42
40.0
176
     1
 92
       11
176
     1
 66
     7
176
     1
 43
1.0
176
     1
 76
     1
176
     1
 77
     6
176
     1
 78
     2
176
     1
 67
     7
176
     1
 79
     6
176
     1
170
     0
176
     1
171
     0
176
     1
290
     0
176
     1
 93
        1
176
     1
 44
0.0
176
     1
173
     0
176
     1
1001
ACAD
1000
AcDbSavedByObjectVersion
1070
     0
  0
VISUALSTYLE
  5
49B8
102
{ACAD_XDICTIONARY
360
983C
102
}
102
{ACAD_REACTORS
330
49AB
102
}
330
49AB
100
AcDbVisualStyle
  2
Thicken
 70
    13
177
     2
291
     1
 71
     2
176
     1
 72
     2
176
     1
 73
     0
176
     1
 90
        0
176
     1
 40
0.6
176
     1
 41
30.0
176
     1
 63
     7
176
     1
 74
     1
176
     1
 91
        4
176
     1
 64
     7
176
     1
 65
   257
176
     1
 75
     1
176
     1
175
     1
176
     1
 42
1.0
176
     1
 92
       12
176
     1
 66
     7
176
     1
 43
1.0
176
     1
 76
     1
176
     1
 77
     6
176
     1
 78
     2
176
     1
 67
     7
176
     1
 79
     5
176
     1
170
     0
176
     1
171
     0
176
     1
290
     0
176
     1
 93
        1
176
     1
 44
0.0
176
     1
173
     0
176
     1
1001
ACAD
1000
AcRTDxfName
1000
VISUALSTYLE
1000
AcRTDxfName
1000
VISUALSTYLE
1000
AcDbSavedByObjectVersion
1070
     0
  0
VISUALSTYLE
  5
4BB0
102
{ACAD_XDICTIONARY
360
9844
102
}
102
{ACAD_REACTORS
330
49AB
102
}
330
49AB
100
AcDbVisualStyle
  2
Wireframe
 70
     5
177
     2
291
     0
 71
     0
176
     1
 72
     2
176
     1
 73
     0
176
     1
 90
        0
176
     1
 40
0.6
176
     1
 41
30.0
176
     1
 63
     7
176
     1
 74
     1
176
     1
 91
        4
176
     1
 64
     7
176
     1
 65
   257
176
     1
 75
     1
176
     1
175
     1
176
     1
 42
1.0
176
     1
 92
        0
176
     1
 66
   257
176
     1
 43
1.0
176
     1
 76
     1
176
     1
 77
     6
176
     1
 78
     2
176
     1
 67
     7
176
     1
 79
     3
176
     1
170
     0
176
     1
171
     0
176
     1
290
     0
176
     1
 93
        1
176
     1
 44
0.0
176
     1
173
     0
176
     1
1001
ACAD
1000
AcDbSavedByObjectVersion
1070
     0
  0
VISUALSTYLE
  5
4BB4
102
{ACAD_XDICTIONARY
360
984C
102
}
102
{ACAD_REACTORS
330
49AB
102
}
330
49AB
100
AcDbVisualStyle
  2
X-Ray
 70
    25
177
     2
291
     0
 71
     2
176
     1
 72
     2
176
     1
 73
     1
176
     1
 90
        1
176
     1
 40
0.5
176
     1
 41
30.0
176
     1
 63
     7
176
     1
 74
     1
176
     1
 91
        0
176
     1
 64
     7
176
     1
 65
   257
176
     1
 75
     1
176
     1
175
     1
176
     1
 42
1.0
176
     1
 92
        8
176
     1
 66
     7
176
     1
 43
1.0
176
     1
 76
     1
176
     1
 77
     6
176
     1
 78
     2
176
     1
 67
     7
176
     1
 79
     3
176
     1
170
     0
176
     1
171
     0
176
     1
290
     0
176
     1
 93
       13
176
     1
 44
0.0
176
     1
173
     0
176
     1
1001
ACAD
1000
AcDbSavedByObjectVersion
1070
     0
  0
DICTIONARYVAR
  5
4AF2
102
{ACAD_REACTORS
330
16B3
102
}
330
16B3
100
DictionaryVariables
280
     0
  1
1:2
  0
DICTIONARYVAR
  5
4AF1
102
{ACAD_REACTORS
330
16B3
102
}
330
16B3
100
DictionaryVariables
280
     0
  1
STANDARD
  0
DICTIONARYVAR
  5
4AF0
102
{ACAD_REACTORS
330
16B3
102
}
330
16B3
100
DictionaryVariables
280
     0
  1
STANDARD
  0
DICTIONARYVAR
  5
4EE2
102
{ACAD_REACTORS
330
16B3
102
}
330
16B3
100
DictionaryVariables
280
     0
  1
Metric50
  0
DICTIONARYVAR
  5
4EE3
102
{ACAD_REACTORS
330
16B3
102
}
330
16B3
100
DictionaryVariables
280
     0
  1
Metric50
  0
DICTIONARYVAR
  5
16B4
102
{ACAD_REACTORS
330
16B3
102
}
330
16B3
100
DictionaryVariables
280
     0
  1
1
  0
DICTIONARYVAR
  5
94DD
102
{ACAD_REACTORS
330
16B3
102
}
330
16B3
100
DictionaryVariables
280
     0
  1
BYLAYER
  0
DICTIONARYVAR
  5
94DC
102
{ACAD_REACTORS
330
16B3
102
}
330
16B3
100
DictionaryVariables
280
     0
  1
ByLayer
  0
DICTIONARYVAR
  5
4AF4
102
{ACAD_REACTORS
330
16B3
102
}
330
16B3
100
DictionaryVariables
280
     0
  1
0
  0
DICTIONARYVAR
  5
80C0
102
{ACAD_REACTORS
330
16B3
102
}
330
16B3
100
DictionaryVariables
280
     0
  1
1
  0
DICTIONARYVAR
  5
80C1
102
{ACAD_REACTORS
330
16B3
102
}
330
16B3
100
DictionaryVariables
280
     0
  1
15
  0
DICTIONARYVAR
  5
80BF
102
{ACAD_REACTORS
330
16B3
102
}
330
16B3
100
DictionaryVariables
280
     0
  1
0
  0
DICTIONARYVAR
  5
80BE
102
{ACAD_REACTORS
330
16B3
102
}
330
16B3
100
DictionaryVariables
280
     0
  1
0
  0
DICTIONARYVAR
  5
16B5
102
{ACAD_REACTORS
330
16B3
102
}
330
16B3
100
DictionaryVariables
280
     0
  1

  0
DICTIONARYVAR
  5
4AF3
102
{ACAD_REACTORS
330
16B3
102
}
330
16B3
100
DictionaryVariables
280
     0
  1
127
  0
DICTIONARY
  5
9823
102
{ACAD_REACTORS
330
9821
102
}
330
9821
100
AcDbDictionary
281
     1
  0
DICTIONARY
  5
9822
102
{ACAD_REACTORS
330
9821
102
}
330
9821
100
AcDbDictionary
281
     1
  3
2224823834048
350
981C
  3
2224823834064
350
981D
  3
2224823834080
350
981E
  3
2224823834096
350
981F
  3
2224823834112
350
9820
  0
DICTIONARY
  5
978A
330
4D47
100
AcDbDictionary
280
     1
281
     1
  3
ACAD_XREC_ROUNDTRIP
360
9859
  0
DICTIONARY
  5
9574
330
3B3
100
AcDbDictionary
280
     1
281
     1
  0
DICTIONARY
  5
49A4
330
49A3
100
AcDbDictionary
280
     1
281
     1
  3
BUMPTILE
360
49A6
  3
DIFFUSETILE
360
49A5
  3
OPACITYTILE
360
49A9
  3
REFLECTIONTILE
360
49A8
  3
REFRACTIONTILE
360
49AA
  3
SPECULARTILE
360
49A7
  0
DICTIONARY
  5
499C
330
499B
100
AcDbDictionary
280
     1
281
     1
  3
BUMPTILE
360
499E
  3
DIFFUSETILE
360
499D
  3
OPACITYTILE
360
49A1
  3
REFLECTIONTILE
360
49A0
  3
REFRACTIONTILE
360
49A2
  3
SPECULARTILE
360
499F
  0
DICTIONARY
  5
9788
330
4D45
100
AcDbDictionary
280
     1
281
     1
  3
ACAD_XREC_ROUNDTRIP
360
9858
  0
DICTIONARY
  5
4AD2
330
49BD
100
AcDbDictionary
280
     1
281
     1
  3
ACAD_ROUNDTRIP_2008_TABLESTYLE_CELLSTYLEMAP
360
9818
  0
DICTIONARY
  5
982E
330
49B1
100
AcDbDictionary
280
     1
281
     1
  3
ACAD_XREC_ROUNDTRIP
360
982F
  0
DICTIONARY
  5
9832
330
49B3
100
AcDbDictionary
280
     1
281
     1
  3
ACAD_XREC_ROUNDTRIP
360
9833
  0
DICTIONARY
  5
9830
330
49B2
100
AcDbDictionary
280
     1
281
     1
  3
ACAD_XREC_ROUNDTRIP
360
9831
  0
DICTIONARY
  5
982C
330
49B0
100
AcDbDictionary
280
     1
281
     1
  3
ACAD_XREC_ROUNDTRIP
360
982D
  0
DICTIONARY
  5
983A
330
49B7
100
AcDbDictionary
280
     1
281
     1
  3
ACAD_XREC_ROUNDTRIP
360
983B
  0
DICTIONARY
  5
9842
330
49BB
100
AcDbDictionary
280
     1
281
     1
  3
ACAD_XREC_ROUNDTRIP
360
9843
  0
DICTIONARY
  5
9834
330
49B4
100
AcDbDictionary
280
     1
281
     1
  3
ACAD_XREC_ROUNDTRIP
360
9835
  0
DICTIONARY
  5
9838
330
49B6
100
AcDbDictionary
280
     1
281
     1
  3
ACAD_XREC_ROUNDTRIP
360
9839
  0
DICTIONARY
  5
9856
330
4BB9
100
AcDbDictionary
280
     1
281
     1
  3
ACAD_XREC_ROUNDTRIP
360
9857
  0
DICTIONARY
  5
9840
330
49BA
100
AcDbDictionary
280
     1
281
     1
  3
ACAD_XREC_ROUNDTRIP
360
9841
  0
DICTIONARY
  5
9824
330
49AC
100
AcDbDictionary
280
     1
281
     1
  3
ACAD_XREC_ROUNDTRIP
360
9825
  0
DICTIONARY
  5
9826
330
49AD
100
AcDbDictionary
280
     1
281
     1
  3
ACAD_XREC_ROUNDTRIP
360
9827
  0
DICTIONARY
  5
9828
330
49AE
100
AcDbDictionary
280
     1
281
     1
  3
ACAD_XREC_ROUNDTRIP
360
9829
  0
DICTIONARY
  5
982A
330
49AF
100
AcDbDictionary
280
     1
281
     1
  3
ACAD_XREC_ROUNDTRIP
360
982B
  0
DICTIONARY
  5
9846
330
4BB1
100
AcDbDictionary
280
     1
281
     1
  3
ACAD_XREC_ROUNDTRIP
360
9847
  0
DICTIONARY
  5
9852
330
4BB7
100
AcDbDictionary
280
     1
281
     1
  3
ACAD_XREC_ROUNDTRIP
360
9853
  0
DICTIONARY
  5
983E
330
49B9
100
AcDbDictionary
280
     1
281
     1
  3
ACAD_XREC_ROUNDTRIP
360
983F
  0
DICTIONARY
  5
9854
330
4BB8
100
AcDbDictionary
280
     1
281
     1
  3
ACAD_XREC_ROUNDTRIP
360
9855
  0
DICTIONARY
  5
9836
330
49B5
100
AcDbDictionary
280
     1
281
     1
  3
ACAD_XREC_ROUNDTRIP
360
9837
  0
DICTIONARY
  5
9850
330
4BB6
100
AcDbDictionary
280
     1
281
     1
  3
ACAD_XREC_ROUNDTRIP
360
9851
  0
DICTIONARY
  5
984E
330
4BB5
100
AcDbDictionary
280
     1
281
     1
  3
ACAD_XREC_ROUNDTRIP
360
984F
  0
DICTIONARY
  5
9848
330
4BB2
100
AcDbDictionary
280
     1
281
     1
  3
ACAD_XREC_ROUNDTRIP
360
9849
  0
DICTIONARY
  5
984A
330
4BB3
100
AcDbDictionary
280
     1
281
     1
  3
ACAD_XREC_ROUNDTRIP
360
984B
  0
DICTIONARY
  5
983C
330
49B8
100
AcDbDictionary
280
     1
281
     1
  3
ACAD_XREC_ROUNDTRIP
360
983D
  0
DICTIONARY
  5
9844
330
4BB0
100
AcDbDictionary
280
     1
281
     1
  3
ACAD_XREC_ROUNDTRIP
360
9845
  0
DICTIONARY
  5
984C
330
4BB4
100
AcDbDictionary
280
     1
281
     1
  3
ACAD_XREC_ROUNDTRIP
360
984D
  0
XRECORD
  5
981C
102
{ACAD_REACTORS
330
9822
102
}
330
9822
100
AcDbXrecord
280
     1
  1
AcDb_Thumbnail_Schema
102
{ATTRRECORD
341
981D
  2
AcDbDs::TreatedAsObjectData
280
     1
291
     1
102
ATTRRECORD}
102
{ATTRRECORD
341
981E
  2
AcDbDs::Legacy
280
     1
291
     1
102
ATTRRECORD}
  2
AcDbDs::ID
280
    10
 91
        8
102
{ATTRRECORD
341
981F
  2
AcDs:Indexable
280
     1
291
     1
102
ATTRRECORD}
102
{ATTRRECORD
341
9820
  2
AcDbDs::HandleAttribute
280
     7
282
     1
102
ATTRRECORD}
  2
Thumbnail_Data
280
    15
 91
        0
  0
XRECORD
  5
981D
102
{ACAD_REACTORS
330
9822
102
}
330
9822
100
AcDbXrecord
280
     1
  1
AcDbDs::TreatedAsObjectDataSchema
  2
AcDbDs::TreatedAsObjectData
280
     1
 91
        0
  0
XRECORD
  5
981E
102
{ACAD_REACTORS
330
9822
102
}
330
9822
100
AcDbXrecord
280
     1
  1
AcDbDs::LegacySchema
  2
AcDbDs::Legacy
280
     1
 91
        0
  0
XRECORD
  5
981F
102
{ACAD_REACTORS
330
9822
102
}
330
9822
100
AcDbXrecord
280
     1
  1
AcDbDs::IndexedPropertySchema
  2
AcDs:Indexable
280
     1
 91
        0
  0
XRECORD
  5
9820
102
{ACAD_REACTORS
330
9822
102
}
330
9822
100
AcDbXrecord
280
     1
  1
AcDbDs::HandleAttributeSchema
  2
AcDbDs::HandleAttribute
280
     7
 91
        1
284
     1
  0
XRECORD
  5
9859
102
{ACAD_REACTORS
330
978A
102
}
330
978A
100
AcDbXrecord
280
     1
102
DISPLAYNAME
  1
Metric50
102
FLAGS
 90
        0
  0
XRECORD
  5
49A6
102
{ACAD_REACTORS
330
49A4
102
}
330
49A4
100
AcDbXrecord
280
     1
270
     1
271
     1
  0
XRECORD
  5
49A5
102
{ACAD_REACTORS
330
49A4
102
}
330
49A4
100
AcDbXrecord
280
     1
270
     1
271
     1
  0
XRECORD
  5
49A9
102
{ACAD_REACTORS
330
49A4
102
}
330
49A4
100
AcDbXrecord
280
     1
270
     1
271
     1
  0
XRECORD
  5
49A8
102
{ACAD_REACTORS
330
49A4
102
}
330
49A4
100
AcDbXrecord
280
     1
270
     1
271
     1
  0
XRECORD
  5
49AA
102
{ACAD_REACTORS
330
49A4
102
}
330
49A4
100
AcDbXrecord
280
     1
270
     1
271
     1
  0
XRECORD
  5
49A7
102
{ACAD_REACTORS
330
49A4
102
}
330
49A4
100
AcDbXrecord
280
     1
270
     1
271
     1
  0
XRECORD
  5
499E
102
{ACAD_REACTORS
330
499C
102
}
330
499C
100
AcDbXrecord
280
     1
270
     1
271
     1
  0
XRECORD
  5
499D
102
{ACAD_REACTORS
330
499C
102
}
330
499C
100
AcDbXrecord
280
     1
270
     1
271
     1
  0
XRECORD
  5
49A1
102
{ACAD_REACTORS
330
499C
102
}
330
499C
100
AcDbXrecord
280
     1
270
     1
271
     1
  0
XRECORD
  5
49A0
102
{ACAD_REACTORS
330
499C
102
}
330
499C
100
AcDbXrecord
280
     1
270
     1
271
     1
  0
XRECORD
  5
49A2
102
{ACAD_REACTORS
330
499C
102
}
330
499C
100
AcDbXrecord
280
     1
270
     1
271
     1
  0
XRECORD
  5
499F
102
{ACAD_REACTORS
330
499C
102
}
330
499C
100
AcDbXrecord
280
     1
270
     1
271
     1
  0
XRECORD
  5
9858
102
{ACAD_REACTORS
330
9788
102
}
330
9788
100
AcDbXrecord
280
     1
102
DISPLAYNAME
  1
Metric50
102
FLAGS
 90
        0
  0
CELLSTYLEMAP
  5
9818
102
{ACAD_REACTORS
330
4AD2
102
}
330
4AD2
100
AcDbCellStyleMap
 90
        3
300
CELLSTYLE
  1
TABLEFORMAT_BEGIN
 90
        5
170
     1
 91
        0
 92
    32768
 62
   257
 93
        1
300
CONTENTFORMAT
  1
CONTENTFORMAT_BEGIN
 90
        0
 91
        0
 92
      512
 93
        0
300

 40
0.0
140
1.0
 94
        5
 62
     0
340
10
144
6.0
309
CONTENTFORMAT_END
171
     1
301
MARGIN
  1
CELLMARGIN_BEGIN
 40
1.5
 40
1.5
 40
1.5
 40
1.5
 40
0.18
 40
0.18
309
CELLMARGIN_END
 94
        6
 95
        1
302
GRIDFORMAT
  1
GRIDFORMAT_BEGIN
 90
        0
 91
        1
 62
     0
 92
       -2
340
0
 93
        0
 40
1.125
309
GRIDFORMAT_END
 95
        2
302
GRIDFORMAT
  1
GRIDFORMAT_BEGIN
 90
        0
 91
        1
 62
     0
 92
       -2
340
0
 93
        0
 40
1.125
309
GRIDFORMAT_END
 95
        4
302
GRIDFORMAT
  1
GRIDFORMAT_BEGIN
 90
        0
 91
        1
 62
     0
 92
       -2
340
0
 93
        0
 40
1.125
309
GRIDFORMAT_END
 95
        8
302
GRIDFORMAT
  1
GRIDFORMAT_BEGIN
 90
        0
 91
        1
 62
     0
 92
       -2
340
0
 93
        0
 40
1.125
309
GRIDFORMAT_END
 95
       16
302
GRIDFORMAT
  1
GRIDFORMAT_BEGIN
 90
        0
 91
        1
 62
     0
 92
       -2
340
0
 93
        0
 40
1.125
309
GRIDFORMAT_END
 95
       32
302
GRIDFORMAT
  1
GRIDFORMAT_BEGIN
 90
        0
 91
        1
 62
     0
 92
       -2
340
0
 93
        0
 40
1.125
309
GRIDFORMAT_END
309
TABLEFORMAT_END
  1
CELLSTYLE_BEGIN
 90
        1
 91
        1
300
_TITLE
309
CELLSTYLE_END
300
CELLSTYLE
  1
TABLEFORMAT_BEGIN
 90
        5
170
     1
 91
        0
 92
        0
 62
   257
 93
        1
300
CONTENTFORMAT
  1
CONTENTFORMAT_BEGIN
 90
        0
 91
        0
 92
      512
 93
        0
300

 40
0.0
140
1.0
 94
        5
 62
     0
340
10
144
4.5
309
CONTENTFORMAT_END
171
     1
301
MARGIN
  1
CELLMARGIN_BEGIN
 40
1.5
 40
1.5
 40
1.5
 40
1.5
 40
0.18
 40
0.18
309
CELLMARGIN_END
 94
        6
 95
        1
302
GRIDFORMAT
  1
GRIDFORMAT_BEGIN
 90
        0
 91
        1
 62
     0
 92
       -2
340
0
 93
        0
 40
1.125
309
GRIDFORMAT_END
 95
        2
302
GRIDFORMAT
  1
GRIDFORMAT_BEGIN
 90
        0
 91
        1
 62
     0
 92
       -2
340
0
 93
        0
 40
1.125
309
GRIDFORMAT_END
 95
        4
302
GRIDFORMAT
  1
GRIDFORMAT_BEGIN
 90
        0
 91
        1
 62
     0
 92
       -2
340
0
 93
        0
 40
1.125
309
GRIDFORMAT_END
 95
        8
302
GRIDFORMAT
  1
GRIDFORMAT_BEGIN
 90
        0
 91
        1
 62
     0
 92
       -2
340
0
 93
        0
 40
1.125
309
GRIDFORMAT_END
 95
       16
302
GRIDFORMAT
  1
GRIDFORMAT_BEGIN
 90
        0
 91
        1
 62
     0
 92
       -2
340
0
 93
        0
 40
1.125
309
GRIDFORMAT_END
 95
       32
302
GRIDFORMAT
  1
GRIDFORMAT_BEGIN
 90
        0
 91
        1
 62
     0
 92
       -2
340
0
 93
        0
 40
1.125
309
GRIDFORMAT_END
309
TABLEFORMAT_END
  1
CELLSTYLE_BEGIN
 90
        2
 91
        1
300
_HEADER
309
CELLSTYLE_END
300
CELLSTYLE
  1
TABLEFORMAT_BEGIN
 90
        5
170
     1
 91
        0
 92
        0
 62
   257
 93
        1
300
CONTENTFORMAT
  1
CONTENTFORMAT_BEGIN
 90
        0
 91
        0
 92
      512
 93
        0
300

 40
0.0
140
1.0
 94
        2
 62
     0
340
10
144
4.5
309
CONTENTFORMAT_END
171
     1
301
MARGIN
  1
CELLMARGIN_BEGIN
 40
1.5
 40
1.5
 40
1.5
 40
1.5
 40
0.18
 40
0.18
309
CELLMARGIN_END
 94
        6
 95
        1
302
GRIDFORMAT
  1
GRIDFORMAT_BEGIN
 90
        0
 91
        1
 62
     0
 92
       -2
340
0
 93
        0
 40
1.125
309
GRIDFORMAT_END
 95
        2
302
GRIDFORMAT
  1
GRIDFORMAT_BEGIN
 90
        0
 91
        1
 62
     0
 92
       -2
340
0
 93
        0
 40
1.125
309
GRIDFORMAT_END
 95
        4
302
GRIDFORMAT
  1
GRIDFORMAT_BEGIN
 90
        0
 91
        1
 62
     0
 92
       -2
340
0
 93
        0
 40
1.125
309
GRIDFORMAT_END
 95
        8
302
GRIDFORMAT
  1
GRIDFORMAT_BEGIN
 90
        0
 91
        1
 62
     0
 92
       -2
340
0
 93
        0
 40
1.125
309
GRIDFORMAT_END
 95
       16
302
GRIDFORMAT
  1
GRIDFORMAT_BEGIN
 90
        0
 91
        1
 62
     0
 92
       -2
340
0
 93
        0
 40
1.125
309
GRIDFORMAT_END
 95
       32
302
GRIDFORMAT
  1
GRIDFORMAT_BEGIN
 90
        0
 91
        1
 62
     0
 92
       -2
340
0
 93
        0
 40
1.125
309
GRIDFORMAT_END
309
TABLEFORMAT_END
  1
CELLSTYLE_BEGIN
 90
        3
 91
        2
300
_DATA
309
CELLSTYLE_END
  0
XRECORD
  5
982F
102
{ACAD_REACTORS
330
982E
102
}
330
982E
100
AcDbXrecord
280
     1
102
RTVSPost2010Prop28
280
     1
102
RTVSPost2010PropOp28
 70
     1
102
RTVSPost2010Prop29
280
     1
102
RTVSPost2010PropOp29
 70
     1
102
RTVSPost2010Prop30
280
     0
102
RTVSPost2010PropOp30
 70
     1
102
RTVSPost2010Prop31
280
     0
102
RTVSPost2010PropOp31
 70
     1
102
RTVSPost2010Prop32
280
     0
102
RTVSPost2010PropOp32
 70
     1
102
RTVSPost2010Prop33
280
     0
102
RTVSPost2010PropOp33
 70
     1
102
RTVSPost2010Prop34
280
     0
102
RTVSPost2010PropOp34
 70
     1
102
RTVSPost2010Prop35
280
     0
102
RTVSPost2010PropOp35
 70
     1
102
RTVSPost2010Prop36
280
     0
102
RTVSPost2010PropOp36
 70
     1
102
RTVSPost2010Prop37
 90
       50
102
RTVSPost2010PropOp37
 70
     1
102
RTVSPost2010Prop38
140
0.0
102
RTVSPost2010PropOp38
 70
     1
102
RTVSPost2010Prop39
140
1.0
102
RTVSPost2010PropOp39
 70
     1
102
RTVSPost2010Prop40
 90
        0
102
RTVSPost2010PropOp40
 70
     1
102
RTVSPost2010Prop41ColorIndex
 90
       18
102
RTVSPost2010Prop41ColorRGB
 90
        0
102
RTVSPost2010PropOp41
 70
     1
102
RTVSPost2010Prop42
 90
       50
102
RTVSPost2010PropOp42
 70
     1
102
RTVSPost2010Prop43
 90
        3
102
RTVSPost2010PropOp43
 70
     1
102
RTVSPost2010Prop44ColorIndex
 90
        5
102
RTVSPost2010Prop44ColorRGB
 90
      255
102
RTVSPost2010PropOp44
 70
     1
102
RTVSPost2010Prop45
280
     0
102
RTVSPost2010PropOp45
 70
     1
102
RTVSPost2010Prop46
 90
       50
102
RTVSPost2010PropOp46
 70
     1
102
RTVSPost2010Prop47
 90
       50
102
RTVSPost2010PropOp47
 70
     1
102
RTVSPost2010Prop48
 90
       50
102
RTVSPost2010PropOp48
 70
     1
102
RTVSPost2010Prop49
280
     0
102
RTVSPost2010PropOp49
 70
     1
102
RTVSPost2010Prop50
 90
       50
102
RTVSPost2010PropOp50
 70
     1
102
RTVSPost2010Prop51ColorIndex
 90
      256
102
RTVSPost2010Prop51ColorRGB
 90
-16777216
102
RTVSPost2010PropOp51
 70
     0
102
RTVSPost2010Prop52
140
1.0
102
RTVSPost2010PropOp52
 70
     0
102
RTVSPost2010Prop53
 90
        2
102
RTVSPost2010PropOp53
 70
     1
102
RTVSPost2010Prop54
  1
strokes_ogs.tif
102
RTVSPost2010PropOp54
 70
     1
102
RTVSPost2010Prop55
280
     0
102
RTVSPost2010PropOp55
 70
     1
102
RTVSPost2010Prop56
140
1.0
102
RTVSPost2010PropOp56
 70
     1
102
RTVSPost2010Prop57
140
1.0
102
RTVSPost2010PropOp57
 70
     1
  0
XRECORD
  5
9833
102
{ACAD_REACTORS
330
9832
102
}
330
9832
100
AcDbXrecord
280
     1
102
RTVSPost2010Prop28
280
     0
102
RTVSPost2010PropOp28
 70
     1
102
RTVSPost2010Prop29
280
     1
102
RTVSPost2010PropOp29
 70
     1
102
RTVSPost2010Prop30
280
     1
102
RTVSPost2010PropOp30
 70
     1
102
RTVSPost2010Prop31
280
     0
102
RTVSPost2010PropOp31
 70
     1
102
RTVSPost2010Prop32
280
     0
102
RTVSPost2010PropOp32
 70
     1
102
RTVSPost2010Prop33
280
     0
102
RTVSPost2010PropOp33
 70
     1
102
RTVSPost2010Prop34
280
     0
102
RTVSPost2010PropOp34
 70
     1
102
RTVSPost2010Prop35
280
     0
102
RTVSPost2010PropOp35
 70
     1
102
RTVSPost2010Prop36
280
     0
102
RTVSPost2010PropOp36
 70
     1
102
RTVSPost2010Prop37
 90
       50
102
RTVSPost2010PropOp37
 70
     1
102
RTVSPost2010Prop38
140
0.0
102
RTVSPost2010PropOp38
 70
     1
102
RTVSPost2010Prop39
140
1.0
102
RTVSPost2010PropOp39
 70
     1
102
RTVSPost2010Prop40
 90
        0
102
RTVSPost2010PropOp40
 70
     1
102
RTVSPost2010Prop41ColorIndex
 90
       18
102
RTVSPost2010Prop41ColorRGB
 90
        0
102
RTVSPost2010PropOp41
 70
     1
102
RTVSPost2010Prop42
 90
       50
102
RTVSPost2010PropOp42
 70
     1
102
RTVSPost2010Prop43
 90
        3
102
RTVSPost2010PropOp43
 70
     1
102
RTVSPost2010Prop44ColorIndex
 90
        5
102
RTVSPost2010Prop44ColorRGB
 90
      255
102
RTVSPost2010PropOp44
 70
     1
102
RTVSPost2010Prop45
280
     0
102
RTVSPost2010PropOp45
 70
     1
102
RTVSPost2010Prop46
 90
       50
102
RTVSPost2010PropOp46
 70
     1
102
RTVSPost2010Prop47
 90
       50
102
RTVSPost2010PropOp47
 70
     1
102
RTVSPost2010Prop48
 90
       50
102
RTVSPost2010PropOp48
 70
     1
102
RTVSPost2010Prop49
280
     0
102
RTVSPost2010PropOp49
 70
     1
102
RTVSPost2010Prop50
 90
       50
102
RTVSPost2010PropOp50
 70
     1
102
RTVSPost2010Prop51ColorIndex
 90
      256
102
RTVSPost2010Prop51ColorRGB
 90
-16777216
102
RTVSPost2010PropOp51
 70
     0
102
RTVSPost2010Prop52
140
1.0
102
RTVSPost2010PropOp52
 70
     0
102
RTVSPost2010Prop53
 90
        2
102
RTVSPost2010PropOp53
 70
     1
102
RTVSPost2010Prop54
  1
strokes_ogs.tif
102
RTVSPost2010PropOp54
 70
     1
102
RTVSPost2010Prop55
280
     0
102
RTVSPost2010PropOp55
 70
     1
102
RTVSPost2010Prop56
140
1.0
102
RTVSPost2010PropOp56
 70
     1
102
RTVSPost2010Prop57
140
1.0
102
RTVSPost2010PropOp57
 70
     1
  0
XRECORD
  5
9831
102
{ACAD_REACTORS
330
9830
102
}
330
9830
100
AcDbXrecord
280
     1
102
RTVSPost2010Prop28
280
     0
102
RTVSPost2010PropOp28
 70
     1
102
RTVSPost2010Prop29
280
     1
102
RTVSPost2010PropOp29
 70
     1
102
RTVSPost2010Prop30
280
     1
102
RTVSPost2010PropOp30
 70
     1
102
RTVSPost2010Prop31
280
     0
102
RTVSPost2010PropOp31
 70
     1
102
RTVSPost2010Prop32
280
     0
102
RTVSPost2010PropOp32
 70
     1
102
RTVSPost2010Prop33
280
     0
102
RTVSPost2010PropOp33
 70
     1
102
RTVSPost2010Prop34
280
     0
102
RTVSPost2010PropOp34
 70
     1
102
RTVSPost2010Prop35
280
     0
102
RTVSPost2010PropOp35
 70
     1
102
RTVSPost2010Prop36
280
     0
102
RTVSPost2010PropOp36
 70
     1
102
RTVSPost2010Prop37
 90
       50
102
RTVSPost2010PropOp37
 70
     1
102
RTVSPost2010Prop38
140
0.0
102
RTVSPost2010PropOp38
 70
     1
102
RTVSPost2010Prop39
140
1.0
102
RTVSPost2010PropOp39
 70
     1
102
RTVSPost2010Prop40
 90
        0
102
RTVSPost2010PropOp40
 70
     1
102
RTVSPost2010Prop41ColorIndex
 90
       18
102
RTVSPost2010Prop41ColorRGB
 90
        0
102
RTVSPost2010PropOp41
 70
     1
102
RTVSPost2010Prop42
 90
       50
102
RTVSPost2010PropOp42
 70
     1
102
RTVSPost2010Prop43
 90
        3
102
RTVSPost2010PropOp43
 70
     1
102
RTVSPost2010Prop44ColorIndex
 90
        5
102
RTVSPost2010Prop44ColorRGB
 90
      255
102
RTVSPost2010PropOp44
 70
     1
102
RTVSPost2010Prop45
280
     0
102
RTVSPost2010PropOp45
 70
     1
102
RTVSPost2010Prop46
 90
       50
102
RTVSPost2010PropOp46
 70
     1
102
RTVSPost2010Prop47
 90
       50
102
RTVSPost2010PropOp47
 70
     1
102
RTVSPost2010Prop48
 90
       50
102
RTVSPost2010PropOp48
 70
     1
102
RTVSPost2010Prop49
280
     0
102
RTVSPost2010PropOp49
 70
     1
102
RTVSPost2010Prop50
 90
       50
102
RTVSPost2010PropOp50
 70
     1
102
RTVSPost2010Prop51ColorIndex
 90
      256
102
RTVSPost2010Prop51ColorRGB
 90
-16777216
102
RTVSPost2010PropOp51
 70
     0
102
RTVSPost2010Prop52
140
1.0
102
RTVSPost2010PropOp52
 70
     0
102
RTVSPost2010Prop53
 90
        2
102
RTVSPost2010PropOp53
 70
     1
102
RTVSPost2010Prop54
  1
strokes_ogs.tif
102
RTVSPost2010PropOp54
 70
     1
102
RTVSPost2010Prop55
280
     0
102
RTVSPost2010PropOp55
 70
     1
102
RTVSPost2010Prop56
140
1.0
102
RTVSPost2010PropOp56
 70
     1
102
RTVSPost2010Prop57
140
1.0
102
RTVSPost2010PropOp57
 70
     1
  0
XRECORD
  5
982D
102
{ACAD_REACTORS
330
982C
102
}
330
982C
100
AcDbXrecord
280
     1
102
RTVSPost2010Prop28
280
     0
102
RTVSPost2010PropOp28
 70
     1
102
RTVSPost2010Prop29
280
     1
102
RTVSPost2010PropOp29
 70
     1
102
RTVSPost2010Prop30
280
     1
102
RTVSPost2010PropOp30
 70
     1
102
RTVSPost2010Prop31
280
     0
102
RTVSPost2010PropOp31
 70
     1
102
RTVSPost2010Prop32
280
     0
102
RTVSPost2010PropOp32
 70
     1
102
RTVSPost2010Prop33
280
     0
102
RTVSPost2010PropOp33
 70
     1
102
RTVSPost2010Prop34
280
     0
102
RTVSPost2010PropOp34
 70
     1
102
RTVSPost2010Prop35
280
     0
102
RTVSPost2010PropOp35
 70
     1
102
RTVSPost2010Prop36
280
     0
102
RTVSPost2010PropOp36
 70
     1
102
RTVSPost2010Prop37
 90
       50
102
RTVSPost2010PropOp37
 70
     1
102
RTVSPost2010Prop38
140
0.0
102
RTVSPost2010PropOp38
 70
     1
102
RTVSPost2010Prop39
140
1.0
102
RTVSPost2010PropOp39
 70
     1
102
RTVSPost2010Prop40
 90
        0
102
RTVSPost2010PropOp40
 70
     1
102
RTVSPost2010Prop41ColorIndex
 90
       18
102
RTVSPost2010Prop41ColorRGB
 90
        0
102
RTVSPost2010PropOp41
 70
     1
102
RTVSPost2010Prop42
 90
       50
102
RTVSPost2010PropOp42
 70
     1
102
RTVSPost2010Prop43
 90
        3
102
RTVSPost2010PropOp43
 70
     1
102
RTVSPost2010Prop44ColorIndex
 90
        5
102
RTVSPost2010Prop44ColorRGB
 90
      255
102
RTVSPost2010PropOp44
 70
     1
102
RTVSPost2010Prop45
280
     0
102
RTVSPost2010PropOp45
 70
     1
102
RTVSPost2010Prop46
 90
       50
102
RTVSPost2010PropOp46
 70
     1
102
RTVSPost2010Prop47
 90
       50
102
RTVSPost2010PropOp47
 70
     1
102
RTVSPost2010Prop48
 90
       50
102
RTVSPost2010PropOp48
 70
     1
102
RTVSPost2010Prop49
280
     0
102
RTVSPost2010PropOp49
 70
     1
102
RTVSPost2010Prop50
 90
       50
102
RTVSPost2010PropOp50
 70
     1
102
RTVSPost2010Prop51ColorIndex
 90
      256
102
RTVSPost2010Prop51ColorRGB
 90
-16777216
102
RTVSPost2010PropOp51
 70
     0
102
RTVSPost2010Prop52
140
1.0
102
RTVSPost2010PropOp52
 70
     0
102
RTVSPost2010Prop53
 90
        2
102
RTVSPost2010PropOp53
 70
     1
102
RTVSPost2010Prop54
  1
strokes_ogs.tif
102
RTVSPost2010PropOp54
 70
     1
102
RTVSPost2010Prop55
280
     0
102
RTVSPost2010PropOp55
 70
     1
102
RTVSPost2010Prop56
140
1.0
102
RTVSPost2010PropOp56
 70
     1
102
RTVSPost2010Prop57
140
1.0
102
RTVSPost2010PropOp57
 70
     1
  0
XRECORD
  5
983B
102
{ACAD_REACTORS
330
983A
102
}
330
983A
100
AcDbXrecord
280
     1
102
RTVSPost2010Prop28
280
     0
102
RTVSPost2010PropOp28
 70
     1
102
RTVSPost2010Prop29
280
     1
102
RTVSPost2010PropOp29
 70
     1
102
RTVSPost2010Prop30
280
     1
102
RTVSPost2010PropOp30
 70
     1
102
RTVSPost2010Prop31
280
     0
102
RTVSPost2010PropOp31
 70
     1
102
RTVSPost2010Prop32
280
     0
102
RTVSPost2010PropOp32
 70
     1
102
RTVSPost2010Prop33
280
     0
102
RTVSPost2010PropOp33
 70
     1
102
RTVSPost2010Prop34
280
     0
102
RTVSPost2010PropOp34
 70
     1
102
RTVSPost2010Prop35
280
     0
102
RTVSPost2010PropOp35
 70
     1
102
RTVSPost2010Prop36
280
     0
102
RTVSPost2010PropOp36
 70
     1
102
RTVSPost2010Prop37
 90
       50
102
RTVSPost2010PropOp37
 70
     1
102
RTVSPost2010Prop38
140
0.0
102
RTVSPost2010PropOp38
 70
     1
102
RTVSPost2010Prop39
140
1.0
102
RTVSPost2010PropOp39
 70
     1
102
RTVSPost2010Prop40
 90
        0
102
RTVSPost2010PropOp40
 70
     1
102
RTVSPost2010Prop41ColorIndex
 90
       18
102
RTVSPost2010Prop41ColorRGB
 90
        0
102
RTVSPost2010PropOp41
 70
     1
102
RTVSPost2010Prop42
 90
       50
102
RTVSPost2010PropOp42
 70
     1
102
RTVSPost2010Prop43
 90
        3
102
RTVSPost2010PropOp43
 70
     1
102
RTVSPost2010Prop44ColorIndex
 90
        5
102
RTVSPost2010Prop44ColorRGB
 90
      255
102
RTVSPost2010PropOp44
 70
     1
102
RTVSPost2010Prop45
280
     0
102
RTVSPost2010PropOp45
 70
     1
102
RTVSPost2010Prop46
 90
       50
102
RTVSPost2010PropOp46
 70
     1
102
RTVSPost2010Prop47
 90
       50
102
RTVSPost2010PropOp47
 70
     1
102
RTVSPost2010Prop48
 90
       50
102
RTVSPost2010PropOp48
 70
     1
102
RTVSPost2010Prop49
280
     0
102
RTVSPost2010PropOp49
 70
     1
102
RTVSPost2010Prop50
 90
       50
102
RTVSPost2010PropOp50
 70
     1
102
RTVSPost2010Prop51ColorIndex
 90
      256
102
RTVSPost2010Prop51ColorRGB
 90
-16777216
102
RTVSPost2010PropOp51
 70
     0
102
RTVSPost2010Prop52
140
1.0
102
RTVSPost2010PropOp52
 70
     0
102
RTVSPost2010Prop53
 90
        2
102
RTVSPost2010PropOp53
 70
     1
102
RTVSPost2010Prop54
  1
strokes_ogs.tif
102
RTVSPost2010PropOp54
 70
     1
102
RTVSPost2010Prop55
280
     0
102
RTVSPost2010PropOp55
 70
     1
102
RTVSPost2010Prop56
140
1.0
102
RTVSPost2010PropOp56
 70
     1
102
RTVSPost2010Prop57
140
1.0
102
RTVSPost2010PropOp57
 70
     1
  0
XRECORD
  5
9843
102
{ACAD_REACTORS
330
9842
102
}
330
9842
100
AcDbXrecord
280
     1
102
RTVSPost2010Prop28
280
     0
102
RTVSPost2010PropOp28
 70
     1
102
RTVSPost2010Prop29
280
     1
102
RTVSPost2010PropOp29
 70
     1
102
RTVSPost2010Prop30
280
     1
102
RTVSPost2010PropOp30
 70
     1
102
RTVSPost2010Prop31
280
     0
102
RTVSPost2010PropOp31
 70
     1
102
RTVSPost2010Prop32
280
     0
102
RTVSPost2010PropOp32
 70
     1
102
RTVSPost2010Prop33
280
     0
102
RTVSPost2010PropOp33
 70
     1
102
RTVSPost2010Prop34
280
     0
102
RTVSPost2010PropOp34
 70
     1
102
RTVSPost2010Prop35
280
     0
102
RTVSPost2010PropOp35
 70
     1
102
RTVSPost2010Prop36
280
     0
102
RTVSPost2010PropOp36
 70
     1
102
RTVSPost2010Prop37
 90
       50
102
RTVSPost2010PropOp37
 70
     1
102
RTVSPost2010Prop38
140
0.0
102
RTVSPost2010PropOp38
 70
     1
102
RTVSPost2010Prop39
140
1.0
102
RTVSPost2010PropOp39
 70
     1
102
RTVSPost2010Prop40
 90
        0
102
RTVSPost2010PropOp40
 70
     1
102
RTVSPost2010Prop41ColorIndex
 90
       18
102
RTVSPost2010Prop41ColorRGB
 90
        0
102
RTVSPost2010PropOp41
 70
     1
102
RTVSPost2010Prop42
 90
       50
102
RTVSPost2010PropOp42
 70
     1
102
RTVSPost2010Prop43
 90
        3
102
RTVSPost2010PropOp43
 70
     1
102
RTVSPost2010Prop44ColorIndex
 90
        5
102
RTVSPost2010Prop44ColorRGB
 90
      255
102
RTVSPost2010PropOp44
 70
     1
102
RTVSPost2010Prop45
280
     0
102
RTVSPost2010PropOp45
 70
     1
102
RTVSPost2010Prop46
 90
       50
102
RTVSPost2010PropOp46
 70
     1
102
RTVSPost2010Prop47
 90
       50
102
RTVSPost2010PropOp47
 70
     1
102
RTVSPost2010Prop48
 90
       50
102
RTVSPost2010PropOp48
 70
     1
102
RTVSPost2010Prop49
280
     0
102
RTVSPost2010PropOp49
 70
     1
102
RTVSPost2010Prop50
 90
       50
102
RTVSPost2010PropOp50
 70
     1
102
RTVSPost2010Prop51ColorIndex
 90
      256
102
RTVSPost2010Prop51ColorRGB
 90
-16777216
102
RTVSPost2010PropOp51
 70
     0
102
RTVSPost2010Prop52
140
1.0
102
RTVSPost2010PropOp52
 70
     0
102
RTVSPost2010Prop53
 90
        2
102
RTVSPost2010PropOp53
 70
     1
102
RTVSPost2010Prop54
  1
strokes_ogs.tif
102
RTVSPost2010PropOp54
 70
     1
102
RTVSPost2010Prop55
280
     0
102
RTVSPost2010PropOp55
 70
     1
102
RTVSPost2010Prop56
140
1.0
102
RTVSPost2010PropOp56
 70
     1
102
RTVSPost2010Prop57
140
1.0
102
RTVSPost2010PropOp57
 70
     1
  0
XRECORD
  5
9835
102
{ACAD_REACTORS
330
9834
102
}
330
9834
100
AcDbXrecord
280
     1
102
RTVSPost2010Prop28
280
     0
102
RTVSPost2010PropOp28
 70
     1
102
RTVSPost2010Prop29
280
     1
102
RTVSPost2010PropOp29
 70
     1
102
RTVSPost2010Prop30
280
     1
102
RTVSPost2010PropOp30
 70
     1
102
RTVSPost2010Prop31
280
     0
102
RTVSPost2010PropOp31
 70
     1
102
RTVSPost2010Prop32
280
     0
102
RTVSPost2010PropOp32
 70
     1
102
RTVSPost2010Prop33
280
     0
102
RTVSPost2010PropOp33
 70
     1
102
RTVSPost2010Prop34
280
     0
102
RTVSPost2010PropOp34
 70
     1
102
RTVSPost2010Prop35
280
     0
102
RTVSPost2010PropOp35
 70
     1
102
RTVSPost2010Prop36
280
     0
102
RTVSPost2010PropOp36
 70
     1
102
RTVSPost2010Prop37
 90
       50
102
RTVSPost2010PropOp37
 70
     1
102
RTVSPost2010Prop38
140
0.0
102
RTVSPost2010PropOp38
 70
     1
102
RTVSPost2010Prop39
140
1.0
102
RTVSPost2010PropOp39
 70
     1
102
RTVSPost2010Prop40
 90
        0
102
RTVSPost2010PropOp40
 70
     1
102
RTVSPost2010Prop41ColorIndex
 90
       18
102
RTVSPost2010Prop41ColorRGB
 90
        0
102
RTVSPost2010PropOp41
 70
     1
102
RTVSPost2010Prop42
 90
       50
102
RTVSPost2010PropOp42
 70
     1
102
RTVSPost2010Prop43
 90
        3
102
RTVSPost2010PropOp43
 70
     1
102
RTVSPost2010Prop44ColorIndex
 90
        5
102
RTVSPost2010Prop44ColorRGB
 90
      255
102
RTVSPost2010PropOp44
 70
     1
102
RTVSPost2010Prop45
280
     0
102
RTVSPost2010PropOp45
 70
     1
102
RTVSPost2010Prop46
 90
       50
102
RTVSPost2010PropOp46
 70
     1
102
RTVSPost2010Prop47
 90
       50
102
RTVSPost2010PropOp47
 70
     1
102
RTVSPost2010Prop48
 90
       50
102
RTVSPost2010PropOp48
 70
     1
102
RTVSPost2010Prop49
280
     0
102
RTVSPost2010PropOp49
 70
     1
102
RTVSPost2010Prop50
 90
       50
102
RTVSPost2010PropOp50
 70
     1
102
RTVSPost2010Prop51ColorIndex
 90
      256
102
RTVSPost2010Prop51ColorRGB
 90
-16777216
102
RTVSPost2010PropOp51
 70
     0
102
RTVSPost2010Prop52
140
1.0
102
RTVSPost2010PropOp52
 70
     0
102
RTVSPost2010Prop53
 90
        2
102
RTVSPost2010PropOp53
 70
     1
102
RTVSPost2010Prop54
  1
strokes_ogs.tif
102
RTVSPost2010PropOp54
 70
     1
102
RTVSPost2010Prop55
280
     0
102
RTVSPost2010PropOp55
 70
     1
102
RTVSPost2010Prop56
140
1.0
102
RTVSPost2010PropOp56
 70
     1
102
RTVSPost2010Prop57
140
1.0
102
RTVSPost2010PropOp57
 70
     1
  0
XRECORD
  5
9839
102
{ACAD_REACTORS
330
9838
102
}
330
9838
100
AcDbXrecord
280
     1
102
RTVSPost2010Prop28
280
     0
102
RTVSPost2010PropOp28
 70
     1
102
RTVSPost2010Prop29
280
     1
102
RTVSPost2010PropOp29
 70
     1
102
RTVSPost2010Prop30
280
     1
102
RTVSPost2010PropOp30
 70
     1
102
RTVSPost2010Prop31
280
     0
102
RTVSPost2010PropOp31
 70
     1
102
RTVSPost2010Prop32
280
     0
102
RTVSPost2010PropOp32
 70
     1
102
RTVSPost2010Prop33
280
     0
102
RTVSPost2010PropOp33
 70
     1
102
RTVSPost2010Prop34
280
     0
102
RTVSPost2010PropOp34
 70
     1
102
RTVSPost2010Prop35
280
     0
102
RTVSPost2010PropOp35
 70
     1
102
RTVSPost2010Prop36
280
     0
102
RTVSPost2010PropOp36
 70
     1
102
RTVSPost2010Prop37
 90
       50
102
RTVSPost2010PropOp37
 70
     1
102
RTVSPost2010Prop38
140
0.0
102
RTVSPost2010PropOp38
 70
     1
102
RTVSPost2010Prop39
140
1.0
102
RTVSPost2010PropOp39
 70
     1
102
RTVSPost2010Prop40
 90
        0
102
RTVSPost2010PropOp40
 70
     1
102
RTVSPost2010Prop41ColorIndex
 90
       18
102
RTVSPost2010Prop41ColorRGB
 90
        0
102
RTVSPost2010PropOp41
 70
     1
102
RTVSPost2010Prop42
 90
       50
102
RTVSPost2010PropOp42
 70
     1
102
RTVSPost2010Prop43
 90
        3
102
RTVSPost2010PropOp43
 70
     1
102
RTVSPost2010Prop44ColorIndex
 90
        5
102
RTVSPost2010Prop44ColorRGB
 90
      255
102
RTVSPost2010PropOp44
 70
     1
102
RTVSPost2010Prop45
280
     0
102
RTVSPost2010PropOp45
 70
     1
102
RTVSPost2010Prop46
 90
       50
102
RTVSPost2010PropOp46
 70
     1
102
RTVSPost2010Prop47
 90
       50
102
RTVSPost2010PropOp47
 70
     1
102
RTVSPost2010Prop48
 90
       50
102
RTVSPost2010PropOp48
 70
     1
102
RTVSPost2010Prop49
280
     0
102
RTVSPost2010PropOp49
 70
     1
102
RTVSPost2010Prop50
 90
       50
102
RTVSPost2010PropOp50
 70
     1
102
RTVSPost2010Prop51ColorIndex
 90
      256
102
RTVSPost2010Prop51ColorRGB
 90
-16777216
102
RTVSPost2010PropOp51
 70
     0
102
RTVSPost2010Prop52
140
1.0
102
RTVSPost2010PropOp52
 70
     0
102
RTVSPost2010Prop53
 90
        2
102
RTVSPost2010PropOp53
 70
     1
102
RTVSPost2010Prop54
  1
strokes_ogs.tif
102
RTVSPost2010PropOp54
 70
     1
102
RTVSPost2010Prop55
280
     0
102
RTVSPost2010PropOp55
 70
     1
102
RTVSPost2010Prop56
140
1.0
102
RTVSPost2010PropOp56
 70
     1
102
RTVSPost2010Prop57
140
1.0
102
RTVSPost2010PropOp57
 70
     1
  0
XRECORD
  5
9857
102
{ACAD_REACTORS
330
9856
102
}
330
9856
100
AcDbXrecord
280
     1
102
RTVSPost2010Prop28
280
     0
102
RTVSPost2010PropOp28
 70
     0
102
RTVSPost2010Prop29
280
     1
102
RTVSPost2010PropOp29
 70
     0
102
RTVSPost2010Prop30
280
     1
102
RTVSPost2010PropOp30
 70
     0
102
RTVSPost2010Prop31
280
     0
102
RTVSPost2010PropOp31
 70
     0
102
RTVSPost2010Prop32
280
     0
102
RTVSPost2010PropOp32
 70
     0
102
RTVSPost2010Prop33
280
     0
102
RTVSPost2010PropOp33
 70
     1
102
RTVSPost2010Prop34
280
     0
102
RTVSPost2010PropOp34
 70
     1
102
RTVSPost2010Prop35
280
     0
102
RTVSPost2010PropOp35
 70
     1
102
RTVSPost2010Prop36
280
     0
102
RTVSPost2010PropOp36
 70
     1
102
RTVSPost2010Prop37
 90
       50
102
RTVSPost2010PropOp37
 70
     1
102
RTVSPost2010Prop38
140
0.0
102
RTVSPost2010PropOp38
 70
     1
102
RTVSPost2010Prop39
140
1.0
102
RTVSPost2010PropOp39
 70
     1
102
RTVSPost2010Prop40
 90
        0
102
RTVSPost2010PropOp40
 70
     1
102
RTVSPost2010Prop41ColorIndex
 90
       18
102
RTVSPost2010Prop41ColorRGB
 90
        0
102
RTVSPost2010PropOp41
 70
     1
102
RTVSPost2010Prop42
 90
       50
102
RTVSPost2010PropOp42
 70
     1
102
RTVSPost2010Prop43
 90
        3
102
RTVSPost2010PropOp43
 70
     1
102
RTVSPost2010Prop44ColorIndex
 90
        5
102
RTVSPost2010Prop44ColorRGB
 90
      255
102
RTVSPost2010PropOp44
 70
     1
102
RTVSPost2010Prop45
280
     0
102
RTVSPost2010PropOp45
 70
     1
102
RTVSPost2010Prop46
 90
       50
102
RTVSPost2010PropOp46
 70
     1
102
RTVSPost2010Prop47
 90
       50
102
RTVSPost2010PropOp47
 70
     1
102
RTVSPost2010Prop48
 90
       50
102
RTVSPost2010PropOp48
 70
     1
102
RTVSPost2010Prop49
280
     0
102
RTVSPost2010PropOp49
 70
     1
102
RTVSPost2010Prop50
 90
       50
102
RTVSPost2010PropOp50
 70
     1
102
RTVSPost2010Prop51ColorIndex
 90
      256
102
RTVSPost2010Prop51ColorRGB
 90
-16777216
102
RTVSPost2010PropOp51
 70
     0
102
RTVSPost2010Prop52
140
1.0
102
RTVSPost2010PropOp52
 70
     0
102
RTVSPost2010Prop53
 90
        2
102
RTVSPost2010PropOp53
 70
     1
102
RTVSPost2010Prop54
  1
strokes_ogs.tif
102
RTVSPost2010PropOp54
 70
     1
102
RTVSPost2010Prop55
280
     0
102
RTVSPost2010PropOp55
 70
     1
102
RTVSPost2010Prop56
140
1.0
102
RTVSPost2010PropOp56
 70
     1
102
RTVSPost2010Prop57
140
1.0
102
RTVSPost2010PropOp57
 70
     1
  0
XRECORD
  5
9841
102
{ACAD_REACTORS
330
9840
102
}
330
9840
100
AcDbXrecord
280
     1
102
RTVSPost2010Prop28
280
     0
102
RTVSPost2010PropOp28
 70
     1
102
RTVSPost2010Prop29
280
     1
102
RTVSPost2010PropOp29
 70
     1
102
RTVSPost2010Prop30
280
     1
102
RTVSPost2010PropOp30
 70
     1
102
RTVSPost2010Prop31
280
     0
102
RTVSPost2010PropOp31
 70
     1
102
RTVSPost2010Prop32
280
     0
102
RTVSPost2010PropOp32
 70
     1
102
RTVSPost2010Prop33
280
     0
102
RTVSPost2010PropOp33
 70
     1
102
RTVSPost2010Prop34
280
     0
102
RTVSPost2010PropOp34
 70
     1
102
RTVSPost2010Prop35
280
     0
102
RTVSPost2010PropOp35
 70
     1
102
RTVSPost2010Prop36
280
     0
102
RTVSPost2010PropOp36
 70
     1
102
RTVSPost2010Prop37
 90
       50
102
RTVSPost2010PropOp37
 70
     1
102
RTVSPost2010Prop38
140
0.0
102
RTVSPost2010PropOp38
 70
     1
102
RTVSPost2010Prop39
140
1.0
102
RTVSPost2010PropOp39
 70
     1
102
RTVSPost2010Prop40
 90
        0
102
RTVSPost2010PropOp40
 70
     1
102
RTVSPost2010Prop41ColorIndex
 90
       18
102
RTVSPost2010Prop41ColorRGB
 90
        0
102
RTVSPost2010PropOp41
 70
     1
102
RTVSPost2010Prop42
 90
       50
102
RTVSPost2010PropOp42
 70
     1
102
RTVSPost2010Prop43
 90
        3
102
RTVSPost2010PropOp43
 70
     1
102
RTVSPost2010Prop44ColorIndex
 90
        5
102
RTVSPost2010Prop44ColorRGB
 90
      255
102
RTVSPost2010PropOp44
 70
     1
102
RTVSPost2010Prop45
280
     0
102
RTVSPost2010PropOp45
 70
     1
102
RTVSPost2010Prop46
 90
       50
102
RTVSPost2010PropOp46
 70
     1
102
RTVSPost2010Prop47
 90
       50
102
RTVSPost2010PropOp47
 70
     1
102
RTVSPost2010Prop48
 90
       50
102
RTVSPost2010PropOp48
 70
     1
102
RTVSPost2010Prop49
280
     0
102
RTVSPost2010PropOp49
 70
     1
102
RTVSPost2010Prop50
 90
       50
102
RTVSPost2010PropOp50
 70
     1
102
RTVSPost2010Prop51ColorIndex
 90
      256
102
RTVSPost2010Prop51ColorRGB
 90
-16777216
102
RTVSPost2010PropOp51
 70
     0
102
RTVSPost2010Prop52
140
1.0
102
RTVSPost2010PropOp52
 70
     0
102
RTVSPost2010Prop53
 90
        2
102
RTVSPost2010PropOp53
 70
     1
102
RTVSPost2010Prop54
  1
strokes_ogs.tif
102
RTVSPost2010PropOp54
 70
     1
102
RTVSPost2010Prop55
280
     0
102
RTVSPost2010PropOp55
 70
     1
102
RTVSPost2010Prop56
140
1.0
102
RTVSPost2010PropOp56
 70
     1
102
RTVSPost2010Prop57
140
1.0
102
RTVSPost2010PropOp57
 70
     1
  0
XRECORD
  5
9825
102
{ACAD_REACTORS
330
9824
102
}
330
9824
100
AcDbXrecord
280
     1
102
RTVSPost2010Prop28
280
     0
102
RTVSPost2010PropOp28
 70
     1
102
RTVSPost2010Prop29
280
     1
102
RTVSPost2010PropOp29
 70
     1
102
RTVSPost2010Prop30
280
     1
102
RTVSPost2010PropOp30
 70
     1
102
RTVSPost2010Prop31
280
     0
102
RTVSPost2010PropOp31
 70
     1
102
RTVSPost2010Prop32
280
     0
102
RTVSPost2010PropOp32
 70
     1
102
RTVSPost2010Prop33
280
     0
102
RTVSPost2010PropOp33
 70
     1
102
RTVSPost2010Prop34
280
     0
102
RTVSPost2010PropOp34
 70
     1
102
RTVSPost2010Prop35
280
     0
102
RTVSPost2010PropOp35
 70
     1
102
RTVSPost2010Prop36
280
     0
102
RTVSPost2010PropOp36
 70
     1
102
RTVSPost2010Prop37
 90
       50
102
RTVSPost2010PropOp37
 70
     1
102
RTVSPost2010Prop38
140
0.0
102
RTVSPost2010PropOp38
 70
     1
102
RTVSPost2010Prop39
140
1.0
102
RTVSPost2010PropOp39
 70
     1
102
RTVSPost2010Prop40
 90
        0
102
RTVSPost2010PropOp40
 70
     1
102
RTVSPost2010Prop41ColorIndex
 90
       18
102
RTVSPost2010Prop41ColorRGB
 90
        0
102
RTVSPost2010PropOp41
 70
     1
102
RTVSPost2010Prop42
 90
       50
102
RTVSPost2010PropOp42
 70
     1
102
RTVSPost2010Prop43
 90
        3
102
RTVSPost2010PropOp43
 70
     1
102
RTVSPost2010Prop44ColorIndex
 90
        5
102
RTVSPost2010Prop44ColorRGB
 90
      255
102
RTVSPost2010PropOp44
 70
     1
102
RTVSPost2010Prop45
280
     0
102
RTVSPost2010PropOp45
 70
     1
102
RTVSPost2010Prop46
 90
       50
102
RTVSPost2010PropOp46
 70
     1
102
RTVSPost2010Prop47
 90
       50
102
RTVSPost2010PropOp47
 70
     1
102
RTVSPost2010Prop48
 90
       50
102
RTVSPost2010PropOp48
 70
     1
102
RTVSPost2010Prop49
280
     0
102
RTVSPost2010PropOp49
 70
     1
102
RTVSPost2010Prop50
 90
       50
102
RTVSPost2010PropOp50
 70
     1
102
RTVSPost2010Prop51ColorIndex
 90
      256
102
RTVSPost2010Prop51ColorRGB
 90
-16777216
102
RTVSPost2010PropOp51
 70
     0
102
RTVSPost2010Prop52
140
1.0
102
RTVSPost2010PropOp52
 70
     0
102
RTVSPost2010Prop53
 90
        2
102
RTVSPost2010PropOp53
 70
     1
102
RTVSPost2010Prop54
  1
strokes_ogs.tif
102
RTVSPost2010PropOp54
 70
     1
102
RTVSPost2010Prop55
280
     0
102
RTVSPost2010PropOp55
 70
     1
102
RTVSPost2010Prop56
140
1.0
102
RTVSPost2010PropOp56
 70
     1
102
RTVSPost2010Prop57
140
1.0
102
RTVSPost2010PropOp57
 70
     1
  0
XRECORD
  5
9827
102
{ACAD_REACTORS
330
9826
102
}
330
9826
100
AcDbXrecord
280
     1
102
RTVSPost2010Prop28
280
     0
102
RTVSPost2010PropOp28
 70
     1
102
RTVSPost2010Prop29
280
     1
102
RTVSPost2010PropOp29
 70
     1
102
RTVSPost2010Prop30
280
     1
102
RTVSPost2010PropOp30
 70
     1
102
RTVSPost2010Prop31
280
     0
102
RTVSPost2010PropOp31
 70
     1
102
RTVSPost2010Prop32
280
     0
102
RTVSPost2010PropOp32
 70
     1
102
RTVSPost2010Prop33
280
     0
102
RTVSPost2010PropOp33
 70
     1
102
RTVSPost2010Prop34
280
     0
102
RTVSPost2010PropOp34
 70
     1
102
RTVSPost2010Prop35
280
     0
102
RTVSPost2010PropOp35
 70
     1
102
RTVSPost2010Prop36
280
     0
102
RTVSPost2010PropOp36
 70
     1
102
RTVSPost2010Prop37
 90
       50
102
RTVSPost2010PropOp37
 70
     1
102
RTVSPost2010Prop38
140
0.0
102
RTVSPost2010PropOp38
 70
     1
102
RTVSPost2010Prop39
140
1.0
102
RTVSPost2010PropOp39
 70
     1
102
RTVSPost2010Prop40
 90
        0
102
RTVSPost2010PropOp40
 70
     1
102
RTVSPost2010Prop41ColorIndex
 90
       18
102
RTVSPost2010Prop41ColorRGB
 90
        0
102
RTVSPost2010PropOp41
 70
     1
102
RTVSPost2010Prop42
 90
       50
102
RTVSPost2010PropOp42
 70
     1
102
RTVSPost2010Prop43
 90
        3
102
RTVSPost2010PropOp43
 70
     1
102
RTVSPost2010Prop44ColorIndex
 90
        5
102
RTVSPost2010Prop44ColorRGB
 90
      255
102
RTVSPost2010PropOp44
 70
     1
102
RTVSPost2010Prop45
280
     0
102
RTVSPost2010PropOp45
 70
     1
102
RTVSPost2010Prop46
 90
       50
102
RTVSPost2010PropOp46
 70
     1
102
RTVSPost2010Prop47
 90
       50
102
RTVSPost2010PropOp47
 70
     1
102
RTVSPost2010Prop48
 90
       50
102
RTVSPost2010PropOp48
 70
     1
102
RTVSPost2010Prop49
280
     0
102
RTVSPost2010PropOp49
 70
     1
102
RTVSPost2010Prop50
 90
       50
102
RTVSPost2010PropOp50
 70
     1
102
RTVSPost2010Prop51ColorIndex
 90
      256
102
RTVSPost2010Prop51ColorRGB
 90
-16777216
102
RTVSPost2010PropOp51
 70
     0
102
RTVSPost2010Prop52
140
1.0
102
RTVSPost2010PropOp52
 70
     0
102
RTVSPost2010Prop53
 90
        2
102
RTVSPost2010PropOp53
 70
     1
102
RTVSPost2010Prop54
  1
strokes_ogs.tif
102
RTVSPost2010PropOp54
 70
     1
102
RTVSPost2010Prop55
280
     0
102
RTVSPost2010PropOp55
 70
     1
102
RTVSPost2010Prop56
140
1.0
102
RTVSPost2010PropOp56
 70
     1
102
RTVSPost2010Prop57
140
1.0
102
RTVSPost2010PropOp57
 70
     1
  0
XRECORD
  5
9829
102
{ACAD_REACTORS
330
9828
102
}
330
9828
100
AcDbXrecord
280
     1
102
RTVSPost2010Prop28
280
     0
102
RTVSPost2010PropOp28
 70
     1
102
RTVSPost2010Prop29
280
     1
102
RTVSPost2010PropOp29
 70
     1
102
RTVSPost2010Prop30
280
     1
102
RTVSPost2010PropOp30
 70
     1
102
RTVSPost2010Prop31
280
     0
102
RTVSPost2010PropOp31
 70
     1
102
RTVSPost2010Prop32
280
     0
102
RTVSPost2010PropOp32
 70
     1
102
RTVSPost2010Prop33
280
     0
102
RTVSPost2010PropOp33
 70
     1
102
RTVSPost2010Prop34
280
     0
102
RTVSPost2010PropOp34
 70
     1
102
RTVSPost2010Prop35
280
     0
102
RTVSPost2010PropOp35
 70
     1
102
RTVSPost2010Prop36
280
     0
102
RTVSPost2010PropOp36
 70
     1
102
RTVSPost2010Prop37
 90
       50
102
RTVSPost2010PropOp37
 70
     1
102
RTVSPost2010Prop38
140
0.0
102
RTVSPost2010PropOp38
 70
     1
102
RTVSPost2010Prop39
140
1.0
102
RTVSPost2010PropOp39
 70
     1
102
RTVSPost2010Prop40
 90
        0
102
RTVSPost2010PropOp40
 70
     1
102
RTVSPost2010Prop41ColorIndex
 90
       18
102
RTVSPost2010Prop41ColorRGB
 90
        0
102
RTVSPost2010PropOp41
 70
     1
102
RTVSPost2010Prop42
 90
       50
102
RTVSPost2010PropOp42
 70
     1
102
RTVSPost2010Prop43
 90
        3
102
RTVSPost2010PropOp43
 70
     1
102
RTVSPost2010Prop44ColorIndex
 90
        5
102
RTVSPost2010Prop44ColorRGB
 90
      255
102
RTVSPost2010PropOp44
 70
     1
102
RTVSPost2010Prop45
280
     0
102
RTVSPost2010PropOp45
 70
     1
102
RTVSPost2010Prop46
 90
       50
102
RTVSPost2010PropOp46
 70
     1
102
RTVSPost2010Prop47
 90
       50
102
RTVSPost2010PropOp47
 70
     1
102
RTVSPost2010Prop48
 90
       50
102
RTVSPost2010PropOp48
 70
     1
102
RTVSPost2010Prop49
280
     0
102
RTVSPost2010PropOp49
 70
     1
102
RTVSPost2010Prop50
 90
       50
102
RTVSPost2010PropOp50
 70
     1
102
RTVSPost2010Prop51ColorIndex
 90
      256
102
RTVSPost2010Prop51ColorRGB
 90
-16777216
102
RTVSPost2010PropOp51
 70
     0
102
RTVSPost2010Prop52
140
1.0
102
RTVSPost2010PropOp52
 70
     0
102
RTVSPost2010Prop53
 90
        2
102
RTVSPost2010PropOp53
 70
     1
102
RTVSPost2010Prop54
  1
strokes_ogs.tif
102
RTVSPost2010PropOp54
 70
     1
102
RTVSPost2010Prop55
280
     0
102
RTVSPost2010PropOp55
 70
     1
102
RTVSPost2010Prop56
140
1.0
102
RTVSPost2010PropOp56
 70
     1
102
RTVSPost2010Prop57
140
1.0
102
RTVSPost2010PropOp57
 70
     1
  0
XRECORD
  5
982B
102
{ACAD_REACTORS
330
982A
102
}
330
982A
100
AcDbXrecord
280
     1
102
RTVSPost2010Prop28
280
     0
102
RTVSPost2010PropOp28
 70
     1
102
RTVSPost2010Prop29
280
     1
102
RTVSPost2010PropOp29
 70
     1
102
RTVSPost2010Prop30
280
     1
102
RTVSPost2010PropOp30
 70
     1
102
RTVSPost2010Prop31
280
     0
102
RTVSPost2010PropOp31
 70
     1
102
RTVSPost2010Prop32
280
     0
102
RTVSPost2010PropOp32
 70
     1
102
RTVSPost2010Prop33
280
     0
102
RTVSPost2010PropOp33
 70
     1
102
RTVSPost2010Prop34
280
     0
102
RTVSPost2010PropOp34
 70
     1
102
RTVSPost2010Prop35
280
     0
102
RTVSPost2010PropOp35
 70
     1
102
RTVSPost2010Prop36
280
     0
102
RTVSPost2010PropOp36
 70
     1
102
RTVSPost2010Prop37
 90
       50
102
RTVSPost2010PropOp37
 70
     1
102
RTVSPost2010Prop38
140
0.0
102
RTVSPost2010PropOp38
 70
     1
102
RTVSPost2010Prop39
140
1.0
102
RTVSPost2010PropOp39
 70
     1
102
RTVSPost2010Prop40
 90
        0
102
RTVSPost2010PropOp40
 70
     1
102
RTVSPost2010Prop41ColorIndex
 90
       18
102
RTVSPost2010Prop41ColorRGB
 90
        0
102
RTVSPost2010PropOp41
 70
     1
102
RTVSPost2010Prop42
 90
       50
102
RTVSPost2010PropOp42
 70
     1
102
RTVSPost2010Prop43
 90
        3
102
RTVSPost2010PropOp43
 70
     1
102
RTVSPost2010Prop44ColorIndex
 90
        5
102
RTVSPost2010Prop44ColorRGB
 90
      255
102
RTVSPost2010PropOp44
 70
     1
102
RTVSPost2010Prop45
280
     0
102
RTVSPost2010PropOp45
 70
     1
102
RTVSPost2010Prop46
 90
       50
102
RTVSPost2010PropOp46
 70
     1
102
RTVSPost2010Prop47
 90
       50
102
RTVSPost2010PropOp47
 70
     1
102
RTVSPost2010Prop48
 90
       50
102
RTVSPost2010PropOp48
 70
     1
102
RTVSPost2010Prop49
280
     0
102
RTVSPost2010PropOp49
 70
     1
102
RTVSPost2010Prop50
 90
       50
102
RTVSPost2010PropOp50
 70
     1
102
RTVSPost2010Prop51ColorIndex
 90
      256
102
RTVSPost2010Prop51ColorRGB
 90
-16777216
102
RTVSPost2010PropOp51
 70
     0
102
RTVSPost2010Prop52
140
1.0
102
RTVSPost2010PropOp52
 70
     0
102
RTVSPost2010Prop53
 90
        2
102
RTVSPost2010PropOp53
 70
     1
102
RTVSPost2010Prop54
  1
strokes_ogs.tif
102
RTVSPost2010PropOp54
 70
     1
102
RTVSPost2010Prop55
280
     0
102
RTVSPost2010PropOp55
 70
     1
102
RTVSPost2010Prop56
140
1.0
102
RTVSPost2010PropOp56
 70
     1
102
RTVSPost2010Prop57
140
1.0
102
RTVSPost2010PropOp57
 70
     1
  0
XRECORD
  5
9847
102
{ACAD_REACTORS
330
9846
102
}
330
9846
100
AcDbXrecord
280
     1
102
RTVSPost2010Prop28
280
     0
102
RTVSPost2010PropOp28
 70
     1
102
RTVSPost2010Prop29
280
     1
102
RTVSPost2010PropOp29
 70
     1
102
RTVSPost2010Prop30
280
     1
102
RTVSPost2010PropOp30
 70
     1
102
RTVSPost2010Prop31
280
     0
102
RTVSPost2010PropOp31
 70
     1
102
RTVSPost2010Prop32
280
     0
102
RTVSPost2010PropOp32
 70
     1
102
RTVSPost2010Prop33
280
     0
102
RTVSPost2010PropOp33
 70
     1
102
RTVSPost2010Prop34
280
     0
102
RTVSPost2010PropOp34
 70
     1
102
RTVSPost2010Prop35
280
     0
102
RTVSPost2010PropOp35
 70
     1
102
RTVSPost2010Prop36
280
     0
102
RTVSPost2010PropOp36
 70
     1
102
RTVSPost2010Prop37
 90
       50
102
RTVSPost2010PropOp37
 70
     1
102
RTVSPost2010Prop38
140
0.0
102
RTVSPost2010PropOp38
 70
     1
102
RTVSPost2010Prop39
140
1.0
102
RTVSPost2010PropOp39
 70
     1
102
RTVSPost2010Prop40
 90
        0
102
RTVSPost2010PropOp40
 70
     1
102
RTVSPost2010Prop41ColorIndex
 90
       18
102
RTVSPost2010Prop41ColorRGB
 90
        0
102
RTVSPost2010PropOp41
 70
     1
102
RTVSPost2010Prop42
 90
       50
102
RTVSPost2010PropOp42
 70
     1
102
RTVSPost2010Prop43
 90
        3
102
RTVSPost2010PropOp43
 70
     1
102
RTVSPost2010Prop44ColorIndex
 90
        5
102
RTVSPost2010Prop44ColorRGB
 90
      255
102
RTVSPost2010PropOp44
 70
     1
102
RTVSPost2010Prop45
280
     0
102
RTVSPost2010PropOp45
 70
     1
102
RTVSPost2010Prop46
 90
       50
102
RTVSPost2010PropOp46
 70
     1
102
RTVSPost2010Prop47
 90
       50
102
RTVSPost2010PropOp47
 70
     1
102
RTVSPost2010Prop48
 90
       50
102
RTVSPost2010PropOp48
 70
     1
102
RTVSPost2010Prop49
280
     0
102
RTVSPost2010PropOp49
 70
     1
102
RTVSPost2010Prop50
 90
       50
102
RTVSPost2010PropOp50
 70
     1
102
RTVSPost2010Prop51ColorIndex
 90
      256
102
RTVSPost2010Prop51ColorRGB
 90
-16777216
102
RTVSPost2010PropOp51
 70
     0
102
RTVSPost2010Prop52
140
1.0
102
RTVSPost2010PropOp52
 70
     0
102
RTVSPost2010Prop53
 90
        2
102
RTVSPost2010PropOp53
 70
     1
102
RTVSPost2010Prop54
  1
strokes_ogs.tif
102
RTVSPost2010PropOp54
 70
     1
102
RTVSPost2010Prop55
280
     0
102
RTVSPost2010PropOp55
 70
     1
102
RTVSPost2010Prop56
140
1.0
102
RTVSPost2010PropOp56
 70
     1
102
RTVSPost2010Prop57
140
1.0
102
RTVSPost2010PropOp57
 70
     1
  0
XRECORD
  5
9853
102
{ACAD_REACTORS
330
9852
102
}
330
9852
100
AcDbXrecord
280
     1
102
RTVSPost2010Prop28
280
     0
102
RTVSPost2010PropOp28
 70
     0
102
RTVSPost2010Prop29
280
     1
102
RTVSPost2010PropOp29
 70
     0
102
RTVSPost2010Prop30
280
     1
102
RTVSPost2010PropOp30
 70
     0
102
RTVSPost2010Prop31
280
     0
102
RTVSPost2010PropOp31
 70
     0
102
RTVSPost2010Prop32
280
     0
102
RTVSPost2010PropOp32
 70
     0
102
RTVSPost2010Prop33
280
     0
102
RTVSPost2010PropOp33
 70
     1
102
RTVSPost2010Prop34
280
     0
102
RTVSPost2010PropOp34
 70
     1
102
RTVSPost2010Prop35
280
     0
102
RTVSPost2010PropOp35
 70
     1
102
RTVSPost2010Prop36
280
     0
102
RTVSPost2010PropOp36
 70
     1
102
RTVSPost2010Prop37
 90
       50
102
RTVSPost2010PropOp37
 70
     1
102
RTVSPost2010Prop38
140
0.0
102
RTVSPost2010PropOp38
 70
     1
102
RTVSPost2010Prop39
140
1.0
102
RTVSPost2010PropOp39
 70
     1
102
RTVSPost2010Prop40
 90
        0
102
RTVSPost2010PropOp40
 70
     1
102
RTVSPost2010Prop41ColorIndex
 90
       18
102
RTVSPost2010Prop41ColorRGB
 90
        0
102
RTVSPost2010PropOp41
 70
     1
102
RTVSPost2010Prop42
 90
       50
102
RTVSPost2010PropOp42
 70
     1
102
RTVSPost2010Prop43
 90
        3
102
RTVSPost2010PropOp43
 70
     1
102
RTVSPost2010Prop44ColorIndex
 90
        5
102
RTVSPost2010Prop44ColorRGB
 90
      255
102
RTVSPost2010PropOp44
 70
     1
102
RTVSPost2010Prop45
280
     0
102
RTVSPost2010PropOp45
 70
     1
102
RTVSPost2010Prop46
 90
       50
102
RTVSPost2010PropOp46
 70
     1
102
RTVSPost2010Prop47
 90
       50
102
RTVSPost2010PropOp47
 70
     1
102
RTVSPost2010Prop48
 90
       50
102
RTVSPost2010PropOp48
 70
     1
102
RTVSPost2010Prop49
280
     0
102
RTVSPost2010PropOp49
 70
     1
102
RTVSPost2010Prop50
 90
       50
102
RTVSPost2010PropOp50
 70
     1
102
RTVSPost2010Prop51ColorIndex
 90
      256
102
RTVSPost2010Prop51ColorRGB
 90
-16777216
102
RTVSPost2010PropOp51
 70
     0
102
RTVSPost2010Prop52
140
1.0
102
RTVSPost2010PropOp52
 70
     0
102
RTVSPost2010Prop53
 90
        2
102
RTVSPost2010PropOp53
 70
     1
102
RTVSPost2010Prop54
  1
strokes_ogs.tif
102
RTVSPost2010PropOp54
 70
     1
102
RTVSPost2010Prop55
280
     0
102
RTVSPost2010PropOp55
 70
     1
102
RTVSPost2010Prop56
140
1.0
102
RTVSPost2010PropOp56
 70
     1
102
RTVSPost2010Prop57
140
1.0
102
RTVSPost2010PropOp57
 70
     1
  0
XRECORD
  5
983F
102
{ACAD_REACTORS
330
983E
102
}
330
983E
100
AcDbXrecord
280
     1
102
RTVSPost2010Prop28
280
     0
102
RTVSPost2010PropOp28
 70
     1
102
RTVSPost2010Prop29
280
     1
102
RTVSPost2010PropOp29
 70
     1
102
RTVSPost2010Prop30
280
     1
102
RTVSPost2010PropOp30
 70
     1
102
RTVSPost2010Prop31
280
     0
102
RTVSPost2010PropOp31
 70
     1
102
RTVSPost2010Prop32
280
     0
102
RTVSPost2010PropOp32
 70
     1
102
RTVSPost2010Prop33
280
     0
102
RTVSPost2010PropOp33
 70
     1
102
RTVSPost2010Prop34
280
     0
102
RTVSPost2010PropOp34
 70
     1
102
RTVSPost2010Prop35
280
     0
102
RTVSPost2010PropOp35
 70
     1
102
RTVSPost2010Prop36
280
     0
102
RTVSPost2010PropOp36
 70
     1
102
RTVSPost2010Prop37
 90
       50
102
RTVSPost2010PropOp37
 70
     1
102
RTVSPost2010Prop38
140
0.0
102
RTVSPost2010PropOp38
 70
     1
102
RTVSPost2010Prop39
140
1.0
102
RTVSPost2010PropOp39
 70
     1
102
RTVSPost2010Prop40
 90
        0
102
RTVSPost2010PropOp40
 70
     1
102
RTVSPost2010Prop41ColorIndex
 90
       18
102
RTVSPost2010Prop41ColorRGB
 90
        0
102
RTVSPost2010PropOp41
 70
     1
102
RTVSPost2010Prop42
 90
       50
102
RTVSPost2010PropOp42
 70
     1
102
RTVSPost2010Prop43
 90
        3
102
RTVSPost2010PropOp43
 70
     1
102
RTVSPost2010Prop44ColorIndex
 90
        5
102
RTVSPost2010Prop44ColorRGB
 90
      255
102
RTVSPost2010PropOp44
 70
     1
102
RTVSPost2010Prop45
280
     0
102
RTVSPost2010PropOp45
 70
     1
102
RTVSPost2010Prop46
 90
       50
102
RTVSPost2010PropOp46
 70
     1
102
RTVSPost2010Prop47
 90
       50
102
RTVSPost2010PropOp47
 70
     1
102
RTVSPost2010Prop48
 90
       50
102
RTVSPost2010PropOp48
 70
     1
102
RTVSPost2010Prop49
280
     0
102
RTVSPost2010PropOp49
 70
     1
102
RTVSPost2010Prop50
 90
       50
102
RTVSPost2010PropOp50
 70
     1
102
RTVSPost2010Prop51ColorIndex
 90
      256
102
RTVSPost2010Prop51ColorRGB
 90
-16777216
102
RTVSPost2010PropOp51
 70
     0
102
RTVSPost2010Prop52
140
1.0
102
RTVSPost2010PropOp52
 70
     0
102
RTVSPost2010Prop53
 90
        2
102
RTVSPost2010PropOp53
 70
     1
102
RTVSPost2010Prop54
  1
strokes_ogs.tif
102
RTVSPost2010PropOp54
 70
     1
102
RTVSPost2010Prop55
280
     0
102
RTVSPost2010PropOp55
 70
     1
102
RTVSPost2010Prop56
140
1.0
102
RTVSPost2010PropOp56
 70
     1
102
RTVSPost2010Prop57
140
1.0
102
RTVSPost2010PropOp57
 70
     1
  0
XRECORD
  5
9855
102
{ACAD_REACTORS
330
9854
102
}
330
9854
100
AcDbXrecord
280
     1
102
RTVSPost2010Prop28
280
     0
102
RTVSPost2010PropOp28
 70
     0
102
RTVSPost2010Prop29
280
     1
102
RTVSPost2010PropOp29
 70
     0
102
RTVSPost2010Prop30
280
     1
102
RTVSPost2010PropOp30
 70
     0
102
RTVSPost2010Prop31
280
     0
102
RTVSPost2010PropOp31
 70
     0
102
RTVSPost2010Prop32
280
     0
102
RTVSPost2010PropOp32
 70
     0
102
RTVSPost2010Prop33
280
     0
102
RTVSPost2010PropOp33
 70
     1
102
RTVSPost2010Prop34
280
     0
102
RTVSPost2010PropOp34
 70
     1
102
RTVSPost2010Prop35
280
     0
102
RTVSPost2010PropOp35
 70
     1
102
RTVSPost2010Prop36
280
     0
102
RTVSPost2010PropOp36
 70
     1
102
RTVSPost2010Prop37
 90
       50
102
RTVSPost2010PropOp37
 70
     1
102
RTVSPost2010Prop38
140
0.0
102
RTVSPost2010PropOp38
 70
     1
102
RTVSPost2010Prop39
140
1.0
102
RTVSPost2010PropOp39
 70
     1
102
RTVSPost2010Prop40
 90
        0
102
RTVSPost2010PropOp40
 70
     1
102
RTVSPost2010Prop41ColorIndex
 90
       18
102
RTVSPost2010Prop41ColorRGB
 90
        0
102
RTVSPost2010PropOp41
 70
     1
102
RTVSPost2010Prop42
 90
       50
102
RTVSPost2010PropOp42
 70
     1
102
RTVSPost2010Prop43
 90
        3
102
RTVSPost2010PropOp43
 70
     1
102
RTVSPost2010Prop44ColorIndex
 90
        5
102
RTVSPost2010Prop44ColorRGB
 90
      255
102
RTVSPost2010PropOp44
 70
     1
102
RTVSPost2010Prop45
280
     0
102
RTVSPost2010PropOp45
 70
     1
102
RTVSPost2010Prop46
 90
       50
102
RTVSPost2010PropOp46
 70
     1
102
RTVSPost2010Prop47
 90
       50
102
RTVSPost2010PropOp47
 70
     1
102
RTVSPost2010Prop48
 90
       50
102
RTVSPost2010PropOp48
 70
     1
102
RTVSPost2010Prop49
280
     0
102
RTVSPost2010PropOp49
 70
     1
102
RTVSPost2010Prop50
 90
       50
102
RTVSPost2010PropOp50
 70
     1
102
RTVSPost2010Prop51ColorIndex
 90
      256
102
RTVSPost2010Prop51ColorRGB
 90
-16777216
102
RTVSPost2010PropOp51
 70
     0
102
RTVSPost2010Prop52
140
1.0
102
RTVSPost2010PropOp52
 70
     0
102
RTVSPost2010Prop53
 90
        2
102
RTVSPost2010PropOp53
 70
     1
102
RTVSPost2010Prop54
  1
strokes_ogs.tif
102
RTVSPost2010PropOp54
 70
     1
102
RTVSPost2010Prop55
280
     0
102
RTVSPost2010PropOp55
 70
     1
102
RTVSPost2010Prop56
140
1.0
102
RTVSPost2010PropOp56
 70
     1
102
RTVSPost2010Prop57
140
1.0
102
RTVSPost2010PropOp57
 70
     1
  0
XRECORD
  5
9837
102
{ACAD_REACTORS
330
9836
102
}
330
9836
100
AcDbXrecord
280
     1
102
RTVSPost2010Prop28
280
     0
102
RTVSPost2010PropOp28
 70
     1
102
RTVSPost2010Prop29
280
     1
102
RTVSPost2010PropOp29
 70
     1
102
RTVSPost2010Prop30
280
     1
102
RTVSPost2010PropOp30
 70
     1
102
RTVSPost2010Prop31
280
     0
102
RTVSPost2010PropOp31
 70
     1
102
RTVSPost2010Prop32
280
     0
102
RTVSPost2010PropOp32
 70
     1
102
RTVSPost2010Prop33
280
     0
102
RTVSPost2010PropOp33
 70
     1
102
RTVSPost2010Prop34
280
     0
102
RTVSPost2010PropOp34
 70
     1
102
RTVSPost2010Prop35
280
     0
102
RTVSPost2010PropOp35
 70
     1
102
RTVSPost2010Prop36
280
     0
102
RTVSPost2010PropOp36
 70
     1
102
RTVSPost2010Prop37
 90
       50
102
RTVSPost2010PropOp37
 70
     1
102
RTVSPost2010Prop38
140
0.0
102
RTVSPost2010PropOp38
 70
     1
102
RTVSPost2010Prop39
140
1.0
102
RTVSPost2010PropOp39
 70
     1
102
RTVSPost2010Prop40
 90
        0
102
RTVSPost2010PropOp40
 70
     1
102
RTVSPost2010Prop41ColorIndex
 90
       18
102
RTVSPost2010Prop41ColorRGB
 90
        0
102
RTVSPost2010PropOp41
 70
     1
102
RTVSPost2010Prop42
 90
       50
102
RTVSPost2010PropOp42
 70
     1
102
RTVSPost2010Prop43
 90
        3
102
RTVSPost2010PropOp43
 70
     1
102
RTVSPost2010Prop44ColorIndex
 90
        5
102
RTVSPost2010Prop44ColorRGB
 90
      255
102
RTVSPost2010PropOp44
 70
     1
102
RTVSPost2010Prop45
280
     0
102
RTVSPost2010PropOp45
 70
     1
102
RTVSPost2010Prop46
 90
       50
102
RTVSPost2010PropOp46
 70
     1
102
RTVSPost2010Prop47
 90
       50
102
RTVSPost2010PropOp47
 70
     1
102
RTVSPost2010Prop48
 90
       50
102
RTVSPost2010PropOp48
 70
     1
102
RTVSPost2010Prop49
280
     0
102
RTVSPost2010PropOp49
 70
     1
102
RTVSPost2010Prop50
 90
       50
102
RTVSPost2010PropOp50
 70
     1
102
RTVSPost2010Prop51ColorIndex
 90
      256
102
RTVSPost2010Prop51ColorRGB
 90
-16777216
102
RTVSPost2010PropOp51
 70
     0
102
RTVSPost2010Prop52
140
1.0
102
RTVSPost2010PropOp52
 70
     0
102
RTVSPost2010Prop53
 90
        2
102
RTVSPost2010PropOp53
 70
     1
102
RTVSPost2010Prop54
  1
strokes_ogs.tif
102
RTVSPost2010PropOp54
 70
     1
102
RTVSPost2010Prop55
280
     0
102
RTVSPost2010PropOp55
 70
     1
102
RTVSPost2010Prop56
140
1.0
102
RTVSPost2010PropOp56
 70
     1
102
RTVSPost2010Prop57
140
1.0
102
RTVSPost2010PropOp57
 70
     1
  0
XRECORD
  5
9851
102
{ACAD_REACTORS
330
9850
102
}
330
9850
100
AcDbXrecord
280
     1
102
RTVSPost2010Prop28
280
     0
102
RTVSPost2010PropOp28
 70
     1
102
RTVSPost2010Prop29
280
     1
102
RTVSPost2010PropOp29
 70
     1
102
RTVSPost2010Prop30
280
     1
102
RTVSPost2010PropOp30
 70
     1
102
RTVSPost2010Prop31
280
     0
102
RTVSPost2010PropOp31
 70
     1
102
RTVSPost2010Prop32
280
     0
102
RTVSPost2010PropOp32
 70
     1
102
RTVSPost2010Prop33
280
     0
102
RTVSPost2010PropOp33
 70
     1
102
RTVSPost2010Prop34
280
     0
102
RTVSPost2010PropOp34
 70
     1
102
RTVSPost2010Prop35
280
     0
102
RTVSPost2010PropOp35
 70
     1
102
RTVSPost2010Prop36
280
     0
102
RTVSPost2010PropOp36
 70
     1
102
RTVSPost2010Prop37
 90
       50
102
RTVSPost2010PropOp37
 70
     1
102
RTVSPost2010Prop38
140
0.0
102
RTVSPost2010PropOp38
 70
     1
102
RTVSPost2010Prop39
140
1.0
102
RTVSPost2010PropOp39
 70
     1
102
RTVSPost2010Prop40
 90
        0
102
RTVSPost2010PropOp40
 70
     1
102
RTVSPost2010Prop41ColorIndex
 90
       18
102
RTVSPost2010Prop41ColorRGB
 90
        0
102
RTVSPost2010PropOp41
 70
     1
102
RTVSPost2010Prop42
 90
       50
102
RTVSPost2010PropOp42
 70
     1
102
RTVSPost2010Prop43
 90
        3
102
RTVSPost2010PropOp43
 70
     1
102
RTVSPost2010Prop44ColorIndex
 90
        5
102
RTVSPost2010Prop44ColorRGB
 90
      255
102
RTVSPost2010PropOp44
 70
     1
102
RTVSPost2010Prop45
280
     0
102
RTVSPost2010PropOp45
 70
     1
102
RTVSPost2010Prop46
 90
       50
102
RTVSPost2010PropOp46
 70
     1
102
RTVSPost2010Prop47
 90
       50
102
RTVSPost2010PropOp47
 70
     1
102
RTVSPost2010Prop48
 90
       50
102
RTVSPost2010PropOp48
 70
     1
102
RTVSPost2010Prop49
280
     0
102
RTVSPost2010PropOp49
 70
     1
102
RTVSPost2010Prop50
 90
       50
102
RTVSPost2010PropOp50
 70
     1
102
RTVSPost2010Prop51ColorIndex
 90
      256
102
RTVSPost2010Prop51ColorRGB
 90
-16777216
102
RTVSPost2010PropOp51
 70
     0
102
RTVSPost2010Prop52
140
1.0
102
RTVSPost2010PropOp52
 70
     0
102
RTVSPost2010Prop53
 90
        2
102
RTVSPost2010PropOp53
 70
     1
102
RTVSPost2010Prop54
  1
strokes_ogs.tif
102
RTVSPost2010PropOp54
 70
     1
102
RTVSPost2010Prop55
280
     0
102
RTVSPost2010PropOp55
 70
     1
102
RTVSPost2010Prop56
140
1.0
102
RTVSPost2010PropOp56
 70
     1
102
RTVSPost2010Prop57
140
1.0
102
RTVSPost2010PropOp57
 70
     1
  0
XRECORD
  5
984F
102
{ACAD_REACTORS
330
984E
102
}
330
984E
100
AcDbXrecord
280
     1
102
RTVSPost2010Prop28
280
     0
102
RTVSPost2010PropOp28
 70
     1
102
RTVSPost2010Prop29
280
     1
102
RTVSPost2010PropOp29
 70
     1
102
RTVSPost2010Prop30
280
     1
102
RTVSPost2010PropOp30
 70
     1
102
RTVSPost2010Prop31
280
     0
102
RTVSPost2010PropOp31
 70
     1
102
RTVSPost2010Prop32
280
     0
102
RTVSPost2010PropOp32
 70
     1
102
RTVSPost2010Prop33
280
     0
102
RTVSPost2010PropOp33
 70
     1
102
RTVSPost2010Prop34
280
     0
102
RTVSPost2010PropOp34
 70
     1
102
RTVSPost2010Prop35
280
     0
102
RTVSPost2010PropOp35
 70
     1
102
RTVSPost2010Prop36
280
     0
102
RTVSPost2010PropOp36
 70
     1
102
RTVSPost2010Prop37
 90
       50
102
RTVSPost2010PropOp37
 70
     1
102
RTVSPost2010Prop38
140
0.0
102
RTVSPost2010PropOp38
 70
     1
102
RTVSPost2010Prop39
140
1.0
102
RTVSPost2010PropOp39
 70
     1
102
RTVSPost2010Prop40
 90
        0
102
RTVSPost2010PropOp40
 70
     1
102
RTVSPost2010Prop41ColorIndex
 90
       18
102
RTVSPost2010Prop41ColorRGB
 90
        0
102
RTVSPost2010PropOp41
 70
     1
102
RTVSPost2010Prop42
 90
       50
102
RTVSPost2010PropOp42
 70
     1
102
RTVSPost2010Prop43
 90
        3
102
RTVSPost2010PropOp43
 70
     1
102
RTVSPost2010Prop44ColorIndex
 90
        5
102
RTVSPost2010Prop44ColorRGB
 90
      255
102
RTVSPost2010PropOp44
 70
     1
102
RTVSPost2010Prop45
280
     0
102
RTVSPost2010PropOp45
 70
     1
102
RTVSPost2010Prop46
 90
       50
102
RTVSPost2010PropOp46
 70
     1
102
RTVSPost2010Prop47
 90
       50
102
RTVSPost2010PropOp47
 70
     1
102
RTVSPost2010Prop48
 90
       50
102
RTVSPost2010PropOp48
 70
     1
102
RTVSPost2010Prop49
280
     0
102
RTVSPost2010PropOp49
 70
     1
102
RTVSPost2010Prop50
 90
       50
102
RTVSPost2010PropOp50
 70
     1
102
RTVSPost2010Prop51ColorIndex
 90
      256
102
RTVSPost2010Prop51ColorRGB
 90
-16777216
102
RTVSPost2010PropOp51
 70
     0
102
RTVSPost2010Prop52
140
1.0
102
RTVSPost2010PropOp52
 70
     0
102
RTVSPost2010Prop53
 90
        2
102
RTVSPost2010PropOp53
 70
     1
102
RTVSPost2010Prop54
  1
strokes_ogs.tif
102
RTVSPost2010PropOp54
 70
     1
102
RTVSPost2010Prop55
280
     0
102
RTVSPost2010PropOp55
 70
     1
102
RTVSPost2010Prop56
140
1.0
102
RTVSPost2010PropOp56
 70
     1
102
RTVSPost2010Prop57
140
1.0
102
RTVSPost2010PropOp57
 70
     1
  0
XRECORD
  5
9849
102
{ACAD_REACTORS
330
9848
102
}
330
9848
100
AcDbXrecord
280
     1
102
RTVSPost2010Prop28
280
     0
102
RTVSPost2010PropOp28
 70
     1
102
RTVSPost2010Prop29
280
     1
102
RTVSPost2010PropOp29
 70
     1
102
RTVSPost2010Prop30
280
     1
102
RTVSPost2010PropOp30
 70
     1
102
RTVSPost2010Prop31
280
     0
102
RTVSPost2010PropOp31
 70
     1
102
RTVSPost2010Prop32
280
     0
102
RTVSPost2010PropOp32
 70
     1
102
RTVSPost2010Prop33
280
     0
102
RTVSPost2010PropOp33
 70
     1
102
RTVSPost2010Prop34
280
     0
102
RTVSPost2010PropOp34
 70
     1
102
RTVSPost2010Prop35
280
     0
102
RTVSPost2010PropOp35
 70
     1
102
RTVSPost2010Prop36
280
     0
102
RTVSPost2010PropOp36
 70
     1
102
RTVSPost2010Prop37
 90
       50
102
RTVSPost2010PropOp37
 70
     1
102
RTVSPost2010Prop38
140
0.0
102
RTVSPost2010PropOp38
 70
     1
102
RTVSPost2010Prop39
140
1.0
102
RTVSPost2010PropOp39
 70
     1
102
RTVSPost2010Prop40
 90
        0
102
RTVSPost2010PropOp40
 70
     1
102
RTVSPost2010Prop41ColorIndex
 90
       18
102
RTVSPost2010Prop41ColorRGB
 90
        0
102
RTVSPost2010PropOp41
 70
     1
102
RTVSPost2010Prop42
 90
       50
102
RTVSPost2010PropOp42
 70
     1
102
RTVSPost2010Prop43
 90
        3
102
RTVSPost2010PropOp43
 70
     1
102
RTVSPost2010Prop44ColorIndex
 90
        5
102
RTVSPost2010Prop44ColorRGB
 90
      255
102
RTVSPost2010PropOp44
 70
     1
102
RTVSPost2010Prop45
280
     0
102
RTVSPost2010PropOp45
 70
     1
102
RTVSPost2010Prop46
 90
       50
102
RTVSPost2010PropOp46
 70
     1
102
RTVSPost2010Prop47
 90
       50
102
RTVSPost2010PropOp47
 70
     1
102
RTVSPost2010Prop48
 90
       50
102
RTVSPost2010PropOp48
 70
     1
102
RTVSPost2010Prop49
280
     0
102
RTVSPost2010PropOp49
 70
     1
102
RTVSPost2010Prop50
 90
       50
102
RTVSPost2010PropOp50
 70
     1
102
RTVSPost2010Prop51ColorIndex
 90
      256
102
RTVSPost2010Prop51ColorRGB
 90
-16777216
102
RTVSPost2010PropOp51
 70
     0
102
RTVSPost2010Prop52
140
1.0
102
RTVSPost2010PropOp52
 70
     0
102
RTVSPost2010Prop53
 90
        2
102
RTVSPost2010PropOp53
 70
     1
102
RTVSPost2010Prop54
  1
strokes_ogs.tif
102
RTVSPost2010PropOp54
 70
     1
102
RTVSPost2010Prop55
280
     0
102
RTVSPost2010PropOp55
 70
     1
102
RTVSPost2010Prop56
140
1.0
102
RTVSPost2010PropOp56
 70
     1
102
RTVSPost2010Prop57
140
1.0
102
RTVSPost2010PropOp57
 70
     1
  0
XRECORD
  5
984B
102
{ACAD_REACTORS
330
984A
102
}
330
984A
100
AcDbXrecord
280
     1
102
RTVSPost2010Prop28
280
     0
102
RTVSPost2010PropOp28
 70
     1
102
RTVSPost2010Prop29
280
     1
102
RTVSPost2010PropOp29
 70
     1
102
RTVSPost2010Prop30
280
     1
102
RTVSPost2010PropOp30
 70
     1
102
RTVSPost2010Prop31
280
     0
102
RTVSPost2010PropOp31
 70
     1
102
RTVSPost2010Prop32
280
     0
102
RTVSPost2010PropOp32
 70
     1
102
RTVSPost2010Prop33
280
     0
102
RTVSPost2010PropOp33
 70
     1
102
RTVSPost2010Prop34
280
     0
102
RTVSPost2010PropOp34
 70
     1
102
RTVSPost2010Prop35
280
     0
102
RTVSPost2010PropOp35
 70
     1
102
RTVSPost2010Prop36
280
     0
102
RTVSPost2010PropOp36
 70
     1
102
RTVSPost2010Prop37
 90
       50
102
RTVSPost2010PropOp37
 70
     1
102
RTVSPost2010Prop38
140
0.0
102
RTVSPost2010PropOp38
 70
     1
102
RTVSPost2010Prop39
140
1.0
102
RTVSPost2010PropOp39
 70
     1
102
RTVSPost2010Prop40
 90
        0
102
RTVSPost2010PropOp40
 70
     1
102
RTVSPost2010Prop41ColorIndex
 90
       18
102
RTVSPost2010Prop41ColorRGB
 90
        0
102
RTVSPost2010PropOp41
 70
     1
102
RTVSPost2010Prop42
 90
       50
102
RTVSPost2010PropOp42
 70
     1
102
RTVSPost2010Prop43
 90
        3
102
RTVSPost2010PropOp43
 70
     1
102
RTVSPost2010Prop44ColorIndex
 90
        5
102
RTVSPost2010Prop44ColorRGB
 90
      255
102
RTVSPost2010PropOp44
 70
     1
102
RTVSPost2010Prop45
280
     0
102
RTVSPost2010PropOp45
 70
     1
102
RTVSPost2010Prop46
 90
       50
102
RTVSPost2010PropOp46
 70
     1
102
RTVSPost2010Prop47
 90
       50
102
RTVSPost2010PropOp47
 70
     1
102
RTVSPost2010Prop48
 90
       50
102
RTVSPost2010PropOp48
 70
     1
102
RTVSPost2010Prop49
280
     0
102
RTVSPost2010PropOp49
 70
     1
102
RTVSPost2010Prop50
 90
       50
102
RTVSPost2010PropOp50
 70
     1
102
RTVSPost2010Prop51ColorIndex
 90
      256
102
RTVSPost2010Prop51ColorRGB
 90
-16777216
102
RTVSPost2010PropOp51
 70
     0
102
RTVSPost2010Prop52
140
1.0
102
RTVSPost2010PropOp52
 70
     0
102
RTVSPost2010Prop53
 90
        2
102
RTVSPost2010PropOp53
 70
     1
102
RTVSPost2010Prop54
  1
strokes_ogs.tif
102
RTVSPost2010PropOp54
 70
     1
102
RTVSPost2010Prop55
280
     0
102
RTVSPost2010PropOp55
 70
     1
102
RTVSPost2010Prop56
140
1.0
102
RTVSPost2010PropOp56
 70
     1
102
RTVSPost2010Prop57
140
1.0
102
RTVSPost2010PropOp57
 70
     1
  0
XRECORD
  5
983D
102
{ACAD_REACTORS
330
983C
102
}
330
983C
100
AcDbXrecord
280
     1
102
RTVSPost2010Prop28
280
     0
102
RTVSPost2010PropOp28
 70
     1
102
RTVSPost2010Prop29
280
     1
102
RTVSPost2010PropOp29
 70
     1
102
RTVSPost2010Prop30
280
     1
102
RTVSPost2010PropOp30
 70
     1
102
RTVSPost2010Prop31
280
     0
102
RTVSPost2010PropOp31
 70
     1
102
RTVSPost2010Prop32
280
     0
102
RTVSPost2010PropOp32
 70
     1
102
RTVSPost2010Prop33
280
     0
102
RTVSPost2010PropOp33
 70
     1
102
RTVSPost2010Prop34
280
     0
102
RTVSPost2010PropOp34
 70
     1
102
RTVSPost2010Prop35
280
     0
102
RTVSPost2010PropOp35
 70
     1
102
RTVSPost2010Prop36
280
     0
102
RTVSPost2010PropOp36
 70
     1
102
RTVSPost2010Prop37
 90
       50
102
RTVSPost2010PropOp37
 70
     1
102
RTVSPost2010Prop38
140
0.0
102
RTVSPost2010PropOp38
 70
     1
102
RTVSPost2010Prop39
140
1.0
102
RTVSPost2010PropOp39
 70
     1
102
RTVSPost2010Prop40
 90
        0
102
RTVSPost2010PropOp40
 70
     1
102
RTVSPost2010Prop41ColorIndex
 90
       18
102
RTVSPost2010Prop41ColorRGB
 90
        0
102
RTVSPost2010PropOp41
 70
     1
102
RTVSPost2010Prop42
 90
       50
102
RTVSPost2010PropOp42
 70
     1
102
RTVSPost2010Prop43
 90
        3
102
RTVSPost2010PropOp43
 70
     1
102
RTVSPost2010Prop44ColorIndex
 90
        5
102
RTVSPost2010Prop44ColorRGB
 90
      255
102
RTVSPost2010PropOp44
 70
     1
102
RTVSPost2010Prop45
280
     0
102
RTVSPost2010PropOp45
 70
     1
102
RTVSPost2010Prop46
 90
       50
102
RTVSPost2010PropOp46
 70
     1
102
RTVSPost2010Prop47
 90
       50
102
RTVSPost2010PropOp47
 70
     1
102
RTVSPost2010Prop48
 90
       50
102
RTVSPost2010PropOp48
 70
     1
102
RTVSPost2010Prop49
280
     0
102
RTVSPost2010PropOp49
 70
     1
102
RTVSPost2010Prop50
 90
       50
102
RTVSPost2010PropOp50
 70
     1
102
RTVSPost2010Prop51ColorIndex
 90
      256
102
RTVSPost2010Prop51ColorRGB
 90
-16777216
102
RTVSPost2010PropOp51
 70
     0
102
RTVSPost2010Prop52
140
1.0
102
RTVSPost2010PropOp52
 70
     0
102
RTVSPost2010Prop53
 90
        2
102
RTVSPost2010PropOp53
 70
     1
102
RTVSPost2010Prop54
  1
strokes_ogs.tif
102
RTVSPost2010PropOp54
 70
     1
102
RTVSPost2010Prop55
280
     0
102
RTVSPost2010PropOp55
 70
     1
102
RTVSPost2010Prop56
140
1.0
102
RTVSPost2010PropOp56
 70
     1
102
RTVSPost2010Prop57
140
1.0
102
RTVSPost2010PropOp57
 70
     1
  0
XRECORD
  5
9845
102
{ACAD_REACTORS
330
9844
102
}
330
9844
100
AcDbXrecord
280
     1
102
RTVSPost2010Prop28
280
     0
102
RTVSPost2010PropOp28
 70
     1
102
RTVSPost2010Prop29
280
     1
102
RTVSPost2010PropOp29
 70
     1
102
RTVSPost2010Prop30
280
     1
102
RTVSPost2010PropOp30
 70
     1
102
RTVSPost2010Prop31
280
     0
102
RTVSPost2010PropOp31
 70
     1
102
RTVSPost2010Prop32
280
     0
102
RTVSPost2010PropOp32
 70
     1
102
RTVSPost2010Prop33
280
     0
102
RTVSPost2010PropOp33
 70
     1
102
RTVSPost2010Prop34
280
     0
102
RTVSPost2010PropOp34
 70
     1
102
RTVSPost2010Prop35
280
     0
102
RTVSPost2010PropOp35
 70
     1
102
RTVSPost2010Prop36
280
     0
102
RTVSPost2010PropOp36
 70
     1
102
RTVSPost2010Prop37
 90
       50
102
RTVSPost2010PropOp37
 70
     1
102
RTVSPost2010Prop38
140
0.0
102
RTVSPost2010PropOp38
 70
     1
102
RTVSPost2010Prop39
140
1.0
102
RTVSPost2010PropOp39
 70
     1
102
RTVSPost2010Prop40
 90
        0
102
RTVSPost2010PropOp40
 70
     1
102
RTVSPost2010Prop41ColorIndex
 90
       18
102
RTVSPost2010Prop41ColorRGB
 90
        0
102
RTVSPost2010PropOp41
 70
     1
102
RTVSPost2010Prop42
 90
       50
102
RTVSPost2010PropOp42
 70
     1
102
RTVSPost2010Prop43
 90
        3
102
RTVSPost2010PropOp43
 70
     1
102
RTVSPost2010Prop44ColorIndex
 90
        5
102
RTVSPost2010Prop44ColorRGB
 90
      255
102
RTVSPost2010PropOp44
 70
     1
102
RTVSPost2010Prop45
280
     0
102
RTVSPost2010PropOp45
 70
     1
102
RTVSPost2010Prop46
 90
       50
102
RTVSPost2010PropOp46
 70
     1
102
RTVSPost2010Prop47
 90
       50
102
RTVSPost2010PropOp47
 70
     1
102
RTVSPost2010Prop48
 90
       50
102
RTVSPost2010PropOp48
 70
     1
102
RTVSPost2010Prop49
280
     0
102
RTVSPost2010PropOp49
 70
     1
102
RTVSPost2010Prop50
 90
       50
102
RTVSPost2010PropOp50
 70
     1
102
RTVSPost2010Prop51ColorIndex
 90
      256
102
RTVSPost2010Prop51ColorRGB
 90
-16777216
102
RTVSPost2010PropOp51
 70
     0
102
RTVSPost2010Prop52
140
1.0
102
RTVSPost2010PropOp52
 70
     0
102
RTVSPost2010Prop53
 90
        2
102
RTVSPost2010PropOp53
 70
     1
102
RTVSPost2010Prop54
  1
strokes_ogs.tif
102
RTVSPost2010PropOp54
 70
     1
102
RTVSPost2010Prop55
280
     0
102
RTVSPost2010PropOp55
 70
     1
102
RTVSPost2010Prop56
140
1.0
102
RTVSPost2010PropOp56
 70
     1
102
RTVSPost2010Prop57
140
1.0
102
RTVSPost2010PropOp57
 70
     1
  0
XRECORD
  5
984D
102
{ACAD_REACTORS
330
984C
102
}
330
984C
100
AcDbXrecord
280
     1
102
RTVSPost2010Prop28
280
     0
102
RTVSPost2010PropOp28
 70
     1
102
RTVSPost2010Prop29
280
     1
102
RTVSPost2010PropOp29
 70
     1
102
RTVSPost2010Prop30
280
     1
102
RTVSPost2010PropOp30
 70
     1
102
RTVSPost2010Prop31
280
     0
102
RTVSPost2010PropOp31
 70
     1
102
RTVSPost2010Prop32
280
     0
102
RTVSPost2010PropOp32
 70
     1
102
RTVSPost2010Prop33
280
     0
102
RTVSPost2010PropOp33
 70
     1
102
RTVSPost2010Prop34
280
     0
102
RTVSPost2010PropOp34
 70
     1
102
RTVSPost2010Prop35
280
     0
102
RTVSPost2010PropOp35
 70
     1
102
RTVSPost2010Prop36
280
     0
102
RTVSPost2010PropOp36
 70
     1
102
RTVSPost2010Prop37
 90
       50
102
RTVSPost2010PropOp37
 70
     1
102
RTVSPost2010Prop38
140
0.0
102
RTVSPost2010PropOp38
 70
     1
102
RTVSPost2010Prop39
140
1.0
102
RTVSPost2010PropOp39
 70
     1
102
RTVSPost2010Prop40
 90
        0
102
RTVSPost2010PropOp40
 70
     1
102
RTVSPost2010Prop41ColorIndex
 90
       18
102
RTVSPost2010Prop41ColorRGB
 90
        0
102
RTVSPost2010PropOp41
 70
     1
102
RTVSPost2010Prop42
 90
       50
102
RTVSPost2010PropOp42
 70
     1
102
RTVSPost2010Prop43
 90
        3
102
RTVSPost2010PropOp43
 70
     1
102
RTVSPost2010Prop44ColorIndex
 90
        5
102
RTVSPost2010Prop44ColorRGB
 90
      255
102
RTVSPost2010PropOp44
 70
     1
102
RTVSPost2010Prop45
280
     0
102
RTVSPost2010PropOp45
 70
     1
102
RTVSPost2010Prop46
 90
       50
102
RTVSPost2010PropOp46
 70
     1
102
RTVSPost2010Prop47
 90
       50
102
RTVSPost2010PropOp47
 70
     1
102
RTVSPost2010Prop48
 90
       50
102
RTVSPost2010PropOp48
 70
     1
102
RTVSPost2010Prop49
280
     0
102
RTVSPost2010PropOp49
 70
     1
102
RTVSPost2010Prop50
 90
       50
102
RTVSPost2010PropOp50
 70
     1
102
RTVSPost2010Prop51ColorIndex
 90
      256
102
RTVSPost2010Prop51ColorRGB
 90
-16777216
102
RTVSPost2010PropOp51
 70
     0
102
RTVSPost2010Prop52
140
1.0
102
RTVSPost2010PropOp52
 70
     0
102
RTVSPost2010Prop53
 90
        2
102
RTVSPost2010PropOp53
 70
     1
102
RTVSPost2010Prop54
  1
strokes_ogs.tif
102
RTVSPost2010PropOp54
 70
     1
102
RTVSPost2010Prop55
280
     0
102
RTVSPost2010PropOp55
 70
     1
102
RTVSPost2010Prop56
140
1.0
102
RTVSPost2010PropOp56
 70
     1
102
RTVSPost2010Prop57
140
1.0
102
RTVSPost2010PropOp57
 70
     1
  0
ENDSEC
  0
EOF
