  0
SECTION
  2
HEADER
  9
$ACADVER
  1
AC1024
  9
$ACADMAINTVER
 70
   226
  9
$DWGCODEPAGE
  3
ANSI_932
  9
$LASTSAVEDBY
  1
satoe
  9
$CUSTOMPROPERTYTAG
  1
AmdtFileType
  9
$CUSTOMPROPERTY
  1
84
  9
$INSBASE
 10
0.0
 20
0.0
 30
0.0
  9
$EXTMIN
 10
14.94110993778395
 20
10.96777401010854
 30
-0.0000000000073574
  9
$EXTMAX
 10
795.0121349921312
 20
561.0085625735385
 30
0.0000000000000153
  9
$LIMMIN
 10
-0.0791567889075395
 20
-0.0159211882485977
  9
$LIMMAX
 10
420.079168406405
 20
297.0159086457359
  9
$ORTHOMODE
 70
     0
  9
$REGENMODE
 70
     1
  9
$FILLMODE
 70
     1
  9
$QTEXTMODE
 70
     0
  9
$MIRRTEXT
 70
     1
  9
$LTSCALE
 40
0.2
  9
$ATTMODE
 70
     1
  9
$TEXTSIZE
 40
2.5
  9
$TRACEWID
 40
1.0
  9
$TEXTSTYLE
  7
STANDARD
  9
$CLAYER
  8
0
  9
$CELTYPE
  6
ByLayer
  9
$CECOLOR
 62
   256
  9
$CELTSCALE
 40
0.2
  9
$DISPSILH
 70
     0
  9
$DIMSCALE
 40
1.0
  9
$DIMASZ
 40
2.5
  9
$DIMEXO
 40
1.0
  9
$DIMDLI
 40
10.0
  9
$DIMRND
 40
0.0
  9
$DIMDLE
 40
0.0
  9
$DIMEXE
 40
1.0
  9
$DIMTP
 40
0.1
  9
$DIMTM
 40
0.1
  9
$DIMTXT
 40
3.5
  9
$DIMCEN
 40
0.0
  9
$DIMTSZ
 40
0.0
  9
$DIMTOL
 70
     0
  9
$DIMLIM
 70
     0
  9
$DIMTIH
 70
     0
  9
$DIMTOH
 70
     0
  9
$DIMSE1
 70
     0
  9
$DIMSE2
 70
     0
  9
$DIMTAD
 70
     1
  9
$DIMZIN
 70
     8
  9
$DIMBLK
  1

  9
$DIMASO
 70
     1
  9
$DIMSHO
 70
     1
  9
$DIMPOST
  1

  9
$DIMAPOST
  1
"
  9
$DIMALT
 70
     0
  9
$DIMALTD
 70
     2
  9
$DIMALTF
 40
0.0393701
  9
$DIMLFAC
 40
1.0
  9
$DIMTOFL
 70
     1
  9
$DIMTVP
 40
0.0
  9
$DIMTIX
 70
     0
  9
$DIMSOXD
 70
     0
  9
$DIMSAH
 70
     0
  9
$DIMBLK1
  1

  9
$DIMBLK2
  1

  9
$DIMSTYLE
  2
AM_ISO
  9
$DIMCLRD
 70
   256
  9
$DIMCLRE
 70
   256
  9
$DIMCLRT
 70
     2
  9
$DIMTFAC
 40
0.71
  9
$DIMGAP
 40
1.5
  9
$DIMJUST
 70
     0
  9
$DIMSD1
 70
     0
  9
$DIMSD2
 70
     0
  9
$DIMTOLJ
 70
     0
  9
$DIMTZIN
 70
     8
  9
$DIMALTZ
 70
     0
  9
$DIMALTTZ
 70
     0
  9
$DIMUPT
 70
     0
  9
$DIMDEC
 70
     2
  9
$DIMTDEC
 70
     3
  9
$DIMALTU
 70
     2
  9
$DIMALTTD
 70
     4
  9
$DIMTXSTY
  7
STANDARD
  9
$DIMAUNIT
 70
     0
  9
$DIMADEC
 70
     0
  9
$DIMALTRND
 40
0.0
  9
$DIMAZIN
 70
     2
  9
$DIMDSEP
 70
    46
  9
$DIMATFIT
 70
     3
  9
$DIMFRAC
 70
     0
  9
$DIMLDRBLK
  1

  9
$DIMLUNIT
 70
     2
  9
$DIMLWD
 70
    -1
  9
$DIMLWE
 70
    -1
  9
$DIMTMOVE
 70
     0
  9
$DIMFXL
 40
1.0
  9
$DIMFXLON
 70
     0
  9
$DIMJOGANG
 40
0.7853981633974483
  9
$DIMTFILL
 70
     0
  9
$DIMTFILLCLR
 70
     0
  9
$DIMARCSYM
 70
     0
  9
$DIMLTYPE
  6

  9
$DIMLTEX1
  6

  9
$DIMLTEX2
  6

  9
$DIMTXTDIRECTION
 70
     0
  9
$LUNITS
 70
     2
  9
$LUPREC
 70
     2
  9
$SKETCHINC
 40
1.0
  9
$FILLETRAD
 40
2.5
  9
$AUNITS
 70
     0
  9
$AUPREC
 70
     0
  9
$MENU
  1
.
  9
$ELEVATION
 40
0.0
  9
$PELEVATION
 40
0.0
  9
$THICKNESS
 40
0.0
  9
$LIMCHECK
 70
     0
  9
$CHAMFERA
 40
2.5
  9
$CHAMFERB
 40
2.5
  9
$CHAMFERC
 40
20.0
  9
$CHAMFERD
 40
0.0
  9
$SKPOLY
 70
     0
  9
$TDCREATE
 40
2457815.719699074
  9
$TDUCREATE
 40
2457815.344708264
  9
$TDUPDATE
 40
2459731.746180556
  9
$TDUUPDATE
 40
2459731.371180556
  9
$TDINDWG
 40
0.0727152662
  9
$TDUSRTIMER
 40
0.0727152662
  9
$USRTIMER
 70
     1
  9
$ANGBASE
 50
0.0
  9
$ANGDIR
 70
     0
  9
$PDMODE
 70
     0
  9
$PDSIZE
 40
0.0
  9
$PLINEWID
 40
0.0
  9
$SPLFRAME
 70
     0
  9
$SPLINETYPE
 70
     6
  9
$SPLINESEGS
 70
     8
  9
$HANDSEED
  5
ACD
  9
$SURFTAB1
 70
     6
  9
$SURFTAB2
 70
     6
  9
$SURFTYPE
 70
     6
  9
$SURFU
 70
     6
  9
$SURFV
 70
     6
  9
$UCSBASE
  2

  9
$UCSNAME
  2

  9
$UCSORG
 10
0.0
 20
0.0
 30
0.0
  9
$UCSXDIR
 10
1.0
 20
0.0
 30
0.0
  9
$UCSYDIR
 10
0.0
 20
1.0
 30
0.0
  9
$UCSORTHOREF
  2

  9
$UCSORTHOVIEW
 70
     0
  9
$UCSORGTOP
 10
0.0
 20
0.0
 30
0.0
  9
$UCSORGBOTTOM
 10
0.0
 20
0.0
 30
0.0
  9
$UCSORGLEFT
 10
0.0
 20
0.0
 30
0.0
  9
$UCSORGRIGHT
 10
0.0
 20
0.0
 30
0.0
  9
$UCSORGFRONT
 10
0.0
 20
0.0
 30
0.0
  9
$UCSORGBACK
 10
0.0
 20
0.0
 30
0.0
  9
$PUCSBASE
  2

  9
$PUCSNAME
  2

  9
$PUCSORG
 10
0.0
 20
0.0
 30
0.0
  9
$PUCSXDIR
 10
1.0
 20
0.0
 30
0.0
  9
$PUCSYDIR
 10
0.0
 20
1.0
 30
0.0
  9
$PUCSORTHOREF
  2

  9
$PUCSORTHOVIEW
 70
     0
  9
$PUCSORGTOP
 10
0.0
 20
0.0
 30
0.0
  9
$PUCSORGBOTTOM
 10
0.0
 20
0.0
 30
0.0
  9
$PUCSORGLEFT
 10
0.0
 20
0.0
 30
0.0
  9
$PUCSORGRIGHT
 10
0.0
 20
0.0
 30
0.0
  9
$PUCSORGFRONT
 10
0.0
 20
0.0
 30
0.0
  9
$PUCSORGBACK
 10
0.0
 20
0.0
 30
0.0
  9
$USERI1
 70
     0
  9
$USERI2
 70
     0
  9
$USERI3
 70
     0
  9
$USERI4
 70
     0
  9
$USERI5
 70
     0
  9
$USERR1
 40
0.0
  9
$USERR2
 40
0.0
  9
$USERR3
 40
0.0
  9
$USERR4
 40
0.0
  9
$USERR5
 40
0.0
  9
$WORLDVIEW
 70
     1
  9
$SHADEDGE
 70
     3
  9
$SHADEDIF
 70
    70
  9
$TILEMODE
 70
     1
  9
$MAXACTVP
 70
    64
  9
$PINSBASE
 10
0.0
 20
0.0
 30
0.0
  9
$PLIMCHECK
 70
     0
  9
$PEXTMIN
 10
1.000000000000000E+20
 20
1.000000000000000E+20
 30
1.000000000000000E+20
  9
$PEXTMAX
 10
-1.000000000000000E+20
 20
-1.000000000000000E+20
 30
-1.000000000000000E+20
  9
$PLIMMIN
 10
0.0
 20
0.0
  9
$PLIMMAX
 10
12.0
 20
9.0
  9
$UNITMODE
 70
     0
  9
$VISRETAIN
 70
     1
  9
$PLINEGEN
 70
     0
  9
$PSLTSCALE
 70
     0
  9
$TREEDEPTH
 70
  3020
  9
$CMLSTYLE
  2
Standard
  9
$CMLJUST
 70
     0
  9
$CMLSCALE
 40
20.0
  9
$PROXYGRAPHICS
 70
     1
  9
$MEASUREMENT
 70
     1
  9
$CELWEIGHT
370
     9
  9
$ENDCAPS
280
     0
  9
$JOINSTYLE
280
     0
  9
$LWDISPLAY
290
     0
  9
$INSUNITS
 70
     4
  9
$HYPERLINKBASE
  1

  9
$STYLESHEET
  1

  9
$XEDIT
290
     1
  9
$CEPSNTYPE
380
     0
  9
$PSTYLEMODE
290
     1
  9
$FINGERPRINTGUID
  2
{AF7A2B97-E523-4F5D-B2AC-03F2E7BF3976}
  9
$VERSIONGUID
  2
{99D39F2D-6DEE-5C45-9D9D-B4B43344B41F}
  9
$EXTNAMES
290
     1
  9
$PSVPSCALE
 40
0.0
  9
$OLESTARTUP
290
     0
  9
$SORTENTS
280
   127
  9
$INDEXCTL
280
     0
  9
$HIDETEXT
280
     1
  9
$XCLIPFRAME
280
     2
  9
$HALOGAP
280
     0
  9
$OBSCOLOR
 70
   257
  9
$OBSLTYPE
280
     0
  9
$INTERSECTIONDISPLAY
280
     0
  9
$INTERSECTIONCOLOR
 70
   257
  9
$DIMASSOC
280
     2
  9
$PROJECTNAME
  1

  9
$CAMERADISPLAY
290
     0
  9
$LENSLENGTH
 40
50.0
  9
$CAMERAHEIGHT
 40
0.0
  9
$STEPSPERSEC
 40
2.0
  9
$STEPSIZE
 40
6.0
  9
$3DDWFPREC
 40
2.0
  9
$PSOLWIDTH
 40
0.25
  9
$PSOLHEIGHT
 40
4.0
  9
$LOFTANG1
 40
1.570796326794896
  9
$LOFTANG2
 40
1.570796326794896
  9
$LOFTMAG1
 40
0.0
  9
$LOFTMAG2
 40
0.0
  9
$LOFTPARAM
 70
     7
  9
$LOFTNORMALS
280
     1
  9
$LATITUDE
 40
37.795
  9
$LONGITUDE
 40
-122.394
  9
$NORTHDIRECTION
 40
0.0
  9
$TIMEZONE
 70
 -8000
  9
$LIGHTGLYPHDISPLAY
280
     1
  9
$TILEMODELIGHTSYNCH
280
     1
  9
$CMATERIAL
347
11
  9
$SOLIDHIST
280
     0
  9
$SHOWHIST
280
     1
  9
$DWFFRAME
280
     2
  9
$DGNFRAME
280
     0
  9
$REALWORLDSCALE
290
     1
  9
$INTERFERECOLOR
 62
     1
  9
$INTERFEREOBJVS
345
33
  9
$INTERFEREVPVS
346
30
  9
$CSHADOW
280
     0
  9
$SHADOWPLANELOCATION
 40
0.0
  0
ENDSEC
  0
SECTION
  2
CLASSES
  0
CLASS
  1
ACDBDICTIONARYWDFLT
  2
AcDbDictionaryWithDefault
  3
ObjectDBX Classes
 90
        0
 91
        1
280
     0
281
     0
  0
CLASS
  1
MATERIAL
  2
AcDbMaterial
  3
ObjectDBX Classes
 90
     1153
 91
        3
280
     0
281
     0
  0
CLASS
  1
VISUALSTYLE
  2
AcDbVisualStyle
  3
ObjectDBX Classes
 90
     4095
 91
       24
280
     0
281
     0
  0
CLASS
  1
SCALE
  2
AcDbScale
  3
ObjectDBX Classes
 90
     1153
 91
       17
280
     0
281
     0
  0
CLASS
  1
TABLESTYLE
  2
AcDbTableStyle
  3
ObjectDBX Classes
 90
     4095
 91
        1
280
     0
281
     0
  0
CLASS
  1
MLEADERSTYLE
  2
AcDbMLeaderStyle
  3
ACDB_MLEADERSTYLE_CLASS
 90
     4095
 91
        1
280
     0
281
     0
  0
CLASS
  1
ACDBSECTIONVIEWSTYLE
  2
AcDbSectionViewStyle
  3
ObjectDBX Classes
 90
     1025
 91
        2
280
     0
281
     0
  0
CLASS
  1
ACDBDETAILVIEWSTYLE
  2
AcDbDetailViewStyle
  3
ObjectDBX Classes
 90
     1025
 91
        2
280
     0
281
     0
  0
CLASS
  1
SORTENTSTABLE
  2
AcDbSortentsTable
  3
ObjectDBX Classes
 90
        0
 91
        2
280
     0
281
     0
  0
CLASS
  1
DICTIONARYVAR
  2
AcDbDictionaryVar
  3
ObjectDBX Classes
 90
        0
 91
       10
280
     0
281
     0
  0
CLASS
  1
CELLSTYLEMAP
  2
AcDbCellStyleMap
  3
ObjectDBX Classes
 90
     1152
 91
        1
280
     0
281
     0
  0
CLASS
  1
DIMASSOC
  2
AcDbDimAssoc
  3
"AcDbDimAssoc|Product Desc:     AcDim ARX App For Dimension|Company:          Autodesk, Inc.|WEB Address:      www.autodesk.com"
 90
        0
 91
        0
280
     0
281
     0
  0
CLASS
  1
RAPIDRTRENDERSETTINGS
  2
AcDbRapidRTRenderSettings
  3
ObjectDBX Classes
 90
     1024
 91
        7
280
     0
281
     0
  0
CLASS
  1
MENTALRAYRENDERSETTINGS
  2
AcDbMentalRayRenderSettings
  3
SCENEOE
 90
     1024
 91
        2
280
     0
281
     0
  0
ENDSEC
  0
SECTION
  2
TABLES
  0
TABLE
  2
VPORT
  5
8
102
{ACAD_XDICTIONARY
360
1E9
102
}
330
0
100
AcDbSymbolTable
 70
     1
  0
VPORT
  5
57
330
8
100
AcDbSymbolTableRecord
100
AcDbViewportTableRecord
  2
*Active
 70
     0
 10
0.0
 20
0.0
 11
1.0
 21
1.0
 12
404.9766224649576
 22
285.9881682918236
 13
0.0
 23
0.0
 14
10.0
 24
10.0
 15
10.0
 25
10.0
 16
0.0
 26
0.0
 36
1.0
 17
0.0
 27
0.0
 37
0.0
 40
553.9979165387064
 41
2.303721488595438
 42
50.0
 43
0.0
 44
0.0
 50
0.0
 51
0.0
 71
     0
 72
   100
 73
     1
 74
     1
 75
     0
 76
     0
 77
     0
 78
     0
281
     0
 65
     1
110
0.0
120
0.0
130
0.0
111
1.0
121
0.0
131
0.0
112
0.0
122
1.0
132
0.0
 79
     0
146
0.0
348
2F
 60
     0
 61
     5
292
     1
282
     1
141
0.0
142
0.0
 63
   250
421
  3355443
1001
ACAD_NAV_VCDISPLAY
1070
     3
  0
ENDTAB
  0
TABLE
  2
LTYPE
  5
5
330
0
100
AcDbSymbolTable
 70
     7
  0
LTYPE
  5
5B
330
5
100
AcDbSymbolTableRecord
100
AcDbLinetypeTableRecord
  2
ByBlock
 70
     0
  3

 72
    65
 73
     0
 40
0.0
  0
LTYPE
  5
5C
330
5
100
AcDbSymbolTableRecord
100
AcDbLinetypeTableRecord
  2
ByLayer
 70
     0
  3

 72
    65
 73
     0
 40
0.0
  0
LTYPE
  5
5D
330
5
100
AcDbSymbolTableRecord
100
AcDbLinetypeTableRecord
  2
Continuous
 70
     0
  3
Solid line
 72
    65
 73
     0
 40
0.0
  0
LTYPE
  5
7C
330
5
100
AcDbSymbolTableRecord
100
AcDbLinetypeTableRecord
  2
Amconstr
 70
     0
  3
_______________________
 72
    65
 73
     2
 40
9999.0
 49
9999.0
 74
     0
 49
0.0
 74
     0
  0
LTYPE
  5
7D
330
5
100
AcDbSymbolTableRecord
100
AcDbLinetypeTableRecord
  2
DASHED2
 70
     0
  3
Dashed (.5x) _ _ _ _ _ _ _ _ _ _ _ _ _ _ _ _ _
 72
    65
 73
     2
 40
9.524999999999996
 49
6.349999999999997
 74
     0
 49
-3.174999999999998
 74
     0
  0
LTYPE
  5
7E
330
5
100
AcDbSymbolTableRecord
100
AcDbLinetypeTableRecord
  2
CENTERX2
 70
     0
  3
Center (2x) ________  __  ________  __  _____
 72
    65
 73
     4
 40
101.6
 49
63.5
 74
     0
 49
-12.7
 74
     0
 49
12.7
 74
     0
 49
-12.7
 74
     0
  0
LTYPE
  5
7F
330
5
100
AcDbSymbolTableRecord
100
AcDbLinetypeTableRecord
  2
細い実線
 70
     0
  3
______________________________________________________________
 72
    65
 73
     0
 40
0.0
  0
LTYPE
  5
263
330
5
100
AcDbSymbolTableRecord
100
AcDbLinetypeTableRecord
  2
CENTER2
 70
     0
  3
Center (.5x) ___ _ ___ _ ___ _ ___ _ ___ _ ___
 72
    65
 73
     4
 40
28.575
 49
19.05
 74
     0
 49
-3.174999999999998
 74
     0
 49
3.174999999999998
 74
     0
 49
-3.174999999999998
 74
     0
  0
ENDTAB
  0
TABLE
  2
LAYER
  5
2
102
{ACAD_XDICTIONARY
360
1D7
102
}
330
0
100
AcDbSymbolTable
 70
    16
  0
LAYER
  5
54
102
{ACAD_XDICTIONARY
360
1D2
102
}
330
2
100
AcDbSymbolTableRecord
100
AcDbLayerTableRecord
  2
0
 70
     0
 62
     7
  6
Continuous
370
    -3
390
F
347
21
1001
AcAecLayerStandard
1000

1000

  0
LAYER
  5
79
330
2
100
AcDbSymbolTableRecord
100
AcDbLayerTableRecord
  2
Defpoints
 70
     0
 62
     7
  6
Continuous
290
     0
370
    -3
390
F
347
21
1001
AcAecLayerStandard
1000

1000

  0
LAYER
  5
8E
102
{ACAD_XDICTIONARY
360
8F
102
}
330
2
100
AcDbSymbolTableRecord
100
AcDbLayerTableRecord
  2
WAKU
 70
     0
 62
     7
  6
Continuous
370
    -3
390
F
347
21
  0
LAYER
  5
93
102
{ACAD_XDICTIONARY
360
94
102
}
330
2
100
AcDbSymbolTableRecord
100
AcDbLayerTableRecord
  2
BISUKUGI
 70
     0
 62
     6
  6
Continuous
370
    -3
390
F
347
21
  0
LAYER
  5
AA
102
{ACAD_XDICTIONARY
360
AB
102
}
330
2
100
AcDbSymbolTableRecord
100
AcDbLayerTableRecord
  2
SEIHIN
 70
     0
 62
     4
  6
Continuous
370
    -3
390
F
347
21
  0
LAYER
  5
B2
102
{ACAD_XDICTIONARY
360
B3
102
}
330
2
100
AcDbSymbolTableRecord
100
AcDbLayerTableRecord
  2
KUTAI
 70
     4
 62
     2
  6
Continuous
370
    -3
390
8B
347
21
  0
LAYER
  5
F0
102
{ACAD_XDICTIONARY
360
F1
102
}
330
2
100
AcDbSymbolTableRecord
100
AcDbLayerTableRecord
  2
SONOTABUZAI
 70
     0
 62
     5
  6
Continuous
370
    -3
390
8B
347
21
  0
LAYER
  5
103
102
{ACAD_XDICTIONARY
360
104
102
}
330
2
100
AcDbSymbolTableRecord
100
AcDbLayerTableRecord
  2
YAKUMONO
 70
     0
 62
     3
  6
Continuous
370
    -3
390
F
347
21
  0
LAYER
  5
144
102
{ACAD_XDICTIONARY
360
145
102
}
330
2
100
AcDbSymbolTableRecord
100
AcDbLayerTableRecord
  2
BOUSUISI
 70
     0
 62
     1
  6
Continuous
370
    -3
390
8B
347
21
  0
LAYER
  5
149
102
{ACAD_XDICTIONARY
360
14A
102
}
330
2
100
AcDbSymbolTableRecord
100
AcDbLayerTableRecord
  2
MOJI
 70
     0
 62
     7
  6
Continuous
370
    -3
390
F
347
21
  0
LAYER
  5
15B
102
{ACAD_XDICTIONARY
360
15C
102
}
330
2
100
AcDbSymbolTableRecord
100
AcDbLayerTableRecord
  2
SI-RINGU
 70
     0
 62
     9
  6
Continuous
370
    -3
390
8B
347
21
  0
LAYER
  5
172
102
{ACAD_XDICTIONARY
360
173
102
}
330
2
100
AcDbSymbolTableRecord
100
AcDbLayerTableRecord
  2
BOUSUITE-PU
 70
     0
 62
     8
  6
Continuous
370
    -3
390
F
347
21
  0
LAYER
  5
264
102
{ACAD_XDICTIONARY
360
265
102
}
330
2
100
AcDbSymbolTableRecord
100
AcDbLayerTableRecord
  2
SUNPO
 70
     0
 62
     2
  6
Continuous
370
    -3
390
F
347
21
  0
LAYER
  5
266
102
{ACAD_XDICTIONARY
360
267
102
}
330
2
100
AcDbSymbolTableRecord
100
AcDbLayerTableRecord
  2
HIKIDASI
 70
     0
 62
     7
  6
Continuous
370
     5
390
F
347
21
  0
LAYER
  5
268
102
{ACAD_XDICTIONARY
360
269
102
}
330
2
100
AcDbSymbolTableRecord
100
AcDbLayerTableRecord
  2
SUNPOU
 70
     0
 62
     7
  6
Continuous
370
     5
390
F
347
21
  0
LAYER
  5
26A
102
{ACAD_XDICTIONARY
360
26B
102
}
330
2
100
AcDbSymbolTableRecord
100
AcDbLayerTableRecord
  2
TEKUSU
 70
     0
 62
     7
  6
Continuous
370
    -3
390
F
347
21
  0
ENDTAB
  0
TABLE
  2
STYLE
  5
3
330
0
100
AcDbSymbolTable
 70
     4
  0
STYLE
  5
55
330
3
100
AcDbSymbolTableRecord
100
AcDbTextStyleTableRecord
  2
STANDARD
 70
     0
 40
0.0
 41
1.0
 50
0.0
 71
     0
 42
2.5
  3

  4

1001
ACAD
1000
MS Gothic
1071
    32817
  0
STYLE
  5
5A
330
3
100
AcDbSymbolTableRecord
100
AcDbTextStyleTableRecord
  2
Annotative
 70
     0
 40
0.0
 41
1.0
 50
0.0
 71
     0
 42
0.2
  3

  4

1001
AcadAnnotative
1000
AnnotativeData
1002
{
1070
     1
1070
     1
1002
}
1001
ACAD
1000
MS Gothic
1071
    32817
  0
STYLE
  5
7A
330
3
100
AcDbSymbolTableRecord
100
AcDbTextStyleTableRecord
  2
CAD-DL
 70
     0
 40
0.0
 41
1.0
 50
0.0
 71
     0
 42
5.0
  3

  4

1001
ACAD
1000
MS Gothic
1071
    32817
  0
STYLE
  5
7B
330
3
100
AcDbSymbolTableRecord
100
AcDbTextStyleTableRecord
  2
WAKU
 70
     0
 40
5.0
 41
1.0
 50
0.0
 71
     0
 42
5.0
  3

  4

1001
ACAD
1000
MS Gothic
1071
    32817
  0
ENDTAB
  0
TABLE
  2
VIEW
  5
6
330
0
100
AcDbSymbolTable
 70
     1
  0
ENDTAB
  0
TABLE
  2
UCS
  5
7
330
0
100
AcDbSymbolTable
 70
     0
  0
ENDTAB
  0
TABLE
  2
APPID
  5
9
330
0
100
AcDbSymbolTable
 70
    11
  0
APPID
  5
56
330
9
100
AcDbSymbolTableRecord
100
AcDbRegAppTableRecord
  2
ACAD
 70
     0
  0
APPID
  5
5E
330
9
100
AcDbSymbolTableRecord
100
AcDbRegAppTableRecord
  2
AcadAnnotative
 70
     0
  0
APPID
  5
78
330
9
100
AcDbSymbolTableRecord
100
AcDbRegAppTableRecord
  2
ACAD_PSEXT
 70
     0
  0
APPID
  5
1B4
330
9
100
AcDbSymbolTableRecord
100
AcDbRegAppTableRecord
  2
AcAecLayerStandard
 70
     0
  0
APPID
  5
1D0
330
9
100
AcDbSymbolTableRecord
100
AcDbRegAppTableRecord
  2
ACAD_EXEMPT_FROM_CAD_STANDARDS
 70
     0
  0
APPID
  5
1DD
330
9
100
AcDbSymbolTableRecord
100
AcDbRegAppTableRecord
  2
ACAD_NAV_VCDISPLAY
 70
     0
  0
APPID
  5
21F
330
9
100
AcDbSymbolTableRecord
100
AcDbRegAppTableRecord
  2
ACAD_MLEADERVER
 70
     0
  0
APPID
  5
26D
330
9
100
AcDbSymbolTableRecord
100
AcDbRegAppTableRecord
  2
ACAD_DSTYLE_DIMJAG
 70
     0
  0
APPID
  5
26E
330
9
100
AcDbSymbolTableRecord
100
AcDbRegAppTableRecord
  2
ACAD_DSTYLE_DIMTALN
 70
     0
  0
APPID
  5
987
330
9
100
AcDbSymbolTableRecord
100
AcDbRegAppTableRecord
  2
AcadAnnoPO
 70
     0
  0
APPID
  5
A36
330
9
100
AcDbSymbolTableRecord
100
AcDbRegAppTableRecord
  2
Acad_TC
 70
     0
  0
ENDTAB
  0
TABLE
  2
DIMSTYLE
  5
A
330
0
100
AcDbSymbolTable
 70
     5
100
AcDbDimStyleTable
 71
     1
340
8A
  0
DIMSTYLE
105
58
330
A
100
AcDbSymbolTableRecord
100
AcDbDimStyleTableRecord
  2
Standard
 70
     0
340
55
  0
DIMSTYLE
105
59
330
A
100
AcDbSymbolTableRecord
100
AcDbDimStyleTableRecord
  2
Annotative
 70
     0
340
55
1001
AcadAnnotative
1000
AnnotativeData
1002
{
1070
     1
1070
     1
1002
}
  0
DIMSTYLE
105
80
102
{ACAD_REACTORS
330
807
330
808
330
80D
330
80E
102
}
330
A
100
AcDbSymbolTableRecord
100
AcDbDimStyleTableRecord
  2
CAD-DL
 70
     0
 41
2.0
 42
2.0
 43
10.0
 44
2.0
 73
     0
 74
     0
 77
     3
 78
     8
140
5.0
141
0.0
143
0.0394
145
1.0
147
2.0
176
   256
178
   256
271
     0
272
     0
279
     1
284
     8
285
     8
286
     8
340
7A
341
82
342
85
371
    -1
  0
DIMSTYLE
105
8A
330
A
100
AcDbSymbolTableRecord
100
AcDbDimStyleTableRecord
  2
AM_ISO
 70
     0
  4
"
 41
2.5
 42
1.0
 43
10.0
 44
1.0
 47
0.1
 48
0.1
 73
     0
 74
     0
 77
     1
 78
     8
 79
     2
140
3.5
141
0.0
143
0.0393701
146
0.71
147
1.5
172
     1
176
   256
177
   256
178
     2
271
     2
272
     3
274
     4
283
     0
284
     8
340
55
371
    -1
372
    -1
  0
DIMSTYLE
105
26C
330
A
100
AcDbSymbolTableRecord
100
AcDbDimStyleTableRecord
  2
ISO-25
 70
     0
 41
2.5
 42
0.625
 43
3.75
 44
1.25
 73
     0
 74
     0
 77
     1
 78
     8
140
2.5
141
2.5
143
0.03937007874016
147
0.625
171
     3
172
     1
271
     2
272
     2
274
     3
278
    44
283
     0
284
     8
340
55
  0
ENDTAB
  0
TABLE
  2
BLOCK_RECORD
  5
1
330
0
100
AcDbSymbolTable
 70
    10
  0
BLOCK_RECORD
  5
70
102
{ACAD_XDICTIONARY
360
1B2
102
}
330
1
100
AcDbSymbolTableRecord
100
AcDbBlockTableRecord
  2
*Model_Space
340
73
 70
     0
280
     1
281
     0
  0
BLOCK_RECORD
  5
6C
330
1
100
AcDbSymbolTableRecord
100
AcDbBlockTableRecord
  2
*Paper_Space
340
6F
 70
     0
280
     1
281
     0
  0
BLOCK_RECORD
  5
74
330
1
100
AcDbSymbolTableRecord
100
AcDbBlockTableRecord
  2
*Paper_Space0
340
77
 70
     0
280
     1
281
     0
  0
BLOCK_RECORD
  5
82
330
1
100
AcDbSymbolTableRecord
100
AcDbBlockTableRecord
  2
_None
340
0
 70
     0
280
     1
281
     0
  0
BLOCK_RECORD
  5
85
330
1
100
AcDbSymbolTableRecord
100
AcDbBlockTableRecord
  2
_DOT
340
0
310
2800000020000000200000000100080000000000000400000000000000000000000000000000000000000000000080000080000000808000800000008000800080800000C0C0C000C0DCC000F0CAA6000020400000206000002080000020A0000020C0000020E00000400000004020000040400000406000004080000040A0
310
000040C0000040E00000600000006020000060400000606000006080000060A0000060C0000060E00000800000008020000080400000806000008080000080A0000080C0000080E00000A0000000A0200000A0400000A0600000A0800000A0A00000A0C00000A0E00000C0000000C0200000C0400000C0600000C0800000C0
310
A00000C0C00000C0E00000E0000000E0200000E0400000E0600000E0800000E0A00000E0C00000E0E00040000000400020004000400040006000400080004000A0004000C0004000E00040200000402020004020400040206000402080004020A0004020C0004020E000404000004040200040404000404060004040800040
310
40A0004040C0004040E00040600000406020004060400040606000406080004060A0004060C0004060E00040800000408020004080400040806000408080004080A0004080C0004080E00040A0000040A0200040A0400040A0600040A0800040A0A00040A0C00040A0E00040C0000040C0200040C0400040C0600040C08000
310
40C0A00040C0C00040C0E00040E0000040E0200040E0400040E0600040E0800040E0A00040E0C00040E0E00080000000800020008000400080006000800080008000A0008000C0008000E00080200000802020008020400080206000802080008020A0008020C0008020E00080400000804020008040400080406000804080
310
008040A0008040C0008040E00080600000806020008060400080606000806080008060A0008060C0008060E00080800000808020008080400080806000808080008080A0008080C0008080E00080A0000080A0200080A0400080A0600080A0800080A0A00080A0C00080A0E00080C0000080C0200080C0400080C0600080C0
310
800080C0A00080C0C00080C0E00080E0000080E0200080E0400080E0600080E0800080E0A00080E0C00080E0E000C0000000C0002000C0004000C0006000C0008000C000A000C000C000C000E000C0200000C0202000C0204000C0206000C0208000C020A000C020C000C020E000C0400000C0402000C0404000C0406000C0
310
408000C040A000C040C000C040E000C0600000C0602000C0604000C0606000C0608000C060A000C060C000C060E000C0800000C0802000C0804000C0806000C0808000C080A000C080C000C080E000C0A00000C0A02000C0A04000C0A06000C0A08000C0A0A000C0A0C000C0A0E000C0C00000C0C02000C0C04000C0C06000
310
C0C08000C0C0A000F0FBFF00A4A0A000808080000000FF0000FF000000FFFF00FF000000FF00FF00FFFF0000FFFFFF0000000000000000000000000000000000000000000000000000000000000000000000000000000000000000000000000000000000000000000000000000000000000000000000000000000000000000
310
000000000000000000000000000000000000000000000000000000000000000000000000000000000000000000000000000000000000000000000000000000000000000000000000000000000000000000000000000000000000000000000000000000FFFFFFFFFFFFFFFFFFFFFFFFFF000000000000000000000000000000
310
000000FF00FF000000000000000000FF00FF0000000000000000000000000000000000FF00FF000000000000000000FF00FF00000000000000000000000000000000FF000000FF00000000000000FF00000000000000000000000000000000000000FF000000FF00000000000000FF00000000000000000000000000000000
310
0000FF0000000000FF0000000000FF00000000000000000000000000000000000000FF0000000000FF0000000000FF000000000000000000000000000000000000FF00000000000000FF000000FF00000000000000000000000000000000000000FF00000000000000FF000000FF0000000000000000000000000000000000
310
00FF000000000000000000FF00FF00000000000000000000000000000000000000FF000000000000000000FFFFFF00000000FFFF00FFFFFFFFFFFFFFFFFFFFFFFFFFFFFFFFFFFFFFFFFFFFFFFFFFFFFFFFFF000000000000000000000000000000FF000000000000000000FF00FF0000000000000000000000000000000000
310
0000FF0000000000000000FF000000FF00000000000000000000000000000000000000FF00000000000000FF000000FF00000000000000000000000000000000000000FF000000000000FF0000000000FF00000000000000000000000000000000000000FF0000000000FF0000000000FF0000000000000000000000000000
310
000000000000FF000000FF00000000000000FF00000000000000000000000000000000000000FF000000FF00000000000000FF0000000000000000000000000000000000000000FF00FF000000000000000000FF00FF0000000000000000000000000000000000FF00FF000000000000000000FF00FF000000000000000000
310
000000000000000000FFFFFFFFFFFFFFFFFFFFFFFFFF000000000000000000000000000000000000000000000000000000000000000000000000000000000000000000000000000000000000000000000000000000000000000000000000000000000000000000000000000000000000000000000000000000000000000000
310
0000000000000000000000000000000000000000000000000000000000000000000000000000000000000000000000000000000000000000
102
{BLKREFS
331
8E2
331
8E3
331
8EB
331
8EC
331
8F4
331
8F5
331
8FD
331
8FE
102
}
 70
     0
280
     1
281
     0
  0
BLOCK_RECORD
  5
96
330
1
100
AcDbSymbolTableRecord
100
AcDbBlockTableRecord
  2
S φ4.2×45　シンワッシャー
340
0
310
2800000020000000200000000100080000000000000400000000000000000000000000000000000000000000000080000080000000808000800000008000800080800000C0C0C000C0DCC000F0CAA6000020400000206000002080000020A0000020C0000020E00000400000004020000040400000406000004080000040A0
310
000040C0000040E00000600000006020000060400000606000006080000060A0000060C0000060E00000800000008020000080400000806000008080000080A0000080C0000080E00000A0000000A0200000A0400000A0600000A0800000A0A00000A0C00000A0E00000C0000000C0200000C0400000C0600000C0800000C0
310
A00000C0C00000C0E00000E0000000E0200000E0400000E0600000E0800000E0A00000E0C00000E0E00040000000400020004000400040006000400080004000A0004000C0004000E00040200000402020004020400040206000402080004020A0004020C0004020E000404000004040200040404000404060004040800040
310
40A0004040C0004040E00040600000406020004060400040606000406080004060A0004060C0004060E00040800000408020004080400040806000408080004080A0004080C0004080E00040A0000040A0200040A0400040A0600040A0800040A0A00040A0C00040A0E00040C0000040C0200040C0400040C0600040C08000
310
40C0A00040C0C00040C0E00040E0000040E0200040E0400040E0600040E0800040E0A00040E0C00040E0E00080000000800020008000400080006000800080008000A0008000C0008000E00080200000802020008020400080206000802080008020A0008020C0008020E00080400000804020008040400080406000804080
310
008040A0008040C0008040E00080600000806020008060400080606000806080008060A0008060C0008060E00080800000808020008080400080806000808080008080A0008080C0008080E00080A0000080A0200080A0400080A0600080A0800080A0A00080A0C00080A0E00080C0000080C0200080C0400080C0600080C0
310
800080C0A00080C0C00080C0E00080E0000080E0200080E0400080E0600080E0800080E0A00080E0C00080E0E000C0000000C0002000C0004000C0006000C0008000C000A000C000C000C000E000C0200000C0202000C0204000C0206000C0208000C020A000C020C000C020E000C0400000C0402000C0404000C0406000C0
310
408000C040A000C040C000C040E000C0600000C0602000C0604000C0606000C0608000C060A000C060C000C060E000C0800000C0802000C0804000C0806000C0808000C080A000C080C000C080E000C0A00000C0A02000C0A04000C0A06000C0A08000C0A0A000C0A0C000C0A0E000C0C00000C0C02000C0C04000C0C06000
310
C0C08000C0C0A000F0FBFF00A4A0A000808080000000FF0000FF000000FFFF00FF000000FF00FF00FFFF0000FFFFFF0000000000000000000000000000000000000000000000000000000000000000000000000000000000000000000000000000000000000000000000000000000000000000000000000000000000000000
310
00000000000000000000000000000000000000000000000000000000000000000000000000000000000000000000000000000000000000000000000000000000000000000000000000000000000000000000000000000000000000000000000000000000000000000000000000000000000000000000000000000000000000
310
00000000000000000000000000000000000000000000000000000000000000000000000000000000000000000000000000000000000000000000000000000000000000000000000000000000000000000000000000000000000000000000000000000000000000000000000000000000000000000000000000000000000000
310
0000000000000000000000000000000000000000000000000000000000000000000000000000000000000000000000000000000000000000000000000000000000000000000000000000000000000000000000000000000000000000000000000000000000000000000000000000FD0000000000000000FDFDFDFDFDFDFDFD
310
FDFDFDFDFDFDFDFDFDFDFDFDFDFDFDFD0000000000FDFDFDFDFDFDFDFDFDFDFDFDFDFDFD0000000000000000000000FD0000000000000000FD00FD000000000000000000FDFDFDFDFDFDFDFDFDFDFDFDFDFDFD0000000000FDFDFDFDFDFDFDFDFDFDFDFDFDFDFDFDFDFDFDFDFDFDFDFD000000000000000000000000000000
310
00000000000000000000000000000000FD0000000000000000000000000000000000000000000000000000000000000000000000000000000000000000000000000000000000000000000000000000000000000000000000000000000000000000000000000000000000000000000000000000000000000000000000000000
310
00000000000000000000000000000000000000000000000000000000000000000000000000000000000000000000000000000000000000000000000000000000000000000000000000000000000000000000000000000000000000000000000000000000000000000000000000000000000000000000000000000000000000
310
00000000000000000000000000000000000000000000000000000000000000000000000000000000000000000000000000000000000000000000000000000000000000000000000000000000000000000000000000000000000000000000000000000000000000000000000000000000000000000000000000000000000000
310
0000000000000000000000000000000000000000000000000000000000000000000000000000000000000000000000000000000000000000
 70
     4
280
     1
281
     0
  0
BLOCK_RECORD
  5
D9
330
1
100
AcDbSymbolTableRecord
100
AcDbBlockTableRecord
  2
S　φ4.2×25
340
0
310
2800000020000000200000000100080000000000000400000000000000000000000000000000000000000000000080000080000000808000800000008000800080800000C0C0C000C0DCC000F0CAA6000020400000206000002080000020A0000020C0000020E00000400000004020000040400000406000004080000040A0
310
000040C0000040E00000600000006020000060400000606000006080000060A0000060C0000060E00000800000008020000080400000806000008080000080A0000080C0000080E00000A0000000A0200000A0400000A0600000A0800000A0A00000A0C00000A0E00000C0000000C0200000C0400000C0600000C0800000C0
310
A00000C0C00000C0E00000E0000000E0200000E0400000E0600000E0800000E0A00000E0C00000E0E00040000000400020004000400040006000400080004000A0004000C0004000E00040200000402020004020400040206000402080004020A0004020C0004020E000404000004040200040404000404060004040800040
310
40A0004040C0004040E00040600000406020004060400040606000406080004060A0004060C0004060E00040800000408020004080400040806000408080004080A0004080C0004080E00040A0000040A0200040A0400040A0600040A0800040A0A00040A0C00040A0E00040C0000040C0200040C0400040C0600040C08000
310
40C0A00040C0C00040C0E00040E0000040E0200040E0400040E0600040E0800040E0A00040E0C00040E0E00080000000800020008000400080006000800080008000A0008000C0008000E00080200000802020008020400080206000802080008020A0008020C0008020E00080400000804020008040400080406000804080
310
008040A0008040C0008040E00080600000806020008060400080606000806080008060A0008060C0008060E00080800000808020008080400080806000808080008080A0008080C0008080E00080A0000080A0200080A0400080A0600080A0800080A0A00080A0C00080A0E00080C0000080C0200080C0400080C0600080C0
310
800080C0A00080C0C00080C0E00080E0000080E0200080E0400080E0600080E0800080E0A00080E0C00080E0E000C0000000C0002000C0004000C0006000C0008000C000A000C000C000C000E000C0200000C0202000C0204000C0206000C0208000C020A000C020C000C020E000C0400000C0402000C0404000C0406000C0
310
408000C040A000C040C000C040E000C0600000C0602000C0604000C0606000C0608000C060A000C060C000C060E000C0800000C0802000C0804000C0806000C0808000C080A000C080C000C080E000C0A00000C0A02000C0A04000C0A06000C0A08000C0A0A000C0A0C000C0A0E000C0C00000C0C02000C0C04000C0C06000
310
C0C08000C0C0A000F0FBFF00A4A0A000808080000000FF0000FF000000FFFF00FF000000FF00FF00FFFF0000FFFFFF0000000000000000000000000000000000000000000000000000000000000000000000000000000000000000000000000000000000000000000000000000000000000000000000000000000000000000
310
00000000000000000000000000000000000000000000000000000000000000000000000000000000000000000000000000000000000000000000000000000000000000000000000000000000000000000000000000000000000000000000000000000000000000000000000000000000000000000000000000000000000000
310
00000000000000000000000000000000000000000000000000000000000000000000000000000000000000000000000000000000000000000000000000000000000000000000000000000000000000000000000000000000000000000000000000000000000000000000000000000000000000000000000000000000000000
310
00000000000000000000000000000000000000000000000000000000000000000000000000000000000000000000000000000000000000000000000000000000000000000000000000000000FDFD000000000000000000000000000000000000000000000000000000000000FDFD00000000000000000000FDFDFDFDFDFDFD
310
FDFDFDFDFDFDFDFDFDFDFDFDFDFDFD000000000000FDFDFDFDFDFDFDFDFDFDFDFDFDFDFD000000000000000000FDFD00000000000000000000FDFD00FD00000000000000FDFDFDFDFDFDFDFDFDFDFDFDFDFDFD000000000000FDFDFDFDFDFDFDFDFDFDFDFDFDFDFDFDFDFDFDFDFDFD00000000000000000000000000000000
310
0000000000000000000000000000FDFD000000000000000000000000000000000000000000000000000000000000FDFD00000000000000000000000000000000000000000000000000000000000000000000000000000000000000000000000000000000000000000000000000000000000000000000000000000000000000
310
00000000000000000000000000000000000000000000000000000000000000000000000000000000000000000000000000000000000000000000000000000000000000000000000000000000000000000000000000000000000000000000000000000000000000000000000000000000000000000000000000000000000000
310
00000000000000000000000000000000000000000000000000000000000000000000000000000000000000000000000000000000000000000000000000000000000000000000000000000000000000000000000000000000000000000000000000000000000000000000000000000000000000000000000000000000000000
310
0000000000000000000000000000000000000000000000000000000000000000000000000000000000000000000000000000000000000000
 70
     4
280
     1
281
     0
  0
BLOCK_RECORD
  5
828
330
1
100
AcDbSymbolTableRecord
100
AcDbBlockTableRecord
  2
*D5
340
0
 70
     0
280
     1
281
     0
  0
BLOCK_RECORD
  5
834
330
1
100
AcDbSymbolTableRecord
100
AcDbBlockTableRecord
  2
*D6
340
0
 70
     0
280
     1
281
     0
  0
BLOCK_RECORD
  5
840
330
1
100
AcDbSymbolTableRecord
100
AcDbBlockTableRecord
  2
*D7
340
0
 70
     0
280
     1
281
     0
  0
BLOCK_RECORD
  5
84C
330
1
100
AcDbSymbolTableRecord
100
AcDbBlockTableRecord
  2
*D8
340
0
 70
     0
280
     1
281
     0
  0
ENDTAB
  0
ENDSEC
  0
SECTION
  2
BLOCKS
  0
BLOCK
  5
71
330
70
100
AcDbEntity
  8
0
100
AcDbBlockBegin
  2
*Model_Space
 70
     0
 10
0.0
 20
0.0
 30
0.0
  3
*Model_Space
  1

  0
ENDBLK
  5
72
330
70
100
AcDbEntity
  8
0
100
AcDbBlockEnd
  0
BLOCK
  5
6D
330
6C
100
AcDbEntity
 67
     1
  8
0
100
AcDbBlockBegin
  2
*Paper_Space
 70
     0
 10
0.0
 20
0.0
 30
0.0
  3
*Paper_Space
  1

  0
ENDBLK
  5
6E
330
6C
100
AcDbEntity
 67
     1
  8
0
100
AcDbBlockEnd
  0
BLOCK
  5
75
330
74
100
AcDbEntity
 67
     1
  8
0
100
AcDbBlockBegin
  2
*Paper_Space0
 70
     0
 10
0.0
 20
0.0
 30
0.0
  3
*Paper_Space0
  1

  0
ENDBLK
  5
76
330
74
100
AcDbEntity
 67
     1
  8
0
100
AcDbBlockEnd
  0
BLOCK
  5
83
330
82
100
AcDbEntity
  8
0
100
AcDbBlockBegin
  2
_None
 70
     0
 10
0.0
 20
0.0
 30
0.0
  3
_None
  1

  0
ENDBLK
  5
84
330
82
100
AcDbEntity
  8
0
100
AcDbBlockEnd
  0
BLOCK
  5
86
330
85
100
AcDbEntity
  8
0
100
AcDbBlockBegin
  2
_DOT
 70
     0
 10
0.0
 20
0.0
 30
0.0
  3
_DOT
  1

  0
LWPOLYLINE
  5
87
330
85
100
AcDbEntity
  8
0
  6
ByBlock
 62
     0
100
AcDbPolyline
 90
        2
 70
     1
 43
0.5
 10
-0.25
 20
0.0
 42
1.0
 10
0.25
 20
0.0
 42
1.0
  0
LINE
  5
88
330
85
100
AcDbEntity
  8
0
  6
ByBlock
 62
     0
100
AcDbLine
 10
-0.5
 20
0.0
 30
0.0
 11
-1.0
 21
0.0
 31
0.0
  0
ENDBLK
  5
89
330
85
100
AcDbEntity
  8
0
100
AcDbBlockEnd
  0
BLOCK
  5
97
330
96
100
AcDbEntity
  8
0
100
AcDbBlockBegin
  2
S φ4.2×45　シンワッシャー
 70
     0
 10
0.0
 20
0.0
 30
0.0
  3
S φ4.2×45　シンワッシャー
  1

  0
ARC
  5
98
330
96
100
AcDbEntity
  8
BISUKUGI
100
AcDbCircle
 10
-5.089033838700514
 20
0.0000000000002274
 30
0.0
 40
7.597415320579115
100
AcDbArc
 50
320.8174087950902
 51
39.18259120489159
  0
LINE
  5
99
330
96
100
AcDbEntity
  8
BISUKUGI
100
AcDbLine
 10
0.0
 20
-5.300000000001318
 30
0.0
 11
0.0
 21
5.300000000001318
 31
0.0
  0
LINE
  5
9A
330
96
100
AcDbEntity
  8
BISUKUGI
100
AcDbLine
 10
0.7999999999997272
 20
5.300000000001205
 30
0.0
 11
0.7999999999997272
 21
-5.300000000001205
 31
0.0
  0
ARC
  5
9B
330
96
100
AcDbEntity
  8
BISUKUGI
100
AcDbCircle
 10
0.3999999999998636
 20
4.999999999998066
 30
0.0
 40
0.5000000000018418
100
AcDbArc
 50
36.86989764613193
 51
143.1301023538485
  0
ARC
  5
9C
330
96
100
AcDbEntity
  8
BISUKUGI
100
AcDbCircle
 10
0.3999999999998636
 20
-4.999999999998066
 30
0.0
 40
0.5000000000018418
100
AcDbArc
 50
216.8698976461515
 51
323.130102353868
  0
ARC
  5
9D
330
96
100
AcDbEntity
  8
BISUKUGI
100
AcDbCircle
 10
-43.43521733585952
 20
-4.984487724017867
 30
0.0
 40
5.0
100
AcDbArc
 50
38.08992903059093
 51
85.48557195627548
  0
ARC
  5
9E
330
96
100
AcDbEntity
  8
BISUKUGI
100
AcDbCircle
 10
-44.97643152934085
 20
0.5066408255997886
 30
0.0
 40
2.0
100
AcDbArc
 50
345.3259155108912
 51
44.161210162238
  0
LINE
  5
9F
330
96
100
AcDbEntity
  8
BISUKUGI
100
AcDbLine
 10
-39.5
 20
-2.100000000005366
 30
0.0
 11
-39.5
 21
2.099999999993996
 31
0.0
  0
LINE
  5
A0
330
96
100
AcDbEntity
  8
BISUKUGI
100
AcDbLine
 10
-45.0
 20
-0.0000000000113687
 30
0.0
 11
-43.54166666667322
 21
1.899999999988721
 31
0.0
  0
LINE
  5
A1
330
96
100
AcDbEntity
  8
BISUKUGI
100
AcDbLine
 10
-45.0
 20
-0.0000000000113687
 30
0.0
 11
-43.49190363349658
 21
-1.900000000011004
 31
0.0
  0
LINE
  5
A2
330
96
100
AcDbEntity
  8
BISUKUGI
100
AcDbLine
 10
0.0
 20
2.099999999994223
 30
0.0
 11
-39.50000000000012
 21
2.099999999994423
 31
0.0
  0
LINE
  5
A3
330
96
100
AcDbEntity
  8
BISUKUGI
100
AcDbLine
 10
0.0
 20
-2.100000000005592
 30
0.0
 11
-39.50000000000012
 21
-2.099999999997776
 31
0.0
  0
LINE
  5
A4
330
96
100
AcDbEntity
  8
BISUKUGI
  6
CENTERX2
100
AcDbLine
 10
-47.99999999999568
 20
-0.0000000000056843
 30
0.0
 11
5.499437301599299
 21
0.0
 31
0.0
  0
LINE
  5
A5
330
96
100
AcDbEntity
  8
BISUKUGI
100
AcDbLine
 10
-39.49999999999988
 20
1.899999999988721
 30
0.0
 11
-43.54166666667322
 21
1.899999999988721
 31
0.0
  0
LINE
  5
A6
330
96
100
AcDbEntity
  8
BISUKUGI
100
AcDbLine
 10
-39.5
 20
-1.900000000010776
 30
0.0
 11
-43.49190363349658
 21
-1.900000000011004
 31
0.0
  0
ENDBLK
  5
A7
330
96
100
AcDbEntity
  8
0
100
AcDbBlockEnd
  0
BLOCK
  5
DA
330
D9
100
AcDbEntity
  8
0
100
AcDbBlockBegin
  2
S　φ4.2×25
 70
     0
 10
0.0
 20
0.0
 30
0.0
  3
S　φ4.2×25
  1

  0
ARC
  5
DB
330
D9
100
AcDbEntity
  8
BISUKUGI
100
AcDbCircle
 10
0.8792705549419679
 20
-2.103647225290159
 30
0.0
 40
2.0
100
AcDbArc
 50
243.919387275907
 51
273.460747776051
  0
ARC
  5
DC
330
D9
100
AcDbEntity
  8
BISUKUGI
100
AcDbCircle
 10
-24.97643152934086
 20
0.5066408256054729
 30
0.0
 40
2.0
100
AcDbArc
 50
345.3259155108848
 51
44.161210162238
  0
LINE
  5
DD
330
D9
100
AcDbEntity
  8
BISUKUGI
100
AcDbLine
 10
-20.50000000000057
 20
-2.100000000003546
 30
0.0
 11
-20.50000000000057
 21
2.099999999995815
 31
0.0
  0
LINE
  5
DE
330
D9
100
AcDbEntity
  8
BISUKUGI
100
AcDbLine
 10
-25.0
 20
-0.0000000000056843
 30
0.0
 11
-23.54166666667321
 21
1.899999999994406
 31
0.0
  0
LINE
  5
DF
330
D9
100
AcDbEntity
  8
BISUKUGI
100
AcDbLine
 10
-25.0
 20
-0.0000000000056843
 30
0.0
 11
-23.49190363349658
 21
-1.90000000000532
 31
0.0
  0
LINE
  5
E0
330
D9
100
AcDbEntity
  8
BISUKUGI
100
AcDbLine
 10
0.0
 20
2.099999999994223
 30
0.0
 11
-20.50000000000046
 21
2.099999999994223
 31
0.0
  0
LINE
  5
E1
330
D9
100
AcDbEntity
  8
BISUKUGI
100
AcDbLine
 10
0.0
 20
-2.100000000005592
 30
0.0
 11
-20.50000000000046
 21
-2.100000000005138
 31
0.0
  0
LINE
  5
E2
330
D9
100
AcDbEntity
  8
BISUKUGI
100
AcDbLine
 10
0.0
 20
3.900000000001114
 30
0.0
 11
-0.0000000000002274
 21
-3.900000000001114
 31
0.0
  0
LINE
  5
E3
330
D9
100
AcDbEntity
  8
BISUKUGI
  6
CENTERX2
100
AcDbLine
 10
-28.00000000000057
 20
-0.0000000000050022
 30
0.0
 11
5.899999999999861
 21
0.0000000000010232
 31
0.0
  0
LINE
  5
E4
330
D9
100
AcDbEntity
  8
BISUKUGI
100
AcDbLine
 10
-20.50000000000057
 20
1.899999999994406
 30
0.0
 11
-23.54166666667321
 21
1.899999999994406
 31
0.0
  0
LINE
  5
E5
330
D9
100
AcDbEntity
  8
BISUKUGI
100
AcDbLine
 10
-20.50000000000046
 20
-1.900000000005206
 30
0.0
 11
-23.49190363349658
 21
-1.90000000000532
 31
0.0
  0
ARC
  5
E6
330
D9
100
AcDbEntity
  8
BISUKUGI
100
AcDbCircle
 10
-24.60979482408436
 20
-4.747733573205778
 30
0.0
 40
5.0
100
AcDbArc
 50
34.71862283375607
 51
71.72213565281452
  0
LINE
  5
E7
330
D9
100
AcDbEntity
  8
BISUKUGI
100
AcDbLine
 10
1.0
 20
4.100000000001158
 30
0.0
 11
1.0
 21
-4.099999999998884
 31
0.0
  0
ARC
  5
E8
330
D9
100
AcDbEntity
  8
BISUKUGI
100
AcDbCircle
 10
-2.473684210526243
 20
0.0000000000010232
 30
0.0
 40
5.373684210526199
100
AcDbArc
 50
310.2726068564893
 51
49.72739314351061
  0
ARC
  5
E9
330
D9
100
AcDbEntity
  8
BISUKUGI
100
AcDbCircle
 10
0.8792705549419679
 20
2.103647225290159
 30
0.0
 40
2.0
100
AcDbArc
 50
86.53925222394901
 51
116.080612724093
  0
ENDBLK
  5
EA
330
D9
100
AcDbEntity
  8
0
100
AcDbBlockEnd
  0
BLOCK
  5
829
330
828
100
AcDbEntity
  8
0
 48
0.2
100
AcDbBlockBegin
  2
*D5
 70
     1
 10
0.0
 20
0.0
 30
0.0
  3
*D5
  1

  0
LINE
  5
8DF
330
828
100
AcDbEntity
  8
SUNPO
 62
     0
440
 16777216
 48
0.1
370
    -2
100
AcDbLine
 10
611.824728482768
 20
367.7242203265373
 30
0.0
 11
626.7770052977692
 21
367.7242203265373
 31
0.0
  0
LINE
  5
8E0
330
828
100
AcDbEntity
  8
SUNPO
 62
     0
440
 16777216
 48
0.1
370
    -2
100
AcDbLine
 10
611.824728482768
 20
352.7249242029228
 30
0.0
 11
626.7770052977692
 21
352.7249242029228
 31
0.0
  0
LINE
  5
8E1
330
828
100
AcDbEntity
  8
SUNPO
 62
     0
440
 16777216
 48
0.1
100
AcDbLine
 10
626.7770052977692
 20
366.7242203265372
 30
0.0
 11
626.7770052977692
 21
353.7249242029229
 31
0.0
  0
INSERT
  5
8E2
330
828
100
AcDbEntity
  8
SUNPO
 62
     0
440
 16777216
 48
0.1
100
AcDbBlockReference
  2
_DOT
 10
626.7770052977692
 20
367.7242203265373
 30
0.0
 50
90.0
  0
INSERT
  5
8E3
330
828
100
AcDbEntity
  8
SUNPO
 62
     0
440
 16777216
 48
0.1
100
AcDbBlockReference
  2
_DOT
 10
626.7770052977692
 20
352.7249242029228
 30
0.0
 50
270.0
  0
MTEXT
  5
8E4
330
828
100
AcDbEntity
  8
SUNPO
440
 16777216
 48
0.1
100
AcDbMText
 10
622.2770052977692
 20
360.2245722647298
 30
0.0
 40
5.0
 41
0.0
 46
0.0
 71
     5
 72
     1
  1
\A1;15
  7
CAD-DL
 11
0.0000000000000001
 21
1.0
 31
0.0
 73
     1
 44
1.0
  0
POINT
  5
8E5
330
828
100
AcDbEntity
  8
Defpoints
 62
     0
440
 16777216
 48
0.1
100
AcDbPoint
 10
606.824728482768
 20
367.7242203265373
 30
0.0
  0
POINT
  5
8E6
330
828
100
AcDbEntity
  8
Defpoints
 62
     0
440
 16777216
 48
0.1
100
AcDbPoint
 10
606.824728482768
 20
352.7249242029228
 30
0.0
  0
POINT
  5
8E7
330
828
100
AcDbEntity
  8
Defpoints
 62
     0
440
 16777216
 48
0.1
100
AcDbPoint
 10
626.7770052977692
 20
352.7249242029228
 30
0.0
  0
ENDBLK
  5
82A
330
828
100
AcDbEntity
  8
0
 48
0.2
100
AcDbBlockEnd
  0
BLOCK
  5
835
330
834
100
AcDbEntity
  8
0
 48
0.2
100
AcDbBlockBegin
  2
*D6
 70
     1
 10
0.0
 20
0.0
 30
0.0
  3
*D6
  1

  0
LINE
  5
8E8
330
834
100
AcDbEntity
  8
SUNPO
 62
     0
440
 16777216
 48
0.1
370
    -2
100
AcDbLine
 10
611.824728656934
 20
349.7242199358833
 30
0.0
 11
626.777005297769
 21
349.7242199358833
 31
0.0
  0
LINE
  5
8E9
330
834
100
AcDbEntity
  8
SUNPO
 62
     0
440
 16777216
 48
0.1
370
    -2
100
AcDbLine
 10
611.824728656934
 20
249.7242199358833
 30
0.0
 11
626.7770052977692
 21
249.7242199358833
 31
0.0
  0
LINE
  5
8EA
330
834
100
AcDbEntity
  8
SUNPO
 62
     0
440
 16777216
 48
0.1
100
AcDbLine
 10
626.777005297769
 20
348.7242199358834
 30
0.0
 11
626.7770052977692
 21
250.7242199358834
 31
0.0
  0
INSERT
  5
8EB
330
834
100
AcDbEntity
  8
SUNPO
 62
     0
440
 16777216
 48
0.1
100
AcDbBlockReference
  2
_DOT
 10
626.777005297769
 20
349.7242199358833
 30
0.0
 50
90.0
  0
INSERT
  5
8EC
330
834
100
AcDbEntity
  8
SUNPO
 62
     0
440
 16777216
 48
0.1
100
AcDbBlockReference
  2
_DOT
 10
626.7770052977692
 20
249.7242199358833
 30
0.0
 50
270.0
  0
MTEXT
  5
8ED
330
834
100
AcDbEntity
  8
SUNPO
440
 16777216
 48
0.1
100
AcDbMText
 10
622.277005297769
 20
299.7242199358831
 30
0.0
 40
5.0
 41
0.0
 46
0.0
 71
     5
 72
     1
  1
\A1;100
  7
CAD-DL
 11
0.0000000000000001
 21
1.0
 31
0.0
 73
     1
 44
1.0
  0
POINT
  5
8EE
330
834
100
AcDbEntity
  8
Defpoints
 62
     0
440
 16777216
 48
0.1
100
AcDbPoint
 10
606.824728656934
 20
349.7242199358833
 30
0.0
  0
POINT
  5
8EF
330
834
100
AcDbEntity
  8
Defpoints
 62
     0
440
 16777216
 48
0.1
100
AcDbPoint
 10
606.824728656934
 20
249.7242199358833
 30
0.0
  0
POINT
  5
8F0
330
834
100
AcDbEntity
  8
Defpoints
 62
     0
440
 16777216
 48
0.1
100
AcDbPoint
 10
626.7770052977692
 20
249.7242199358833
 30
0.0
  0
ENDBLK
  5
836
330
834
100
AcDbEntity
  8
0
 48
0.2
100
AcDbBlockEnd
  0
BLOCK
  5
841
330
840
100
AcDbEntity
  8
0
 48
0.2
100
AcDbBlockBegin
  2
*D7
 70
     1
 10
0.0
 20
0.0
 30
0.0
  3
*D7
  1

  0
LINE
  5
8F1
330
840
100
AcDbEntity
  8
SUNPO
 62
     0
440
 16777216
 48
0.1
370
    -2
100
AcDbLine
 10
363.8247288027171
 20
372.7242203265376
 30
0.0
 11
363.8247288027171
 21
405.1890993762151
 31
0.0
  0
LINE
  5
8F2
330
840
100
AcDbEntity
  8
SUNPO
 62
     0
440
 16777216
 48
0.1
370
    -2
100
AcDbLine
 10
411.8247286698349
 20
372.7242203265375
 30
0.0
 11
411.8247286698349
 21
405.1890993762151
 31
0.0
  0
LINE
  5
8F3
330
840
100
AcDbEntity
  8
SUNPO
 62
     0
440
 16777216
 48
0.1
100
AcDbLine
 10
364.8247288027171
 20
405.1890993762151
 30
0.0
 11
410.8247286698349
 21
405.1890993762151
 31
0.0
  0
INSERT
  5
8F4
330
840
100
AcDbEntity
  8
SUNPO
 62
     0
440
 16777216
 48
0.1
100
AcDbBlockReference
  2
_DOT
 10
363.8247288027171
 20
405.1890993762151
 30
0.0
 50
180.0
  0
INSERT
  5
8F5
330
840
100
AcDbEntity
  8
SUNPO
 62
     0
440
 16777216
 48
0.1
100
AcDbBlockReference
  2
_DOT
 10
411.8247286698349
 20
405.1890993762151
 30
0.0
  0
MTEXT
  5
8F6
330
840
100
AcDbEntity
  8
SUNPO
440
 16777216
 48
0.1
100
AcDbMText
 10
387.824728736276
 20
409.6890993762151
 30
0.0
 40
5.0
 41
0.0
 46
0.0
 71
     5
 72
     1
  1
\A1;45
  7
CAD-DL
 73
     1
 44
1.0
  0
POINT
  5
8F7
330
840
100
AcDbEntity
  8
Defpoints
 62
     0
440
 16777216
 48
0.1
100
AcDbPoint
 10
363.8247288027171
 20
367.7242203265376
 30
0.0
  0
POINT
  5
8F8
330
840
100
AcDbEntity
  8
Defpoints
 62
     0
440
 16777216
 48
0.1
100
AcDbPoint
 10
411.8247286698349
 20
367.7242203265375
 30
0.0
  0
POINT
  5
8F9
330
840
100
AcDbEntity
  8
Defpoints
 62
     0
440
 16777216
 48
0.1
100
AcDbPoint
 10
411.8247286698349
 20
405.1890993762151
 30
0.0
  0
ENDBLK
  5
842
330
840
100
AcDbEntity
  8
0
 48
0.2
100
AcDbBlockEnd
  0
BLOCK
  5
84D
330
84C
100
AcDbEntity
  8
0
 48
0.2
100
AcDbBlockBegin
  2
*D8
 70
     1
 10
0.0
 20
0.0
 30
0.0
  3
*D8
  1

  0
LINE
  5
8FA
330
84C
100
AcDbEntity
  8
SUNPO
 62
     0
440
 16777216
 48
0.1
370
    -2
100
AcDbLine
 10
338.8247288220686
 20
367.7242342335903
 30
0.0
 11
313.8247288220752
 21
367.7242342335903
 31
0.0
  0
LINE
  5
8FB
330
84C
100
AcDbEntity
  8
SUNPO
 62
     0
440
 16777216
 48
0.1
370
    -2
100
AcDbLine
 10
338.8247288220686
 20
299.724220000389
 30
0.0
 11
313.8247288220752
 21
299.724220000389
 31
0.0
  0
LINE
  5
8FC
330
84C
100
AcDbEntity
  8
SUNPO
 62
     0
440
 16777216
 48
0.1
100
AcDbLine
 10
313.8247288220752
 20
366.7242342335903
 30
0.0
 11
313.8247288220752
 21
300.724220000389
 31
0.0
  0
INSERT
  5
8FD
330
84C
100
AcDbEntity
  8
SUNPO
 62
     0
440
 16777216
 48
0.1
100
AcDbBlockReference
  2
_DOT
 10
313.8247288220752
 20
367.7242342335903
 30
0.0
 50
90.0
  0
INSERT
  5
8FE
330
84C
100
AcDbEntity
  8
SUNPO
 62
     0
440
 16777216
 48
0.1
100
AcDbBlockReference
  2
_DOT
 10
313.8247288220752
 20
299.724220000389
 30
0.0
 50
270.0
  0
MTEXT
  5
8FF
330
84C
100
AcDbEntity
  8
SUNPO
440
 16777216
 48
0.1
100
AcDbMText
 10
309.3247288220752
 20
333.7242271169895
 30
0.0
 40
5.0
 41
0.0
 46
0.0
 71
     5
 72
     1
  1
\A1;65
  7
CAD-DL
 11
0.0000000000000001
 21
1.0
 31
0.0
 73
     1
 44
1.0
  0
POINT
  5
900
330
84C
100
AcDbEntity
  8
Defpoints
 62
     0
440
 16777216
 48
0.1
100
AcDbPoint
 10
343.8247288220686
 20
367.7242342335903
 30
0.0000000000073421
  0
POINT
  5
901
330
84C
100
AcDbEntity
  8
Defpoints
 62
     0
440
 16777216
 48
0.1
100
AcDbPoint
 10
343.8247288220686
 20
299.724220000389
 30
0.0000000000073421
  0
POINT
  5
902
330
84C
100
AcDbEntity
  8
Defpoints
 62
     0
440
 16777216
 48
0.1
100
AcDbPoint
 10
313.8247288220752
 20
299.724220000389
 30
0.0
  0
ENDBLK
  5
84E
330
84C
100
AcDbEntity
  8
0
 48
0.2
100
AcDbBlockEnd
  0
ENDSEC
  0
SECTION
  2
ENTITIES
  0
MTEXT
  5
8D
330
70
100
AcDbEntity
  8
WAKU
 48
0.4999999993549407
100
AcDbMText
 10
374.9999995162061
 20
15.99999997935822
 30
0.0
 40
4.999999993549406
 41
200.2574173176324
 46
0.0
 71
     5
 72
     5
  1
出隅02（出隅15）
  7
WAKU
 73
     1
 44
1.0
  0
MTEXT
  5
91
330
70
100
AcDbEntity
  8
WAKU
 48
0.4999999993549407
100
AcDbMText
 10
584.9999992452812
 20
20.99999997290763
 30
0.0
 40
4.999999993549406
 41
40.37504605146475
 46
0.0
 71
     5
 72
     5
  1
st003-02-02
  7
WAKU
 73
     1
 44
1.0
  0
MTEXT
  5
190
330
70
100
AcDbEntity
  8
WAKU
 48
0.4999999993549407
100
AcDbMText
 10
374.9999995162061
 20
25.99999996645704
 30
0.0
 40
4.999999993549406
 41
200.2574173176324
 46
0.0
 71
     5
 72
     5
  1
銘壁　新築
  7
WAKU
 73
     1
 44
1.0
  0
LINE
  5
191
330
70
100
AcDbEntity
  8
WAKU
 48
0.4999999993549407
100
AcDbLine
 10
14.99999998064822
 20
30.99999996000645
 30
0.0
 11
794.9999989743555
 21
30.99999996000645
 31
0.0
  0
LINE
  5
192
330
70
100
AcDbEntity
  8
WAKU
 48
0.4999999993549407
100
AcDbLine
 10
14.99999998064822
 20
10.99999998580881
 30
0.0
 11
794.9999989743555
 21
10.99999998580881
 31
0.0
  0
LINE
  5
193
330
70
100
AcDbEntity
  8
WAKU
 48
0.4999999993549407
100
AcDbLine
 10
14.99999998064822
 20
560.9999992762435
 30
0.0
 11
14.99999998064822
 21
10.99999998580881
 31
0.0
  0
LINE
  5
194
330
70
100
AcDbEntity
  8
WAKU
 48
0.4999999993549407
100
AcDbLine
 10
794.9999989743555
 20
560.9999992762435
 30
0.0
 11
14.99999998064822
 21
560.9999992762435
 31
0.0
  0
LINE
  5
195
330
70
100
AcDbEntity
  8
WAKU
 48
0.4999999993549407
100
AcDbLine
 10
794.9999989743555
 20
10.99999998580881
 30
0.0
 11
794.9999989743555
 21
560.9999992762435
 31
0.0
  0
MTEXT
  5
196
330
70
100
AcDbEntity
  8
WAKU
 48
0.4999999993549407
100
AcDbMText
 10
189.9999997548775
 20
20.99999997290763
 30
0.0
 40
4.999999993549406
 41
128.4454165366397
 46
0.0
 71
     5
 72
     5
  1
アイジーサイディング参考ディテール
  7
WAKU
 73
     1
 44
1.0
  0
LINE
  5
197
330
70
100
AcDbEntity
  8
WAKU
 48
0.4999999993549407
100
AcDbLine
 10
112.9999998542166
 20
28.99999996258669
 30
0.0
 11
112.9999998542166
 21
12.99999998322858
 31
0.0
  0
LINE
  5
198
330
70
100
AcDbEntity
  8
WAKU
 48
0.4999999993549407
100
AcDbLine
 10
16.99999997806799
 20
12.99999998322858
 30
0.0
 11
112.9999998542166
 21
12.99999998322858
 31
0.0
  0
LINE
  5
199
330
70
100
AcDbEntity
  8
WAKU
 48
0.4999999993549407
100
AcDbLine
 10
16.99999997806799
 20
28.99999996258669
 30
0.0
 11
112.9999998542166
 21
28.99999996258669
 31
0.0
  0
LINE
  5
19A
330
70
100
AcDbEntity
  8
WAKU
 48
0.4999999993549407
100
AcDbLine
 10
114.9999998516364
 20
30.99999996000645
 30
0.0
 11
114.9999998516364
 21
10.99999998580881
 31
0.0
  0
MTEXT
  5
19B
330
70
100
AcDbEntity
  8
WAKU
 48
0.4999999993549407
100
AcDbMText
 10
64.99999991614231
 20
20.99999997290763
 30
0.0
 40
5.999999992259287
 41
87.09146916313393
 46
0.0
 71
     5
 72
     5
  1
アイジー工業株式会社
  7
WAKU
 73
     1
 44
1.0
  0
LINE
  5
19C
330
70
100
AcDbEntity
  8
WAKU
 48
0.4999999993549407
100
AcDbLine
 10
16.99999997806799
 20
28.99999996258669
 30
0.0
 11
16.99999997806799
 21
12.99999998322858
 31
0.0
  0
MTEXT
  5
19D
330
70
100
AcDbEntity
  8
WAKU
 48
0.4999999993549407
100
AcDbMText
 10
269.9999996516681
 20
20.99999997290763
 30
0.0
 40
4.999999993549406
 41
6.55080958184702
 46
0.0
 71
     5
 72
     5
  1
名称
  7
WAKU
 73
     1
 44
1.0
  0
LINE
  5
19E
330
70
100
AcDbEntity
  8
WAKU
 48
0.4999999993549407
100
AcDbLine
 10
274.9999996452175
 20
30.99999996000645
 30
0.0
 11
274.9999996452175
 21
10.99999998580881
 31
0.0
  0
LINE
  5
19F
330
70
100
AcDbEntity
  8
WAKU
 48
0.4999999993549407
100
AcDbLine
 10
264.9999996581187
 20
30.99999996000645
 30
0.0
 11
264.9999996581187
 21
10.99999998580881
 31
0.0
  0
LINE
  5
1A0
330
70
100
AcDbEntity
  8
WAKU
 48
0.4999999993549407
100
AcDbLine
 10
484.9999993742926
 20
30.99999996000645
 30
0.0
 11
484.9999993742926
 21
10.99999998580881
 31
0.0
  0
LINE
  5
1A1
330
70
100
AcDbEntity
  8
WAKU
 48
0.4999999993549407
100
AcDbLine
 10
474.9999993871938
 20
10.99999998580881
 30
0.0
 11
474.9999993871938
 21
30.99999996000645
 31
0.0
  0
MTEXT
  5
1A2
330
70
100
AcDbEntity
  8
WAKU
 48
0.4999999993549407
100
AcDbMText
 10
494.9999993613914
 20
20.99999997290763
 30
0.0
 40
4.999999993549406
 41
23.63255305418644
 46
0.0
 71
     5
 72
     5
  1
mm
  7
WAKU
 73
     1
 44
1.0
  0
MTEXT
  5
1A3
330
70
100
AcDbEntity
  8
WAKU
 48
0.4999999993549407
100
AcDbMText
 10
534.9999993097867
 20
20.99999997290763
 30
0.0
 40
4.999999993549406
 41
39.84429658334918
 46
0.0
 71
     5
 72
     5
  1
1/2（A3）
  7
WAKU
 73
     1
 44
1.0
  0
LINE
  5
1A4
330
70
100
AcDbEntity
  8
WAKU
 48
0.4999999993549407
100
AcDbLine
 10
514.9999993355891
 20
30.99999996000645
 30
0.0
 11
514.9999993355891
 21
10.99999998580881
 31
0.0
  0
LINE
  5
1A5
330
70
100
AcDbEntity
  8
WAKU
 48
0.4999999993549407
100
AcDbLine
 10
504.9999993484902
 20
30.99999996000645
 30
0.0
 11
504.9999993484902
 21
10.99999998580881
 31
0.0
  0
LINE
  5
1A6
330
70
100
AcDbEntity
  8
WAKU
 48
0.4999999993549407
100
AcDbLine
 10
554.9999992839843
 20
30.99999996000645
 30
0.0
 11
554.9999992839843
 21
10.99999998580881
 31
0.0
  0
LINE
  5
1A7
330
70
100
AcDbEntity
  8
WAKU
 48
0.4999999993549407
100
AcDbLine
 10
564.9999992710831
 20
30.99999996000645
 30
0.0
 11
564.9999992710831
 21
10.99999998580881
 31
0.0
  0
LINE
  5
1A8
330
70
100
AcDbEntity
  8
WAKU
  6
DASHED2
 48
0.2499999996774703
100
AcDbLine
 10
614.9999992065772
 20
20.99999997290763
 30
0.0
 11
794.9999989743555
 21
20.99999997290763
 31
0.0
  0
LINE
  5
1A9
330
70
100
AcDbEntity
  8
WAKU
 48
0.4999999993549407
100
AcDbLine
 10
614.9999992065772
 20
30.99999996000645
 30
0.0
 11
614.9999992065772
 21
10.99999998580881
 31
0.0
  0
LINE
  5
1AA
330
70
100
AcDbEntity
  8
WAKU
 48
0.4999999993549407
100
AcDbLine
 10
604.9999992194784
 20
30.99999996000645
 30
0.0
 11
604.9999992194784
 21
10.99999998580881
 31
0.0
  0
MTEXT
  5
1AB
330
70
100
AcDbEntity
  8
WAKU
 48
0.4999999993549407
100
AcDbMText
 10
479.9999993807432
 20
20.99999997290763
 30
0.0
 40
4.999999993549406
 41
6.55080958184702
 46
0.0
 71
     5
 72
     5
  1
単位
  7
WAKU
 73
     1
 44
1.0
  0
MTEXT
  5
1AC
330
70
100
AcDbEntity
  8
WAKU
 48
0.4999999993549407
100
AcDbMText
 10
509.9999993420397
 20
20.99999997290763
 30
0.0
 40
4.999999993549406
 41
6.55080958184702
 46
0.0
 71
     5
 72
     5
  1
縮尺
  7
WAKU
 73
     1
 44
1.0
  0
MTEXT
  5
1AD
330
70
100
AcDbEntity
  8
WAKU
 48
0.4999999993549407
100
AcDbMText
 10
556.7245944866099
 20
20.99999997290763
 30
0.0
 40
4.999999993549406
 41
6.55080958184702
 46
0.0
 71
     4
 72
     5
  1
図番
  7
WAKU
 73
     1
 44
1.0
  0
MTEXT
  5
1AE
330
70
100
AcDbEntity
  8
WAKU
 48
0.4999999993549407
100
AcDbMText
 10
609.9999992130278
 20
20.99999997290763
 30
0.0
 40
4.999999993549406
 41
6.55080958184702
 46
0.0
 71
     5
 72
     5
  1
特記
  7
WAKU
 73
     1
 44
1.0
  0
LINE
  5
713
330
70
100
AcDbEntity
  8
SEIHIN
 48
0.4999999993549407
100
AcDbLine
 10
363.8247288027171
 20
352.7242199320142
 30
0.0
 11
363.8247288027171
 21
367.7242199126629
 31
0.0
  0
LINE
  5
714
330
70
100
AcDbEntity
  8
SEIHIN
 48
0.4999999993549407
100
AcDbLine
 10
363.8247288027171
 20
367.7242203265376
 30
0.0
 11
606.8247284827678
 21
367.7242203265371
 31
0.0
  0
LINE
  5
715
330
70
100
AcDbEntity
  8
SEIHIN
 48
0.4999999993549407
100
AcDbLine
 10
363.8247288027171
 20
367.4542203268855
 30
0.0
 11
606.8247284827678
 21
367.454220326885
 31
0.0
  0
LINE
  5
716
330
70
100
AcDbEntity
  8
SEIHIN
 48
0.4999999993549407
100
AcDbLine
 10
343.8247288220684
 20
367.7242199126629
 30
0.0
 11
343.8247288220684
 21
104.7242202519622
 31
0.0
  0
LINE
  5
717
330
70
100
AcDbEntity
  8
SEIHIN
 48
0.4999999993549407
100
AcDbLine
 10
344.0947288217206
 20
367.7242199126629
 30
0.0
 11
344.0947288217196
 21
104.7242202519622
 31
0.0
  0
LINE
  5
718
330
70
100
AcDbEntity
  8
KUTAI
 48
0.4999999993549407
100
AcDbLine
 10
459.5247286728029
 20
264.9922367064126
 30
0.0
 11
461.8247286698345
 21
267.2922367034447
 31
0.0
  0
LINE
  5
719
330
70
100
AcDbEntity
  8
KUTAI
 48
0.4999999993549407
100
AcDbLine
 10
459.5247286728029
 20
267.8206638275077
 30
0.0
 11
461.8247286698345
 21
270.1206638245433
 31
0.0
  0
LINE
  5
71A
330
70
100
AcDbEntity
  8
KUTAI
 48
0.4999999993549407
100
AcDbLine
 10
459.5247286728029
 20
307.4186435228701
 30
0.0
 11
461.8247286698345
 21
309.7186435199022
 31
0.0
  0
LINE
  5
71B
330
70
100
AcDbEntity
  8
KUTAI
 48
0.4999999993549407
100
AcDbLine
 10
459.5247286728029
 20
310.2470706439652
 30
0.0
 11
461.8247286698345
 21
312.5470706409999
 31
0.0
  0
LINE
  5
71C
330
70
100
AcDbEntity
  8
KUTAI
 48
0.4999999993549407
100
AcDbLine
 10
457.0907602355421
 20
347.4110819020687
 30
0.0
 11
458.9361947217851
 21
349.2565163883099
 31
0.0
  0
LINE
  5
71D
330
70
100
AcDbEntity
  8
KUTAI
 48
0.4999999993549407
100
AcDbLine
 10
454.2754711512282
 20
347.4242199388507
 30
0.0
 11
456.5754711482607
 21
349.7242199358832
 31
0.0
  0
LINE
  5
71E
330
70
100
AcDbEntity
  8
KUTAI
 48
0.4999999993549407
100
AcDbLine
 10
411.8490643347707
 20
347.4242199388507
 30
0.0
 11
414.1490643318022
 21
349.7242199358832
 31
0.0
  0
LINE
  5
71F
330
70
100
AcDbEntity
  8
KUTAI
 48
0.4999999993549407
100
AcDbLine
 10
414.6774914558684
 20
347.4242199388507
 30
0.0
 11
416.9774914529009
 21
349.7242199358832
 31
0.0
  0
LINE
  5
720
330
70
100
AcDbEntity
  8
KUTAI
 48
0.4999999993549407
100
AcDbLine
 10
372.2510846394118
 20
347.4242199388507
 30
0.0
 11
374.5510846364425
 21
349.7242199358832
 31
0.0
  0
LINE
  5
721
330
70
100
AcDbEntity
  8
KUTAI
 48
0.4999999993549407
100
AcDbLine
 10
369.4226575183131
 20
347.4242199388507
 30
0.0
 11
371.7226575153447
 21
349.7242199358832
 31
0.0
  0
LINE
  5
722
330
70
100
AcDbEntity
  8
KUTAI
 48
0.4999999993549407
100
AcDbLine
 10
444.2567120312863
 20
249.7242200648951
 30
0.0
 11
446.5567120283169
 21
252.0242200619303
 31
0.0
  0
LINE
  5
723
330
70
100
AcDbEntity
  8
KUTAI
 48
0.4999999993549407
100
AcDbLine
 10
401.8303052148269
 20
249.7242200648951
 30
0.0
 11
404.1303052118593
 21
252.0242200619303
 31
0.0
  0
LINE
  5
724
330
70
100
AcDbEntity
  8
KUTAI
 48
0.4999999993549407
100
AcDbLine
 10
362.2924323464206
 20
252.6127540129504
 30
0.0
 11
364.1378668326618
 21
254.458188499187
 31
0.0
  0
LINE
  5
725
330
70
100
AcDbEntity
  8
KUTAI
 48
0.4999999993549407
100
AcDbLine
 10
361.8247287988472
 20
294.5714572818295
 30
0.0
 11
364.1247287958797
 21
296.8714572788652
 31
0.0
  0
LINE
  5
726
330
70
100
AcDbEntity
  8
KUTAI
 48
0.4999999993549407
100
AcDbLine
 10
361.8247287988472
 20
336.997864098287
 30
0.0
 11
364.1247287958797
 21
339.2978640953227
 31
0.0
  0
LINE
  5
727
330
70
100
AcDbEntity
  8
KUTAI
 48
0.4999999993549407
100
AcDbLine
 10
441.4282849101875
 20
249.7242200648951
 30
0.0
 11
443.7282849072191
 21
252.0242200619303
 31
0.0
  0
LINE
  5
728
330
70
100
AcDbEntity
  8
KUTAI
 48
0.4999999993549407
100
AcDbLine
 10
399.0018780937301
 20
249.7242200648951
 30
0.0
 11
401.3018780907616
 21
252.0242200619303
 31
0.0
  0
LINE
  5
729
330
70
100
AcDbEntity
  8
KUTAI
 48
0.4999999993549407
100
AcDbLine
 10
361.8247287988472
 20
297.3998844029273
 30
0.0
 11
364.1247287958797
 21
299.6998843999593
 31
0.0
  0
LINE
  5
72A
330
70
100
AcDbEntity
  8
KUTAI
 48
0.4999999993549407
100
AcDbLine
 10
361.8247287988472
 20
254.9734775864693
 30
0.0
 11
364.1247287958797
 21
257.2734775835014
 31
0.0
  0
ARC
  5
72B
330
70
100
AcDbEntity
  8
KUTAI
 48
0.4999999993549407
100
AcDbCircle
 10
456.8247286762855
 20
254.7242200584445
 30
0.0
 40
2.699999996516679
100
AcDbArc
 50
270.0
 51
0.0
  0
ARC
  5
72C
330
70
100
AcDbEntity
  8
KUTAI
 48
0.4999999993549407
100
AcDbCircle
 10
366.8247287923971
 20
254.7242200584445
 30
0.0
 40
2.699999996516679
100
AcDbArc
 50
180.0
 51
270.0
  0
ARC
  5
72D
330
70
100
AcDbEntity
  8
KUTAI
 48
0.4999999993549407
100
AcDbCircle
 10
456.8247286762855
 20
344.7242199423334
 30
0.0
 40
2.699999996516679
100
AcDbArc
 50
0.0
 51
90.0
  0
ARC
  5
72E
330
70
100
AcDbEntity
  8
KUTAI
 48
0.4999999993549407
100
AcDbCircle
 10
366.8247287923971
 20
344.7242199423334
 30
0.0
 40
2.699999996516679
100
AcDbArc
 50
90.0
 51
180.0
  0
LINE
  5
72F
330
70
100
AcDbEntity
  8
KUTAI
 48
0.4999999993549407
100
AcDbLine
 10
366.8247287923971
 20
347.4242199388507
 30
0.0
 11
456.8247286762855
 21
347.4242199388507
 31
0.0
  0
LINE
  5
730
330
70
100
AcDbEntity
  8
KUTAI
 48
0.4999999993549407
100
AcDbLine
 10
459.5247286728029
 20
344.7242199423334
 30
0.0
 11
459.5247286728029
 21
254.7242200584445
 31
0.0
  0
LINE
  5
731
330
70
100
AcDbEntity
  8
KUTAI
 48
0.4999999993549407
100
AcDbLine
 10
366.8247287923971
 20
252.0242200619303
 30
0.0
 11
456.8247286762855
 21
252.0242200619303
 31
0.0
  0
LINE
  5
732
330
70
100
AcDbEntity
  8
KUTAI
 48
0.4999999993549407
100
AcDbLine
 10
364.1247287958797
 20
344.7242199423334
 30
0.0
 11
364.1247287958797
 21
254.7242200584445
 31
0.0
  0
ARC
  5
733
330
70
100
AcDbEntity
  8
KUTAI
 48
0.4999999993549407
100
AcDbCircle
 10
366.8247287923971
 20
254.7242200584445
 30
0.0
 40
4.999999993549406
100
AcDbArc
 50
180.0
 51
270.0
  0
ARC
  5
734
330
70
100
AcDbEntity
  8
KUTAI
 48
0.4999999993549407
100
AcDbCircle
 10
456.8247286762855
 20
254.7242200584445
 30
0.0
 40
4.999999993549406
100
AcDbArc
 50
270.0
 51
0.0
  0
ARC
  5
735
330
70
100
AcDbEntity
  8
KUTAI
 48
0.4999999993549407
100
AcDbCircle
 10
456.8247286762855
 20
344.7242199423334
 30
0.0
 40
4.999999993549406
100
AcDbArc
 50
0.0
 51
90.0
  0
ARC
  5
736
330
70
100
AcDbEntity
  8
KUTAI
 48
0.4999999993549407
100
AcDbCircle
 10
366.8247287923971
 20
344.7242199423334
 30
0.0
 40
4.999999993549406
100
AcDbArc
 50
90.0
 51
180.0
  0
LINE
  5
737
330
70
100
AcDbEntity
  8
KUTAI
 48
0.4999999993549407
100
AcDbLine
 10
461.8247286698345
 20
344.7242199423334
 30
0.0
 11
461.8247286698345
 21
254.7242200584445
 31
0.0
  0
LINE
  5
738
330
70
100
AcDbEntity
  8
KUTAI
 48
0.4999999993549407
100
AcDbLine
 10
361.8247287988472
 20
344.7242199423334
 30
0.0
 11
361.8247287988472
 21
254.7242200584445
 31
0.0
  0
LINE
  5
739
330
70
100
AcDbEntity
  8
KUTAI
 48
0.4999999993549407
100
AcDbLine
 10
366.8247287923971
 20
249.7242200648951
 30
0.0
 11
456.8247286762855
 21
249.7242200648951
 31
0.0
  0
LINE
  5
73A
330
70
100
AcDbEntity
  8
KUTAI
 48
0.4999999993549407
100
AcDbLine
 10
366.8247287923971
 20
349.7242199358832
 30
0.0
 11
456.8247286762855
 21
349.7242199358832
 31
0.0
  0
LINE
  5
73B
330
70
100
AcDbEntity
  8
KUTAI
 48
0.4999999993549407
100
AcDbLine
 10
361.8247287988472
 20
339.8262912193857
 30
0.0
 11
364.1247287958797
 21
342.1262912164169
 31
0.0
  0
LINE
  5
73C
330
70
100
AcDbEntity
  8
SEIHIN
  6
細い実線
 48
0.4999999993549407
100
AcDbLine
 10
606.8247284827678
 20
352.7249242029228
 30
0.0
 11
363.8247288027171
 21
352.7242299173161
 31
0.0
  0
LINE
  5
73D
330
70
100
AcDbEntity
  8
SEIHIN
 48
0.4999999993549407
100
AcDbLine
 10
358.8247288027171
 20
367.7242199126629
 30
0.0
 11
343.8247288220684
 21
367.7242199126629
 31
0.0
  0
LINE
  5
73E
330
70
100
AcDbEntity
  8
SEIHIN
 48
0.4999999993549407
100
AcDbLine
 10
358.8247288027171
 20
367.7242199126629
 30
0.0
 11
358.8247288027171
 21
104.7242202519622
 31
0.0
  0
ARC
  5
73F
330
70
100
AcDbEntity
  8
SONOTABUZAI
 48
0.4999999993549407
100
AcDbCircle
 10
359.8247288014265
 20
297.0742200038083
 30
0.0
 40
0.9999999987098812
100
AcDbArc
 50
174.9999999999749
 51
0.0
  0
ARC
  5
740
330
70
100
AcDbEntity
  8
SONOTABUZAI
 48
0.4999999993549407
100
AcDbCircle
 10
359.8247288014265
 20
297.0742200038083
 30
0.0
 40
0.6499999991614228
100
AcDbArc
 50
174.9999999999749
 51
0.0
  0
LINE
  5
741
330
70
100
AcDbEntity
  8
SONOTABUZAI
 48
0.4999999993549407
100
AcDbLine
 10
359.2583518021595
 20
302.0742199973577
 30
0.0
 11
358.8285338027128
 21
297.1613750036948
 31
0.0
  0
LINE
  5
742
330
70
100
AcDbEntity
  8
SONOTABUZAI
 48
0.4999999993549407
100
AcDbLine
 10
359.6070198017089
 20
302.0437149973971
 30
0.0
 11
359.1772018022641
 21
297.1308710037359
 31
0.0
  0
LINE
  5
743
330
70
100
AcDbEntity
  8
SONOTABUZAI
 48
0.4999999993549407
100
AcDbLine
 10
360.4747288005894
 20
349.0742199367222
 30
0.0
 11
360.4747288005894
 21
297.0742200038083
 31
0.0
  0
LINE
  5
744
330
70
100
AcDbEntity
  8
SONOTABUZAI
 48
0.4999999993549407
100
AcDbLine
 10
359.2583518021595
 20
302.0742199973577
 30
0.0
 11
359.6070198017089
 21
302.0437149973971
 31
0.0
  0
LINE
  5
745
330
70
100
AcDbEntity
  8
SONOTABUZAI
 48
0.4999999993549407
100
AcDbLine
 10
360.8247288001378
 20
349.0742199367222
 30
0.0
 11
360.8247288001378
 21
297.0742200038083
 31
0.0
  0
ARC
  5
746
330
70
100
AcDbEntity
  8
SONOTABUZAI
 48
0.4999999993549407
100
AcDbCircle
 10
362.4747287980083
 20
349.0742199367222
 30
0.0
 40
1.999999997419762
100
AcDbArc
 50
90.0
 51
180.0
  0
ARC
  5
747
330
70
100
AcDbEntity
  8
SONOTABUZAI
 48
0.4999999993549407
100
AcDbCircle
 10
362.4747287980083
 20
349.0742199367222
 30
0.0
 40
1.649999997871302
100
AcDbArc
 50
90.0
 51
180.0
  0
LINE
  5
748
330
70
100
AcDbEntity
  8
SONOTABUZAI
 48
0.4999999993549407
100
AcDbLine
 10
362.4747287980092
 20
351.0742199341419
 30
0.0
 11
414.4747287309221
 21
351.0742199341419
 31
0.0
  0
LINE
  5
749
330
70
100
AcDbEntity
  8
SONOTABUZAI
 48
0.4999999993549407
100
AcDbLine
 10
362.4747287980092
 20
350.7242199345927
 30
0.0
 11
414.4747287309221
 21
350.7242199345927
 31
0.0
  0
ARC
  5
74A
330
70
100
AcDbEntity
  8
SONOTABUZAI
 48
0.4999999993549407
100
AcDbCircle
 10
414.4747287309221
 20
351.724219933303
 30
0.0
 40
0.9999999987098812
100
AcDbArc
 50
270.0
 51
94.9999999999998
  0
LINE
  5
74B
330
70
100
AcDbEntity
  8
SONOTABUZAI
 48
0.4999999993549407
100
AcDbLine
 10
409.4747287373731
 20
352.2905959325729
 30
0.0
 11
414.3875727310353
 21
352.7204139320177
 31
0.0
  0
ARC
  5
74C
330
70
100
AcDbEntity
  8
SONOTABUZAI
 48
0.4999999993549407
100
AcDbCircle
 10
414.4747287309221
 20
351.724219933303
 30
0.0
 40
0.6499999991614228
100
AcDbArc
 50
270.0
 51
94.9999999999998
  0
LINE
  5
74D
330
70
100
AcDbEntity
  8
SONOTABUZAI
 48
0.4999999993549407
100
AcDbLine
 10
409.5052327373343
 20
351.9419279330221
 30
0.0
 11
414.4180777309959
 21
352.3717459324678
 31
0.0
  0
LINE
  5
74E
330
70
100
AcDbEntity
  8
SONOTABUZAI
 48
0.4999999993549407
100
AcDbLine
 10
409.4747287373731
 20
352.2905959325729
 30
0.0
 11
409.5052327373343
 21
351.9419279330221
 31
0.0
  0
LINE
  5
74F
330
70
100
AcDbEntity
  8
YAKUMONO
 48
0.4999999993549407
100
AcDbLine
 10
341.1747288254876
 20
317.6285925014711
 30
0.0
 11
341.1747288254876
 21
330.9753058531849
 31
0.0
  0
LINE
  5
750
330
70
100
AcDbEntity
  8
YAKUMONO
 48
0.4999999993549407
100
AcDbLine
 10
340.8247288259393
 20
317.6285925014711
 30
0.0
 11
340.8247288259393
 21
330.9753058531849
 31
0.0
  0
LINE
  5
751
330
70
100
AcDbEntity
  8
YAKUMONO
 48
0.4999999993549407
100
AcDbLine
 10
341.9747288244573
 20
320.8785924972783
 30
0.0
 11
342.3247288240038
 21
320.8785924972783
 31
0.0
  0
ARC
  5
752
330
70
100
AcDbEntity
  8
YAKUMONO
 48
0.4999999993549407
100
AcDbCircle
 10
341.5747288249715
 20
317.6285925014711
 30
0.0
 40
0.7499999990324109
100
AcDbArc
 50
180.0
 51
0.0
  0
ARC
  5
753
330
70
100
AcDbEntity
  8
YAKUMONO
 48
0.4999999993549407
100
AcDbCircle
 10
341.5747288249715
 20
317.6285925014711
 30
0.0
 40
0.3999999994839525
100
AcDbArc
 50
180.0
 51
0.0
  0
LINE
  5
754
330
70
100
AcDbEntity
  8
YAKUMONO
 48
0.4999999993549407
100
AcDbLine
 10
342.3247288240038
 20
317.6285925014711
 30
0.0
 11
342.3247288240038
 21
320.8785924972783
 31
0.0
  0
LINE
  5
755
330
70
100
AcDbEntity
  8
YAKUMONO
 48
0.4999999993549407
100
AcDbLine
 10
341.9747288244573
 20
317.6285925014711
 30
0.0
 11
341.9747288244573
 21
320.8785924972783
 31
0.0
  0
ARC
  5
756
330
70
100
AcDbEntity
  8
YAKUMONO
 48
0.4999999993549407
100
AcDbCircle
 10
365.6747287938799
 20
370.3785924334173
 30
0.0
 40
1.499999998064821
100
AcDbArc
 50
27.71774768960245
 51
152.2822523103975
  0
ARC
  5
757
330
70
100
AcDbEntity
  8
YAKUMONO
 48
0.4999999993549407
100
AcDbCircle
 10
365.6747287938799
 20
370.3785924334173
 30
0.0
 40
1.149999998516363
100
AcDbArc
 50
27.71774768960245
 51
152.2822523103975
  0
LINE
  5
758
330
70
100
AcDbEntity
  8
YAKUMONO
 48
0.4999999993549407
100
AcDbLine
 10
393.9247287574337
 20
370.7285924329652
 30
0.0
 11
380.5780154057213
 21
370.7285924329652
 31
0.0
  0
LINE
  5
759
330
70
100
AcDbEntity
  8
YAKUMONO
 48
0.4999999993549407
100
AcDbLine
 10
393.9247287574337
 20
370.3785924334173
 30
0.0
 11
380.5780154057213
 21
370.3785924334182
 31
0.0
  0
LINE
  5
75A
330
70
100
AcDbEntity
  8
YAKUMONO
 48
0.4999999993549407
100
AcDbLine
 10
393.9247287574337
 20
369.5785924344507
 30
0.0
 11
390.6747287616274
 21
369.5785924344507
 31
0.0
  0
LINE
  5
75B
330
70
100
AcDbEntity
  8
YAKUMONO
 48
0.4999999993549407
100
AcDbLine
 10
393.9247287574337
 20
369.2285924349024
 30
0.0
 11
390.6747287616274
 21
369.2285924349024
 31
0.0
  0
ARC
  5
75C
330
70
100
AcDbEntity
  8
YAKUMONO
 48
0.4999999993549407
100
AcDbCircle
 10
393.9247287574337
 20
369.9785924339338
 30
0.0
 40
0.7499999990324109
100
AcDbArc
 50
270.0
 51
90.0
  0
ARC
  5
75D
330
70
100
AcDbEntity
  8
YAKUMONO
 48
0.4999999993549407
100
AcDbCircle
 10
393.9247287574337
 20
369.9785924339338
 30
0.0
 40
0.3999999994839525
100
AcDbArc
 50
270.0
 51
90.0
  0
ARC
  5
75E
330
70
100
AcDbEntity
  8
YAKUMONO
 48
0.4999999993549407
100
AcDbCircle
 10
367.5780154224924
 20
371.3785924321272
 30
0.0
 40
0.9999999987098812
100
AcDbArc
 50
207.7177476896024
 51
270.0
  0
ARC
  5
75F
330
70
100
AcDbEntity
  8
YAKUMONO
 48
0.4999999993549407
100
AcDbCircle
 10
367.5780154224924
 20
371.3785924321272
 30
0.0
 40
0.6499999991614228
100
AcDbArc
 50
207.7177476896024
 51
270.0
  0
ARC
  5
760
330
70
100
AcDbEntity
  8
YAKUMONO
 48
0.4999999993549407
100
AcDbCircle
 10
380.5780154057213
 20
371.3785924321272
 30
0.0
 40
0.6499999991614228
100
AcDbArc
 50
207.7177476896024
 51
270.0
  0
ARC
  5
761
330
70
100
AcDbEntity
  8
YAKUMONO
 48
0.4999999993549407
100
AcDbCircle
 10
380.5780154057213
 20
371.3785924321272
 30
0.0
 40
0.9999999987098812
100
AcDbArc
 50
207.7177476896024
 51
270.0
  0
ARC
  5
762
330
70
100
AcDbEntity
  8
YAKUMONO
 48
0.4999999993549407
100
AcDbCircle
 10
376.7714421484955
 20
371.3785924321272
 30
0.0
 40
0.6499999991614228
100
AcDbArc
 50
270.0
 51
332.2822523103976
  0
ARC
  5
763
330
70
100
AcDbEntity
  8
YAKUMONO
 48
0.4999999993549407
100
AcDbCircle
 10
376.7714421484955
 20
371.3785924321272
 30
0.0
 40
0.9999999987098812
100
AcDbArc
 50
270.0
 51
332.2822523103976
  0
ARC
  5
764
330
70
100
AcDbEntity
  8
YAKUMONO
 48
0.4999999993549407
100
AcDbCircle
 10
378.6747287771088
 20
370.3785924334173
 30
0.0
 40
1.149999998516363
100
AcDbArc
 50
27.71774768960245
 51
152.2822523103975
  0
ARC
  5
765
330
70
100
AcDbEntity
  8
YAKUMONO
 48
0.4999999993549407
100
AcDbCircle
 10
378.6747287771088
 20
370.3785924334173
 30
0.0
 40
1.499999998064821
100
AcDbArc
 50
27.71774768960245
 51
152.2822523103975
  0
LINE
  5
766
330
70
100
AcDbEntity
  8
YAKUMONO
 48
0.4999999993549407
100
AcDbLine
 10
376.7714421484955
 20
370.3785924334182
 30
0.0
 11
367.5780154224924
 21
370.3785924334182
 31
0.0
  0
LINE
  5
767
330
70
100
AcDbEntity
  8
YAKUMONO
 48
0.4999999993549407
100
AcDbLine
 10
376.7714421484955
 20
370.7285924329652
 30
0.0
 11
367.5780154224924
 21
370.7285924329652
 31
0.0
  0
LINE
  5
768
330
70
100
AcDbEntity
  8
YAKUMONO
 48
0.4999999993549407
100
AcDbLine
 10
390.6747287616274
 20
369.5785924344507
 30
0.0
 11
390.6747287616274
 21
369.2285924349024
 31
0.0
  0
LINE
  5
769
330
70
100
AcDbEntity
  8
YAKUMONO
 48
0.4999999993549407
100
AcDbLine
 10
340.8247288259393
 20
347.781879093637
 30
0.0
 11
340.8247288259393
 21
356.9753058196419
 31
0.0
  0
LINE
  5
76A
330
70
100
AcDbEntity
  8
YAKUMONO
 48
0.4999999993549407
100
AcDbLine
 10
341.1747288254876
 20
347.781879093637
 30
0.0
 11
341.1747288254876
 21
356.9753058196419
 31
0.0
  0
ARC
  5
76B
330
70
100
AcDbEntity
  8
YAKUMONO
 48
0.4999999993549407
100
AcDbCircle
 10
340.1747288267781
 20
347.7818790936361
 30
0.0
 40
0.6499999991614228
100
AcDbArc
 50
297.7177476896027
 51
0.0
  0
ARC
  5
76C
330
70
100
AcDbEntity
  8
YAKUMONO
 48
0.4999999993549407
100
AcDbCircle
 10
340.1747288267781
 20
347.7818790936361
 30
0.0
 40
0.9999999987098812
100
AcDbArc
 50
297.7177476896027
 51
0.0
  0
ARC
  5
76D
330
70
100
AcDbEntity
  8
YAKUMONO
 48
0.4999999993549407
100
AcDbCircle
 10
340.1747288267781
 20
343.9753058364125
 30
0.0
 40
0.6499999991614228
100
AcDbArc
 50
0.0
 51
62.28225231039727
  0
ARC
  5
76E
330
70
100
AcDbEntity
  8
YAKUMONO
 48
0.4999999993549407
100
AcDbCircle
 10
340.1747288267781
 20
343.9753058364125
 30
0.0
 40
0.9999999987098812
100
AcDbArc
 50
0.0
 51
62.28225231039727
  0
ARC
  5
76F
330
70
100
AcDbEntity
  8
YAKUMONO
 48
0.4999999993549407
100
AcDbCircle
 10
341.1747288254876
 20
345.8785924650254
 30
0.0
 40
1.149999998516363
100
AcDbArc
 50
117.7177476896027
 51
242.2822523103973
  0
ARC
  5
770
330
70
100
AcDbEntity
  8
YAKUMONO
 48
0.4999999993549407
100
AcDbCircle
 10
341.1747288254876
 20
345.8785924650254
 30
0.0
 40
1.499999998064821
100
AcDbArc
 50
117.7177476896027
 51
242.2822523103973
  0
ARC
  5
771
330
70
100
AcDbEntity
  8
YAKUMONO
 48
0.4999999993549407
100
AcDbCircle
 10
340.1747288267781
 20
334.7818791104076
 30
0.0
 40
0.9999999987098812
100
AcDbArc
 50
297.7177476896027
 51
0.0
  0
ARC
  5
772
330
70
100
AcDbEntity
  8
YAKUMONO
 48
0.4999999993549407
100
AcDbCircle
 10
340.1747288267781
 20
334.7818791104076
 30
0.0
 40
0.6499999991614228
100
AcDbArc
 50
297.7177476896027
 51
0.0
  0
ARC
  5
773
330
70
100
AcDbEntity
  8
YAKUMONO
 48
0.4999999993549407
100
AcDbCircle
 10
340.1747288267781
 20
330.975305853184
 30
0.0
 40
0.9999999987098812
100
AcDbArc
 50
0.0
 51
62.28225231039727
  0
ARC
  5
774
330
70
100
AcDbEntity
  8
YAKUMONO
 48
0.4999999993549407
100
AcDbCircle
 10
340.1747288267781
 20
330.975305853184
 30
0.0
 40
0.6499999991614228
100
AcDbArc
 50
0.0
 51
62.28225231039727
  0
ARC
  5
775
330
70
100
AcDbEntity
  8
YAKUMONO
 48
0.4999999993549407
100
AcDbCircle
 10
341.1747288254876
 20
332.8785924817965
 30
0.0
 40
1.499999998064821
100
AcDbArc
 50
117.7177476896027
 51
242.2822523103973
  0
ARC
  5
776
330
70
100
AcDbEntity
  8
YAKUMONO
 48
0.4999999993549407
100
AcDbCircle
 10
341.1747288254876
 20
332.8785924817965
 30
0.0
 40
1.149999998516363
100
AcDbArc
 50
117.7177476896027
 51
242.2822523103973
  0
LINE
  5
777
330
70
100
AcDbEntity
  8
YAKUMONO
 48
0.4999999993549407
100
AcDbLine
 10
340.8247288259393
 20
334.7818791104085
 30
0.0
 11
340.8247288259393
 21
343.9753058364134
 31
0.0
  0
LINE
  5
778
330
70
100
AcDbEntity
  8
YAKUMONO
 48
0.4999999993549407
100
AcDbLine
 10
341.1747288254876
 20
334.7818791104085
 30
0.0
 11
341.1747288254876
 21
343.9753058364134
 31
0.0
  0
ARC
  5
779
330
70
100
AcDbEntity
  8
YAKUMONO
 48
0.4999999993549407
100
AcDbCircle
 10
341.6747288248428
 20
369.8785924340626
 30
0.0
 40
1.999999997419762
100
AcDbArc
 50
90.0
 51
180.0
  0
ARC
  5
77A
330
70
100
AcDbEntity
  8
YAKUMONO
 48
0.4999999993549407
100
AcDbCircle
 10
341.6747288248428
 20
369.8785924340626
 30
0.0
 40
1.649999997871303
100
AcDbArc
 50
90.0
 51
180.0
  0
ARC
  5
77B
330
70
100
AcDbEntity
  8
YAKUMONO
 48
0.4999999993549407
100
AcDbCircle
 10
354.5780154392644
 20
371.3785924321272
 30
0.0
 40
0.6499999991614228
100
AcDbArc
 50
207.7177476896024
 51
270.0
  0
ARC
  5
77C
330
70
100
AcDbEntity
  8
YAKUMONO
 48
0.4999999993549407
100
AcDbCircle
 10
354.5780154392644
 20
371.3785924321272
 30
0.0
 40
0.9999999987098812
100
AcDbArc
 50
207.7177476896024
 51
270.0
  0
ARC
  5
77D
330
70
100
AcDbEntity
  8
YAKUMONO
 48
0.4999999993549407
100
AcDbCircle
 10
352.6747288106519
 20
370.3785924334173
 30
0.0
 40
1.499999998064821
100
AcDbArc
 50
27.71774768960245
 51
90.0
  0
ARC
  5
77E
330
70
100
AcDbEntity
  8
YAKUMONO
 48
0.4999999993549407
100
AcDbCircle
 10
352.6747288106519
 20
370.3785924334173
 30
0.0
 40
1.149999998516363
100
AcDbArc
 50
27.71774768960245
 51
90.0
  0
LINE
  5
77F
330
70
100
AcDbEntity
  8
YAKUMONO
 48
0.4999999993549407
100
AcDbLine
 10
352.6747288106519
 20
371.528592431934
 30
0.0
 11
341.6747288248428
 21
371.528592431934
 31
0.0
  0
LINE
  5
780
330
70
100
AcDbEntity
  8
YAKUMONO
 48
0.4999999993549407
100
AcDbLine
 10
352.6747288106519
 20
371.8785924314833
 30
0.0
 11
341.6747288248428
 21
371.8785924314823
 31
0.0
  0
ARC
  5
781
330
70
100
AcDbEntity
  8
YAKUMONO
 48
0.4999999993549407
100
AcDbCircle
 10
341.1747288254876
 20
358.8785924482534
 30
0.0
 40
1.499999998064821
100
AcDbArc
 50
180.0
 51
242.2822523103973
  0
ARC
  5
782
330
70
100
AcDbEntity
  8
YAKUMONO
 48
0.4999999993549407
100
AcDbCircle
 10
341.1747288254876
 20
358.8785924482534
 30
0.0
 40
1.149999998516363
100
AcDbArc
 50
180.0
 51
242.2822523103973
  0
ARC
  5
783
330
70
100
AcDbEntity
  8
YAKUMONO
 48
0.4999999993549407
100
AcDbCircle
 10
340.1747288267781
 20
356.9753058196409
 30
0.0
 40
0.9999999987098812
100
AcDbArc
 50
0.0
 51
62.28225231039727
  0
ARC
  5
784
330
70
100
AcDbEntity
  8
YAKUMONO
 48
0.4999999993549407
100
AcDbCircle
 10
340.1747288267781
 20
356.9753058196409
 30
0.0
 40
0.6499999991614228
100
AcDbArc
 50
0.0
 51
62.28225231039727
  0
ARC
  5
785
330
70
100
AcDbEntity
  8
YAKUMONO
 48
0.4999999993549407
100
AcDbCircle
 10
363.7714421652674
 20
371.3785924321272
 30
0.0
 40
0.9999999987098812
100
AcDbArc
 50
270.0
 51
332.2822523103976
  0
ARC
  5
786
330
70
100
AcDbEntity
  8
YAKUMONO
 48
0.4999999993549407
100
AcDbCircle
 10
363.7714421652674
 20
371.3785924321272
 30
0.0
 40
0.6499999991614228
100
AcDbArc
 50
270.0
 51
332.2822523103976
  0
LINE
  5
787
330
70
100
AcDbEntity
  8
YAKUMONO
 48
0.4999999993549407
100
AcDbLine
 10
363.7714421652674
 20
370.3785924334182
 30
0.0
 11
354.5780154392644
 21
370.3785924334182
 31
0.0
  0
LINE
  5
788
330
70
100
AcDbEntity
  8
YAKUMONO
 48
0.4999999993549407
100
AcDbLine
 10
363.7714421652674
 20
370.7285924329652
 30
0.0
 11
354.5780154392644
 21
370.7285924329652
 31
0.0
  0
LINE
  5
789
330
70
100
AcDbEntity
  8
YAKUMONO
 48
0.4999999993549407
100
AcDbLine
 10
339.674728827423
 20
358.8785924482534
 30
0.0
 11
339.674728827423
 21
369.8785924340626
 31
0.0
  0
LINE
  5
78A
330
70
100
AcDbEntity
  8
YAKUMONO
 48
0.4999999993549407
100
AcDbLine
 10
340.0247288269723
 20
358.8785924482534
 30
0.0
 11
340.0247288269723
 21
369.8785924340626
 31
0.0
  0
ARC
  5
78B
330
70
100
AcDbEntity
  8
BOUSUISI
  6
DASHED2
100
AcDbCircle
 10
366.8247287923971
 20
344.7242199423334
 30
0.0
 40
5.249999993226876
100
AcDbArc
 50
90.0
 51
180.0
  0
ARC
  5
78C
330
70
100
AcDbEntity
  8
BOUSUISI
  6
DASHED2
100
AcDbCircle
 10
366.8247287923971
 20
344.7242199423334
 30
0.0
 40
5.749999992581816
100
AcDbArc
 50
90.0
 51
180.0
  0
LINE
  5
78D
330
70
100
AcDbEntity
  8
SI-RINGU
 48
0.4999999993549407
100
AcDbLine
 10
343.8247288220675
 20
320.8785924972783
 30
0.0
 11
341.1747288254885
 21
320.8785924972783
 31
0.0
  0
LINE
  5
78E
330
70
100
AcDbEntity
  8
SI-RINGU
 48
0.4999999993549407
100
AcDbLine
 10
343.8247288220675
 20
334.8785924792163
 30
0.0
 11
341.1747288254876
 21
334.8785924792163
 31
0.0
  0
HATCH
  5
78F
330
70
100
AcDbEntity
  8
SI-RINGU
 48
0.4999999993549407
100
AcDbHatch
 10
0.0
 20
0.0
 30
0.0
210
0.0
220
0.0
230
1.0
  2
ANSI37
 70
     0
 71
     0
 91
        1
 92
        7
 72
     1
 73
     1
 93
        8
 10
341.1747288254876
 20
320.8785924972783
 42
0.0
 10
343.8247288220675
 20
320.8785924972783
 42
0.0
 10
343.8247288220675
 20
334.8785924792163
 42
0.0
 10
341.1747288254876
 20
334.8785924792163
 42
0.0
 10
341.1747288254876
 20
334.7818791104085
 42
-0.2786512736751826
 10
340.6398451052467
 20
333.8966295157041
 42
0.6042179781165674
 10
340.6398451052476
 20
331.8605554478875
 42
-0.2786512736747828
 10
341.1747288254876
 20
330.9753058531849
 42
0.0
 97
        0
 75
     0
 76
     1
 52
180.0
 41
1.199999999999999
 77
     0
 78
     2
 53
225.0
 43
342.4997288237785
 44
320.8785924972783
 45
1.347038416422532
 46
-1.347038416422533
 79
     0
 53
315.0
 43
342.4997288237785
 44
320.8785924972783
 45
1.347038416422533
 46
1.347038416422532
 79
     0
 47
0.0656940061284964
 98
        1
 10
342.2078893592327
 20
324.0675765270574
  0
LINE
  5
790
330
70
100
AcDbEntity
  8
SI-RINGU
 48
0.4999999993549407
100
AcDbLine
 10
390.6703562374535
 20
367.7242199126638
 30
0.0
 11
390.6703562374535
 21
370.3742199092429
 31
0.0
  0
LINE
  5
791
330
70
100
AcDbEntity
  8
SI-RINGU
 48
0.4999999993549407
100
AcDbLine
 10
376.6703562555151
 20
367.7242199126629
 30
0.0
 11
376.6703562555151
 21
370.3742199092438
 31
0.0
  0
HATCH
  5
792
330
70
100
AcDbEntity
  8
SI-RINGU
 48
0.4999999993549407
100
AcDbHatch
 10
0.0
 20
0.0
 30
0.0
210
0.0
220
0.0
230
1.0
  2
ANSI37
 70
     0
 71
     0
 91
        1
 92
        7
 72
     1
 73
     1
 93
        8
 10
390.6703562374525
 20
370.3742199092438
 42
0.0
 10
390.6703562374535
 20
367.7242199126638
 42
0.0
 10
376.6703562555151
 20
367.7242199126629
 42
0.0
 10
376.6703562555151
 20
370.3742199092438
 42
0.0
 10
376.7670696243233
 20
370.3742199092438
 42
0.2786512736751826
 10
377.6523192190264
 20
370.9091036294847
 42
-0.6042179781165674
 10
379.6883932868443
 20
370.9091036294838
 42
0.2786512736747828
 10
380.5736428815464
 20
370.3742199092438
 42
0.0
 97
        0
 75
     0
 76
     1
 52
180.0
 41
1.199999999999999
 77
     0
 78
     2
 53
44.99999999999998
 43
390.6703562374535
 44
369.0492199109529
 45
1.347038416422533
 46
-1.347038416422533
 79
     0
 53
315.0
 43
390.6703562374535
 44
369.0492199109529
 45
-1.347038416422533
 46
-1.347038416422533
 79
     0
 47
0.0656940061284964
 98
        1
 10
387.4813722076735
 20
369.3410593754987
  0
LINE
  5
793
330
70
100
AcDbEntity
  8
KUTAI
 48
0.4999999993549407
100
AcDbLine
 10
471.8247286569333
 20
249.7242200648951
 30
0.0
 11
606.8247284827678
 21
249.7242200648951
 31
0.0
  0
LINE
  5
794
330
70
100
AcDbEntity
  8
KUTAI
 48
0.4999999993549407
100
AcDbLine
 10
471.8247286569333
 20
349.7242199358832
 30
0.0
 11
606.8247284827678
 21
349.7242199358828
 31
0.0
  0
LINE
  5
795
330
70
100
AcDbEntity
  8
KUTAI
 48
0.4999999993549407
100
AcDbLine
 10
461.8247286698345
 20
239.7242200777963
 30
0.0
 11
361.8247287988472
 21
239.7242200777963
 31
0.0
  0
LINE
  5
796
330
70
100
AcDbEntity
  8
KUTAI
 48
0.4999999993549407
100
AcDbLine
 10
461.8247286698345
 20
239.7242200777963
 30
0.0
 11
461.8247286698345
 21
104.7242202519622
 31
0.0
  0
LINE
  5
797
330
70
100
AcDbEntity
  8
KUTAI
 48
0.4999999993549407
100
AcDbLine
 10
361.8247287988472
 20
239.7242200777963
 30
0.0
 11
361.8247287988472
 21
104.7242202519622
 31
0.0
  0
LINE
  5
798
330
70
100
AcDbEntity
  8
KUTAI
 48
0.4999999993549407
100
AcDbLine
 10
471.8247286569333
 20
349.7242199358832
 30
0.0
 11
471.8247286569333
 21
249.7242200648951
 31
0.0
  0
LINE
  5
799
330
70
100
AcDbEntity
  8
BOUSUISI
  6
DASHED2
100
AcDbLine
 10
606.8247284827678
 20
349.9742199355313
 30
0.0
 11
366.8247287923953
 21
349.9742199355604
 31
0.0
  0
LINE
  5
79A
330
70
100
AcDbEntity
  8
BOUSUISI
  6
DASHED2
100
AcDbLine
 10
361.5747287991701
 20
274.9742200323193
 30
0.0
 11
361.5747287991701
 21
344.7242199423334
 31
0.0
  0
LINE
  5
79B
330
70
100
AcDbEntity
  8
BOUSUISI
  6
DASHED2
100
AcDbLine
 10
361.0747287998149
 20
104.7242202519622
 30
0.0
 11
361.0747287998149
 21
344.7242199423334
 31
0.0
  0
LINE
  5
79C
330
70
100
AcDbEntity
  8
BOUSUISI
  6
DASHED2
100
AcDbLine
 10
436.0747287030565
 20
350.4742199349065
 30
0.0
 11
366.8247287923971
 21
350.4742199349156
 31
0.0
  0
LINE
  5
79D
330
70
100
AcDbEntity
  8
BOUSUITE-PU
  6
DASHED2
100
AcDbLine
 10
435.5481187133857
 20
351.2242199345836
 30
0.0
 11
416.0747287288589
 21
351.2242199345836
 31
0.0
  0
LINE
  5
79E
330
70
100
AcDbEntity
  8
BOUSUITE-PU
  6
DASHED2
100
AcDbLine
 10
466.0747286643529
 20
350.724219935227
 30
0.0
 11
438.5990165915293
 21
350.724219935227
 31
0.0
  0
LINE
  5
79F
330
70
100
AcDbEntity
  8
BOUSUITE-PU
  6
DASHED2
100
AcDbLine
 10
436.5833948924603
 20
351.0879232399159
 30
0.0
 11
437.304921367687
 21
350.8945908035619
 31
0.0
  0
ARC
  5
7A0
330
70
100
AcDbEntity
  8
BOUSUITE-PU
  6
DASHED2
100
AcDbCircle
 10
435.5481187133857
 20
347.224219939744
 30
0.0
 40
3.999999994839524
100
AcDbArc
 50
75.00000000000554
 51
90.0
  0
ARC
  5
7A1
330
70
100
AcDbEntity
  8
BOUSUITE-PU
  6
DASHED2
100
AcDbCircle
 10
438.5990165915293
 20
355.7242199287764
 30
0.0
 40
4.999999993549406
100
AcDbArc
 50
255.0000000000055
 51
270.0
  0
LINE
  5
7A2
330
70
100
AcDbEntity
  8
BOUSUITE-PU
  6
DASHED2
100
AcDbLine
 10
435.5481187133857
 20
351.2242199345836
 30
0.0
 11
416.0747287288589
 21
351.2242199345836
 31
0.0
  0
LINE
  5
7A3
330
70
100
AcDbEntity
  8
BOUSUITE-PU
  6
DASHED2
100
AcDbLine
 10
466.0747286643529
 20
350.724219935227
 30
0.0
 11
438.5990165915293
 21
350.724219935227
 31
0.0
  0
LINE
  5
7A4
330
70
100
AcDbEntity
  8
BOUSUITE-PU
  6
DASHED2
100
AcDbLine
 10
436.5833948924603
 20
351.0879232399159
 30
0.0
 11
437.304921367687
 21
350.8945908035619
 31
0.0
  0
ARC
  5
7A5
330
70
100
AcDbEntity
  8
BOUSUITE-PU
  6
DASHED2
100
AcDbCircle
 10
435.5481187133857
 20
347.224219939744
 30
0.0
 40
3.999999994839524
100
AcDbArc
 50
75.00000000000554
 51
90.0
  0
ARC
  5
7A6
330
70
100
AcDbEntity
  8
BOUSUITE-PU
  6
DASHED2
100
AcDbCircle
 10
438.5990165915293
 20
355.7242199287764
 30
0.0
 40
4.999999993549406
100
AcDbArc
 50
255.0000000000055
 51
270.0
  0
LINE
  5
7A7
330
70
100
AcDbEntity
  8
TEKUSU
  6
DASHED2
 48
0.5
100
AcDbLine
 10
370.1747292854941
 20
369.7850093879413
 30
0.0
 11
370.1747292854941
 21
352.7285920423109
 31
0.0
  0
LINE
  5
7A8
330
70
100
AcDbEntity
  8
TEKUSU
100
AcDbLine
 10
370.1747292854941
 20
352.7285920423108
 30
0.0
 11
370.1747292854941
 21
341.2285924329652
 31
0.0
  0
LINE
  5
7A9
330
70
100
AcDbEntity
  8
TEKUSU
  6
DASHED2
 48
0.5
100
AcDbLine
 10
374.1747292854941
 20
369.7850093879413
 30
0.0
 11
374.1747292854941
 21
352.7285920423108
 31
0.0
  0
LINE
  5
7AA
330
70
100
AcDbEntity
  8
TEKUSU
100
AcDbLine
 10
374.1747292854941
 20
352.7285920423108
 30
0.0
 11
374.1747292854941
 21
341.2285924329652
 31
0.0
  0
LINE
  5
7AB
330
70
100
AcDbEntity
  8
TEKUSU
100
AcDbLine
 10
370.4347292854961
 20
336.9469540604203
 30
0.0
 11
370.4347292854961
 21
341.2285924329652
 31
0.0
  0
LINE
  5
7AC
330
70
100
AcDbEntity
  8
TEKUSU
100
AcDbLine
 10
373.9147292854939
 20
336.9469540604239
 30
0.0
 11
373.9147292854921
 21
341.2285924329652
 31
0.0
  0
LINE
  5
7AD
330
70
100
AcDbEntity
  8
TEKUSU
  6
DASHED2
 48
0.5
100
AcDbLine
 10
370.1747292854941
 20
369.7850093879413
 30
0.0
 11
374.1747292854941
 21
369.7850093879413
 31
0.0
  0
LINE
  5
7AE
330
70
100
AcDbEntity
  8
TEKUSU
100
AcDbLine
 10
372.1747292854941
 20
335.7285924329652
 30
0.0
 11
370.4347292854925
 21
336.9469540604221
 31
0.0
  0
LINE
  5
7AF
330
70
100
AcDbEntity
  8
TEKUSU
100
AcDbLine
 10
372.1747292854941
 20
335.7285924329652
 30
0.0
 11
373.9147292854939
 21
336.9469540604239
 31
0.0
  0
LINE
  5
7B0
330
70
100
AcDbEntity
  8
TEKUSU
100
AcDbLine
 10
374.1747292854941
 20
341.2285924329652
 30
0.0
 11
370.1747292854941
 21
341.2285924329652
 31
0.0
  0
LINE
  5
7B1
330
70
100
AcDbEntity
  8
TEKUSU
100
AcDbLine
 10
373.5874192475346
 20
341.2285924329652
 30
0.0
 11
372.1747292854868
 21
335.7285924329652
 31
0.0
  0
LINE
  5
7B2
330
70
100
AcDbEntity
  8
TEKUSU
  6
CENTER2
370
     5
100
AcDbLine
 10
372.1747287854939
 20
378.2285924329652
 30
0.0
 11
372.1747287854939
 21
330.7285924329588
 31
0.0
  0
LINE
  5
7B3
330
70
100
AcDbEntity
  8
TEKUSU
100
AcDbLine
 10
367.0322548632719
 20
370.7285924329652
 30
0.0
 11
377.317202707716
 21
370.7285924329652
 31
0.0
  0
LINE
  5
7B4
330
70
100
AcDbEntity
  8
TEKUSU
100
AcDbLine
 10
366.6747287854939
 20
371.3285924329655
 30
0.0
 11
366.6747287854939
 21
371.0285924329653
 31
0.0
  0
LINE
  5
7B5
330
70
100
AcDbEntity
  8
TEKUSU
100
AcDbLine
 10
377.6747287854939
 20
371.3285924329655
 30
0.0
 11
377.6747287854939
 21
371.0285924329653
 31
0.0
  0
ARC
  5
7B6
330
70
100
AcDbEntity
  8
TEKUSU
100
AcDbCircle
 10
372.1747297854943
 20
366.8285924329655
 30
0.0
 40
6.299999999999998
100
AcDbArc
 50
60.00001050152105
 51
119.9999894984789
  0
LINE
  5
7B7
330
70
100
AcDbEntity
  8
TEKUSU
100
AcDbLine
 10
375.3247287854954
 20
372.284553054157
 30
0.0
 11
369.0247287854943
 21
372.284553054157
 31
0.0
  0
ARC
  5
7B8
330
70
100
AcDbEntity
  8
TEKUSU
100
AcDbCircle
 10
374.0975710242253
 20
365.9014437938548
 30
0.0
 40
6.5
100
AcDbArc
 50
56.61020998331604
 51
79.11761728626231
  0
ARC
  5
7B9
330
70
100
AcDbEntity
  8
TEKUSU
100
AcDbCircle
 10
370.2518865467625
 20
365.9014437938548
 30
0.0
 40
6.5
100
AcDbArc
 50
100.8823827137377
 51
123.3897900166839
  0
LINE
  5
7BA
330
70
100
AcDbEntity
  8
TEKUSU
100
AcDbLine
 10
366.6747287854939
 20
371.0285924329653
 30
0.0
 11
367.0322548632719
 21
370.7285924329652
 31
0.0
  0
LINE
  5
7BB
330
70
100
AcDbEntity
  8
TEKUSU
100
AcDbLine
 10
377.6747287854939
 20
371.0285924329653
 30
0.0
 11
377.317202707716
 21
370.7285924329652
 31
0.0
  0
LINE
  5
7BC
330
70
100
AcDbEntity
  8
TEKUSU
  6
DASHED2
 48
0.5
100
AcDbLine
 10
369.4876230043062
 20
370.7285924329652
 30
0.0
 11
370.1747292854941
 21
369.7850093879413
 31
0.0
  0
LINE
  5
7BD
330
70
100
AcDbEntity
  8
TEKUSU
  6
DASHED2
 48
0.5
100
AcDbLine
 10
374.8618365666805
 20
370.7285924329652
 30
0.0
 11
374.1747292854941
 21
369.7850093879413
 31
0.0
  0
LINE
  5
7BE
330
70
100
AcDbEntity
  8
TEKUSU
  6
DASHED2
 48
0.5
100
AcDbLine
 10
341.7683118709631
 20
337.3785929734111
 30
0.0
 11
358.8247292165936
 21
337.3785929734111
 31
0.0
  0
LINE
  5
7BF
330
70
100
AcDbEntity
  8
TEKUSU
100
AcDbLine
 10
358.8247292165936
 20
337.3785929734111
 30
0.0
 11
370.3247288259392
 21
337.3785929734111
 31
0.0
  0
LINE
  5
7C0
330
70
100
AcDbEntity
  8
TEKUSU
  6
DASHED2
 48
0.5
100
AcDbLine
 10
341.7683118709631
 20
341.3785929734111
 30
0.0
 11
358.8247292165936
 21
341.3785929734111
 31
0.0
  0
LINE
  5
7C1
330
70
100
AcDbEntity
  8
TEKUSU
100
AcDbLine
 10
358.8247292165936
 20
341.3785929734111
 30
0.0
 11
370.3247288259392
 21
341.3785929734111
 31
0.0
  0
LINE
  5
7C2
330
70
100
AcDbEntity
  8
TEKUSU
100
AcDbLine
 10
374.6063671984841
 20
337.6385929734131
 30
0.0
 11
370.3247288259392
 21
337.6385929734131
 31
0.0
  0
LINE
  5
7C3
330
70
100
AcDbEntity
  8
TEKUSU
100
AcDbLine
 10
374.6063671984805
 20
341.1185929734109
 30
0.0
 11
370.3247288259392
 21
341.1185929734091
 31
0.0
  0
LINE
  5
7C4
330
70
100
AcDbEntity
  8
TEKUSU
  6
DASHED2
 48
0.5
100
AcDbLine
 10
341.7683118709631
 20
337.3785929734111
 30
0.0
 11
341.7683118709631
 21
341.3785929734111
 31
0.0
  0
LINE
  5
7C5
330
70
100
AcDbEntity
  8
TEKUSU
100
AcDbLine
 10
375.8247288259393
 20
339.3785929734111
 30
0.0
 11
374.6063671984823
 21
337.6385929734095
 31
0.0
  0
LINE
  5
7C6
330
70
100
AcDbEntity
  8
TEKUSU
100
AcDbLine
 10
375.8247288259393
 20
339.3785929734111
 30
0.0
 11
374.6063671984805
 21
341.1185929734109
 31
0.0
  0
LINE
  5
7C7
330
70
100
AcDbEntity
  8
TEKUSU
100
AcDbLine
 10
370.3247288259392
 20
341.3785929734111
 30
0.0
 11
370.3247288259392
 21
337.3785929734111
 31
0.0
  0
LINE
  5
7C8
330
70
100
AcDbEntity
  8
TEKUSU
100
AcDbLine
 10
370.3247288259392
 20
340.7912829354517
 30
0.0
 11
375.8247288259393
 21
339.3785929734038
 31
0.0
  0
LINE
  5
7C9
330
70
100
AcDbEntity
  8
TEKUSU
  6
CENTER2
370
     5
100
AcDbLine
 10
333.3247288259392
 20
339.378592473411
 30
0.0
 11
380.8247288259456
 21
339.378592473411
 31
0.0
  0
LINE
  5
7CA
330
70
100
AcDbEntity
  8
TEKUSU
100
AcDbLine
 10
340.8247288259393
 20
334.2361185511889
 30
0.0
 11
340.8247288259393
 21
344.521066395633
 31
0.0
  0
LINE
  5
7CB
330
70
100
AcDbEntity
  8
TEKUSU
100
AcDbLine
 10
340.2247288259389
 20
333.8785924734109
 30
0.0
 11
340.5247288259391
 21
333.8785924734109
 31
0.0
  0
LINE
  5
7CC
330
70
100
AcDbEntity
  8
TEKUSU
100
AcDbLine
 10
340.2247288259389
 20
344.878592473411
 30
0.0
 11
340.5247288259391
 21
344.878592473411
 31
0.0
  0
ARC
  5
7CD
330
70
100
AcDbEntity
  8
TEKUSU
100
AcDbCircle
 10
344.7247288259389
 20
339.3785934734113
 30
0.0
 40
6.299999999999998
100
AcDbArc
 50
150.0000105015228
 51
209.9999894984772
  0
LINE
  5
7CE
330
70
100
AcDbEntity
  8
TEKUSU
100
AcDbLine
 10
339.2687682047474
 20
342.5285924734124
 30
0.0
 11
339.2687682047474
 21
336.2285924734113
 31
0.0
  0
ARC
  5
7CF
330
70
100
AcDbEntity
  8
TEKUSU
100
AcDbCircle
 10
345.6518774650497
 20
341.3014347121424
 30
0.0
 40
6.5
100
AcDbArc
 50
146.6102099833217
 51
169.117617286264
  0
ARC
  5
7D0
330
70
100
AcDbEntity
  8
TEKUSU
100
AcDbCircle
 10
345.6518774650497
 20
337.4557502346795
 30
0.0
 40
6.5
100
AcDbArc
 50
190.882382713736
 51
213.3897900166783
  0
LINE
  5
7D1
330
70
100
AcDbEntity
  8
TEKUSU
100
AcDbLine
 10
340.5247288259391
 20
333.8785924734109
 30
0.0
 11
340.8247288259393
 21
334.2361185511889
 31
0.0
  0
LINE
  5
7D2
330
70
100
AcDbEntity
  8
TEKUSU
100
AcDbLine
 10
340.5247288259391
 20
344.878592473411
 30
0.0
 11
340.8247288259393
 21
344.521066395633
 31
0.0
  0
LINE
  5
7D3
330
70
100
AcDbEntity
  8
TEKUSU
  6
DASHED2
 48
0.5
100
AcDbLine
 10
340.8247288259393
 20
336.6914866922233
 30
0.0
 11
341.7683118709631
 21
337.3785929734111
 31
0.0
  0
LINE
  5
7D4
330
70
100
AcDbEntity
  8
TEKUSU
  6
DASHED2
 48
0.5
100
AcDbLine
 10
340.8247288259393
 20
342.0657002545975
 30
0.0
 11
341.7683118709631
 21
341.3785929734111
 31
0.0
  0
LINE
  5
7E0
102
{ACAD_REACTORS
330
A69
102
}
330
70
100
AcDbEntity
  8
TEKUSU
  6
CENTER2
370
     5
100
AcDbLine
 10
383.5096291911534
 20
375.2242203265375
 30
0.0
 11
383.5096291911534
 21
327.7242203265312
 31
0.0
  0
LINE
  5
7E1
102
{ACAD_REACTORS
330
A69
102
}
330
70
100
AcDbEntity
  8
TEKUSU
100
AcDbLine
 10
378.3671552689313
 20
367.7242203265375
 30
0.0
 11
388.6521031133755
 21
367.7242203265375
 31
0.0
  0
LINE
  5
7F7
330
70
100
AcDbEntity
  8
TEKUSU
  6
CENTER2
370
     5
100
AcDbLine
 10
336.3247288220684
 20
327.9231493347588
 30
0.0
 11
383.8247288220748
 21
327.9231493347588
 31
0.0
  0
LINE
  5
7F8
330
70
100
AcDbEntity
  8
TEKUSU
100
AcDbLine
 10
343.8247288220684
 20
322.7806754125367
 30
0.0
 11
343.8247288220684
 21
333.0656232569808
 31
0.0
  0
LINE
  5
803
330
70
100
AcDbEntity
  8
KUTAI
  6
DASHED2
100
AcDbLine
 10
471.8247286569333
 20
269.7242202519622
 30
0.0
 11
606.8247286569337
 21
269.7242202519622
 31
0.0
  0
LINE
  5
804
330
70
100
AcDbEntity
  8
KUTAI
  6
DASHED2
100
AcDbLine
 10
471.8247286569333
 20
329.7242202519622
 30
0.0
 11
606.8247286569337
 21
329.7242202519622
 31
0.0
  0
LINE
  5
805
330
70
100
AcDbEntity
  8
KUTAI
  6
DASHED2
100
AcDbLine
 10
441.8247286698345
 20
239.7242200777963
 30
0.0
 11
441.8247286698345
 21
104.7242200777962
 31
0.0
  0
LINE
  5
806
330
70
100
AcDbEntity
  8
KUTAI
  6
DASHED2
100
AcDbLine
 10
381.8247286698345
 20
239.7242200777963
 30
0.0
 11
381.8247286698345
 21
104.7242200777963
 31
0.0
  0
DIMENSION
  5
807
330
70
100
AcDbEntity
  8
SUNPO
 48
0.1
100
AcDbDimension
280
     0
  2
*D5
 10
626.7770052977692
 20
352.7249242029228
 30
0.0
 11
622.2770052977692
 21
360.2245722647298
 31
0.0
 70
    32
 71
     5
 42
14.99929612361438
 73
     0
 74
     0
 75
     0
  3
CAD-DL
100
AcDbAlignedDimension
 13
606.8247284827678
 23
367.7242203265371
 33
0.0
 14
606.8247284827678
 24
352.7249242029228
 34
0.0
 50
90.0
100
AcDbRotatedDimension
1001
ACAD
1000
DSTYLE
1002
{
1070
   176
1070
     0
1070
    41
1040
1.0
1070
    42
1040
5.0
1070
    44
1040
0.0
1002
}
  0
DIMENSION
  5
808
330
70
100
AcDbEntity
  8
SUNPO
 48
0.1
100
AcDbDimension
280
     0
  2
*D6
 10
626.7770052977692
 20
249.7242199358833
 30
0.0
 11
622.277005297769
 21
299.7242199358831
 31
0.0
 70
    32
 71
     5
 42
100.0
 73
     0
 74
     0
 75
     0
  3
CAD-DL
100
AcDbAlignedDimension
 13
606.8247286569337
 23
349.7242199358832
 33
0.0
 14
606.8247286569337
 24
249.7242199358832
 34
0.0
 50
90.0
100
AcDbRotatedDimension
1001
ACAD
1000
DSTYLE
1002
{
1070
   176
1070
     0
1070
    41
1040
1.0
1070
    42
1040
5.0
1070
    44
1040
0.0
1002
}
  0
LINE
  5
809
330
70
100
AcDbEntity
  8
SUNPOU
  6
CENTER2
370
     9
100
AcDbLine
 10
246.7647428599296
 20
299.7242200003889
 30
0.0
 11
501.8247286698344
 21
299.7242200003889
 31
0.0
  0
LINE
  5
80A
330
70
100
AcDbEntity
  8
SUNPOU
  6
CENTER2
370
     9
100
AcDbLine
 10
411.8247286698349
 20
209.7242200003889
 30
0.0
 11
411.8247286698349
 21
464.7842058102942
 31
0.0
  0
MTEXT
  5
80B
330
70
100
AcDbEntity
  8
HIKIDASI
370
     9
100
AcDbMText
 10
428.8705016455066
 20
471.2023847032815
 30
-0.0000000000007958
 40
7.5
 41
34.5324350497724
 46
0.0
 71
     9
 72
     1
  1
胴縁芯
 73
     1
 44
1.0
  0
MTEXT
  5
80C
330
70
100
AcDbEntity
  8
HIKIDASI
370
     9
100
AcDbMText
 10
212.5481704577116
 20
304.2241101970977
 30
0.0
 40
7.5
 41
33.63515730339077
 46
0.0
 71
     1
 72
     5
  1
胴縁芯
 73
     1
 44
1.0
1001
ACAD
1000
ACAD_MTEXT_COLUMN_INFO_BEGIN
1070
    75
1070
     2
1070
    79
1070
     0
1070
    76
1070
     1
1070
    78
1070
     0
1070
    48
1040
33.63515730339077
1070
    49
1040
12.5
1070
    50
1070
     1
1040
0.0
1000
ACAD_MTEXT_COLUMN_INFO_END
  0
DIMENSION
  5
80D
330
70
100
AcDbEntity
  8
SUNPO
 48
0.1
100
AcDbDimension
280
     0
  2
*D7
 10
411.8247286698349
 20
405.1890993762151
 30
0.0
 11
387.824728736276
 21
409.6890993762151
 31
0.0
 70
    32
  1
45
 71
     5
 42
47.99999986711782
 73
     0
 74
     0
 75
     0
  3
CAD-DL
100
AcDbAlignedDimension
 13
363.8247288027171
 23
367.7242203265376
 33
0.0
 14
411.8247286698349
 24
367.7242203265375
 34
0.0
100
AcDbRotatedDimension
1001
ACAD
1000
DSTYLE
1002
{
1070
   176
1070
     0
1070
    41
1040
1.0
1070
    42
1040
5.0
1070
    44
1040
0.0
1002
}
  0
DIMENSION
  5
80E
330
70
100
AcDbEntity
  8
SUNPO
 48
0.1
100
AcDbDimension
280
     0
  2
*D8
 10
313.8247288220752
 20
299.724220000389
 30
-0.0000000000073421
 11
309.3247288220752
 21
333.7242271169895
 31
-0.0000000000073421
 70
    32
  1
65
 71
     5
 42
68.00001423320122
 73
     0
 74
     0
 75
     0
  3
CAD-DL
100
AcDbAlignedDimension
 13
343.8247288220684
 23
367.7242342335901
 33
0.0
 14
343.8247288220684
 24
299.7242200003889
 34
0.0
 50
90.0
100
AcDbRotatedDimension
1001
ACAD
1000
DSTYLE
1002
{
1070
   176
1070
     0
1070
    41
1040
1.0
1070
    42
1040
5.0
1070
    44
1040
0.0
1002
}
  0
LINE
  5
80F
330
70
100
AcDbEntity
  8
MOJI
100
AcDbLine
 10
490.5698698214599
 20
217.6322590044423
 30
0.0
 11
485.5698698214598
 21
217.6322590044421
 31
0.0
  0
TEXT
  5
810
330
70
100
AcDbEntity
  8
MOJI
100
AcDbText
 10
492.4403569425984
 20
213.632259004441
 30
0.0
 40
8.0
  1
□100×100×2.3以上
 50
0.0000000000014388
  7
CAD-DL
 11
492.4403569425983
 21
217.632259004441
 31
0.0
100
AcDbText
 73
     2
  0
LINE
  5
811
330
70
100
AcDbEntity
  8
MOJI
100
AcDbLine
 10
485.5489285889941
 20
217.6322590044421
 30
0.0
 11
461.8247286762859
 21
258.7237786221412
 31
0.0
  0
TEXT
  5
812
330
70
100
AcDbEntity
  8
MOJI
100
AcDbText
 10
473.9822533366321
 20
379.498671364446
 30
0.0
 40
8.0
  1
防水テープ
  7
CAD-DL
 11
473.9822533366321
 21
383.498671364446
 31
0.0
100
AcDbText
 73
     2
  0
LINE
  5
813
330
70
100
AcDbEntity
  8
MOJI
100
AcDbLine
 10
472.9822533366315
 20
383.498671364446
 30
0.0
 11
467.9822533366311
 21
383.498671364446
 31
0.0
  0
LINE
  5
814
330
70
100
AcDbEntity
  8
MOJI
100
AcDbLine
 10
467.9822533366311
 20
383.498671364446
 30
0.0
 11
449.0599149814317
 21
350.7242199352274
 31
0.0
  0
LINE
  5
815
330
70
100
AcDbEntity
  8
MOJI
100
AcDbLine
 10
424.2924762172355
 20
429.6021228584703
 30
0.0
 11
389.0575783564316
 21
368.5734895640596
 31
0.0
  0
LINE
  5
816
330
70
100
AcDbEntity
  8
MOJI
100
AcDbLine
 10
429.2924762172365
 20
429.6021228584703
 30
0.0
 11
424.2924762172361
 21
429.6021228584703
 31
0.0
  0
TEXT
  5
817
330
70
100
AcDbEntity
  8
MOJI
100
AcDbText
 10
430.2924762172369
 20
425.6021228584703
 30
0.0
 40
8.0
  1
捨てシーリング
  7
CAD-DL
 11
430.2924762172369
 21
429.6021228584703
 31
0.0
100
AcDbText
 73
     2
  0
LINE
  5
818
330
70
100
AcDbEntity
  8
MOJI
100
AcDbLine
 10
421.3351657132588
 20
452.9521463881068
 30
0.0
 11
426.3351657132588
 21
452.9521463881068
 31
0.0
  0
TEXT
  5
819
330
70
100
AcDbEntity
  8
MOJI
100
AcDbText
 10
428.6518639767646
 20
448.9521463881068
 30
0.0
 40
8.0
  1
ドリルビス（シンワッシャー４×30以上）
 50
0.0000000000014388
  7
CAD-DL
 11
428.6518639767646
 21
452.9521463881068
 31
0.0
100
AcDbText
 73
     2
  0
LINE
  5
81A
330
70
100
AcDbEntity
  8
MOJI
100
AcDbLine
 10
374.1106271017336
 20
371.1568461489598
 30
0.0
 11
421.3351657132592
 21
452.9521463881068
 31
0.0
  0
LINE
  5
81B
330
70
100
AcDbEntity
  8
MOJI
100
AcDbLine
 10
361.0747287998149
 20
244.0966457159578
 30
0.0
 11
327.7758912052452
 21
186.4213671691789
 31
0.0
  0
TEXT
  5
81C
330
70
100
AcDbEntity
  8
MOJI
100
AcDbText
 10
289.9940706400563
 20
182.4213671691789
 30
0.0
 40
8.0
  1
防水紙
  7
CAD-DL
 72
     2
 11
321.1818878989395
 21
186.4213671691789
 31
0.0
100
AcDbText
 73
     2
  0
LINE
  5
81D
330
70
100
AcDbEntity
  8
MOJI
100
AcDbLine
 10
327.7758912052452
 20
186.4213671691789
 30
0.0
 11
322.7758912052452
 21
186.4213671691789
 31
0.0
  0
LINE
  5
81E
330
70
100
AcDbEntity
  8
MOJI
100
AcDbLine
 10
343.8247288220684
 20
175.0680624140442
 30
0.0
 11
323.824728822068
 21
140.4270462626791
 31
0.0
  0
LINE
  5
81F
330
70
100
AcDbEntity
  8
MOJI
100
AcDbLine
 10
323.824728822068
 20
140.4270462626791
 30
0.0
 11
318.8247288220684
 21
140.4270462626791
 31
0.0
  0
TEXT
  5
820
330
70
100
AcDbEntity
  8
MOJI
100
AcDbText
 10
294.3495913463979
 20
136.4270462626791
 30
0.0
 40
8.0
  1
銘壁
  7
CAD-DL
 72
     2
 11
315.1414695189867
 21
140.4270462626791
 31
0.0
100
AcDbText
 73
     2
  0
LINE
  5
821
330
70
100
AcDbEntity
  8
MOJI
100
AcDbLine
 10
307.0921175351389
 20
265.6816028272156
 30
0.0
 11
302.0921175351389
 21
265.6816028272156
 31
0.0
  0
TEXT
  5
823
330
70
100
AcDbEntity
  8
MOJI
100
AcDbText
 10
161.7086881634399
 20
261.6090600258285
 30
0.0
 40
8.0
  1
ドリルビス（平頭４×30以上）
 50
0.0000000000014388
  7
CAD-DL
 11
161.7086881634397
 21
265.6090600258285
 31
0.0
100
AcDbText
 73
     2
  0
LINE
  5
824
330
70
100
AcDbEntity
  8
MOJI
100
AcDbLine
 10
343.1540412216711
 20
328.1426868708941
 30
0.0
 11
307.0921175351389
 21
265.6816028272156
 31
0.0
  0
LINE
  5
825
330
70
100
AcDbEntity
  8
MOJI
100
AcDbLine
 10
321.1296321427901
 20
412.2685631721537
 30
0.0
 11
344.4487926224813
 21
371.8785924314826
 31
0.0
  0
LINE
  5
826
330
70
100
AcDbEntity
  8
MOJI
100
AcDbLine
 10
321.1296321427901
 20
412.2685631721537
 30
0.0
 11
316.1296321427906
 21
412.2685631721537
 31
0.0
  0
TEXT
  5
827
330
70
100
AcDbEntity
  8
MOJI
100
AcDbText
 10
280.5389390960446
 20
408.2685631721537
 30
0.0
 40
8.0
  1
出隅15
  7
CAD-DL
 72
     2
 11
311.7267563549278
 21
412.2685631721537
 31
0.0
100
AcDbText
 73
     2
  0
LINE
  5
A10
330
70
100
AcDbEntity
  8
MOJI
100
AcDbLine
 10
437.6034431303101
 20
409.4125031887103
 30
0.0
 11
403.9218195892233
 21
351.0742199341419
 31
0.0
  0
LINE
  5
A11
330
70
100
AcDbEntity
  8
MOJI
100
AcDbLine
 10
442.6034431303104
 20
409.4125031887103
 30
0.0
 11
437.60344313031
 21
409.4125031887103
 31
0.0
  0
TEXT
  5
A12
330
70
100
AcDbEntity
  8
MOJI
100
AcDbText
 10
443.6034431303109
 20
405.4125031887103
 30
0.0
 40
8.0
  1
捨板（現場加工）
  7
CAD-DL
 11
443.6034431303109
 21
409.4125031887103
 31
0.0
100
AcDbText
 73
     2
  0
LINE
  5
A49
102
{ACAD_REACTORS
330
A55
102
}
330
70
100
AcDbEntity
  8
TEKUSU
100
AcDbLine
 10
343.8247288220684
 20
332.9231493347592
 30
0.0
 11
343.8247288220684
 21
322.9231493347583
 31
0.0
  0
LINE
  5
A4A
102
{ACAD_REACTORS
330
A55
102
}
330
70
100
AcDbEntity
  8
TEKUSU
100
AcDbLine
 10
376.7247288220681
 20
325.8231493347588
 30
0.0
 11
372.8247288220675
 21
325.8231493347588
 31
0.0
  0
LINE
  5
A4B
102
{ACAD_REACTORS
330
A55
102
}
330
70
100
AcDbEntity
  8
TEKUSU
100
AcDbLine
 10
376.7247288220681
 20
330.0231493347587
 30
0.0
 11
372.8247288220675
 21
330.0231493347587
 31
0.0
  0
LINE
  5
A4C
102
{ACAD_REACTORS
330
A55
102
}
330
70
100
AcDbEntity
  8
TEKUSU
100
AcDbLine
 10
343.8247288220684
 20
322.9231493347583
 30
0.0
 11
342.8247288220684
 21
322.9231493347583
 31
0.0
  0
LINE
  5
A4D
102
{ACAD_REACTORS
330
A55
102
}
330
70
100
AcDbEntity
  8
TEKUSU
100
AcDbLine
 10
343.8247288220684
 20
332.9231493347583
 30
0.0
 11
342.8247288220684
 21
332.9231493347583
 31
0.0
  0
LINE
  5
A4E
102
{ACAD_REACTORS
330
A55
102
}
330
70
100
AcDbEntity
  8
TEKUSU
100
AcDbLine
 10
372.8247288220675
 20
325.4231493347583
 30
0.0
 11
361.8247287988472
 21
325.4231493347583
 31
0.0
  0
LINE
  5
A4F
102
{ACAD_REACTORS
330
A55
102
}
330
70
100
AcDbEntity
  8
TEKUSU
100
AcDbLine
 10
372.8247288220675
 20
330.4231493347584
 30
0.0
 11
361.8247287988472
 21
330.4231493347583
 31
0.0
  0
LINE
  5
A50
102
{ACAD_REACTORS
330
A55
102
}
330
70
100
AcDbEntity
  8
TEKUSU
100
AcDbLine
 10
372.8247288220675
 20
330.4231493347588
 30
0.0
 11
372.8247288220675
 21
325.4231493347587
 31
0.0
  0
LINE
  5
A51
102
{ACAD_REACTORS
330
A55
102
}
330
70
100
AcDbEntity
  8
TEKUSU
100
AcDbLine
 10
342.8247288220684
 20
332.9231493347592
 30
0.0
 11
342.8247288220684
 21
322.9231493347583
 31
0.0
  0
LINE
  5
A52
102
{ACAD_REACTORS
330
A55
102
}
330
70
100
AcDbEntity
  8
TEKUSU
100
AcDbLine
 10
378.8247288220675
 20
327.9231493347588
 30
0.0
 11
376.7247288220681
 21
325.8231493347588
 31
0.0
  0
LINE
  5
A53
102
{ACAD_REACTORS
330
A55
102
}
330
70
100
AcDbEntity
  8
TEKUSU
100
AcDbLine
 10
378.8247288220684
 20
327.9231493347588
 30
0.0
 11
376.7247288220681
 21
330.0231493347587
 31
0.0
  0
LINE
  5
A54
102
{ACAD_REACTORS
330
A55
102
}
330
70
100
AcDbEntity
  8
TEKUSU
100
AcDbLine
 10
372.8247288220675
 20
328.8521960273623
 30
0.0
 11
378.8247288220684
 21
327.9231493347588
 31
0.0
  0
LINE
  5
A56
102
{ACAD_REACTORS
330
A62
330
A69
102
}
330
70
100
AcDbEntity
  8
TEKUSU
100
AcDbLine
 10
388.5096291911539
 20
367.7242203265375
 30
0.0
 11
378.5096291911529
 21
367.7242203265375
 31
0.0
  0
LINE
  5
A57
102
{ACAD_REACTORS
330
A62
330
A69
102
}
330
70
100
AcDbEntity
  8
TEKUSU
100
AcDbLine
 10
381.4096291911535
 20
334.8242203265379
 30
0.0
 11
381.4096291911535
 21
338.7242203265385
 31
0.0
  0
LINE
  5
A58
102
{ACAD_REACTORS
330
A62
330
A69
102
}
330
70
100
AcDbEntity
  8
TEKUSU
100
AcDbLine
 10
385.6096291911533
 20
334.8242203265379
 30
0.0
 11
385.6096291911533
 21
338.7242203265385
 31
0.0
  0
LINE
  5
A59
102
{ACAD_REACTORS
330
A62
330
A69
102
}
330
70
100
AcDbEntity
  8
TEKUSU
100
AcDbLine
 10
378.5096291911529
 20
367.7242203265375
 30
0.0
 11
378.5096291911529
 21
368.7242203265375
 31
0.0
  0
LINE
  5
A5A
102
{ACAD_REACTORS
330
A62
330
A69
102
}
330
70
100
AcDbEntity
  8
TEKUSU
100
AcDbLine
 10
388.509629191153
 20
367.7242203265375
 30
0.0
 11
388.509629191153
 21
368.7242203265375
 31
0.0
  0
LINE
  5
A5B
102
{ACAD_REACTORS
330
A62
330
A69
102
}
330
70
100
AcDbEntity
  8
TEKUSU
100
AcDbLine
 10
381.009629191153
 20
338.7242203265385
 30
0.0
 11
381.0096291911529
 21
349.7242199358832
 31
0.0
  0
LINE
  5
A5C
102
{ACAD_REACTORS
330
A62
330
A69
102
}
330
70
100
AcDbEntity
  8
TEKUSU
100
AcDbLine
 10
386.009629191153
 20
338.7242203265385
 30
0.0
 11
386.009629191153
 21
349.7242199358832
 31
0.0
  0
LINE
  5
A5D
102
{ACAD_REACTORS
330
A62
330
A69
102
}
330
70
100
AcDbEntity
  8
TEKUSU
100
AcDbLine
 10
386.0096291911534
 20
338.7242203265385
 30
0.0
 11
381.0096291911534
 21
338.7242203265385
 31
0.0
  0
LINE
  5
A5E
102
{ACAD_REACTORS
330
A62
330
A69
102
}
330
70
100
AcDbEntity
  8
TEKUSU
100
AcDbLine
 10
388.5096291911539
 20
368.7242203265375
 30
0.0
 11
378.5096291911529
 21
368.7242203265375
 31
0.0
  0
LINE
  5
A5F
102
{ACAD_REACTORS
330
A62
330
A69
102
}
330
70
100
AcDbEntity
  8
TEKUSU
100
AcDbLine
 10
383.5096291911534
 20
332.7242203265385
 30
0.0
 11
381.4096291911535
 21
334.8242203265379
 31
0.0
  0
LINE
  5
A60
102
{ACAD_REACTORS
330
A62
330
A69
102
}
330
70
100
AcDbEntity
  8
TEKUSU
100
AcDbLine
 10
383.5096291911534
 20
332.7242203265375
 30
0.0
 11
385.6096291911533
 21
334.8242203265379
 31
0.0
  0
LINE
  5
A61
102
{ACAD_REACTORS
330
A62
330
A69
102
}
330
70
100
AcDbEntity
  8
TEKUSU
100
AcDbLine
 10
384.438675883757
 20
338.7242203265385
 30
0.0
 11
383.5096291911534
 21
332.7242203265375
 31
0.0
  0
LINE
  5
A63
102
{ACAD_REACTORS
330
A69
102
}
330
70
100
AcDbEntity
  8
TEKUSU
  6
CENTER2
370
     5
100
AcDbLine
 10
383.5096291911538
 20
375.2242222731512
 30
0.0
 11
383.5096291911538
 21
327.7242222731448
 31
0.0
  0
LINE
  5
A64
330
70
100
AcDbEntity
  8
TEKUSU
  6
DASHED2
100
AcDbLine
 10
361.8247287988472
 20
330.4231493347583
 30
0.0
 11
343.8247288220684
 21
330.4231493347583
 31
0.0
  0
LINE
  5
A65
330
70
100
AcDbEntity
  8
TEKUSU
  6
DASHED2
100
AcDbLine
 10
361.8247287988472
 20
325.4231493347583
 30
0.0
 11
343.8247288220684
 21
325.4231493347583
 31
0.0
  0
LINE
  5
A67
102
{ACAD_REACTORS
330
A69
102
}
330
70
100
AcDbEntity
  8
TEKUSU
  6
DASHED2
 48
0.5
100
AcDbLine
 10
386.009629191153
 20
349.7242199358832
 30
0.0
 11
386.009629191153
 21
367.7242203265375
 31
0.0
  0
LINE
  5
A68
102
{ACAD_REACTORS
330
A69
102
}
330
70
100
AcDbEntity
  8
TEKUSU
  6
DASHED2
 48
0.5
100
AcDbLine
 10
381.009629191153
 20
349.7242199358832
 30
0.0
 11
381.009629191153
 21
367.7242203265375
 31
0.0
  0
ENDSEC
  0
SECTION
  2
OBJECTS
  0
DICTIONARY
  5
C
330
0
100
AcDbDictionary
281
     1
  3
ACAD_CIP_PREVIOUS_PRODUCT_INFO
350
1CE
  3
ACAD_COLOR
350
63
  3
ACAD_DETAILVIEWSTYLE
350
6A
  3
ACAD_GROUP
350
D
  3
ACAD_LAYOUT
350
62
  3
ACAD_MATERIAL
350
10
  3
ACAD_MLEADERSTYLE
350
66
  3
ACAD_MLINESTYLE
350
5F
  3
ACAD_PLOTSETTINGS
350
61
  3
ACAD_PLOTSTYLENAME
350
E
  3
ACAD_RENDER_ACTIVE_RAPIDRT_SETTINGS
350
A35
  3
ACAD_RENDER_ACTIVE_SETTINGS
350
ACA
  3
ACAD_SCALELIST
350
42
  3
ACAD_SECTIONVIEWSTYLE
350
68
  3
ACAD_TABLESTYLE
350
64
  3
ACAD_VISUALSTYLE
350
29
  3
ACDB_RECOMPOSE_DATA
350
A87
  3
AcDbVariableDictionary
350
1BA
  3
AcDsDecomposeData
350
A8D
  0
DICTIONARY
  5
1E9
330
8
100
AcDbDictionary
280
     1
281
     1
  0
DICTIONARY
  5
1D7
330
2
100
AcDbDictionary
280
     1
281
     1
  3
ACAD_LAYERSTATES
360
1D8
  0
DICTIONARY
  5
1D2
330
54
100
AcDbDictionary
280
     1
281
     1
  3
ADSK_XREC_LAYER_RECONCILED
360
1D3
  0
DICTIONARY
  5
8F
330
8E
100
AcDbDictionary
280
     1
281
     1
  3
ADSK_XREC_LAYER_RECONCILED
360
90
  0
DICTIONARY
  5
94
330
93
100
AcDbDictionary
280
     1
281
     1
  3
ADSK_XREC_LAYER_RECONCILED
360
95
  0
DICTIONARY
  5
AB
330
AA
100
AcDbDictionary
280
     1
281
     1
  3
ADSK_XREC_LAYER_RECONCILED
360
AC
  0
DICTIONARY
  5
B3
330
B2
100
AcDbDictionary
280
     1
281
     1
  3
ADSK_XREC_LAYER_RECONCILED
360
B4
  0
DICTIONARY
  5
F1
330
F0
100
AcDbDictionary
280
     1
281
     1
  3
ADSK_XREC_LAYER_RECONCILED
360
F2
  0
DICTIONARY
  5
104
330
103
100
AcDbDictionary
280
     1
281
     1
  3
ADSK_XREC_LAYER_RECONCILED
360
105
  0
DICTIONARY
  5
145
330
144
100
AcDbDictionary
280
     1
281
     1
  3
ADSK_XREC_LAYER_RECONCILED
360
146
  0
DICTIONARY
  5
14A
330
149
100
AcDbDictionary
280
     1
281
     1
  3
ADSK_XREC_LAYER_RECONCILED
360
14B
  0
DICTIONARY
  5
15C
330
15B
100
AcDbDictionary
280
     1
281
     1
  3
ADSK_XREC_LAYER_RECONCILED
360
15D
  0
DICTIONARY
  5
173
330
172
100
AcDbDictionary
280
     1
281
     1
  3
ADSK_XREC_LAYER_RECONCILED
360
174
  0
DICTIONARY
  5
265
330
264
100
AcDbDictionary
280
     1
281
     1
  0
DICTIONARY
  5
267
330
266
100
AcDbDictionary
280
     1
281
     1
  0
DICTIONARY
  5
269
330
268
100
AcDbDictionary
280
     1
281
     1
  0
DICTIONARY
  5
26B
330
26A
100
AcDbDictionary
280
     1
281
     1
  0
DICTIONARY
  5
1B2
330
70
100
AcDbDictionary
280
     1
281
     1
  3
ACAD_SORTENTS
360
1B3
  0
XRECORD
  5
1CE
102
{ACAD_REACTORS
330
C
102
}
330
C
100
AcDbXrecord
280
     1
300
ACD
300
2022
300

  0
DICTIONARY
  5
63
102
{ACAD_REACTORS
330
C
102
}
330
C
100
AcDbDictionary
281
     1
  0
DICTIONARY
  5
6A
102
{ACAD_REACTORS
330
C
102
}
330
C
100
AcDbDictionary
281
     1
  3
Imperial24
350
6B
  3
Metric50
350
1C7
  0
DICTIONARY
  5
D
102
{ACAD_REACTORS
330
C
102
}
330
C
100
AcDbDictionary
281
     1
  3
*A1
350
A55
  3
*A2
350
A62
  3
*A3
350
A69
  0
DICTIONARY
  5
62
102
{ACAD_REACTORS
330
C
102
}
330
C
100
AcDbDictionary
281
     1
  3
Model
350
73
  3
レイアウト1
350
6F
  3
レイアウト2
350
77
  0
DICTIONARY
  5
10
102
{ACAD_REACTORS
330
C
102
}
330
C
100
AcDbDictionary
281
     1
  3
ByBlock
350
19
  3
ByLayer
350
11
  3
Global
350
21
  0
DICTIONARY
  5
66
102
{ACAD_REACTORS
330
C
102
}
330
C
100
AcDbDictionary
281
     1
  3
Standard
350
67
  0
DICTIONARY
  5
5F
102
{ACAD_REACTORS
330
C
102
}
330
C
100
AcDbDictionary
281
     1
  3
Standard
350
60
  0
DICTIONARY
  5
61
102
{ACAD_REACTORS
330
C
102
}
330
C
100
AcDbDictionary
281
     1
  0
ACDBDICTIONARYWDFLT
  5
E
102
{ACAD_REACTORS
330
C
102
}
330
C
100
AcDbDictionary
281
     1
  3
Normal
350
F
  3
スタイル 1
350
8B
100
AcDbDictionaryWithDefault
340
F
  0
RAPIDRTRENDERSETTINGS
  5
A35
102
{ACAD_REACTORS
330
C
102
}
330
C
100
AcDbRenderSettings
 90
        2
  1
中
290
     1
290
     0
290
     1
290
     1
  1

  1
5 レンダリング レベルを適用
 90
        0
100
AcDbRapidRTRenderSettings
 90
        3
 70
     0
 90
        5
 90
        1
 70
     1
 70
     2
 40
3.0
 40
3.0
290
     1
  0
MENTALRAYRENDERSETTINGS
  5
ACA
102
{ACAD_XDICTIONARY
360
ACB
102
}
102
{ACAD_REACTORS
330
C
102
}
330
C
100
AcDbRenderSettings
 90
        2
  1
中間
290
     1
290
     1
290
     1
290
     1
  1

  1

 90
        0
100
AcDbMentalRayRenderSettings
 90
        2
 90
        0
 90
        1
 70
     2
 40
3.0
 40
3.0
 40
0.0500000007450581
 40
0.0500000007450581
 40
0.0500000007450581
 40
0.0500000007450581
 70
     0
290
     0
290
     1
 90
        5
 90
        5
 90
        5
290
     0
 90
      500
290
     0
 40
1.0
 90
    10000
 90
        5
 90
        5
 90
        5
290
     0
 90
      200
290
     0
290
     0
290
     0
 40
1.0
 40
1.0
 40
1500.0
 70
     0
 70
     0
 40
10.0
 70
     0
 70
     0
290
     0
  1

 90
       32
 70
     0
 90
     1048
290
     0
 40
1.0
  0
DICTIONARY
  5
42
102
{ACAD_REACTORS
330
C
102
}
330
C
100
AcDbDictionary
281
     1
  3
A0
350
43
  3
A1
350
44
  3
A2
350
45
  3
A3
350
46
  3
A4
350
47
  3
A5
350
48
  3
A6
350
49
  3
A7
350
4A
  3
A8
350
4B
  3
A9
350
4C
  3
B0
350
4D
  3
B1
350
4E
  3
B2
350
4F
  3
B3
350
50
  3
B4
350
51
  3
B5
350
52
  3
B6
350
53
  0
DICTIONARY
  5
68
102
{ACAD_REACTORS
330
C
102
}
330
C
100
AcDbDictionary
281
     1
  3
Imperial24
350
69
  3
Metric50
350
1C6
  0
DICTIONARY
  5
64
102
{ACAD_REACTORS
330
C
102
}
330
C
100
AcDbDictionary
281
     1
  3
Standard
350
65
  0
DICTIONARY
  5
29
102
{ACAD_REACTORS
330
C
102
}
330
C
100
AcDbDictionary
281
     1
  3
2dWireframe
350
2F
  3
Basic
350
2E
  3
Brighten
350
35
  3
ColorChange
350
39
  3
Conceptual
350
32
  3
Dim
350
34
  3
EdgeColorOff
350
41
  3
Facepattern
350
38
  3
Flat
350
2A
  3
FlatWithEdges
350
2B
  3
Gouraud
350
2C
  3
GouraudWithEdges
350
2D
  3
Hidden
350
31
  3
JitterOff
350
3F
  3
Linepattern
350
37
  3
OverhangOff
350
40
  3
Realistic
350
33
  3
Shaded
350
3E
  3
Shaded with edges
350
3D
  3
Shades of Gray
350
3A
  3
Sketchy
350
3B
  3
Thicken
350
36
  3
Wireframe
350
30
  3
X-Ray
350
3C
  0
XRECORD
  5
A87
102
{ACAD_REACTORS
330
C
102
}
330
C
100
AcDbXrecord
280
     1
 90
        1
330
65
330
80C
  0
DICTIONARY
  5
1BA
102
{ACAD_REACTORS
330
C
102
}
330
C
100
AcDbDictionary
281
     1
  3
ANNOALLVISIBLE
350
1C0
  3
CANNOSCALE
350
1C1
  3
CMLEADERSTYLE
350
1BC
  3
CTABLESTYLE
350
1BB
  3
CVIEWDETAILSTYLE
350
1BD
  3
CVIEWSECTIONSTYLE
350
1BE
  3
LAYEREVAL
350
1C3
  3
LAYERNOTIFY
350
1C4
  3
LIGHTINGUNITS
350
1C2
  3
MSLTSCALE
350
1BF
  0
DICTIONARY
  5
A8D
102
{ACAD_REACTORS
330
C
102
}
330
C
100
AcDbDictionary
281
     1
  3
AcDsRecords
350
A8F
  3
AcDsSchemas
350
A8E
1001
ACAD
1070
     2
  0
DICTIONARY
  5
1D8
102
{ACAD_REACTORS
330
1D7
102
}
330
1D7
100
AcDbDictionary
281
     1
  0
XRECORD
  5
1D3
102
{ACAD_REACTORS
330
1D2
102
}
330
1D2
100
AcDbXrecord
280
     1
290
     1
  0
XRECORD
  5
90
102
{ACAD_REACTORS
330
8F
102
}
330
8F
100
AcDbXrecord
280
     1
290
     1
  0
XRECORD
  5
95
102
{ACAD_REACTORS
330
94
102
}
330
94
100
AcDbXrecord
280
     1
290
     1
  0
XRECORD
  5
AC
102
{ACAD_REACTORS
330
AB
102
}
330
AB
100
AcDbXrecord
280
     1
290
     1
  0
XRECORD
  5
B4
102
{ACAD_REACTORS
330
B3
102
}
330
B3
100
AcDbXrecord
280
     1
290
     1
  0
XRECORD
  5
F2
102
{ACAD_REACTORS
330
F1
102
}
330
F1
100
AcDbXrecord
280
     1
290
     1
  0
XRECORD
  5
105
102
{ACAD_REACTORS
330
104
102
}
330
104
100
AcDbXrecord
280
     1
290
     1
  0
XRECORD
  5
146
102
{ACAD_REACTORS
330
145
102
}
330
145
100
AcDbXrecord
280
     1
290
     1
  0
XRECORD
  5
14B
102
{ACAD_REACTORS
330
14A
102
}
330
14A
100
AcDbXrecord
280
     1
290
     1
  0
XRECORD
  5
15D
102
{ACAD_REACTORS
330
15C
102
}
330
15C
100
AcDbXrecord
280
     1
290
     1
  0
XRECORD
  5
174
102
{ACAD_REACTORS
330
173
102
}
330
173
100
AcDbXrecord
280
     1
290
     1
  0
SORTENTSTABLE
  5
1B3
102
{ACAD_REACTORS
330
1B2
102
}
330
1B2
100
AcDbSortentsTable
330
70
331
714
  5
809
331
715
  5
80A
331
716
  5
80B
331
717
  5
80C
331
718
  5
714
331
719
  5
715
331
71A
  5
716
331
71B
  5
717
331
71C
  5
718
331
71D
  5
719
331
71E
  5
71A
331
71F
  5
71B
331
720
  5
71C
331
721
  5
71D
331
722
  5
71E
331
723
  5
71F
331
724
  5
720
331
725
  5
721
331
726
  5
722
331
727
  5
723
331
728
  5
724
331
729
  5
725
331
72A
  5
726
331
72B
  5
727
331
72C
  5
728
331
72D
  5
729
331
72E
  5
72A
331
72F
  5
72B
331
730
  5
72C
331
731
  5
72D
331
732
  5
72E
331
733
  5
72F
331
734
  5
730
331
735
  5
731
331
736
  5
732
331
737
  5
733
331
738
  5
734
331
739
  5
735
331
73A
  5
736
331
73B
  5
737
331
73C
  5
80D
331
73D
  5
738
331
73E
  5
80E
331
73F
  5
739
331
740
  5
73A
331
741
  5
73B
331
742
  5
73C
331
743
  5
73D
331
744
  5
73E
331
745
  5
73F
331
746
  5
740
331
747
  5
741
331
748
  5
742
331
749
  5
743
331
74A
  5
744
331
74B
  5
745
331
74C
  5
746
331
74D
  5
747
331
74E
  5
748
331
74F
  5
749
331
750
  5
74A
331
751
  5
74B
331
752
  5
74C
331
753
  5
74D
331
754
  5
74E
331
755
  5
74F
331
756
  5
750
331
757
  5
751
331
758
  5
752
331
759
  5
753
331
75A
  5
754
331
75B
  5
755
331
75C
  5
756
331
75D
  5
757
331
75E
  5
758
331
75F
  5
759
331
760
  5
75A
331
761
  5
75B
331
762
  5
75C
331
763
  5
75D
331
764
  5
75E
331
765
  5
75F
331
766
  5
760
331
767
  5
761
331
768
  5
762
331
769
  5
763
331
76A
  5
764
331
76B
  5
765
331
76C
  5
766
331
76D
  5
767
331
76E
  5
768
331
76F
  5
769
331
770
  5
76A
331
771
  5
76B
331
772
  5
76C
331
773
  5
76D
331
774
  5
76E
331
775
  5
76F
331
776
  5
770
331
777
  5
771
331
778
  5
772
331
779
  5
773
331
77A
  5
774
331
77B
  5
775
331
77C
  5
776
331
77D
  5
777
331
77E
  5
778
331
77F
  5
779
331
780
  5
77A
331
781
  5
77B
331
782
  5
77C
331
783
  5
77D
331
784
  5
77E
331
785
  5
77F
331
786
  5
780
331
787
  5
781
331
788
  5
782
331
789
  5
783
331
78A
  5
784
331
78B
  5
785
331
78C
  5
786
331
78D
  5
787
331
78E
  5
788
331
78F
  5
789
331
790
  5
78A
331
791
  5
78B
331
792
  5
78C
331
793
  5
78D
331
794
  5
78E
331
795
  5
78F
331
796
  5
790
331
797
  5
791
331
798
  5
792
331
799
  5
793
331
79A
  5
794
331
79B
  5
795
331
79C
  5
796
331
79D
  5
797
331
79E
  5
798
331
79F
  5
799
331
7A0
  5
79A
331
7A1
  5
79B
331
7A2
  5
79C
331
7A3
  5
79D
331
7A4
  5
79E
331
7A5
  5
79F
331
7A6
  5
7A0
331
7A7
  5
7A1
331
7A8
  5
7A2
331
7A9
  5
7A3
331
7AA
  5
7A4
331
7AB
  5
7A5
331
7AC
  5
7A6
331
7AD
  5
7A7
331
7AE
  5
7A8
331
7AF
  5
7A9
331
7B0
  5
7AA
331
7B1
  5
7AB
331
7B2
  5
7AC
331
7B3
  5
7AD
331
7B4
  5
7AE
331
7B5
  5
7AF
331
7B6
  5
7B0
331
7B7
  5
7B1
331
7B8
  5
7B2
331
7B9
  5
7B3
331
7BA
  5
7B4
331
7BB
  5
7B5
331
7BC
  5
7B6
331
7BD
  5
7B7
331
7BE
  5
7B8
331
7BF
  5
7B9
331
7C0
  5
7BA
331
7C1
  5
7BB
331
7C2
  5
7BC
331
7C3
  5
7BD
331
7C4
  5
7BE
331
7C5
  5
7BF
331
7C6
  5
7C0
331
7C7
  5
7C1
331
7C8
  5
7C2
331
7C9
  5
7C3
331
7CA
  5
7C4
331
7CB
  5
7C5
331
7CC
  5
7C6
331
7CD
  5
7C7
331
7CE
  5
7C8
331
7CF
  5
7C9
331
7D0
  5
7CA
331
7D1
  5
7CB
331
7D2
  5
7CC
331
7D3
  5
7CD
331
7D4
  5
7CE
331
7E0
  5
7DA
331
7E1
  5
7DB
331
7F7
  5
7F1
331
7F8
  5
7F2
331
803
  5
7FD
331
804
  5
7FE
331
805
  5
7FF
331
806
  5
800
331
807
  5
801
331
808
  5
802
331
809
  5
803
331
80A
  5
804
331
80B
  5
805
331
80C
  5
806
331
80D
  5
807
331
80E
  5
808
331
A4F
  5
A50
331
A50
  5
A52
331
A51
  5
A53
331
A52
  5
A54
331
A53
  5
A56
331
A54
  5
A57
331
A56
  5
A58
331
A57
  5
A59
331
A58
  5
A5A
331
A59
  5
A5B
331
A5A
  5
A5C
331
A5B
  5
A5D
331
A5C
  5
A5F
331
A5D
  5
A61
331
A5E
  5
A63
331
A5F
  5
A64
331
A60
  5
A65
331
A61
  5
A67
331
A63
  5
A68
331
A64
  5
A51
331
A65
  5
A4F
331
A67
  5
A60
331
A68
  5
A5E
  0
ACDBDETAILVIEWSTYLE
  5
6B
102
{ACAD_XDICTIONARY
360
AC4
102
}
102
{ACAD_REACTORS
330
6A
102
}
330
6A
100
AcDbModelDocViewStyle
 70
     0
  3
Imperial24
290
     0
100
AcDbDetailViewStyle
 70
     0
 71
     0
 90
        3
 71
     1
340
55
 62
   256
 40
0.24
340
0
 62
   256
 40
0.24
300

 40
0.36
280
     3
 71
     2
340
5D
 90
       25
 62
   256
 71
     3
340
55
 62
   256
 40
0.24
 90
        1
 40
0.75
 90
        1
300
%<\AcVar ViewType \f "%tc1">% %<\AcVar ViewDetailId>%\PSCALE %<\AcVar ViewScale \f "%sn">%
 71
     4
340
5D
 90
       25
 62
   256
340
5D
 90
       25
 62
   256
280
     0
  0
ACDBDETAILVIEWSTYLE
  5
1C7
102
{ACAD_XDICTIONARY
360
AC8
102
}
102
{ACAD_REACTORS
330
6A
102
}
330
6A
100
AcDbModelDocViewStyle
 70
     0
  3
Metric50
290
     0
100
AcDbDetailViewStyle
 70
     0
 71
     0
 90
        3
 71
     1
340
55
 62
   256
 40
5.0
340
0
 62
   256
 40
5.0
300

 40
0.0
280
     1
 71
     2
340
5D
 90
       25
 62
   256
 71
     3
340
55
 62
   256
 40
5.0
 90
        0
 40
15.0
 90
        1
300
%<\AcVar ViewDetailId>% (%<\AcVar ViewScale \f "%sn">%)
 71
     4
340
5D
 90
       25
 62
   256
340
5D
 90
       25
 62
   256
280
     0
  0
GROUP
  5
A55
102
{ACAD_REACTORS
330
D
102
}
330
D
100
AcDbGroup
300

 70
     1
 71
     1
340
A54
340
A53
340
A52
340
A51
340
A50
340
A4F
340
A4E
340
A4D
340
A4C
340
A4B
340
A4A
340
A49
  0
GROUP
  5
A62
102
{ACAD_REACTORS
330
D
102
}
330
D
100
AcDbGroup
300

 70
     1
 71
     1
340
A61
340
A60
340
A5F
340
A5E
340
A5D
340
A5C
340
A5B
340
A5A
340
A59
340
A58
340
A57
340
A56
  0
GROUP
  5
A69
102
{ACAD_REACTORS
330
D
102
}
330
D
100
AcDbGroup
300

 70
     1
 71
     1
340
A5E
340
A61
340
A60
340
A5F
340
A5D
340
A5C
340
A5B
340
A5A
340
A59
340
A58
340
A57
340
A56
340
7E1
340
A63
340
A67
340
A68
340
7E0
  0
LAYOUT
  5
73
102
{ACAD_XDICTIONARY
360
224
102
}
102
{ACAD_REACTORS
330
62
102
}
330
62
100
AcDbPlotSettings
  1

  2
Adobe PDF
  4
A3
  6

 40
3.174999952316284
 41
3.174999952316284
 42
3.17498779296875
 43
3.17498779296875
 44
297.0318298339844
 45
420.1583251953125
 46
-3.159078764067686
 47
-3.09583100406121
 48
0.0
 49
0.0
140
0.0
141
0.0
142
1.0
143
1.518554292803931
 70
 11952
 72
     1
 73
     1
 74
     0
  7
monochrome.ctb
 75
     0
147
0.6585210714814495
 76
     1
 77
     2
 78
   300
148
104.1727465195385
149
1.210850067530486
100
AcDbLayout
  1
Model
 70
     1
 71
     0
 10
0.0
 20
0.0
 11
12.0
 21
9.0
 12
0.0
 22
0.0
 32
0.0
 14
0.0
 24
0.0
 34
0.0
 15
0.0
 25
0.0
 35
0.0
146
0.0
 13
0.0
 23
0.0
 33
0.0
 16
1.0
 26
0.0
 36
0.0
 17
0.0
 27
1.0
 37
0.0
 76
     0
330
70
331
57
1001
ACAD_PSEXT
1000
Adobe PDF
1000
Adobe PDF Converter
1000
Documents\*.pdf
1000

1070
     0
  0
LAYOUT
  5
6F
102
{ACAD_REACTORS
330
62
102
}
330
62
100
AcDbPlotSettings
  1

  2
ApeosPort-IV C4475
  4

  6

 40
0.0
 41
0.0
 42
0.0
 43
0.0
 44
0.0
 45
0.0
 46
0.0
 47
0.0
 48
0.0
 49
0.0
140
0.0
141
0.0
142
1.0
143
1.0
 70
   688
 72
     0
 73
     0
 74
     5
  7
monochrome.ctb
 75
    16
147
1.0
 76
     0
 77
     2
 78
   300
148
0.0
149
0.0
100
AcDbLayout
  1
レイアウト1
 70
     0
 71
     1
 10
0.0
 20
0.0
 11
12.0
 21
9.0
 12
0.0
 22
0.0
 32
0.0
 14
1.000000000000000E+20
 24
1.000000000000000E+20
 34
1.000000000000000E+20
 15
-1.000000000000000E+20
 25
-1.000000000000000E+20
 35
-1.000000000000000E+20
146
0.0
 13
0.0
 23
0.0
 33
0.0
 16
1.0
 26
0.0
 36
0.0
 17
0.0
 27
1.0
 37
0.0
 76
     0
330
6C
  0
LAYOUT
  5
77
102
{ACAD_REACTORS
330
62
102
}
330
62
100
AcDbPlotSettings
  1

  2
ApeosPort-IV C4475
  4

  6

 40
0.0
 41
0.0
 42
0.0
 43
0.0
 44
0.0
 45
0.0
 46
0.0
 47
0.0
 48
0.0
 49
0.0
140
0.0
141
0.0
142
1.0
143
1.0
 70
   688
 72
     0
 73
     0
 74
     5
  7
monochrome.ctb
 75
    16
147
1.0
 76
     0
 77
     2
 78
   300
148
0.0
149
0.0
100
AcDbLayout
  1
レイアウト2
 70
     1
 71
     2
 10
0.0
 20
0.0
 11
12.0
 21
9.0
 12
0.0
 22
0.0
 32
0.0
 14
0.0
 24
0.0
 34
0.0
 15
0.0
 25
0.0
 35
0.0
146
0.0
 13
0.0
 23
0.0
 33
0.0
 16
1.0
 26
0.0
 36
0.0
 17
0.0
 27
1.0
 37
0.0
 76
     0
330
74
  0
MATERIAL
  5
19
102
{ACAD_XDICTIONARY
360
1A
102
}
102
{ACAD_REACTORS
330
10
102
}
330
10
100
AcDbMaterial
  1
ByBlock
 72
     0
 43
0.0208333333333333
 43
0.0
 43
0.0
 43
0.0
 43
0.0
 43
0.0208333333333333
 43
0.0
 43
0.0
 43
0.0
 43
0.0
 43
1.0
 43
0.0
 43
0.0
 43
0.0
 43
0.0
 43
1.0
 77
     0
 47
0.0208333333333333
 47
0.0
 47
0.0
 47
0.0
 47
0.0
 47
0.0208333333333333
 47
0.0
 47
0.0
 47
0.0
 47
0.0
 47
1.0
 47
0.0
 47
0.0
 47
0.0
 47
0.0
 47
1.0
171
     0
 49
0.0208333333333333
 49
0.0
 49
0.0
 49
0.0
 49
0.0
 49
0.0208333333333333
 49
0.0
 49
0.0
 49
0.0
 49
0.0
 49
1.0
 49
0.0
 49
0.0
 49
0.0
 49
0.0
 49
1.0
175
     0
142
0.0208333333333333
142
0.0
142
0.0
142
0.0
142
0.0
142
0.0208333333333333
142
0.0
142
0.0
142
0.0
142
0.0
142
1.0
142
0.0
142
0.0
142
0.0
142
0.0
142
1.0
179
     0
144
0.0208333333333333
144
0.0
144
0.0
144
0.0
144
0.0
144
0.0208333333333333
144
0.0
144
0.0
144
0.0
144
0.0
144
1.0
144
0.0
144
0.0
144
0.0
144
0.0
144
1.0
147
0.0208333333333333
147
0.0
147
0.0
147
0.0
147
0.0
147
0.0208333333333333
147
0.0
147
0.0
147
0.0
147
0.0
147
1.0
147
0.0
147
0.0
147
0.0
147
0.0
147
1.0
  0
MATERIAL
  5
11
102
{ACAD_XDICTIONARY
360
12
102
}
102
{ACAD_REACTORS
330
10
102
}
330
10
100
AcDbMaterial
  1
ByLayer
 72
     0
 43
0.0208333333333333
 43
0.0
 43
0.0
 43
0.0
 43
0.0
 43
0.0208333333333333
 43
0.0
 43
0.0
 43
0.0
 43
0.0
 43
1.0
 43
0.0
 43
0.0
 43
0.0
 43
0.0
 43
1.0
 77
     0
 47
0.0208333333333333
 47
0.0
 47
0.0
 47
0.0
 47
0.0
 47
0.0208333333333333
 47
0.0
 47
0.0
 47
0.0
 47
0.0
 47
1.0
 47
0.0
 47
0.0
 47
0.0
 47
0.0
 47
1.0
171
     0
 49
0.0208333333333333
 49
0.0
 49
0.0
 49
0.0
 49
0.0
 49
0.0208333333333333
 49
0.0
 49
0.0
 49
0.0
 49
0.0
 49
1.0
 49
0.0
 49
0.0
 49
0.0
 49
0.0
 49
1.0
175
     0
142
0.0208333333333333
142
0.0
142
0.0
142
0.0
142
0.0
142
0.0208333333333333
142
0.0
142
0.0
142
0.0
142
0.0
142
1.0
142
0.0
142
0.0
142
0.0
142
0.0
142
1.0
179
     0
144
0.0208333333333333
144
0.0
144
0.0
144
0.0
144
0.0
144
0.0208333333333333
144
0.0
144
0.0
144
0.0
144
0.0
144
1.0
144
0.0
144
0.0
144
0.0
144
0.0
144
1.0
147
0.0208333333333333
147
0.0
147
0.0
147
0.0
147
0.0
147
0.0208333333333333
147
0.0
147
0.0
147
0.0
147
0.0
147
1.0
147
0.0
147
0.0
147
0.0
147
0.0
147
1.0
  0
MATERIAL
  5
21
102
{ACAD_XDICTIONARY
360
22
102
}
102
{ACAD_REACTORS
330
10
102
}
330
10
100
AcDbMaterial
  1
Global
 72
     0
 43
0.0208333333333333
 43
0.0
 43
0.0
 43
0.0
 43
0.0
 43
0.0208333333333333
 43
0.0
 43
0.0
 43
0.0
 43
0.0
 43
1.0
 43
0.0
 43
0.0
 43
0.0
 43
0.0
 43
1.0
 77
     0
 47
0.0208333333333333
 47
0.0
 47
0.0
 47
0.0
 47
0.0
 47
0.0208333333333333
 47
0.0
 47
0.0
 47
0.0
 47
0.0
 47
1.0
 47
0.0
 47
0.0
 47
0.0
 47
0.0
 47
1.0
171
     0
 49
0.0208333333333333
 49
0.0
 49
0.0
 49
0.0
 49
0.0
 49
0.0208333333333333
 49
0.0
 49
0.0
 49
0.0
 49
0.0
 49
1.0
 49
0.0
 49
0.0
 49
0.0
 49
0.0
 49
1.0
175
     0
142
0.0208333333333333
142
0.0
142
0.0
142
0.0
142
0.0
142
0.0208333333333333
142
0.0
142
0.0
142
0.0
142
0.0
142
1.0
142
0.0
142
0.0
142
0.0
142
0.0
142
1.0
179
     0
144
0.0208333333333333
144
0.0
144
0.0
144
0.0
144
0.0
144
0.0208333333333333
144
0.0
144
0.0
144
0.0
144
0.0
144
1.0
144
0.0
144
0.0
144
0.0
144
0.0
144
1.0
147
0.0208333333333333
147
0.0
147
0.0
147
0.0
147
0.0
147
0.0208333333333333
147
0.0
147
0.0
147
0.0
147
0.0
147
1.0
147
0.0
147
0.0
147
0.0
147
0.0
147
1.0
  0
MLEADERSTYLE
  5
67
102
{ACAD_XDICTIONARY
360
AC0
102
}
102
{ACAD_REACTORS
330
66
102
}
330
66
100
AcDbMLeaderStyle
179
     2
170
     2
171
     1
172
     0
 90
        2
 40
0.0
 41
0.0
173
     1
 91
-1056964608
340
5B
 92
       -2
290
     1
 42
0.09
291
     1
 43
0.36
  3
Standard
 44
0.18
300

342
55
174
     1
178
     6
175
     1
176
     0
 93
-1056964608
 45
0.18
292
     0
297
     0
 46
0.18
 94
-1056964608
 47
1.0
 49
1.0
140
1.0
293
     1
141
0.0
294
     1
177
     0
142
1.0
295
     0
296
     0
143
0.125
271
     0
272
     9
273
     9
  0
MLINESTYLE
  5
60
102
{ACAD_REACTORS
330
5F
102
}
330
5F
100
AcDbMlineStyle
  2
STANDARD
 70
     0
  3

 62
   256
 51
90.0
 52
90.0
 71
     2
 49
0.5
 62
   256
  6
BYLAYER
 49
-0.5
 62
   256
  6
BYLAYER
  0
ACDBPLACEHOLDER
  5
F
102
{ACAD_REACTORS
330
E
102
}
330
E
  0
ACDBPLACEHOLDER
  5
8B
102
{ACAD_REACTORS
330
E
102
}
330
E
  0
DICTIONARY
  5
ACB
330
ACA
100
AcDbDictionary
280
     1
281
     1
  3
ADSK_XREC_MENTALRAYSETTINGSINFO
360
ACC
  0
SCALE
  5
43
102
{ACAD_REACTORS
330
42
102
}
330
42
100
AcDbScale
 70
     0
300
1:1
140
1.0
141
1.0
290
     1
  0
SCALE
  5
44
102
{ACAD_REACTORS
330
42
102
}
330
42
100
AcDbScale
 70
     0
300
1:2
140
1.0
141
2.0
290
     0
  0
SCALE
  5
45
102
{ACAD_REACTORS
330
42
102
}
330
42
100
AcDbScale
 70
     0
300
1:4
140
1.0
141
4.0
290
     0
  0
SCALE
  5
46
102
{ACAD_REACTORS
330
42
102
}
330
42
100
AcDbScale
 70
     0
300
1:5
140
1.0
141
5.0
290
     0
  0
SCALE
  5
47
102
{ACAD_REACTORS
330
42
102
}
330
42
100
AcDbScale
 70
     0
300
1:8
140
1.0
141
8.0
290
     0
  0
SCALE
  5
48
102
{ACAD_REACTORS
330
42
102
}
330
42
100
AcDbScale
 70
     0
300
1:10
140
1.0
141
10.0
290
     0
  0
SCALE
  5
49
102
{ACAD_REACTORS
330
42
102
}
330
42
100
AcDbScale
 70
     0
300
1:16
140
1.0
141
16.0
290
     0
  0
SCALE
  5
4A
102
{ACAD_REACTORS
330
42
102
}
330
42
100
AcDbScale
 70
     0
300
1:20
140
1.0
141
20.0
290
     0
  0
SCALE
  5
4B
102
{ACAD_REACTORS
330
42
102
}
330
42
100
AcDbScale
 70
     0
300
1:30
140
1.0
141
30.0
290
     0
  0
SCALE
  5
4C
102
{ACAD_REACTORS
330
42
102
}
330
42
100
AcDbScale
 70
     0
300
1:40
140
1.0
141
40.0
290
     0
  0
SCALE
  5
4D
102
{ACAD_REACTORS
330
42
102
}
330
42
100
AcDbScale
 70
     0
300
1:50
140
1.0
141
50.0
290
     0
  0
SCALE
  5
4E
102
{ACAD_REACTORS
330
42
102
}
330
42
100
AcDbScale
 70
     0
300
1:100
140
1.0
141
100.0
290
     0
  0
SCALE
  5
4F
102
{ACAD_REACTORS
330
42
102
}
330
42
100
AcDbScale
 70
     0
300
2:1
140
2.0
141
1.0
290
     0
  0
SCALE
  5
50
102
{ACAD_REACTORS
330
42
102
}
330
42
100
AcDbScale
 70
     0
300
4:1
140
4.0
141
1.0
290
     0
  0
SCALE
  5
51
102
{ACAD_REACTORS
330
42
102
}
330
42
100
AcDbScale
 70
     0
300
8:1
140
8.0
141
1.0
290
     0
  0
SCALE
  5
52
102
{ACAD_REACTORS
330
42
102
}
330
42
100
AcDbScale
 70
     0
300
10:1
140
10.0
141
1.0
290
     0
  0
SCALE
  5
53
102
{ACAD_REACTORS
330
42
102
}
330
42
100
AcDbScale
 70
     0
300
100:1
140
100.0
141
1.0
290
     0
  0
ACDBSECTIONVIEWSTYLE
  5
69
102
{ACAD_XDICTIONARY
360
AC2
102
}
102
{ACAD_REACTORS
330
68
102
}
330
68
100
AcDbModelDocViewStyle
 70
     0
  3
Imperial24
290
     0
100
AcDbSectionViewStyle
 70
     0
 71
     0
 90
       78
 71
     1
340
55
 62
   256
 40
0.24
340
0
340
0
 62
   256
 40
0.24
300
I, O, Q, S, X, Z
 40
0.48
 90
        3
 40
0.18
 90
        1
 71
     2
340
5D
 90
       25
 62
   256
340
5D
 90
       50
 62
   256
 40
0.24
 40
0.0
 40
0.24
 71
     3
340
55
 62
   256
 40
0.24
 90
        1
 40
0.75
 90
        1
300
%<\AcVar ViewType \f "%tc1">% %<\AcVar ViewSectionStartId>%-%<\AcVar ViewSectionEndId>%\PSCALE %<\AcVar ViewScale \f "%sn">%
 71
     4
 62
   256
 62
   257
300
ANSI31
 40
1.0
 90
        0
290
     0
290
     0
 90
        6
 40
0.0
 40
1.570796326794896
 40
0.2617993877991494
 40
1.308996938995747
 40
-0.2617993877991494
 40
1.832595714594046
  0
ACDBSECTIONVIEWSTYLE
  5
1C6
102
{ACAD_XDICTIONARY
360
AC6
102
}
102
{ACAD_REACTORS
330
68
102
}
330
68
100
AcDbModelDocViewStyle
 70
     0
  3
Metric50
290
     0
100
AcDbSectionViewStyle
 70
     0
 71
     0
 90
      102
 71
     1
340
55
 62
   256
 40
5.0
340
0
340
0
 62
   256
 40
5.0
300
I, O, Q, S, X, Z
 40
10.0
 90
        0
 40
2.5
 90
        0
 71
     2
340
5D
 90
       25
 62
   256
340
5D
 90
       50
 62
   256
 40
5.0
 40
2.5
 40
5.0
 71
     3
340
55
 62
   256
 40
5.0
 90
        0
 40
15.0
 90
        1
300
%<\AcVar ViewSectionStartId>%-%<\AcVar ViewSectionEndId>% (%<\AcVar ViewScale \f "%sn">%)
 71
     4
 62
   256
 62
   257
300
ANSI31
 40
1.0
 90
        0
290
     0
290
     0
 90
        6
 40
0.0
 40
1.570796326794896
 40
0.2617993877991494
 40
1.308996938995747
 40
-0.2617993877991494
 40
1.832595714594046
  0
TABLESTYLE
  5
65
102
{ACAD_XDICTIONARY
360
1DE
102
}
102
{ACAD_REACTORS
330
64
102
}
330
64
100
AcDbTableStyle
280
     0
  3
Standard
 70
     0
 71
     3
 40
1.5
 41
1.5
280
     0
281
     0
  7
STANDARD
140
4.5
170
     2
 62
     0
 63
     7
283
     0
 90
      512
 91
        0
  1

274
    -2
284
     1
 64
     0
275
    -2
285
     1
 65
     0
276
    -2
286
     1
 66
     0
277
    -2
287
     1
 67
     0
278
    -2
288
     1
 68
     0
279
    -2
289
     1
 69
     0
  7
STANDARD
140
6.0
170
     5
 62
     0
 63
     7
283
     0
 90
      512
 91
        0
  1

274
    -2
284
     1
 64
     0
275
    -2
285
     1
 65
     0
276
    -2
286
     1
 66
     0
277
    -2
287
     1
 67
     0
278
    -2
288
     1
 68
     0
279
    -2
289
     1
 69
     0
  7
STANDARD
140
4.5
170
     5
 62
     0
 63
     7
283
     0
 90
      512
 91
        0
  1

274
    -2
284
     1
 64
     0
275
    -2
285
     1
 65
     0
276
    -2
286
     1
 66
     0
277
    -2
287
     1
 67
     0
278
    -2
288
     1
 68
     0
279
    -2
289
     1
 69
     0
  0
VISUALSTYLE
  5
2F
102
{ACAD_XDICTIONARY
360
A9A
102
}
102
{ACAD_REACTORS
330
29
102
}
330
29
100
AcDbVisualStyle
  2
2dWireframe
 70
     4
177
     2
291
     0
 71
     0
176
     1
 72
     2
176
     1
 73
     0
176
     1
 90
        0
176
     1
 40
0.6
176
     1
 41
30.0
176
     1
 63
     7
421
 16777215
176
     1
 74
     1
176
     1
 91
        4
176
     1
 64
     7
176
     1
 65
   257
176
     1
 75
     1
176
     1
175
     1
176
     1
 42
1.0
176
     1
 92
        0
176
     1
 66
   257
176
     1
 43
1.0
176
     1
 76
     1
176
     1
 77
     6
176
     1
 78
     2
176
     1
 67
     7
176
     1
 79
     5
176
     1
170
     0
176
     1
171
     0
176
     1
290
     0
176
     1
 93
        1
176
     1
 44
0.0
176
     1
173
     0
176
     1
1001
ACAD
1000
AcDbSavedByObjectVersion
1070
     0
  0
VISUALSTYLE
  5
2E
102
{ACAD_XDICTIONARY
360
A98
102
}
102
{ACAD_REACTORS
330
29
102
}
330
29
100
AcDbVisualStyle
  2
Basic
 70
     7
177
     2
291
     1
 71
     1
176
     1
 72
     0
176
     1
 73
     1
176
     1
 90
        0
176
     1
 40
0.6
176
     1
 41
30.0
176
     1
 63
     7
421
 16777215
176
     1
 74
     0
176
     1
 91
        4
176
     1
 64
     7
176
     1
 65
   257
176
     1
 75
     1
176
     1
175
     1
176
     1
 42
1.0
176
     1
 92
        8
176
     1
 66
     7
176
     1
 43
1.0
176
     1
 76
     1
176
     1
 77
     6
176
     1
 78
     2
176
     1
 67
     7
176
     1
 79
     5
176
     1
170
     0
176
     1
171
     0
176
     1
290
     0
176
     1
 93
        1
176
     1
 44
0.0
176
     1
173
     0
176
     1
1001
ACAD
1000
AcDbSavedByObjectVersion
1070
     0
  0
VISUALSTYLE
  5
35
102
{ACAD_XDICTIONARY
360
AA6
102
}
102
{ACAD_REACTORS
330
29
102
}
330
29
100
AcDbVisualStyle
  2
Brighten
 70
    12
177
     2
291
     1
 71
     2
176
     1
 72
     2
176
     1
 73
     0
176
     1
 90
        0
176
     1
 40
0.6
176
     1
 41
30.0
176
     1
 63
     7
421
 16777215
176
     1
 74
     1
176
     1
 91
        4
176
     1
 64
     7
176
     1
 65
   257
176
     1
 75
     1
176
     1
175
     1
176
     1
 42
1.0
176
     1
 92
        8
176
     1
 66
     7
176
     1
 43
1.0
176
     1
 76
     1
176
     1
 77
     6
176
     1
 78
     2
176
     1
 67
     7
176
     1
 79
     5
176
     1
170
     0
176
     1
171
     0
176
     1
290
     0
176
     1
 93
        1
176
     1
 44
50.0
176
     1
173
     0
176
     1
1001
ACAD
1000
AcDbSavedByObjectVersion
1070
     0
  0
VISUALSTYLE
  5
39
102
{ACAD_XDICTIONARY
360
AAE
102
}
102
{ACAD_REACTORS
330
29
102
}
330
29
100
AcDbVisualStyle
  2
ColorChange
 70
    16
177
     2
291
     1
 71
     2
176
     1
 72
     2
176
     1
 73
     3
176
     1
 90
        0
176
     1
 40
0.6
176
     1
 41
30.0
176
     1
 63
     8
421
  8421504
176
     1
 74
     1
176
     1
 91
        4
176
     1
 64
     7
176
     1
 65
   257
176
     1
 75
     1
176
     1
175
     1
176
     1
 42
1.0
176
     1
 92
        8
176
     1
 66
     8
424
  8421504
176
     1
 43
1.0
176
     1
 76
     1
176
     1
 77
     6
176
     1
 78
     2
176
     1
 67
     7
176
     1
 79
     5
176
     1
170
     0
176
     1
171
     0
176
     1
290
     0
176
     1
 93
        1
176
     1
 44
0.0
176
     1
173
     0
176
     1
1001
ACAD
1000
AcDbSavedByObjectVersion
1070
     0
  0
VISUALSTYLE
  5
32
102
{ACAD_XDICTIONARY
360
AA0
102
}
102
{ACAD_REACTORS
330
29
102
}
330
29
100
AcDbVisualStyle
  2
Conceptual
 70
     9
177
     2
291
     0
 71
     3
176
     1
 72
     2
176
     1
 73
     0
176
     1
 90
        0
176
     1
 40
0.6
176
     1
 41
30.0
176
     1
 63
     7
421
 16777215
176
     1
 74
     2
176
     1
 91
        2
176
     1
 64
     7
176
     1
 65
   257
176
     1
 75
     1
176
     1
175
     1
176
     1
 42
179.0
176
     1
 92
        8
176
     1
 66
     7
176
     1
 43
1.0
176
     1
 76
     1
176
     1
 77
     6
176
     1
 78
     2
176
     1
 67
     7
176
     1
 79
     3
176
     1
170
     0
176
     1
171
     0
176
     1
290
     0
176
     1
 93
        1
176
     1
 44
0.0
176
     1
173
     0
176
     1
1001
ACAD
1000
AcDbSavedByObjectVersion
1070
     0
  0
VISUALSTYLE
  5
34
102
{ACAD_XDICTIONARY
360
AA4
102
}
102
{ACAD_REACTORS
330
29
102
}
330
29
100
AcDbVisualStyle
  2
Dim
 70
    11
177
     2
291
     1
 71
     2
176
     1
 72
     2
176
     1
 73
     0
176
     1
 90
        0
176
     1
 40
0.6
176
     1
 41
30.0
176
     1
 63
     7
421
 16777215
176
     1
 74
     1
176
     1
 91
        4
176
     1
 64
     7
176
     1
 65
   257
176
     1
 75
     1
176
     1
175
     1
176
     1
 42
1.0
176
     1
 92
        8
176
     1
 66
     7
176
     1
 43
1.0
176
     1
 76
     1
176
     1
 77
     6
176
     1
 78
     2
176
     1
 67
     7
176
     1
 79
     5
176
     1
170
     0
176
     1
171
     0
176
     1
290
     0
176
     1
 93
        1
176
     1
 44
-50.0
176
     1
173
     0
176
     1
1001
ACAD
1000
AcDbSavedByObjectVersion
1070
     0
  0
VISUALSTYLE
  5
41
102
{ACAD_XDICTIONARY
360
ABE
102
}
102
{ACAD_REACTORS
330
29
102
}
330
29
100
AcDbVisualStyle
  2
EdgeColorOff
 70
    22
177
     2
291
     1
 71
     2
176
     0
 72
     2
176
     0
 73
     0
176
     0
 90
        0
176
     0
 40
0.6
176
     0
 41
30.0
176
     0
 63
     7
421
 16777215
176
     0
 74
     1
176
     0
 91
        4
176
     0
 64
     7
176
     0
 65
   257
176
     0
 75
     1
176
     0
175
     1
176
     0
 42
1.0
176
     0
 92
        8
176
     2
 66
     7
176
     0
 43
1.0
176
     0
 76
     1
176
     0
 77
     6
176
     0
 78
     2
176
     0
 67
     7
176
     0
 79
     5
176
     0
170
     0
176
     0
171
     0
176
     0
290
     0
176
     0
 93
        1
176
     0
 44
0.0
176
     0
173
     0
176
     0
1001
ACAD
1000
AcDbSavedByObjectVersion
1070
     0
  0
VISUALSTYLE
  5
38
102
{ACAD_XDICTIONARY
360
AAC
102
}
102
{ACAD_REACTORS
330
29
102
}
330
29
100
AcDbVisualStyle
  2
Facepattern
 70
    15
177
     2
291
     1
 71
     2
176
     1
 72
     2
176
     1
 73
     0
176
     1
 90
        0
176
     1
 40
0.6
176
     1
 41
30.0
176
     1
 63
     7
421
 16777215
176
     1
 74
     1
176
     1
 91
        4
176
     1
 64
     7
176
     1
 65
   257
176
     1
 75
     1
176
     1
175
     1
176
     1
 42
1.0
176
     1
 92
        8
176
     1
 66
     7
176
     1
 43
1.0
176
     1
 76
     1
176
     1
 77
     6
176
     1
 78
     2
176
     1
 67
     7
176
     1
 79
     5
176
     1
170
     0
176
     1
171
     0
176
     1
290
     0
176
     1
 93
        1
176
     1
 44
0.0
176
     1
173
     0
176
     1
1001
ACAD
1000
AcDbSavedByObjectVersion
1070
     0
  0
VISUALSTYLE
  5
2A
102
{ACAD_XDICTIONARY
360
A90
102
}
102
{ACAD_REACTORS
330
29
102
}
330
29
100
AcDbVisualStyle
  2
Flat
 70
     0
177
     2
291
     1
 71
     2
176
     1
 72
     1
176
     1
 73
     1
176
     1
 90
        2
176
     1
 40
0.6
176
     1
 41
30.0
176
     1
 63
     7
421
 16777215
176
     1
 74
     0
176
     1
 91
        0
176
     1
 64
     7
176
     1
 65
   257
176
     1
 75
     1
176
     1
175
     1
176
     1
 42
1.0
176
     1
 92
        8
176
     1
 66
     7
176
     1
 43
1.0
176
     1
 76
     1
176
     1
 77
     6
176
     1
 78
     2
176
     1
 67
     7
176
     1
 79
     5
176
     1
170
     0
176
     1
171
     0
176
     1
290
     0
176
     1
 93
       13
176
     1
 44
0.0
176
     1
173
     0
176
     1
1001
ACAD
1000
AcDbSavedByObjectVersion
1070
     0
  0
VISUALSTYLE
  5
2B
102
{ACAD_XDICTIONARY
360
A92
102
}
102
{ACAD_REACTORS
330
29
102
}
330
29
100
AcDbVisualStyle
  2
FlatWithEdges
 70
     1
177
     2
291
     1
 71
     2
176
     1
 72
     1
176
     1
 73
     1
176
     1
 90
        2
176
     1
 40
0.6
176
     1
 41
30.0
176
     1
 63
     7
421
 16777215
176
     1
 74
     1
176
     1
 91
        0
176
     1
 64
     7
176
     1
 65
   257
176
     1
 75
     1
176
     1
175
     1
176
     1
 42
1.0
176
     1
 92
        0
176
     1
 66
   257
176
     1
 43
1.0
176
     1
 76
     1
176
     1
 77
     6
176
     1
 78
     2
176
     1
 67
     7
176
     1
 79
     5
176
     1
170
     0
176
     1
171
     0
176
     1
290
     0
176
     1
 93
       13
176
     1
 44
0.0
176
     1
173
     0
176
     1
1001
ACAD
1000
AcDbSavedByObjectVersion
1070
     0
  0
VISUALSTYLE
  5
2C
102
{ACAD_XDICTIONARY
360
A94
102
}
102
{ACAD_REACTORS
330
29
102
}
330
29
100
AcDbVisualStyle
  2
Gouraud
 70
     2
177
     2
291
     1
 71
     2
176
     1
 72
     2
176
     1
 73
     1
176
     1
 90
        2
176
     1
 40
0.6
176
     1
 41
30.0
176
     1
 63
     7
421
 16777215
176
     1
 74
     0
176
     1
 91
        0
176
     1
 64
     7
176
     1
 65
   257
176
     1
 75
     1
176
     1
175
     1
176
     1
 42
1.0
176
     1
 92
        0
176
     1
 66
     7
176
     1
 43
1.0
176
     1
 76
     1
176
     1
 77
     6
176
     1
 78
     2
176
     1
 67
     7
176
     1
 79
     5
176
     1
170
     0
176
     1
171
     0
176
     1
290
     0
176
     1
 93
       13
176
     1
 44
0.0
176
     1
173
     0
176
     1
1001
ACAD
1000
AcDbSavedByObjectVersion
1070
     0
  0
VISUALSTYLE
  5
2D
102
{ACAD_XDICTIONARY
360
A96
102
}
102
{ACAD_REACTORS
330
29
102
}
330
29
100
AcDbVisualStyle
  2
GouraudWithEdges
 70
     3
177
     2
291
     1
 71
     2
176
     1
 72
     2
176
     1
 73
     1
176
     1
 90
        2
176
     1
 40
0.6
176
     1
 41
30.0
176
     1
 63
     7
421
 16777215
176
     1
 74
     1
176
     1
 91
        0
176
     1
 64
     7
176
     1
 65
   257
176
     1
 75
     1
176
     1
175
     1
176
     1
 42
1.0
176
     1
 92
        0
176
     1
 66
   257
176
     1
 43
1.0
176
     1
 76
     1
176
     1
 77
     6
176
     1
 78
     2
176
     1
 67
     7
176
     1
 79
     5
176
     1
170
     0
176
     1
171
     0
176
     1
290
     0
176
     1
 93
       13
176
     1
 44
0.0
176
     1
173
     0
176
     1
1001
ACAD
1000
AcDbSavedByObjectVersion
1070
     0
  0
VISUALSTYLE
  5
31
102
{ACAD_XDICTIONARY
360
A9E
102
}
102
{ACAD_REACTORS
330
29
102
}
330
29
100
AcDbVisualStyle
  2
Hidden
 70
     6
177
     2
291
     0
 71
     1
176
     1
 72
     2
176
     1
 73
     2
176
     1
 90
        0
176
     1
 40
0.6
176
     1
 41
30.0
176
     1
 63
     7
421
 16777215
176
     1
 74
     2
176
     1
 91
        2
176
     1
 64
     7
176
     1
 65
   257
176
     1
 75
     2
176
     1
175
     1
176
     1
 42
40.0
176
     1
 92
        0
176
     1
 66
   257
176
     1
 43
1.0
176
     1
 76
     1
176
     1
 77
     6
176
     1
 78
     2
176
     1
 67
     7
176
     1
 79
     3
176
     1
170
     0
176
     1
171
     0
176
     1
290
     0
176
     1
 93
        1
176
     1
 44
0.0
176
     1
173
     0
176
     1
1001
ACAD
1000
AcDbSavedByObjectVersion
1070
     0
  0
VISUALSTYLE
  5
3F
102
{ACAD_XDICTIONARY
360
ABA
102
}
102
{ACAD_REACTORS
330
29
102
}
330
29
100
AcDbVisualStyle
  2
JitterOff
 70
    20
177
     2
291
     1
 71
     2
176
     0
 72
     2
176
     0
 73
     0
176
     0
 90
        0
176
     0
 40
0.6
176
     0
 41
30.0
176
     0
 63
     7
421
 16777215
176
     0
 74
     1
176
     0
 91
        4
176
     0
 64
     7
176
     0
 65
   257
176
     0
 75
     1
176
     0
175
     1
176
     0
 42
1.0
176
     0
 92
       10
176
     2
 66
     7
176
     0
 43
1.0
176
     0
 76
     1
176
     0
 77
     6
176
     0
 78
     2
176
     0
 67
     7
176
     0
 79
     5
176
     0
170
     0
176
     0
171
     0
176
     0
290
     0
176
     0
 93
        1
176
     0
 44
0.0
176
     0
173
     0
176
     0
1001
ACAD
1000
AcDbSavedByObjectVersion
1070
     0
  0
VISUALSTYLE
  5
37
102
{ACAD_XDICTIONARY
360
AAA
102
}
102
{ACAD_REACTORS
330
29
102
}
330
29
100
AcDbVisualStyle
  2
Linepattern
 70
    14
177
     2
291
     1
 71
     2
176
     1
 72
     2
176
     1
 73
     0
176
     1
 90
        0
176
     1
 40
0.6
176
     1
 41
30.0
176
     1
 63
     7
421
 16777215
176
     1
 74
     1
176
     1
 91
        4
176
     1
 64
     7
176
     1
 65
   257
176
     1
 75
     7
176
     1
175
     7
176
     1
 42
1.0
176
     1
 92
        8
176
     1
 66
     7
176
     1
 43
1.0
176
     1
 76
     1
176
     1
 77
     6
176
     1
 78
     2
176
     1
 67
     7
176
     1
 79
     5
176
     1
170
     0
176
     1
171
     0
176
     1
290
     0
176
     1
 93
        1
176
     1
 44
0.0
176
     1
173
     0
176
     1
1001
ACAD
1000
AcDbSavedByObjectVersion
1070
     0
  0
VISUALSTYLE
  5
40
102
{ACAD_XDICTIONARY
360
ABC
102
}
102
{ACAD_REACTORS
330
29
102
}
330
29
100
AcDbVisualStyle
  2
OverhangOff
 70
    21
177
     2
291
     1
 71
     2
176
     0
 72
     2
176
     0
 73
     0
176
     0
 90
        0
176
     0
 40
0.6
176
     0
 41
30.0
176
     0
 63
     7
421
 16777215
176
     0
 74
     1
176
     0
 91
        4
176
     0
 64
     7
176
     0
 65
   257
176
     0
 75
     1
176
     0
175
     1
176
     0
 42
1.0
176
     0
 92
        9
176
     2
 66
     7
176
     0
 43
1.0
176
     0
 76
     1
176
     0
 77
     6
176
     0
 78
     2
176
     0
 67
     7
176
     0
 79
     5
176
     0
170
     0
176
     0
171
     0
176
     0
290
     0
176
     0
 93
        1
176
     0
 44
0.0
176
     0
173
     0
176
     0
1001
ACAD
1000
AcDbSavedByObjectVersion
1070
     0
  0
VISUALSTYLE
  5
33
102
{ACAD_XDICTIONARY
360
AA2
102
}
102
{ACAD_REACTORS
330
29
102
}
330
29
100
AcDbVisualStyle
  2
Realistic
 70
     8
177
     2
291
     0
 71
     2
176
     1
 72
     2
176
     1
 73
     0
176
     1
 90
        2
176
     1
 40
0.6
176
     1
 41
30.0
176
     1
 63
     7
421
 16777215
176
     1
 74
     0
176
     1
 91
        0
176
     1
 64
     7
176
     1
 65
   257
176
     1
 75
     1
176
     1
175
     1
176
     1
 42
1.0
176
     1
 92
        8
176
     1
 66
   257
176
     1
 43
1.0
176
     1
 76
     1
176
     1
 77
     6
176
     1
 78
     2
176
     1
 67
     7
176
     1
 79
     3
176
     1
170
     0
176
     1
171
     0
176
     1
290
     0
176
     1
 93
       13
176
     1
 44
0.0
176
     1
173
     0
176
     1
1001
ACAD
1000
AcDbSavedByObjectVersion
1070
     0
  0
VISUALSTYLE
  5
3E
102
{ACAD_XDICTIONARY
360
AB8
102
}
102
{ACAD_REACTORS
330
29
102
}
330
29
100
AcDbVisualStyle
  2
Shaded
 70
    27
177
     2
291
     0
 71
     2
176
     1
 72
     2
176
     1
 73
     1
176
     1
 90
        2
176
     1
 40
0.6
176
     1
 41
30.0
176
     1
 63
     7
421
 16777215
176
     1
 74
     0
176
     1
 91
        4
176
     1
 64
     7
176
     1
 65
   257
176
     1
 75
     1
176
     1
175
     1
176
     1
 42
1.0
176
     1
 92
        8
176
     1
 66
   257
176
     1
 43
1.0
176
     1
 76
     1
176
     1
 77
     6
176
     1
 78
     2
176
     1
 67
     8
425
  7895160
176
     1
 79
     3
176
     1
170
     0
176
     1
171
     0
176
     1
290
     0
176
     1
 93
        5
176
     1
 44
0.0
176
     1
173
     0
176
     1
1001
ACAD
1000
AcDbSavedByObjectVersion
1070
     0
  0
VISUALSTYLE
  5
3D
102
{ACAD_XDICTIONARY
360
AB6
102
}
102
{ACAD_REACTORS
330
29
102
}
330
29
100
AcDbVisualStyle
  2
Shaded with edges
 70
    26
177
     2
291
     0
 71
     2
176
     1
 72
     2
176
     1
 73
     1
176
     1
 90
        2
176
     1
 40
0.6
176
     1
 41
30.0
176
     1
 63
     7
421
 16777215
176
     1
 74
     1
176
     1
 91
        2
176
     1
 64
     7
176
     1
 65
   257
176
     1
 75
     2
176
     1
175
     1
176
     1
 42
1.0
176
     1
 92
        8
176
     1
 66
   257
176
     1
 43
1.0
176
     1
 76
     1
176
     1
 77
     6
176
     1
 78
     2
176
     1
 67
     7
176
     1
 79
     3
176
     1
170
     0
176
     1
171
     0
176
     1
290
     0
176
     1
 93
        5
176
     1
 44
0.0
176
     1
173
     0
176
     1
1001
ACAD
1000
AcDbSavedByObjectVersion
1070
     0
  0
VISUALSTYLE
  5
3A
102
{ACAD_XDICTIONARY
360
AB0
102
}
102
{ACAD_REACTORS
330
29
102
}
330
29
100
AcDbVisualStyle
  2
Shades of Gray
 70
    23
177
     2
291
     0
 71
     2
176
     1
 72
     2
176
     1
 73
     3
176
     1
 90
        0
176
     1
 40
0.6
176
     1
 41
30.0
176
     1
 63
     7
421
 16777215
176
     1
 74
     2
176
     1
 91
        2
176
     1
 64
     7
176
     1
 65
     7
176
     1
 75
     1
176
     1
175
     1
176
     1
 42
40.0
176
     1
 92
        8
176
     1
 66
     7
176
     1
 43
1.0
176
     1
 76
     1
176
     1
 77
     6
176
     1
 78
     2
176
     1
 67
     7
176
     1
 79
     3
176
     1
170
     0
176
     1
171
     0
176
     1
290
     0
176
     1
 93
        1
176
     1
 44
0.0
176
     1
173
     0
176
     1
1001
ACAD
1000
AcDbSavedByObjectVersion
1070
     0
  0
VISUALSTYLE
  5
3B
102
{ACAD_XDICTIONARY
360
AB2
102
}
102
{ACAD_REACTORS
330
29
102
}
330
29
100
AcDbVisualStyle
  2
Sketchy
 70
    24
177
     2
291
     0
 71
     1
176
     1
 72
     2
176
     1
 73
     2
176
     1
 90
        0
176
     1
 40
0.6
176
     1
 41
30.0
176
     1
 63
     7
421
 16777215
176
     1
 74
     2
176
     1
 91
        2
176
     1
 64
     7
176
     1
 65
     7
176
     1
 75
     1
176
     1
175
     1
176
     1
 42
40.0
176
     1
 92
       11
176
     1
 66
     7
176
     1
 43
1.0
176
     1
 76
     1
176
     1
 77
     6
176
     1
 78
     2
176
     1
 67
     7
176
     1
 79
     6
176
     1
170
     0
176
     1
171
     0
176
     1
290
     0
176
     1
 93
        1
176
     1
 44
0.0
176
     1
173
     0
176
     1
1001
ACAD
1000
AcDbSavedByObjectVersion
1070
     0
  0
VISUALSTYLE
  5
36
102
{ACAD_XDICTIONARY
360
AA8
102
}
102
{ACAD_REACTORS
330
29
102
}
330
29
100
AcDbVisualStyle
  2
Thicken
 70
    13
177
     2
291
     1
 71
     2
176
     1
 72
     2
176
     1
 73
     0
176
     1
 90
        0
176
     1
 40
0.6
176
     1
 41
30.0
176
     1
 63
     7
421
 16777215
176
     1
 74
     1
176
     1
 91
        4
176
     1
 64
     7
176
     1
 65
   257
176
     1
 75
     1
176
     1
175
     1
176
     1
 42
1.0
176
     1
 92
       12
176
     1
 66
     7
176
     1
 43
1.0
176
     1
 76
     1
176
     1
 77
     6
176
     1
 78
     2
176
     1
 67
     7
176
     1
 79
     5
176
     1
170
     0
176
     1
171
     0
176
     1
290
     0
176
     1
 93
        1
176
     1
 44
0.0
176
     1
173
     0
176
     1
1001
ACAD
1000
AcDbSavedByObjectVersion
1070
     0
  0
VISUALSTYLE
  5
30
102
{ACAD_XDICTIONARY
360
A9C
102
}
102
{ACAD_REACTORS
330
29
102
}
330
29
100
AcDbVisualStyle
  2
Wireframe
 70
     5
177
     2
291
     0
 71
     0
176
     1
 72
     2
176
     1
 73
     0
176
     1
 90
        0
176
     1
 40
0.6
176
     1
 41
30.0
176
     1
 63
     7
421
 16777215
176
     1
 74
     1
176
     1
 91
        4
176
     1
 64
     7
176
     1
 65
   257
176
     1
 75
     1
176
     1
175
     1
176
     1
 42
1.0
176
     1
 92
        0
176
     1
 66
   257
176
     1
 43
1.0
176
     1
 76
     1
176
     1
 77
     6
176
     1
 78
     2
176
     1
 67
     7
176
     1
 79
     3
176
     1
170
     0
176
     1
171
     0
176
     1
290
     0
176
     1
 93
        1
176
     1
 44
0.0
176
     1
173
     0
176
     1
1001
ACAD
1000
AcDbSavedByObjectVersion
1070
     0
  0
VISUALSTYLE
  5
3C
102
{ACAD_XDICTIONARY
360
AB4
102
}
102
{ACAD_REACTORS
330
29
102
}
330
29
100
AcDbVisualStyle
  2
X-Ray
 70
    25
177
     2
291
     0
 71
     2
176
     1
 72
     2
176
     1
 73
     1
176
     1
 90
        1
176
     1
 40
0.5
176
     1
 41
30.0
176
     1
 63
     7
421
 16777215
176
     1
 74
     1
176
     1
 91
        0
176
     1
 64
     7
176
     1
 65
   257
176
     1
 75
     1
176
     1
175
     1
176
     1
 42
1.0
176
     1
 92
        8
176
     1
 66
     7
176
     1
 43
1.0
176
     1
 76
     1
176
     1
 77
     6
176
     1
 78
     2
176
     1
 67
     7
176
     1
 79
     3
176
     1
170
     0
176
     1
171
     0
176
     1
290
     0
176
     1
 93
       13
176
     1
 44
0.0
176
     1
173
     0
176
     1
1001
ACAD
1000
AcDbSavedByObjectVersion
1070
     0
  0
DICTIONARYVAR
  5
1C0
102
{ACAD_REACTORS
330
1BA
102
}
330
1BA
100
DictionaryVariables
280
     0
  1
0
  0
DICTIONARYVAR
  5
1C1
102
{ACAD_REACTORS
330
1BA
102
}
330
1BA
100
DictionaryVariables
280
     0
  1
1:1
  0
DICTIONARYVAR
  5
1BC
102
{ACAD_REACTORS
330
1BA
102
}
330
1BA
100
DictionaryVariables
280
     0
  1
STANDARD
  0
DICTIONARYVAR
  5
1BB
102
{ACAD_REACTORS
330
1BA
102
}
330
1BA
100
DictionaryVariables
280
     0
  1
STANDARD
  0
DICTIONARYVAR
  5
1BD
102
{ACAD_REACTORS
330
1BA
102
}
330
1BA
100
DictionaryVariables
280
     0
  1
Imperial24
  0
DICTIONARYVAR
  5
1BE
102
{ACAD_REACTORS
330
1BA
102
}
330
1BA
100
DictionaryVariables
280
     0
  1
Imperial24
  0
DICTIONARYVAR
  5
1C3
102
{ACAD_REACTORS
330
1BA
102
}
330
1BA
100
DictionaryVariables
280
     0
  1
1
  0
DICTIONARYVAR
  5
1C4
102
{ACAD_REACTORS
330
1BA
102
}
330
1BA
100
DictionaryVariables
280
     0
  1
15
  0
DICTIONARYVAR
  5
1C2
102
{ACAD_REACTORS
330
1BA
102
}
330
1BA
100
DictionaryVariables
280
     0
  1
0
  0
DICTIONARYVAR
  5
1BF
102
{ACAD_REACTORS
330
1BA
102
}
330
1BA
100
DictionaryVariables
280
     0
  1
0
  0
DICTIONARY
  5
A8F
102
{ACAD_REACTORS
330
A8D
102
}
330
A8D
100
AcDbDictionary
281
     1
  0
DICTIONARY
  5
A8E
102
{ACAD_REACTORS
330
A8D
102
}
330
A8D
100
AcDbDictionary
281
     1
  3
2527519378560
350
A88
  3
2527519378576
350
A89
  3
2527519378592
350
A8A
  3
2527519378608
350
A8B
  3
2527519378624
350
A8C
  0
DICTIONARY
  5
AC4
330
6B
100
AcDbDictionary
280
     1
281
     1
  3
ACAD_XREC_ROUNDTRIP
360
AC5
  0
DICTIONARY
  5
AC8
330
1C7
100
AcDbDictionary
280
     1
281
     1
  3
ACAD_XREC_ROUNDTRIP
360
AC9
  0
DICTIONARY
  5
224
330
73
100
AcDbDictionary
280
     1
281
     1
  0
DICTIONARY
  5
1A
330
19
100
AcDbDictionary
280
     1
281
     1
  3
BUMPTILE
360
1C
  3
DIFFUSETILE
360
1B
  3
OPACITYTILE
360
1F
  3
REFLECTIONTILE
360
1E
  3
REFRACTIONTILE
360
20
  3
SPECULARTILE
360
1D
  0
DICTIONARY
  5
12
330
11
100
AcDbDictionary
280
     1
281
     1
  3
BUMPTILE
360
14
  3
DIFFUSETILE
360
13
  3
OPACITYTILE
360
17
  3
REFLECTIONTILE
360
16
  3
REFRACTIONTILE
360
18
  3
SPECULARTILE
360
15
  0
DICTIONARY
  5
22
330
21
100
AcDbDictionary
280
     1
281
     1
  3
BUMPTILE
360
24
  3
DIFFUSETILE
360
23
  3
OPACITYTILE
360
27
  3
REFLECTIONTILE
360
26
  3
REFRACTIONTILE
360
28
  3
SPECULARTILE
360
25
  0
DICTIONARY
  5
AC0
330
67
100
AcDbDictionary
280
     1
281
     1
  3
ACAD_XREC_ROUNDTRIP
360
AC1
  0
XRECORD
  5
ACC
102
{ACAD_REACTORS
330
ACB
102
}
330
ACB
100
AcDbXrecord
280
     1
 70
     2
 71
     3
 72
     0
  0
DICTIONARY
  5
AC2
330
69
100
AcDbDictionary
280
     1
281
     1
  3
ACAD_XREC_ROUNDTRIP
360
AC3
  0
DICTIONARY
  5
AC6
330
1C6
100
AcDbDictionary
280
     1
281
     1
  3
ACAD_XREC_ROUNDTRIP
360
AC7
  0
DICTIONARY
  5
1DE
330
65
100
AcDbDictionary
280
     1
281
     1
  3
ACAD_ROUNDTRIP_2008_TABLESTYLE_CELLSTYLEMAP
360
A86
  0
DICTIONARY
  5
A9A
330
2F
100
AcDbDictionary
280
     1
281
     1
  3
ACAD_XREC_ROUNDTRIP
360
A9B
  0
DICTIONARY
  5
A98
330
2E
100
AcDbDictionary
280
     1
281
     1
  3
ACAD_XREC_ROUNDTRIP
360
A99
  0
DICTIONARY
  5
AA6
330
35
100
AcDbDictionary
280
     1
281
     1
  3
ACAD_XREC_ROUNDTRIP
360
AA7
  0
DICTIONARY
  5
AAE
330
39
100
AcDbDictionary
280
     1
281
     1
  3
ACAD_XREC_ROUNDTRIP
360
AAF
  0
DICTIONARY
  5
AA0
330
32
100
AcDbDictionary
280
     1
281
     1
  3
ACAD_XREC_ROUNDTRIP
360
AA1
  0
DICTIONARY
  5
AA4
330
34
100
AcDbDictionary
280
     1
281
     1
  3
ACAD_XREC_ROUNDTRIP
360
AA5
  0
DICTIONARY
  5
ABE
330
41
100
AcDbDictionary
280
     1
281
     1
  3
ACAD_XREC_ROUNDTRIP
360
ABF
  0
DICTIONARY
  5
AAC
330
38
100
AcDbDictionary
280
     1
281
     1
  3
ACAD_XREC_ROUNDTRIP
360
AAD
  0
DICTIONARY
  5
A90
330
2A
100
AcDbDictionary
280
     1
281
     1
  3
ACAD_XREC_ROUNDTRIP
360
A91
  0
DICTIONARY
  5
A92
330
2B
100
AcDbDictionary
280
     1
281
     1
  3
ACAD_XREC_ROUNDTRIP
360
A93
  0
DICTIONARY
  5
A94
330
2C
100
AcDbDictionary
280
     1
281
     1
  3
ACAD_XREC_ROUNDTRIP
360
A95
  0
DICTIONARY
  5
A96
330
2D
100
AcDbDictionary
280
     1
281
     1
  3
ACAD_XREC_ROUNDTRIP
360
A97
  0
DICTIONARY
  5
A9E
330
31
100
AcDbDictionary
280
     1
281
     1
  3
ACAD_XREC_ROUNDTRIP
360
A9F
  0
DICTIONARY
  5
ABA
330
3F
100
AcDbDictionary
280
     1
281
     1
  3
ACAD_XREC_ROUNDTRIP
360
ABB
  0
DICTIONARY
  5
AAA
330
37
100
AcDbDictionary
280
     1
281
     1
  3
ACAD_XREC_ROUNDTRIP
360
AAB
  0
DICTIONARY
  5
ABC
330
40
100
AcDbDictionary
280
     1
281
     1
  3
ACAD_XREC_ROUNDTRIP
360
ABD
  0
DICTIONARY
  5
AA2
330
33
100
AcDbDictionary
280
     1
281
     1
  3
ACAD_XREC_ROUNDTRIP
360
AA3
  0
DICTIONARY
  5
AB8
330
3E
100
AcDbDictionary
280
     1
281
     1
  3
ACAD_XREC_ROUNDTRIP
360
AB9
  0
DICTIONARY
  5
AB6
330
3D
100
AcDbDictionary
280
     1
281
     1
  3
ACAD_XREC_ROUNDTRIP
360
AB7
  0
DICTIONARY
  5
AB0
330
3A
100
AcDbDictionary
280
     1
281
     1
  3
ACAD_XREC_ROUNDTRIP
360
AB1
  0
DICTIONARY
  5
AB2
330
3B
100
AcDbDictionary
280
     1
281
     1
  3
ACAD_XREC_ROUNDTRIP
360
AB3
  0
DICTIONARY
  5
AA8
330
36
100
AcDbDictionary
280
     1
281
     1
  3
ACAD_XREC_ROUNDTRIP
360
AA9
  0
DICTIONARY
  5
A9C
330
30
100
AcDbDictionary
280
     1
281
     1
  3
ACAD_XREC_ROUNDTRIP
360
A9D
  0
DICTIONARY
  5
AB4
330
3C
100
AcDbDictionary
280
     1
281
     1
  3
ACAD_XREC_ROUNDTRIP
360
AB5
  0
XRECORD
  5
A88
102
{ACAD_REACTORS
330
A8E
102
}
330
A8E
100
AcDbXrecord
280
     1
  1
AcDb_Thumbnail_Schema
102
{ATTRRECORD
341
A89
  2
AcDbDs::TreatedAsObjectData
280
     1
291
     1
102
ATTRRECORD}
102
{ATTRRECORD
341
A8A
  2
AcDbDs::Legacy
280
     1
291
     1
102
ATTRRECORD}
  2
AcDbDs::ID
280
    10
 91
        8
102
{ATTRRECORD
341
A8B
  2
AcDs:Indexable
280
     1
291
     1
102
ATTRRECORD}
102
{ATTRRECORD
341
A8C
  2
AcDbDs::HandleAttribute
280
     7
282
     1
102
ATTRRECORD}
  2
Thumbnail_Data
280
    15
 91
        0
  0
XRECORD
  5
A89
102
{ACAD_REACTORS
330
A8E
102
}
330
A8E
100
AcDbXrecord
280
     1
  1
AcDbDs::TreatedAsObjectDataSchema
  2
AcDbDs::TreatedAsObjectData
280
     1
 91
        0
  0
XRECORD
  5
A8A
102
{ACAD_REACTORS
330
A8E
102
}
330
A8E
100
AcDbXrecord
280
     1
  1
AcDbDs::LegacySchema
  2
AcDbDs::Legacy
280
     1
 91
        0
  0
XRECORD
  5
A8B
102
{ACAD_REACTORS
330
A8E
102
}
330
A8E
100
AcDbXrecord
280
     1
  1
AcDbDs::IndexedPropertySchema
  2
AcDs:Indexable
280
     1
 91
        0
  0
XRECORD
  5
A8C
102
{ACAD_REACTORS
330
A8E
102
}
330
A8E
100
AcDbXrecord
280
     1
  1
AcDbDs::HandleAttributeSchema
  2
AcDbDs::HandleAttribute
280
     7
 91
        1
284
     1
  0
XRECORD
  5
AC5
102
{ACAD_REACTORS
330
AC4
102
}
330
AC4
100
AcDbXrecord
280
     1
102
DISPLAYNAME
  1
Imperial24
102
FLAGS
 90
        0
  0
XRECORD
  5
AC9
102
{ACAD_REACTORS
330
AC8
102
}
330
AC8
100
AcDbXrecord
280
     1
102
DISPLAYNAME
  1
Metric50
102
FLAGS
 90
        0
  0
XRECORD
  5
1C
102
{ACAD_REACTORS
330
1A
102
}
330
1A
100
AcDbXrecord
280
     1
270
     1
271
     1
  0
XRECORD
  5
1B
102
{ACAD_REACTORS
330
1A
102
}
330
1A
100
AcDbXrecord
280
     1
270
     1
271
     1
  0
XRECORD
  5
1F
102
{ACAD_REACTORS
330
1A
102
}
330
1A
100
AcDbXrecord
280
     1
270
     1
271
     1
  0
XRECORD
  5
1E
102
{ACAD_REACTORS
330
1A
102
}
330
1A
100
AcDbXrecord
280
     1
270
     1
271
     1
  0
XRECORD
  5
20
102
{ACAD_REACTORS
330
1A
102
}
330
1A
100
AcDbXrecord
280
     1
270
     1
271
     1
  0
XRECORD
  5
1D
102
{ACAD_REACTORS
330
1A
102
}
330
1A
100
AcDbXrecord
280
     1
270
     1
271
     1
  0
XRECORD
  5
14
102
{ACAD_REACTORS
330
12
102
}
330
12
100
AcDbXrecord
280
     1
270
     1
271
     1
  0
XRECORD
  5
13
102
{ACAD_REACTORS
330
12
102
}
330
12
100
AcDbXrecord
280
     1
270
     1
271
     1
  0
XRECORD
  5
17
102
{ACAD_REACTORS
330
12
102
}
330
12
100
AcDbXrecord
280
     1
270
     1
271
     1
  0
XRECORD
  5
16
102
{ACAD_REACTORS
330
12
102
}
330
12
100
AcDbXrecord
280
     1
270
     1
271
     1
  0
XRECORD
  5
18
102
{ACAD_REACTORS
330
12
102
}
330
12
100
AcDbXrecord
280
     1
270
     1
271
     1
  0
XRECORD
  5
15
102
{ACAD_REACTORS
330
12
102
}
330
12
100
AcDbXrecord
280
     1
270
     1
271
     1
  0
XRECORD
  5
24
102
{ACAD_REACTORS
330
22
102
}
330
22
100
AcDbXrecord
280
     1
270
     1
271
     1
  0
XRECORD
  5
23
102
{ACAD_REACTORS
330
22
102
}
330
22
100
AcDbXrecord
280
     1
270
     1
271
     1
  0
XRECORD
  5
27
102
{ACAD_REACTORS
330
22
102
}
330
22
100
AcDbXrecord
280
     1
270
     1
271
     1
  0
XRECORD
  5
26
102
{ACAD_REACTORS
330
22
102
}
330
22
100
AcDbXrecord
280
     1
270
     1
271
     1
  0
XRECORD
  5
28
102
{ACAD_REACTORS
330
22
102
}
330
22
100
AcDbXrecord
280
     1
270
     1
271
     1
  0
XRECORD
  5
25
102
{ACAD_REACTORS
330
22
102
}
330
22
100
AcDbXrecord
280
     1
270
     1
271
     1
  0
XRECORD
  5
AC1
102
{ACAD_REACTORS
330
AC0
102
}
330
AC0
100
AcDbXrecord
280
     1
102
ACAD_ROUNDTRIP_2012_MLEADER_STYLE
298
     1
  0
XRECORD
  5
AC3
102
{ACAD_REACTORS
330
AC2
102
}
330
AC2
100
AcDbXrecord
280
     1
102
DISPLAYNAME
  1
Imperial24
102
FLAGS
 90
        0
  0
XRECORD
  5
AC7
102
{ACAD_REACTORS
330
AC6
102
}
330
AC6
100
AcDbXrecord
280
     1
102
DISPLAYNAME
  1
Metric50
102
FLAGS
 90
        0
  0
CELLSTYLEMAP
  5
A86
102
{ACAD_REACTORS
330
1DE
102
}
330
1DE
100
AcDbCellStyleMap
 90
        3
300
CELLSTYLE
  1
TABLEFORMAT_BEGIN
 90
        5
170
     1
 91
        0
 92
    32768
 62
   257
 93
        1
300
CONTENTFORMAT
  1
CONTENTFORMAT_BEGIN
 90
        0
 91
        0
 92
      512
 93
        0
300

 40
0.0
140
1.0
 94
        5
 62
     0
340
55
144
6.0
309
CONTENTFORMAT_END
171
     1
301
MARGIN
  1
CELLMARGIN_BEGIN
 40
1.5
 40
1.5
 40
1.5
 40
1.5
 40
4.5
 40
4.5
309
CELLMARGIN_END
 94
        6
 95
        1
302
GRIDFORMAT
  1
GRIDFORMAT_BEGIN
 90
        0
 91
        1
 62
     0
 92
       -2
340
0
 93
        0
 40
1.125
309
GRIDFORMAT_END
 95
        2
302
GRIDFORMAT
  1
GRIDFORMAT_BEGIN
 90
        0
 91
        1
 62
     0
 92
       -2
340
0
 93
        0
 40
1.125
309
GRIDFORMAT_END
 95
        4
302
GRIDFORMAT
  1
GRIDFORMAT_BEGIN
 90
        0
 91
        1
 62
     0
 92
       -2
340
0
 93
        0
 40
1.125
309
GRIDFORMAT_END
 95
        8
302
GRIDFORMAT
  1
GRIDFORMAT_BEGIN
 90
        0
 91
        1
 62
     0
 92
       -2
340
0
 93
        0
 40
1.125
309
GRIDFORMAT_END
 95
       16
302
GRIDFORMAT
  1
GRIDFORMAT_BEGIN
 90
        0
 91
        1
 62
     0
 92
       -2
340
0
 93
        0
 40
1.125
309
GRIDFORMAT_END
 95
       32
302
GRIDFORMAT
  1
GRIDFORMAT_BEGIN
 90
        0
 91
        1
 62
     0
 92
       -2
340
0
 93
        0
 40
1.125
309
GRIDFORMAT_END
309
TABLEFORMAT_END
  1
CELLSTYLE_BEGIN
 90
        1
 91
        1
300
_TITLE
309
CELLSTYLE_END
300
CELLSTYLE
  1
TABLEFORMAT_BEGIN
 90
        5
170
     1
 91
        0
 92
        0
 62
   257
 93
        1
300
CONTENTFORMAT
  1
CONTENTFORMAT_BEGIN
 90
        0
 91
        0
 92
      512
 93
        0
300

 40
0.0
140
1.0
 94
        5
 62
     0
340
55
144
4.5
309
CONTENTFORMAT_END
171
     1
301
MARGIN
  1
CELLMARGIN_BEGIN
 40
1.5
 40
1.5
 40
1.5
 40
1.5
 40
4.5
 40
4.5
309
CELLMARGIN_END
 94
        6
 95
        1
302
GRIDFORMAT
  1
GRIDFORMAT_BEGIN
 90
        0
 91
        1
 62
     0
 92
       -2
340
0
 93
        0
 40
1.125
309
GRIDFORMAT_END
 95
        2
302
GRIDFORMAT
  1
GRIDFORMAT_BEGIN
 90
        0
 91
        1
 62
     0
 92
       -2
340
0
 93
        0
 40
1.125
309
GRIDFORMAT_END
 95
        4
302
GRIDFORMAT
  1
GRIDFORMAT_BEGIN
 90
        0
 91
        1
 62
     0
 92
       -2
340
0
 93
        0
 40
1.125
309
GRIDFORMAT_END
 95
        8
302
GRIDFORMAT
  1
GRIDFORMAT_BEGIN
 90
        0
 91
        1
 62
     0
 92
       -2
340
0
 93
        0
 40
1.125
309
GRIDFORMAT_END
 95
       16
302
GRIDFORMAT
  1
GRIDFORMAT_BEGIN
 90
        0
 91
        1
 62
     0
 92
       -2
340
0
 93
        0
 40
1.125
309
GRIDFORMAT_END
 95
       32
302
GRIDFORMAT
  1
GRIDFORMAT_BEGIN
 90
        0
 91
        1
 62
     0
 92
       -2
340
0
 93
        0
 40
1.125
309
GRIDFORMAT_END
309
TABLEFORMAT_END
  1
CELLSTYLE_BEGIN
 90
        2
 91
        1
300
_HEADER
309
CELLSTYLE_END
300
CELLSTYLE
  1
TABLEFORMAT_BEGIN
 90
        5
170
     1
 91
        0
 92
        0
 62
   257
 93
        1
300
CONTENTFORMAT
  1
CONTENTFORMAT_BEGIN
 90
        0
 91
        0
 92
      512
 93
        0
300

 40
0.0
140
1.0
 94
        2
 62
     0
340
55
144
4.5
309
CONTENTFORMAT_END
171
     1
301
MARGIN
  1
CELLMARGIN_BEGIN
 40
1.5
 40
1.5
 40
1.5
 40
1.5
 40
4.5
 40
4.5
309
CELLMARGIN_END
 94
        6
 95
        1
302
GRIDFORMAT
  1
GRIDFORMAT_BEGIN
 90
        0
 91
        1
 62
     0
 92
       -2
340
0
 93
        0
 40
1.125
309
GRIDFORMAT_END
 95
        2
302
GRIDFORMAT
  1
GRIDFORMAT_BEGIN
 90
        0
 91
        1
 62
     0
 92
       -2
340
0
 93
        0
 40
1.125
309
GRIDFORMAT_END
 95
        4
302
GRIDFORMAT
  1
GRIDFORMAT_BEGIN
 90
        0
 91
        1
 62
     0
 92
       -2
340
0
 93
        0
 40
1.125
309
GRIDFORMAT_END
 95
        8
302
GRIDFORMAT
  1
GRIDFORMAT_BEGIN
 90
        0
 91
        1
 62
     0
 92
       -2
340
0
 93
        0
 40
1.125
309
GRIDFORMAT_END
 95
       16
302
GRIDFORMAT
  1
GRIDFORMAT_BEGIN
 90
        0
 91
        1
 62
     0
 92
       -2
340
0
 93
        0
 40
1.125
309
GRIDFORMAT_END
 95
       32
302
GRIDFORMAT
  1
GRIDFORMAT_BEGIN
 90
        0
 91
        1
 62
     0
 92
       -2
340
0
 93
        0
 40
1.125
309
GRIDFORMAT_END
309
TABLEFORMAT_END
  1
CELLSTYLE_BEGIN
 90
        3
 91
        2
300
_DATA
309
CELLSTYLE_END
  0
XRECORD
  5
A9B
102
{ACAD_REACTORS
330
A9A
102
}
330
A9A
100
AcDbXrecord
280
     1
102
RTVSPost2010Prop28
280
     1
102
RTVSPost2010PropOp28
 70
     1
102
RTVSPost2010Prop29
280
     1
102
RTVSPost2010PropOp29
 70
     1
102
RTVSPost2010Prop30
280
     0
102
RTVSPost2010PropOp30
 70
     1
102
RTVSPost2010Prop31
280
     0
102
RTVSPost2010PropOp31
 70
     1
102
RTVSPost2010Prop32
280
     0
102
RTVSPost2010PropOp32
 70
     1
102
RTVSPost2010Prop33
280
     0
102
RTVSPost2010PropOp33
 70
     1
102
RTVSPost2010Prop34
280
     0
102
RTVSPost2010PropOp34
 70
     1
102
RTVSPost2010Prop35
280
     0
102
RTVSPost2010PropOp35
 70
     1
102
RTVSPost2010Prop36
280
     0
102
RTVSPost2010PropOp36
 70
     1
102
RTVSPost2010Prop37
 90
       50
102
RTVSPost2010PropOp37
 70
     1
102
RTVSPost2010Prop38
140
0.0
102
RTVSPost2010PropOp38
 70
     1
102
RTVSPost2010Prop39
140
1.0
102
RTVSPost2010PropOp39
 70
     1
102
RTVSPost2010Prop40
 90
        0
102
RTVSPost2010PropOp40
 70
     1
102
RTVSPost2010Prop41ColorIndex
 90
       18
102
RTVSPost2010Prop41ColorRGB
 90
        0
102
RTVSPost2010PropOp41
 70
     1
102
RTVSPost2010Prop42
 90
       50
102
RTVSPost2010PropOp42
 70
     1
102
RTVSPost2010Prop43
 90
        3
102
RTVSPost2010PropOp43
 70
     1
102
RTVSPost2010Prop44ColorIndex
 90
        5
102
RTVSPost2010Prop44ColorRGB
 90
      255
102
RTVSPost2010PropOp44
 70
     1
102
RTVSPost2010Prop45
280
     0
102
RTVSPost2010PropOp45
 70
     1
102
RTVSPost2010Prop46
 90
       50
102
RTVSPost2010PropOp46
 70
     1
102
RTVSPost2010Prop47
 90
       50
102
RTVSPost2010PropOp47
 70
     1
102
RTVSPost2010Prop48
 90
       50
102
RTVSPost2010PropOp48
 70
     1
102
RTVSPost2010Prop49
280
     0
102
RTVSPost2010PropOp49
 70
     1
102
RTVSPost2010Prop50
 90
       50
102
RTVSPost2010PropOp50
 70
     1
102
RTVSPost2010Prop51ColorIndex
 90
      256
102
RTVSPost2010Prop51ColorRGB
 90
-16777216
102
RTVSPost2010PropOp51
 70
     0
102
RTVSPost2010Prop52
140
1.0
102
RTVSPost2010PropOp52
 70
     0
102
RTVSPost2010Prop53
 90
        2
102
RTVSPost2010PropOp53
 70
     1
102
RTVSPost2010Prop54
  1
strokes_ogs.tif
102
RTVSPost2010PropOp54
 70
     1
102
RTVSPost2010Prop55
280
     0
102
RTVSPost2010PropOp55
 70
     1
102
RTVSPost2010Prop56
140
1.0
102
RTVSPost2010PropOp56
 70
     1
102
RTVSPost2010Prop57
140
1.0
102
RTVSPost2010PropOp57
 70
     1
  0
XRECORD
  5
A99
102
{ACAD_REACTORS
330
A98
102
}
330
A98
100
AcDbXrecord
280
     1
102
RTVSPost2010Prop28
280
     0
102
RTVSPost2010PropOp28
 70
     1
102
RTVSPost2010Prop29
280
     1
102
RTVSPost2010PropOp29
 70
     1
102
RTVSPost2010Prop30
280
     1
102
RTVSPost2010PropOp30
 70
     1
102
RTVSPost2010Prop31
280
     0
102
RTVSPost2010PropOp31
 70
     1
102
RTVSPost2010Prop32
280
     0
102
RTVSPost2010PropOp32
 70
     1
102
RTVSPost2010Prop33
280
     0
102
RTVSPost2010PropOp33
 70
     1
102
RTVSPost2010Prop34
280
     0
102
RTVSPost2010PropOp34
 70
     1
102
RTVSPost2010Prop35
280
     0
102
RTVSPost2010PropOp35
 70
     1
102
RTVSPost2010Prop36
280
     0
102
RTVSPost2010PropOp36
 70
     1
102
RTVSPost2010Prop37
 90
       50
102
RTVSPost2010PropOp37
 70
     1
102
RTVSPost2010Prop38
140
0.0
102
RTVSPost2010PropOp38
 70
     1
102
RTVSPost2010Prop39
140
1.0
102
RTVSPost2010PropOp39
 70
     1
102
RTVSPost2010Prop40
 90
        0
102
RTVSPost2010PropOp40
 70
     1
102
RTVSPost2010Prop41ColorIndex
 90
       18
102
RTVSPost2010Prop41ColorRGB
 90
        0
102
RTVSPost2010PropOp41
 70
     1
102
RTVSPost2010Prop42
 90
       50
102
RTVSPost2010PropOp42
 70
     1
102
RTVSPost2010Prop43
 90
        3
102
RTVSPost2010PropOp43
 70
     1
102
RTVSPost2010Prop44ColorIndex
 90
        5
102
RTVSPost2010Prop44ColorRGB
 90
      255
102
RTVSPost2010PropOp44
 70
     1
102
RTVSPost2010Prop45
280
     0
102
RTVSPost2010PropOp45
 70
     1
102
RTVSPost2010Prop46
 90
       50
102
RTVSPost2010PropOp46
 70
     1
102
RTVSPost2010Prop47
 90
       50
102
RTVSPost2010PropOp47
 70
     1
102
RTVSPost2010Prop48
 90
       50
102
RTVSPost2010PropOp48
 70
     1
102
RTVSPost2010Prop49
280
     0
102
RTVSPost2010PropOp49
 70
     1
102
RTVSPost2010Prop50
 90
       50
102
RTVSPost2010PropOp50
 70
     1
102
RTVSPost2010Prop51ColorIndex
 90
      256
102
RTVSPost2010Prop51ColorRGB
 90
-16777216
102
RTVSPost2010PropOp51
 70
     0
102
RTVSPost2010Prop52
140
1.0
102
RTVSPost2010PropOp52
 70
     0
102
RTVSPost2010Prop53
 90
        2
102
RTVSPost2010PropOp53
 70
     1
102
RTVSPost2010Prop54
  1
strokes_ogs.tif
102
RTVSPost2010PropOp54
 70
     1
102
RTVSPost2010Prop55
280
     0
102
RTVSPost2010PropOp55
 70
     1
102
RTVSPost2010Prop56
140
1.0
102
RTVSPost2010PropOp56
 70
     1
102
RTVSPost2010Prop57
140
1.0
102
RTVSPost2010PropOp57
 70
     1
  0
XRECORD
  5
AA7
102
{ACAD_REACTORS
330
AA6
102
}
330
AA6
100
AcDbXrecord
280
     1
102
RTVSPost2010Prop28
280
     0
102
RTVSPost2010PropOp28
 70
     1
102
RTVSPost2010Prop29
280
     1
102
RTVSPost2010PropOp29
 70
     1
102
RTVSPost2010Prop30
280
     1
102
RTVSPost2010PropOp30
 70
     1
102
RTVSPost2010Prop31
280
     0
102
RTVSPost2010PropOp31
 70
     1
102
RTVSPost2010Prop32
280
     0
102
RTVSPost2010PropOp32
 70
     1
102
RTVSPost2010Prop33
280
     0
102
RTVSPost2010PropOp33
 70
     1
102
RTVSPost2010Prop34
280
     0
102
RTVSPost2010PropOp34
 70
     1
102
RTVSPost2010Prop35
280
     0
102
RTVSPost2010PropOp35
 70
     1
102
RTVSPost2010Prop36
280
     0
102
RTVSPost2010PropOp36
 70
     1
102
RTVSPost2010Prop37
 90
       50
102
RTVSPost2010PropOp37
 70
     1
102
RTVSPost2010Prop38
140
0.0
102
RTVSPost2010PropOp38
 70
     1
102
RTVSPost2010Prop39
140
1.0
102
RTVSPost2010PropOp39
 70
     1
102
RTVSPost2010Prop40
 90
        0
102
RTVSPost2010PropOp40
 70
     1
102
RTVSPost2010Prop41ColorIndex
 90
       18
102
RTVSPost2010Prop41ColorRGB
 90
        0
102
RTVSPost2010PropOp41
 70
     1
102
RTVSPost2010Prop42
 90
       50
102
RTVSPost2010PropOp42
 70
     1
102
RTVSPost2010Prop43
 90
        3
102
RTVSPost2010PropOp43
 70
     1
102
RTVSPost2010Prop44ColorIndex
 90
        5
102
RTVSPost2010Prop44ColorRGB
 90
      255
102
RTVSPost2010PropOp44
 70
     1
102
RTVSPost2010Prop45
280
     0
102
RTVSPost2010PropOp45
 70
     1
102
RTVSPost2010Prop46
 90
       50
102
RTVSPost2010PropOp46
 70
     1
102
RTVSPost2010Prop47
 90
       50
102
RTVSPost2010PropOp47
 70
     1
102
RTVSPost2010Prop48
 90
       50
102
RTVSPost2010PropOp48
 70
     1
102
RTVSPost2010Prop49
280
     0
102
RTVSPost2010PropOp49
 70
     1
102
RTVSPost2010Prop50
 90
       50
102
RTVSPost2010PropOp50
 70
     1
102
RTVSPost2010Prop51ColorIndex
 90
      256
102
RTVSPost2010Prop51ColorRGB
 90
-16777216
102
RTVSPost2010PropOp51
 70
     0
102
RTVSPost2010Prop52
140
1.0
102
RTVSPost2010PropOp52
 70
     0
102
RTVSPost2010Prop53
 90
        2
102
RTVSPost2010PropOp53
 70
     1
102
RTVSPost2010Prop54
  1
strokes_ogs.tif
102
RTVSPost2010PropOp54
 70
     1
102
RTVSPost2010Prop55
280
     0
102
RTVSPost2010PropOp55
 70
     1
102
RTVSPost2010Prop56
140
1.0
102
RTVSPost2010PropOp56
 70
     1
102
RTVSPost2010Prop57
140
1.0
102
RTVSPost2010PropOp57
 70
     1
  0
XRECORD
  5
AAF
102
{ACAD_REACTORS
330
AAE
102
}
330
AAE
100
AcDbXrecord
280
     1
102
RTVSPost2010Prop28
280
     0
102
RTVSPost2010PropOp28
 70
     1
102
RTVSPost2010Prop29
280
     1
102
RTVSPost2010PropOp29
 70
     1
102
RTVSPost2010Prop30
280
     1
102
RTVSPost2010PropOp30
 70
     1
102
RTVSPost2010Prop31
280
     0
102
RTVSPost2010PropOp31
 70
     1
102
RTVSPost2010Prop32
280
     0
102
RTVSPost2010PropOp32
 70
     1
102
RTVSPost2010Prop33
280
     0
102
RTVSPost2010PropOp33
 70
     1
102
RTVSPost2010Prop34
280
     0
102
RTVSPost2010PropOp34
 70
     1
102
RTVSPost2010Prop35
280
     0
102
RTVSPost2010PropOp35
 70
     1
102
RTVSPost2010Prop36
280
     0
102
RTVSPost2010PropOp36
 70
     1
102
RTVSPost2010Prop37
 90
       50
102
RTVSPost2010PropOp37
 70
     1
102
RTVSPost2010Prop38
140
0.0
102
RTVSPost2010PropOp38
 70
     1
102
RTVSPost2010Prop39
140
1.0
102
RTVSPost2010PropOp39
 70
     1
102
RTVSPost2010Prop40
 90
        0
102
RTVSPost2010PropOp40
 70
     1
102
RTVSPost2010Prop41ColorIndex
 90
       18
102
RTVSPost2010Prop41ColorRGB
 90
        0
102
RTVSPost2010PropOp41
 70
     1
102
RTVSPost2010Prop42
 90
       50
102
RTVSPost2010PropOp42
 70
     1
102
RTVSPost2010Prop43
 90
        3
102
RTVSPost2010PropOp43
 70
     1
102
RTVSPost2010Prop44ColorIndex
 90
        5
102
RTVSPost2010Prop44ColorRGB
 90
      255
102
RTVSPost2010PropOp44
 70
     1
102
RTVSPost2010Prop45
280
     0
102
RTVSPost2010PropOp45
 70
     1
102
RTVSPost2010Prop46
 90
       50
102
RTVSPost2010PropOp46
 70
     1
102
RTVSPost2010Prop47
 90
       50
102
RTVSPost2010PropOp47
 70
     1
102
RTVSPost2010Prop48
 90
       50
102
RTVSPost2010PropOp48
 70
     1
102
RTVSPost2010Prop49
280
     0
102
RTVSPost2010PropOp49
 70
     1
102
RTVSPost2010Prop50
 90
       50
102
RTVSPost2010PropOp50
 70
     1
102
RTVSPost2010Prop51ColorIndex
 90
      256
102
RTVSPost2010Prop51ColorRGB
 90
-16777216
102
RTVSPost2010PropOp51
 70
     0
102
RTVSPost2010Prop52
140
1.0
102
RTVSPost2010PropOp52
 70
     0
102
RTVSPost2010Prop53
 90
        2
102
RTVSPost2010PropOp53
 70
     1
102
RTVSPost2010Prop54
  1
strokes_ogs.tif
102
RTVSPost2010PropOp54
 70
     1
102
RTVSPost2010Prop55
280
     0
102
RTVSPost2010PropOp55
 70
     1
102
RTVSPost2010Prop56
140
1.0
102
RTVSPost2010PropOp56
 70
     1
102
RTVSPost2010Prop57
140
1.0
102
RTVSPost2010PropOp57
 70
     1
  0
XRECORD
  5
AA1
102
{ACAD_REACTORS
330
AA0
102
}
330
AA0
100
AcDbXrecord
280
     1
102
RTVSPost2010Prop28
280
     0
102
RTVSPost2010PropOp28
 70
     1
102
RTVSPost2010Prop29
280
     1
102
RTVSPost2010PropOp29
 70
     1
102
RTVSPost2010Prop30
280
     1
102
RTVSPost2010PropOp30
 70
     1
102
RTVSPost2010Prop31
280
     0
102
RTVSPost2010PropOp31
 70
     1
102
RTVSPost2010Prop32
280
     0
102
RTVSPost2010PropOp32
 70
     1
102
RTVSPost2010Prop33
280
     0
102
RTVSPost2010PropOp33
 70
     1
102
RTVSPost2010Prop34
280
     0
102
RTVSPost2010PropOp34
 70
     1
102
RTVSPost2010Prop35
280
     0
102
RTVSPost2010PropOp35
 70
     1
102
RTVSPost2010Prop36
280
     0
102
RTVSPost2010PropOp36
 70
     1
102
RTVSPost2010Prop37
 90
       50
102
RTVSPost2010PropOp37
 70
     1
102
RTVSPost2010Prop38
140
0.0
102
RTVSPost2010PropOp38
 70
     1
102
RTVSPost2010Prop39
140
1.0
102
RTVSPost2010PropOp39
 70
     1
102
RTVSPost2010Prop40
 90
        0
102
RTVSPost2010PropOp40
 70
     1
102
RTVSPost2010Prop41ColorIndex
 90
       18
102
RTVSPost2010Prop41ColorRGB
 90
        0
102
RTVSPost2010PropOp41
 70
     1
102
RTVSPost2010Prop42
 90
       50
102
RTVSPost2010PropOp42
 70
     1
102
RTVSPost2010Prop43
 90
        3
102
RTVSPost2010PropOp43
 70
     1
102
RTVSPost2010Prop44ColorIndex
 90
        5
102
RTVSPost2010Prop44ColorRGB
 90
      255
102
RTVSPost2010PropOp44
 70
     1
102
RTVSPost2010Prop45
280
     0
102
RTVSPost2010PropOp45
 70
     1
102
RTVSPost2010Prop46
 90
       50
102
RTVSPost2010PropOp46
 70
     1
102
RTVSPost2010Prop47
 90
       50
102
RTVSPost2010PropOp47
 70
     1
102
RTVSPost2010Prop48
 90
       50
102
RTVSPost2010PropOp48
 70
     1
102
RTVSPost2010Prop49
280
     0
102
RTVSPost2010PropOp49
 70
     1
102
RTVSPost2010Prop50
 90
       50
102
RTVSPost2010PropOp50
 70
     1
102
RTVSPost2010Prop51ColorIndex
 90
      256
102
RTVSPost2010Prop51ColorRGB
 90
-16777216
102
RTVSPost2010PropOp51
 70
     0
102
RTVSPost2010Prop52
140
1.0
102
RTVSPost2010PropOp52
 70
     0
102
RTVSPost2010Prop53
 90
        2
102
RTVSPost2010PropOp53
 70
     1
102
RTVSPost2010Prop54
  1
strokes_ogs.tif
102
RTVSPost2010PropOp54
 70
     1
102
RTVSPost2010Prop55
280
     0
102
RTVSPost2010PropOp55
 70
     1
102
RTVSPost2010Prop56
140
1.0
102
RTVSPost2010PropOp56
 70
     1
102
RTVSPost2010Prop57
140
1.0
102
RTVSPost2010PropOp57
 70
     1
  0
XRECORD
  5
AA5
102
{ACAD_REACTORS
330
AA4
102
}
330
AA4
100
AcDbXrecord
280
     1
102
RTVSPost2010Prop28
280
     0
102
RTVSPost2010PropOp28
 70
     1
102
RTVSPost2010Prop29
280
     1
102
RTVSPost2010PropOp29
 70
     1
102
RTVSPost2010Prop30
280
     1
102
RTVSPost2010PropOp30
 70
     1
102
RTVSPost2010Prop31
280
     0
102
RTVSPost2010PropOp31
 70
     1
102
RTVSPost2010Prop32
280
     0
102
RTVSPost2010PropOp32
 70
     1
102
RTVSPost2010Prop33
280
     0
102
RTVSPost2010PropOp33
 70
     1
102
RTVSPost2010Prop34
280
     0
102
RTVSPost2010PropOp34
 70
     1
102
RTVSPost2010Prop35
280
     0
102
RTVSPost2010PropOp35
 70
     1
102
RTVSPost2010Prop36
280
     0
102
RTVSPost2010PropOp36
 70
     1
102
RTVSPost2010Prop37
 90
       50
102
RTVSPost2010PropOp37
 70
     1
102
RTVSPost2010Prop38
140
0.0
102
RTVSPost2010PropOp38
 70
     1
102
RTVSPost2010Prop39
140
1.0
102
RTVSPost2010PropOp39
 70
     1
102
RTVSPost2010Prop40
 90
        0
102
RTVSPost2010PropOp40
 70
     1
102
RTVSPost2010Prop41ColorIndex
 90
       18
102
RTVSPost2010Prop41ColorRGB
 90
        0
102
RTVSPost2010PropOp41
 70
     1
102
RTVSPost2010Prop42
 90
       50
102
RTVSPost2010PropOp42
 70
     1
102
RTVSPost2010Prop43
 90
        3
102
RTVSPost2010PropOp43
 70
     1
102
RTVSPost2010Prop44ColorIndex
 90
        5
102
RTVSPost2010Prop44ColorRGB
 90
      255
102
RTVSPost2010PropOp44
 70
     1
102
RTVSPost2010Prop45
280
     0
102
RTVSPost2010PropOp45
 70
     1
102
RTVSPost2010Prop46
 90
       50
102
RTVSPost2010PropOp46
 70
     1
102
RTVSPost2010Prop47
 90
       50
102
RTVSPost2010PropOp47
 70
     1
102
RTVSPost2010Prop48
 90
       50
102
RTVSPost2010PropOp48
 70
     1
102
RTVSPost2010Prop49
280
     0
102
RTVSPost2010PropOp49
 70
     1
102
RTVSPost2010Prop50
 90
       50
102
RTVSPost2010PropOp50
 70
     1
102
RTVSPost2010Prop51ColorIndex
 90
      256
102
RTVSPost2010Prop51ColorRGB
 90
-16777216
102
RTVSPost2010PropOp51
 70
     0
102
RTVSPost2010Prop52
140
1.0
102
RTVSPost2010PropOp52
 70
     0
102
RTVSPost2010Prop53
 90
        2
102
RTVSPost2010PropOp53
 70
     1
102
RTVSPost2010Prop54
  1
strokes_ogs.tif
102
RTVSPost2010PropOp54
 70
     1
102
RTVSPost2010Prop55
280
     0
102
RTVSPost2010PropOp55
 70
     1
102
RTVSPost2010Prop56
140
1.0
102
RTVSPost2010PropOp56
 70
     1
102
RTVSPost2010Prop57
140
1.0
102
RTVSPost2010PropOp57
 70
     1
  0
XRECORD
  5
ABF
102
{ACAD_REACTORS
330
ABE
102
}
330
ABE
100
AcDbXrecord
280
     1
102
RTVSPost2010Prop28
280
     0
102
RTVSPost2010PropOp28
 70
     0
102
RTVSPost2010Prop29
280
     1
102
RTVSPost2010PropOp29
 70
     0
102
RTVSPost2010Prop30
280
     1
102
RTVSPost2010PropOp30
 70
     0
102
RTVSPost2010Prop31
280
     0
102
RTVSPost2010PropOp31
 70
     0
102
RTVSPost2010Prop32
280
     0
102
RTVSPost2010PropOp32
 70
     0
102
RTVSPost2010Prop33
280
     0
102
RTVSPost2010PropOp33
 70
     0
102
RTVSPost2010Prop34
280
     0
102
RTVSPost2010PropOp34
 70
     0
102
RTVSPost2010Prop35
280
     0
102
RTVSPost2010PropOp35
 70
     0
102
RTVSPost2010Prop36
280
     0
102
RTVSPost2010PropOp36
 70
     0
102
RTVSPost2010Prop37
 90
       50
102
RTVSPost2010PropOp37
 70
     0
102
RTVSPost2010Prop38
140
0.0
102
RTVSPost2010PropOp38
 70
     0
102
RTVSPost2010Prop39
140
1.0
102
RTVSPost2010PropOp39
 70
     0
102
RTVSPost2010Prop40
 90
        0
102
RTVSPost2010PropOp40
 70
     0
102
RTVSPost2010Prop41ColorIndex
 90
       18
102
RTVSPost2010Prop41ColorRGB
 90
        0
102
RTVSPost2010PropOp41
 70
     0
102
RTVSPost2010Prop42
 90
       50
102
RTVSPost2010PropOp42
 70
     0
102
RTVSPost2010Prop43
 90
        3
102
RTVSPost2010PropOp43
 70
     0
102
RTVSPost2010Prop44ColorIndex
 90
        5
102
RTVSPost2010Prop44ColorRGB
 90
      255
102
RTVSPost2010PropOp44
 70
     0
102
RTVSPost2010Prop45
280
     0
102
RTVSPost2010PropOp45
 70
     0
102
RTVSPost2010Prop46
 90
       50
102
RTVSPost2010PropOp46
 70
     0
102
RTVSPost2010Prop47
 90
       50
102
RTVSPost2010PropOp47
 70
     0
102
RTVSPost2010Prop48
 90
       50
102
RTVSPost2010PropOp48
 70
     0
102
RTVSPost2010Prop49
280
     0
102
RTVSPost2010PropOp49
 70
     0
102
RTVSPost2010Prop50
 90
       50
102
RTVSPost2010PropOp50
 70
     0
102
RTVSPost2010Prop51ColorIndex
 90
      256
102
RTVSPost2010Prop51ColorRGB
 90
-16777216
102
RTVSPost2010PropOp51
 70
     0
102
RTVSPost2010Prop52
140
1.0
102
RTVSPost2010PropOp52
 70
     0
102
RTVSPost2010Prop53
 90
        2
102
RTVSPost2010PropOp53
 70
     0
102
RTVSPost2010Prop54
  1
strokes_ogs.tif
102
RTVSPost2010PropOp54
 70
     0
102
RTVSPost2010Prop55
280
     0
102
RTVSPost2010PropOp55
 70
     0
102
RTVSPost2010Prop56
140
1.0
102
RTVSPost2010PropOp56
 70
     0
102
RTVSPost2010Prop57
140
1.0
102
RTVSPost2010PropOp57
 70
     0
  0
XRECORD
  5
AAD
102
{ACAD_REACTORS
330
AAC
102
}
330
AAC
100
AcDbXrecord
280
     1
102
RTVSPost2010Prop28
280
     0
102
RTVSPost2010PropOp28
 70
     1
102
RTVSPost2010Prop29
280
     1
102
RTVSPost2010PropOp29
 70
     1
102
RTVSPost2010Prop30
280
     1
102
RTVSPost2010PropOp30
 70
     1
102
RTVSPost2010Prop31
280
     0
102
RTVSPost2010PropOp31
 70
     1
102
RTVSPost2010Prop32
280
     0
102
RTVSPost2010PropOp32
 70
     1
102
RTVSPost2010Prop33
280
     0
102
RTVSPost2010PropOp33
 70
     1
102
RTVSPost2010Prop34
280
     0
102
RTVSPost2010PropOp34
 70
     1
102
RTVSPost2010Prop35
280
     0
102
RTVSPost2010PropOp35
 70
     1
102
RTVSPost2010Prop36
280
     0
102
RTVSPost2010PropOp36
 70
     1
102
RTVSPost2010Prop37
 90
       50
102
RTVSPost2010PropOp37
 70
     1
102
RTVSPost2010Prop38
140
0.0
102
RTVSPost2010PropOp38
 70
     1
102
RTVSPost2010Prop39
140
1.0
102
RTVSPost2010PropOp39
 70
     1
102
RTVSPost2010Prop40
 90
        0
102
RTVSPost2010PropOp40
 70
     1
102
RTVSPost2010Prop41ColorIndex
 90
       18
102
RTVSPost2010Prop41ColorRGB
 90
        0
102
RTVSPost2010PropOp41
 70
     1
102
RTVSPost2010Prop42
 90
       50
102
RTVSPost2010PropOp42
 70
     1
102
RTVSPost2010Prop43
 90
        3
102
RTVSPost2010PropOp43
 70
     1
102
RTVSPost2010Prop44ColorIndex
 90
        5
102
RTVSPost2010Prop44ColorRGB
 90
      255
102
RTVSPost2010PropOp44
 70
     1
102
RTVSPost2010Prop45
280
     0
102
RTVSPost2010PropOp45
 70
     1
102
RTVSPost2010Prop46
 90
       50
102
RTVSPost2010PropOp46
 70
     1
102
RTVSPost2010Prop47
 90
       50
102
RTVSPost2010PropOp47
 70
     1
102
RTVSPost2010Prop48
 90
       50
102
RTVSPost2010PropOp48
 70
     1
102
RTVSPost2010Prop49
280
     0
102
RTVSPost2010PropOp49
 70
     1
102
RTVSPost2010Prop50
 90
       50
102
RTVSPost2010PropOp50
 70
     1
102
RTVSPost2010Prop51ColorIndex
 90
      256
102
RTVSPost2010Prop51ColorRGB
 90
-16777216
102
RTVSPost2010PropOp51
 70
     0
102
RTVSPost2010Prop52
140
1.0
102
RTVSPost2010PropOp52
 70
     0
102
RTVSPost2010Prop53
 90
        2
102
RTVSPost2010PropOp53
 70
     1
102
RTVSPost2010Prop54
  1
strokes_ogs.tif
102
RTVSPost2010PropOp54
 70
     1
102
RTVSPost2010Prop55
280
     0
102
RTVSPost2010PropOp55
 70
     1
102
RTVSPost2010Prop56
140
1.0
102
RTVSPost2010PropOp56
 70
     1
102
RTVSPost2010Prop57
140
1.0
102
RTVSPost2010PropOp57
 70
     1
  0
XRECORD
  5
A91
102
{ACAD_REACTORS
330
A90
102
}
330
A90
100
AcDbXrecord
280
     1
102
RTVSPost2010Prop28
280
     0
102
RTVSPost2010PropOp28
 70
     1
102
RTVSPost2010Prop29
280
     1
102
RTVSPost2010PropOp29
 70
     1
102
RTVSPost2010Prop30
280
     1
102
RTVSPost2010PropOp30
 70
     1
102
RTVSPost2010Prop31
280
     0
102
RTVSPost2010PropOp31
 70
     1
102
RTVSPost2010Prop32
280
     0
102
RTVSPost2010PropOp32
 70
     1
102
RTVSPost2010Prop33
280
     0
102
RTVSPost2010PropOp33
 70
     1
102
RTVSPost2010Prop34
280
     0
102
RTVSPost2010PropOp34
 70
     1
102
RTVSPost2010Prop35
280
     0
102
RTVSPost2010PropOp35
 70
     1
102
RTVSPost2010Prop36
280
     0
102
RTVSPost2010PropOp36
 70
     1
102
RTVSPost2010Prop37
 90
       50
102
RTVSPost2010PropOp37
 70
     1
102
RTVSPost2010Prop38
140
0.0
102
RTVSPost2010PropOp38
 70
     1
102
RTVSPost2010Prop39
140
1.0
102
RTVSPost2010PropOp39
 70
     1
102
RTVSPost2010Prop40
 90
        0
102
RTVSPost2010PropOp40
 70
     1
102
RTVSPost2010Prop41ColorIndex
 90
       18
102
RTVSPost2010Prop41ColorRGB
 90
        0
102
RTVSPost2010PropOp41
 70
     1
102
RTVSPost2010Prop42
 90
       50
102
RTVSPost2010PropOp42
 70
     1
102
RTVSPost2010Prop43
 90
        3
102
RTVSPost2010PropOp43
 70
     1
102
RTVSPost2010Prop44ColorIndex
 90
        5
102
RTVSPost2010Prop44ColorRGB
 90
      255
102
RTVSPost2010PropOp44
 70
     1
102
RTVSPost2010Prop45
280
     0
102
RTVSPost2010PropOp45
 70
     1
102
RTVSPost2010Prop46
 90
       50
102
RTVSPost2010PropOp46
 70
     1
102
RTVSPost2010Prop47
 90
       50
102
RTVSPost2010PropOp47
 70
     1
102
RTVSPost2010Prop48
 90
       50
102
RTVSPost2010PropOp48
 70
     1
102
RTVSPost2010Prop49
280
     0
102
RTVSPost2010PropOp49
 70
     1
102
RTVSPost2010Prop50
 90
       50
102
RTVSPost2010PropOp50
 70
     1
102
RTVSPost2010Prop51ColorIndex
 90
      256
102
RTVSPost2010Prop51ColorRGB
 90
-16777216
102
RTVSPost2010PropOp51
 70
     0
102
RTVSPost2010Prop52
140
1.0
102
RTVSPost2010PropOp52
 70
     0
102
RTVSPost2010Prop53
 90
        2
102
RTVSPost2010PropOp53
 70
     1
102
RTVSPost2010Prop54
  1
strokes_ogs.tif
102
RTVSPost2010PropOp54
 70
     1
102
RTVSPost2010Prop55
280
     0
102
RTVSPost2010PropOp55
 70
     1
102
RTVSPost2010Prop56
140
1.0
102
RTVSPost2010PropOp56
 70
     1
102
RTVSPost2010Prop57
140
1.0
102
RTVSPost2010PropOp57
 70
     1
  0
XRECORD
  5
A93
102
{ACAD_REACTORS
330
A92
102
}
330
A92
100
AcDbXrecord
280
     1
102
RTVSPost2010Prop28
280
     0
102
RTVSPost2010PropOp28
 70
     1
102
RTVSPost2010Prop29
280
     1
102
RTVSPost2010PropOp29
 70
     1
102
RTVSPost2010Prop30
280
     1
102
RTVSPost2010PropOp30
 70
     1
102
RTVSPost2010Prop31
280
     0
102
RTVSPost2010PropOp31
 70
     1
102
RTVSPost2010Prop32
280
     0
102
RTVSPost2010PropOp32
 70
     1
102
RTVSPost2010Prop33
280
     0
102
RTVSPost2010PropOp33
 70
     1
102
RTVSPost2010Prop34
280
     0
102
RTVSPost2010PropOp34
 70
     1
102
RTVSPost2010Prop35
280
     0
102
RTVSPost2010PropOp35
 70
     1
102
RTVSPost2010Prop36
280
     0
102
RTVSPost2010PropOp36
 70
     1
102
RTVSPost2010Prop37
 90
       50
102
RTVSPost2010PropOp37
 70
     1
102
RTVSPost2010Prop38
140
0.0
102
RTVSPost2010PropOp38
 70
     1
102
RTVSPost2010Prop39
140
1.0
102
RTVSPost2010PropOp39
 70
     1
102
RTVSPost2010Prop40
 90
        0
102
RTVSPost2010PropOp40
 70
     1
102
RTVSPost2010Prop41ColorIndex
 90
       18
102
RTVSPost2010Prop41ColorRGB
 90
        0
102
RTVSPost2010PropOp41
 70
     1
102
RTVSPost2010Prop42
 90
       50
102
RTVSPost2010PropOp42
 70
     1
102
RTVSPost2010Prop43
 90
        3
102
RTVSPost2010PropOp43
 70
     1
102
RTVSPost2010Prop44ColorIndex
 90
        5
102
RTVSPost2010Prop44ColorRGB
 90
      255
102
RTVSPost2010PropOp44
 70
     1
102
RTVSPost2010Prop45
280
     0
102
RTVSPost2010PropOp45
 70
     1
102
RTVSPost2010Prop46
 90
       50
102
RTVSPost2010PropOp46
 70
     1
102
RTVSPost2010Prop47
 90
       50
102
RTVSPost2010PropOp47
 70
     1
102
RTVSPost2010Prop48
 90
       50
102
RTVSPost2010PropOp48
 70
     1
102
RTVSPost2010Prop49
280
     0
102
RTVSPost2010PropOp49
 70
     1
102
RTVSPost2010Prop50
 90
       50
102
RTVSPost2010PropOp50
 70
     1
102
RTVSPost2010Prop51ColorIndex
 90
      256
102
RTVSPost2010Prop51ColorRGB
 90
-16777216
102
RTVSPost2010PropOp51
 70
     0
102
RTVSPost2010Prop52
140
1.0
102
RTVSPost2010PropOp52
 70
     0
102
RTVSPost2010Prop53
 90
        2
102
RTVSPost2010PropOp53
 70
     1
102
RTVSPost2010Prop54
  1
strokes_ogs.tif
102
RTVSPost2010PropOp54
 70
     1
102
RTVSPost2010Prop55
280
     0
102
RTVSPost2010PropOp55
 70
     1
102
RTVSPost2010Prop56
140
1.0
102
RTVSPost2010PropOp56
 70
     1
102
RTVSPost2010Prop57
140
1.0
102
RTVSPost2010PropOp57
 70
     1
  0
XRECORD
  5
A95
102
{ACAD_REACTORS
330
A94
102
}
330
A94
100
AcDbXrecord
280
     1
102
RTVSPost2010Prop28
280
     0
102
RTVSPost2010PropOp28
 70
     1
102
RTVSPost2010Prop29
280
     1
102
RTVSPost2010PropOp29
 70
     1
102
RTVSPost2010Prop30
280
     1
102
RTVSPost2010PropOp30
 70
     1
102
RTVSPost2010Prop31
280
     0
102
RTVSPost2010PropOp31
 70
     1
102
RTVSPost2010Prop32
280
     0
102
RTVSPost2010PropOp32
 70
     1
102
RTVSPost2010Prop33
280
     0
102
RTVSPost2010PropOp33
 70
     1
102
RTVSPost2010Prop34
280
     0
102
RTVSPost2010PropOp34
 70
     1
102
RTVSPost2010Prop35
280
     0
102
RTVSPost2010PropOp35
 70
     1
102
RTVSPost2010Prop36
280
     0
102
RTVSPost2010PropOp36
 70
     1
102
RTVSPost2010Prop37
 90
       50
102
RTVSPost2010PropOp37
 70
     1
102
RTVSPost2010Prop38
140
0.0
102
RTVSPost2010PropOp38
 70
     1
102
RTVSPost2010Prop39
140
1.0
102
RTVSPost2010PropOp39
 70
     1
102
RTVSPost2010Prop40
 90
        0
102
RTVSPost2010PropOp40
 70
     1
102
RTVSPost2010Prop41ColorIndex
 90
       18
102
RTVSPost2010Prop41ColorRGB
 90
        0
102
RTVSPost2010PropOp41
 70
     1
102
RTVSPost2010Prop42
 90
       50
102
RTVSPost2010PropOp42
 70
     1
102
RTVSPost2010Prop43
 90
        3
102
RTVSPost2010PropOp43
 70
     1
102
RTVSPost2010Prop44ColorIndex
 90
        5
102
RTVSPost2010Prop44ColorRGB
 90
      255
102
RTVSPost2010PropOp44
 70
     1
102
RTVSPost2010Prop45
280
     0
102
RTVSPost2010PropOp45
 70
     1
102
RTVSPost2010Prop46
 90
       50
102
RTVSPost2010PropOp46
 70
     1
102
RTVSPost2010Prop47
 90
       50
102
RTVSPost2010PropOp47
 70
     1
102
RTVSPost2010Prop48
 90
       50
102
RTVSPost2010PropOp48
 70
     1
102
RTVSPost2010Prop49
280
     0
102
RTVSPost2010PropOp49
 70
     1
102
RTVSPost2010Prop50
 90
       50
102
RTVSPost2010PropOp50
 70
     1
102
RTVSPost2010Prop51ColorIndex
 90
      256
102
RTVSPost2010Prop51ColorRGB
 90
-16777216
102
RTVSPost2010PropOp51
 70
     0
102
RTVSPost2010Prop52
140
1.0
102
RTVSPost2010PropOp52
 70
     0
102
RTVSPost2010Prop53
 90
        2
102
RTVSPost2010PropOp53
 70
     1
102
RTVSPost2010Prop54
  1
strokes_ogs.tif
102
RTVSPost2010PropOp54
 70
     1
102
RTVSPost2010Prop55
280
     0
102
RTVSPost2010PropOp55
 70
     1
102
RTVSPost2010Prop56
140
1.0
102
RTVSPost2010PropOp56
 70
     1
102
RTVSPost2010Prop57
140
1.0
102
RTVSPost2010PropOp57
 70
     1
  0
XRECORD
  5
A97
102
{ACAD_REACTORS
330
A96
102
}
330
A96
100
AcDbXrecord
280
     1
102
RTVSPost2010Prop28
280
     0
102
RTVSPost2010PropOp28
 70
     1
102
RTVSPost2010Prop29
280
     1
102
RTVSPost2010PropOp29
 70
     1
102
RTVSPost2010Prop30
280
     1
102
RTVSPost2010PropOp30
 70
     1
102
RTVSPost2010Prop31
280
     0
102
RTVSPost2010PropOp31
 70
     1
102
RTVSPost2010Prop32
280
     0
102
RTVSPost2010PropOp32
 70
     1
102
RTVSPost2010Prop33
280
     0
102
RTVSPost2010PropOp33
 70
     1
102
RTVSPost2010Prop34
280
     0
102
RTVSPost2010PropOp34
 70
     1
102
RTVSPost2010Prop35
280
     0
102
RTVSPost2010PropOp35
 70
     1
102
RTVSPost2010Prop36
280
     0
102
RTVSPost2010PropOp36
 70
     1
102
RTVSPost2010Prop37
 90
       50
102
RTVSPost2010PropOp37
 70
     1
102
RTVSPost2010Prop38
140
0.0
102
RTVSPost2010PropOp38
 70
     1
102
RTVSPost2010Prop39
140
1.0
102
RTVSPost2010PropOp39
 70
     1
102
RTVSPost2010Prop40
 90
        0
102
RTVSPost2010PropOp40
 70
     1
102
RTVSPost2010Prop41ColorIndex
 90
       18
102
RTVSPost2010Prop41ColorRGB
 90
        0
102
RTVSPost2010PropOp41
 70
     1
102
RTVSPost2010Prop42
 90
       50
102
RTVSPost2010PropOp42
 70
     1
102
RTVSPost2010Prop43
 90
        3
102
RTVSPost2010PropOp43
 70
     1
102
RTVSPost2010Prop44ColorIndex
 90
        5
102
RTVSPost2010Prop44ColorRGB
 90
      255
102
RTVSPost2010PropOp44
 70
     1
102
RTVSPost2010Prop45
280
     0
102
RTVSPost2010PropOp45
 70
     1
102
RTVSPost2010Prop46
 90
       50
102
RTVSPost2010PropOp46
 70
     1
102
RTVSPost2010Prop47
 90
       50
102
RTVSPost2010PropOp47
 70
     1
102
RTVSPost2010Prop48
 90
       50
102
RTVSPost2010PropOp48
 70
     1
102
RTVSPost2010Prop49
280
     0
102
RTVSPost2010PropOp49
 70
     1
102
RTVSPost2010Prop50
 90
       50
102
RTVSPost2010PropOp50
 70
     1
102
RTVSPost2010Prop51ColorIndex
 90
      256
102
RTVSPost2010Prop51ColorRGB
 90
-16777216
102
RTVSPost2010PropOp51
 70
     0
102
RTVSPost2010Prop52
140
1.0
102
RTVSPost2010PropOp52
 70
     0
102
RTVSPost2010Prop53
 90
        2
102
RTVSPost2010PropOp53
 70
     1
102
RTVSPost2010Prop54
  1
strokes_ogs.tif
102
RTVSPost2010PropOp54
 70
     1
102
RTVSPost2010Prop55
280
     0
102
RTVSPost2010PropOp55
 70
     1
102
RTVSPost2010Prop56
140
1.0
102
RTVSPost2010PropOp56
 70
     1
102
RTVSPost2010Prop57
140
1.0
102
RTVSPost2010PropOp57
 70
     1
  0
XRECORD
  5
A9F
102
{ACAD_REACTORS
330
A9E
102
}
330
A9E
100
AcDbXrecord
280
     1
102
RTVSPost2010Prop28
280
     0
102
RTVSPost2010PropOp28
 70
     1
102
RTVSPost2010Prop29
280
     1
102
RTVSPost2010PropOp29
 70
     1
102
RTVSPost2010Prop30
280
     1
102
RTVSPost2010PropOp30
 70
     1
102
RTVSPost2010Prop31
280
     0
102
RTVSPost2010PropOp31
 70
     1
102
RTVSPost2010Prop32
280
     0
102
RTVSPost2010PropOp32
 70
     1
102
RTVSPost2010Prop33
280
     0
102
RTVSPost2010PropOp33
 70
     1
102
RTVSPost2010Prop34
280
     0
102
RTVSPost2010PropOp34
 70
     1
102
RTVSPost2010Prop35
280
     0
102
RTVSPost2010PropOp35
 70
     1
102
RTVSPost2010Prop36
280
     0
102
RTVSPost2010PropOp36
 70
     1
102
RTVSPost2010Prop37
 90
       50
102
RTVSPost2010PropOp37
 70
     1
102
RTVSPost2010Prop38
140
0.0
102
RTVSPost2010PropOp38
 70
     1
102
RTVSPost2010Prop39
140
1.0
102
RTVSPost2010PropOp39
 70
     1
102
RTVSPost2010Prop40
 90
        0
102
RTVSPost2010PropOp40
 70
     1
102
RTVSPost2010Prop41ColorIndex
 90
       18
102
RTVSPost2010Prop41ColorRGB
 90
        0
102
RTVSPost2010PropOp41
 70
     1
102
RTVSPost2010Prop42
 90
       50
102
RTVSPost2010PropOp42
 70
     1
102
RTVSPost2010Prop43
 90
        3
102
RTVSPost2010PropOp43
 70
     1
102
RTVSPost2010Prop44ColorIndex
 90
        5
102
RTVSPost2010Prop44ColorRGB
 90
      255
102
RTVSPost2010PropOp44
 70
     1
102
RTVSPost2010Prop45
280
     0
102
RTVSPost2010PropOp45
 70
     1
102
RTVSPost2010Prop46
 90
       50
102
RTVSPost2010PropOp46
 70
     1
102
RTVSPost2010Prop47
 90
       50
102
RTVSPost2010PropOp47
 70
     1
102
RTVSPost2010Prop48
 90
       50
102
RTVSPost2010PropOp48
 70
     1
102
RTVSPost2010Prop49
280
     0
102
RTVSPost2010PropOp49
 70
     1
102
RTVSPost2010Prop50
 90
       50
102
RTVSPost2010PropOp50
 70
     1
102
RTVSPost2010Prop51ColorIndex
 90
      256
102
RTVSPost2010Prop51ColorRGB
 90
-16777216
102
RTVSPost2010PropOp51
 70
     0
102
RTVSPost2010Prop52
140
1.0
102
RTVSPost2010PropOp52
 70
     0
102
RTVSPost2010Prop53
 90
        2
102
RTVSPost2010PropOp53
 70
     1
102
RTVSPost2010Prop54
  1
strokes_ogs.tif
102
RTVSPost2010PropOp54
 70
     1
102
RTVSPost2010Prop55
280
     0
102
RTVSPost2010PropOp55
 70
     1
102
RTVSPost2010Prop56
140
1.0
102
RTVSPost2010PropOp56
 70
     1
102
RTVSPost2010Prop57
140
1.0
102
RTVSPost2010PropOp57
 70
     1
  0
XRECORD
  5
ABB
102
{ACAD_REACTORS
330
ABA
102
}
330
ABA
100
AcDbXrecord
280
     1
102
RTVSPost2010Prop28
280
     0
102
RTVSPost2010PropOp28
 70
     0
102
RTVSPost2010Prop29
280
     1
102
RTVSPost2010PropOp29
 70
     0
102
RTVSPost2010Prop30
280
     1
102
RTVSPost2010PropOp30
 70
     0
102
RTVSPost2010Prop31
280
     0
102
RTVSPost2010PropOp31
 70
     0
102
RTVSPost2010Prop32
280
     0
102
RTVSPost2010PropOp32
 70
     0
102
RTVSPost2010Prop33
280
     0
102
RTVSPost2010PropOp33
 70
     0
102
RTVSPost2010Prop34
280
     0
102
RTVSPost2010PropOp34
 70
     0
102
RTVSPost2010Prop35
280
     0
102
RTVSPost2010PropOp35
 70
     0
102
RTVSPost2010Prop36
280
     0
102
RTVSPost2010PropOp36
 70
     0
102
RTVSPost2010Prop37
 90
       50
102
RTVSPost2010PropOp37
 70
     0
102
RTVSPost2010Prop38
140
0.0
102
RTVSPost2010PropOp38
 70
     0
102
RTVSPost2010Prop39
140
1.0
102
RTVSPost2010PropOp39
 70
     0
102
RTVSPost2010Prop40
 90
        0
102
RTVSPost2010PropOp40
 70
     0
102
RTVSPost2010Prop41ColorIndex
 90
       18
102
RTVSPost2010Prop41ColorRGB
 90
        0
102
RTVSPost2010PropOp41
 70
     0
102
RTVSPost2010Prop42
 90
       50
102
RTVSPost2010PropOp42
 70
     0
102
RTVSPost2010Prop43
 90
        3
102
RTVSPost2010PropOp43
 70
     0
102
RTVSPost2010Prop44ColorIndex
 90
        5
102
RTVSPost2010Prop44ColorRGB
 90
      255
102
RTVSPost2010PropOp44
 70
     0
102
RTVSPost2010Prop45
280
     0
102
RTVSPost2010PropOp45
 70
     0
102
RTVSPost2010Prop46
 90
       50
102
RTVSPost2010PropOp46
 70
     0
102
RTVSPost2010Prop47
 90
       50
102
RTVSPost2010PropOp47
 70
     0
102
RTVSPost2010Prop48
 90
       50
102
RTVSPost2010PropOp48
 70
     0
102
RTVSPost2010Prop49
280
     0
102
RTVSPost2010PropOp49
 70
     0
102
RTVSPost2010Prop50
 90
       50
102
RTVSPost2010PropOp50
 70
     0
102
RTVSPost2010Prop51ColorIndex
 90
      256
102
RTVSPost2010Prop51ColorRGB
 90
-16777216
102
RTVSPost2010PropOp51
 70
     0
102
RTVSPost2010Prop52
140
1.0
102
RTVSPost2010PropOp52
 70
     0
102
RTVSPost2010Prop53
 90
        2
102
RTVSPost2010PropOp53
 70
     0
102
RTVSPost2010Prop54
  1
strokes_ogs.tif
102
RTVSPost2010PropOp54
 70
     0
102
RTVSPost2010Prop55
280
     0
102
RTVSPost2010PropOp55
 70
     0
102
RTVSPost2010Prop56
140
1.0
102
RTVSPost2010PropOp56
 70
     0
102
RTVSPost2010Prop57
140
1.0
102
RTVSPost2010PropOp57
 70
     0
  0
XRECORD
  5
AAB
102
{ACAD_REACTORS
330
AAA
102
}
330
AAA
100
AcDbXrecord
280
     1
102
RTVSPost2010Prop28
280
     0
102
RTVSPost2010PropOp28
 70
     1
102
RTVSPost2010Prop29
280
     1
102
RTVSPost2010PropOp29
 70
     1
102
RTVSPost2010Prop30
280
     1
102
RTVSPost2010PropOp30
 70
     1
102
RTVSPost2010Prop31
280
     0
102
RTVSPost2010PropOp31
 70
     1
102
RTVSPost2010Prop32
280
     0
102
RTVSPost2010PropOp32
 70
     1
102
RTVSPost2010Prop33
280
     0
102
RTVSPost2010PropOp33
 70
     1
102
RTVSPost2010Prop34
280
     0
102
RTVSPost2010PropOp34
 70
     1
102
RTVSPost2010Prop35
280
     0
102
RTVSPost2010PropOp35
 70
     1
102
RTVSPost2010Prop36
280
     0
102
RTVSPost2010PropOp36
 70
     1
102
RTVSPost2010Prop37
 90
       50
102
RTVSPost2010PropOp37
 70
     1
102
RTVSPost2010Prop38
140
0.0
102
RTVSPost2010PropOp38
 70
     1
102
RTVSPost2010Prop39
140
1.0
102
RTVSPost2010PropOp39
 70
     1
102
RTVSPost2010Prop40
 90
        0
102
RTVSPost2010PropOp40
 70
     1
102
RTVSPost2010Prop41ColorIndex
 90
       18
102
RTVSPost2010Prop41ColorRGB
 90
        0
102
RTVSPost2010PropOp41
 70
     1
102
RTVSPost2010Prop42
 90
       50
102
RTVSPost2010PropOp42
 70
     1
102
RTVSPost2010Prop43
 90
        3
102
RTVSPost2010PropOp43
 70
     1
102
RTVSPost2010Prop44ColorIndex
 90
        5
102
RTVSPost2010Prop44ColorRGB
 90
      255
102
RTVSPost2010PropOp44
 70
     1
102
RTVSPost2010Prop45
280
     0
102
RTVSPost2010PropOp45
 70
     1
102
RTVSPost2010Prop46
 90
       50
102
RTVSPost2010PropOp46
 70
     1
102
RTVSPost2010Prop47
 90
       50
102
RTVSPost2010PropOp47
 70
     1
102
RTVSPost2010Prop48
 90
       50
102
RTVSPost2010PropOp48
 70
     1
102
RTVSPost2010Prop49
280
     0
102
RTVSPost2010PropOp49
 70
     1
102
RTVSPost2010Prop50
 90
       50
102
RTVSPost2010PropOp50
 70
     1
102
RTVSPost2010Prop51ColorIndex
 90
      256
102
RTVSPost2010Prop51ColorRGB
 90
-16777216
102
RTVSPost2010PropOp51
 70
     0
102
RTVSPost2010Prop52
140
1.0
102
RTVSPost2010PropOp52
 70
     0
102
RTVSPost2010Prop53
 90
        2
102
RTVSPost2010PropOp53
 70
     1
102
RTVSPost2010Prop54
  1
strokes_ogs.tif
102
RTVSPost2010PropOp54
 70
     1
102
RTVSPost2010Prop55
280
     0
102
RTVSPost2010PropOp55
 70
     1
102
RTVSPost2010Prop56
140
1.0
102
RTVSPost2010PropOp56
 70
     1
102
RTVSPost2010Prop57
140
1.0
102
RTVSPost2010PropOp57
 70
     1
  0
XRECORD
  5
ABD
102
{ACAD_REACTORS
330
ABC
102
}
330
ABC
100
AcDbXrecord
280
     1
102
RTVSPost2010Prop28
280
     0
102
RTVSPost2010PropOp28
 70
     0
102
RTVSPost2010Prop29
280
     1
102
RTVSPost2010PropOp29
 70
     0
102
RTVSPost2010Prop30
280
     1
102
RTVSPost2010PropOp30
 70
     0
102
RTVSPost2010Prop31
280
     0
102
RTVSPost2010PropOp31
 70
     0
102
RTVSPost2010Prop32
280
     0
102
RTVSPost2010PropOp32
 70
     0
102
RTVSPost2010Prop33
280
     0
102
RTVSPost2010PropOp33
 70
     0
102
RTVSPost2010Prop34
280
     0
102
RTVSPost2010PropOp34
 70
     0
102
RTVSPost2010Prop35
280
     0
102
RTVSPost2010PropOp35
 70
     0
102
RTVSPost2010Prop36
280
     0
102
RTVSPost2010PropOp36
 70
     0
102
RTVSPost2010Prop37
 90
       50
102
RTVSPost2010PropOp37
 70
     0
102
RTVSPost2010Prop38
140
0.0
102
RTVSPost2010PropOp38
 70
     0
102
RTVSPost2010Prop39
140
1.0
102
RTVSPost2010PropOp39
 70
     0
102
RTVSPost2010Prop40
 90
        0
102
RTVSPost2010PropOp40
 70
     0
102
RTVSPost2010Prop41ColorIndex
 90
       18
102
RTVSPost2010Prop41ColorRGB
 90
        0
102
RTVSPost2010PropOp41
 70
     0
102
RTVSPost2010Prop42
 90
       50
102
RTVSPost2010PropOp42
 70
     0
102
RTVSPost2010Prop43
 90
        3
102
RTVSPost2010PropOp43
 70
     0
102
RTVSPost2010Prop44ColorIndex
 90
        5
102
RTVSPost2010Prop44ColorRGB
 90
      255
102
RTVSPost2010PropOp44
 70
     0
102
RTVSPost2010Prop45
280
     0
102
RTVSPost2010PropOp45
 70
     0
102
RTVSPost2010Prop46
 90
       50
102
RTVSPost2010PropOp46
 70
     0
102
RTVSPost2010Prop47
 90
       50
102
RTVSPost2010PropOp47
 70
     0
102
RTVSPost2010Prop48
 90
       50
102
RTVSPost2010PropOp48
 70
     0
102
RTVSPost2010Prop49
280
     0
102
RTVSPost2010PropOp49
 70
     0
102
RTVSPost2010Prop50
 90
       50
102
RTVSPost2010PropOp50
 70
     0
102
RTVSPost2010Prop51ColorIndex
 90
      256
102
RTVSPost2010Prop51ColorRGB
 90
-16777216
102
RTVSPost2010PropOp51
 70
     0
102
RTVSPost2010Prop52
140
1.0
102
RTVSPost2010PropOp52
 70
     0
102
RTVSPost2010Prop53
 90
        2
102
RTVSPost2010PropOp53
 70
     0
102
RTVSPost2010Prop54
  1
strokes_ogs.tif
102
RTVSPost2010PropOp54
 70
     0
102
RTVSPost2010Prop55
280
     0
102
RTVSPost2010PropOp55
 70
     0
102
RTVSPost2010Prop56
140
1.0
102
RTVSPost2010PropOp56
 70
     0
102
RTVSPost2010Prop57
140
1.0
102
RTVSPost2010PropOp57
 70
     0
  0
XRECORD
  5
AA3
102
{ACAD_REACTORS
330
AA2
102
}
330
AA2
100
AcDbXrecord
280
     1
102
RTVSPost2010Prop28
280
     0
102
RTVSPost2010PropOp28
 70
     1
102
RTVSPost2010Prop29
280
     1
102
RTVSPost2010PropOp29
 70
     1
102
RTVSPost2010Prop30
280
     1
102
RTVSPost2010PropOp30
 70
     1
102
RTVSPost2010Prop31
280
     0
102
RTVSPost2010PropOp31
 70
     1
102
RTVSPost2010Prop32
280
     0
102
RTVSPost2010PropOp32
 70
     1
102
RTVSPost2010Prop33
280
     0
102
RTVSPost2010PropOp33
 70
     1
102
RTVSPost2010Prop34
280
     0
102
RTVSPost2010PropOp34
 70
     1
102
RTVSPost2010Prop35
280
     0
102
RTVSPost2010PropOp35
 70
     1
102
RTVSPost2010Prop36
280
     0
102
RTVSPost2010PropOp36
 70
     1
102
RTVSPost2010Prop37
 90
       50
102
RTVSPost2010PropOp37
 70
     1
102
RTVSPost2010Prop38
140
0.0
102
RTVSPost2010PropOp38
 70
     1
102
RTVSPost2010Prop39
140
1.0
102
RTVSPost2010PropOp39
 70
     1
102
RTVSPost2010Prop40
 90
        0
102
RTVSPost2010PropOp40
 70
     1
102
RTVSPost2010Prop41ColorIndex
 90
       18
102
RTVSPost2010Prop41ColorRGB
 90
        0
102
RTVSPost2010PropOp41
 70
     1
102
RTVSPost2010Prop42
 90
       50
102
RTVSPost2010PropOp42
 70
     1
102
RTVSPost2010Prop43
 90
        3
102
RTVSPost2010PropOp43
 70
     1
102
RTVSPost2010Prop44ColorIndex
 90
        5
102
RTVSPost2010Prop44ColorRGB
 90
      255
102
RTVSPost2010PropOp44
 70
     1
102
RTVSPost2010Prop45
280
     0
102
RTVSPost2010PropOp45
 70
     1
102
RTVSPost2010Prop46
 90
       50
102
RTVSPost2010PropOp46
 70
     1
102
RTVSPost2010Prop47
 90
       50
102
RTVSPost2010PropOp47
 70
     1
102
RTVSPost2010Prop48
 90
       50
102
RTVSPost2010PropOp48
 70
     1
102
RTVSPost2010Prop49
280
     0
102
RTVSPost2010PropOp49
 70
     1
102
RTVSPost2010Prop50
 90
       50
102
RTVSPost2010PropOp50
 70
     1
102
RTVSPost2010Prop51ColorIndex
 90
      256
102
RTVSPost2010Prop51ColorRGB
 90
-16777216
102
RTVSPost2010PropOp51
 70
     0
102
RTVSPost2010Prop52
140
1.0
102
RTVSPost2010PropOp52
 70
     0
102
RTVSPost2010Prop53
 90
        2
102
RTVSPost2010PropOp53
 70
     1
102
RTVSPost2010Prop54
  1
strokes_ogs.tif
102
RTVSPost2010PropOp54
 70
     1
102
RTVSPost2010Prop55
280
     0
102
RTVSPost2010PropOp55
 70
     1
102
RTVSPost2010Prop56
140
1.0
102
RTVSPost2010PropOp56
 70
     1
102
RTVSPost2010Prop57
140
1.0
102
RTVSPost2010PropOp57
 70
     1
  0
XRECORD
  5
AB9
102
{ACAD_REACTORS
330
AB8
102
}
330
AB8
100
AcDbXrecord
280
     1
102
RTVSPost2010Prop28
280
     0
102
RTVSPost2010PropOp28
 70
     1
102
RTVSPost2010Prop29
280
     1
102
RTVSPost2010PropOp29
 70
     1
102
RTVSPost2010Prop30
280
     1
102
RTVSPost2010PropOp30
 70
     1
102
RTVSPost2010Prop31
280
     0
102
RTVSPost2010PropOp31
 70
     1
102
RTVSPost2010Prop32
280
     0
102
RTVSPost2010PropOp32
 70
     1
102
RTVSPost2010Prop33
280
     0
102
RTVSPost2010PropOp33
 70
     1
102
RTVSPost2010Prop34
280
     0
102
RTVSPost2010PropOp34
 70
     1
102
RTVSPost2010Prop35
280
     0
102
RTVSPost2010PropOp35
 70
     1
102
RTVSPost2010Prop36
280
     0
102
RTVSPost2010PropOp36
 70
     1
102
RTVSPost2010Prop37
 90
       50
102
RTVSPost2010PropOp37
 70
     1
102
RTVSPost2010Prop38
140
0.0
102
RTVSPost2010PropOp38
 70
     1
102
RTVSPost2010Prop39
140
1.0
102
RTVSPost2010PropOp39
 70
     1
102
RTVSPost2010Prop40
 90
        0
102
RTVSPost2010PropOp40
 70
     1
102
RTVSPost2010Prop41ColorIndex
 90
       18
102
RTVSPost2010Prop41ColorRGB
 90
        0
102
RTVSPost2010PropOp41
 70
     1
102
RTVSPost2010Prop42
 90
       50
102
RTVSPost2010PropOp42
 70
     1
102
RTVSPost2010Prop43
 90
        3
102
RTVSPost2010PropOp43
 70
     1
102
RTVSPost2010Prop44ColorIndex
 90
        5
102
RTVSPost2010Prop44ColorRGB
 90
      255
102
RTVSPost2010PropOp44
 70
     1
102
RTVSPost2010Prop45
280
     0
102
RTVSPost2010PropOp45
 70
     1
102
RTVSPost2010Prop46
 90
       50
102
RTVSPost2010PropOp46
 70
     1
102
RTVSPost2010Prop47
 90
       50
102
RTVSPost2010PropOp47
 70
     1
102
RTVSPost2010Prop48
 90
       50
102
RTVSPost2010PropOp48
 70
     1
102
RTVSPost2010Prop49
280
     0
102
RTVSPost2010PropOp49
 70
     1
102
RTVSPost2010Prop50
 90
       50
102
RTVSPost2010PropOp50
 70
     1
102
RTVSPost2010Prop51ColorIndex
 90
      256
102
RTVSPost2010Prop51ColorRGB
 90
-16777216
102
RTVSPost2010PropOp51
 70
     0
102
RTVSPost2010Prop52
140
1.0
102
RTVSPost2010PropOp52
 70
     0
102
RTVSPost2010Prop53
 90
        2
102
RTVSPost2010PropOp53
 70
     1
102
RTVSPost2010Prop54
  1
strokes_ogs.tif
102
RTVSPost2010PropOp54
 70
     1
102
RTVSPost2010Prop55
280
     0
102
RTVSPost2010PropOp55
 70
     1
102
RTVSPost2010Prop56
140
1.0
102
RTVSPost2010PropOp56
 70
     1
102
RTVSPost2010Prop57
140
1.0
102
RTVSPost2010PropOp57
 70
     1
  0
XRECORD
  5
AB7
102
{ACAD_REACTORS
330
AB6
102
}
330
AB6
100
AcDbXrecord
280
     1
102
RTVSPost2010Prop28
280
     0
102
RTVSPost2010PropOp28
 70
     1
102
RTVSPost2010Prop29
280
     1
102
RTVSPost2010PropOp29
 70
     1
102
RTVSPost2010Prop30
280
     1
102
RTVSPost2010PropOp30
 70
     1
102
RTVSPost2010Prop31
280
     0
102
RTVSPost2010PropOp31
 70
     1
102
RTVSPost2010Prop32
280
     0
102
RTVSPost2010PropOp32
 70
     1
102
RTVSPost2010Prop33
280
     0
102
RTVSPost2010PropOp33
 70
     1
102
RTVSPost2010Prop34
280
     0
102
RTVSPost2010PropOp34
 70
     1
102
RTVSPost2010Prop35
280
     0
102
RTVSPost2010PropOp35
 70
     1
102
RTVSPost2010Prop36
280
     0
102
RTVSPost2010PropOp36
 70
     1
102
RTVSPost2010Prop37
 90
       50
102
RTVSPost2010PropOp37
 70
     1
102
RTVSPost2010Prop38
140
0.0
102
RTVSPost2010PropOp38
 70
     1
102
RTVSPost2010Prop39
140
1.0
102
RTVSPost2010PropOp39
 70
     1
102
RTVSPost2010Prop40
 90
        0
102
RTVSPost2010PropOp40
 70
     1
102
RTVSPost2010Prop41ColorIndex
 90
       18
102
RTVSPost2010Prop41ColorRGB
 90
        0
102
RTVSPost2010PropOp41
 70
     1
102
RTVSPost2010Prop42
 90
       50
102
RTVSPost2010PropOp42
 70
     1
102
RTVSPost2010Prop43
 90
        3
102
RTVSPost2010PropOp43
 70
     1
102
RTVSPost2010Prop44ColorIndex
 90
        5
102
RTVSPost2010Prop44ColorRGB
 90
      255
102
RTVSPost2010PropOp44
 70
     1
102
RTVSPost2010Prop45
280
     0
102
RTVSPost2010PropOp45
 70
     1
102
RTVSPost2010Prop46
 90
       50
102
RTVSPost2010PropOp46
 70
     1
102
RTVSPost2010Prop47
 90
       50
102
RTVSPost2010PropOp47
 70
     1
102
RTVSPost2010Prop48
 90
       50
102
RTVSPost2010PropOp48
 70
     1
102
RTVSPost2010Prop49
280
     0
102
RTVSPost2010PropOp49
 70
     1
102
RTVSPost2010Prop50
 90
       50
102
RTVSPost2010PropOp50
 70
     1
102
RTVSPost2010Prop51ColorIndex
 90
      256
102
RTVSPost2010Prop51ColorRGB
 90
-16777216
102
RTVSPost2010PropOp51
 70
     0
102
RTVSPost2010Prop52
140
1.0
102
RTVSPost2010PropOp52
 70
     0
102
RTVSPost2010Prop53
 90
        2
102
RTVSPost2010PropOp53
 70
     1
102
RTVSPost2010Prop54
  1
strokes_ogs.tif
102
RTVSPost2010PropOp54
 70
     1
102
RTVSPost2010Prop55
280
     0
102
RTVSPost2010PropOp55
 70
     1
102
RTVSPost2010Prop56
140
1.0
102
RTVSPost2010PropOp56
 70
     1
102
RTVSPost2010Prop57
140
1.0
102
RTVSPost2010PropOp57
 70
     1
  0
XRECORD
  5
AB1
102
{ACAD_REACTORS
330
AB0
102
}
330
AB0
100
AcDbXrecord
280
     1
102
RTVSPost2010Prop28
280
     0
102
RTVSPost2010PropOp28
 70
     1
102
RTVSPost2010Prop29
280
     1
102
RTVSPost2010PropOp29
 70
     1
102
RTVSPost2010Prop30
280
     1
102
RTVSPost2010PropOp30
 70
     1
102
RTVSPost2010Prop31
280
     0
102
RTVSPost2010PropOp31
 70
     1
102
RTVSPost2010Prop32
280
     0
102
RTVSPost2010PropOp32
 70
     1
102
RTVSPost2010Prop33
280
     0
102
RTVSPost2010PropOp33
 70
     1
102
RTVSPost2010Prop34
280
     0
102
RTVSPost2010PropOp34
 70
     1
102
RTVSPost2010Prop35
280
     0
102
RTVSPost2010PropOp35
 70
     1
102
RTVSPost2010Prop36
280
     0
102
RTVSPost2010PropOp36
 70
     1
102
RTVSPost2010Prop37
 90
       50
102
RTVSPost2010PropOp37
 70
     1
102
RTVSPost2010Prop38
140
0.0
102
RTVSPost2010PropOp38
 70
     1
102
RTVSPost2010Prop39
140
1.0
102
RTVSPost2010PropOp39
 70
     1
102
RTVSPost2010Prop40
 90
        0
102
RTVSPost2010PropOp40
 70
     1
102
RTVSPost2010Prop41ColorIndex
 90
       18
102
RTVSPost2010Prop41ColorRGB
 90
        0
102
RTVSPost2010PropOp41
 70
     1
102
RTVSPost2010Prop42
 90
       50
102
RTVSPost2010PropOp42
 70
     1
102
RTVSPost2010Prop43
 90
        3
102
RTVSPost2010PropOp43
 70
     1
102
RTVSPost2010Prop44ColorIndex
 90
        5
102
RTVSPost2010Prop44ColorRGB
 90
      255
102
RTVSPost2010PropOp44
 70
     1
102
RTVSPost2010Prop45
280
     0
102
RTVSPost2010PropOp45
 70
     1
102
RTVSPost2010Prop46
 90
       50
102
RTVSPost2010PropOp46
 70
     1
102
RTVSPost2010Prop47
 90
       50
102
RTVSPost2010PropOp47
 70
     1
102
RTVSPost2010Prop48
 90
       50
102
RTVSPost2010PropOp48
 70
     1
102
RTVSPost2010Prop49
280
     0
102
RTVSPost2010PropOp49
 70
     1
102
RTVSPost2010Prop50
 90
       50
102
RTVSPost2010PropOp50
 70
     1
102
RTVSPost2010Prop51ColorIndex
 90
      256
102
RTVSPost2010Prop51ColorRGB
 90
-16777216
102
RTVSPost2010PropOp51
 70
     0
102
RTVSPost2010Prop52
140
1.0
102
RTVSPost2010PropOp52
 70
     0
102
RTVSPost2010Prop53
 90
        2
102
RTVSPost2010PropOp53
 70
     1
102
RTVSPost2010Prop54
  1
strokes_ogs.tif
102
RTVSPost2010PropOp54
 70
     1
102
RTVSPost2010Prop55
280
     0
102
RTVSPost2010PropOp55
 70
     1
102
RTVSPost2010Prop56
140
1.0
102
RTVSPost2010PropOp56
 70
     1
102
RTVSPost2010Prop57
140
1.0
102
RTVSPost2010PropOp57
 70
     1
  0
XRECORD
  5
AB3
102
{ACAD_REACTORS
330
AB2
102
}
330
AB2
100
AcDbXrecord
280
     1
102
RTVSPost2010Prop28
280
     0
102
RTVSPost2010PropOp28
 70
     1
102
RTVSPost2010Prop29
280
     1
102
RTVSPost2010PropOp29
 70
     1
102
RTVSPost2010Prop30
280
     1
102
RTVSPost2010PropOp30
 70
     1
102
RTVSPost2010Prop31
280
     0
102
RTVSPost2010PropOp31
 70
     1
102
RTVSPost2010Prop32
280
     0
102
RTVSPost2010PropOp32
 70
     1
102
RTVSPost2010Prop33
280
     0
102
RTVSPost2010PropOp33
 70
     1
102
RTVSPost2010Prop34
280
     0
102
RTVSPost2010PropOp34
 70
     1
102
RTVSPost2010Prop35
280
     0
102
RTVSPost2010PropOp35
 70
     1
102
RTVSPost2010Prop36
280
     0
102
RTVSPost2010PropOp36
 70
     1
102
RTVSPost2010Prop37
 90
       50
102
RTVSPost2010PropOp37
 70
     1
102
RTVSPost2010Prop38
140
0.0
102
RTVSPost2010PropOp38
 70
     1
102
RTVSPost2010Prop39
140
1.0
102
RTVSPost2010PropOp39
 70
     1
102
RTVSPost2010Prop40
 90
        0
102
RTVSPost2010PropOp40
 70
     1
102
RTVSPost2010Prop41ColorIndex
 90
       18
102
RTVSPost2010Prop41ColorRGB
 90
        0
102
RTVSPost2010PropOp41
 70
     1
102
RTVSPost2010Prop42
 90
       50
102
RTVSPost2010PropOp42
 70
     1
102
RTVSPost2010Prop43
 90
        3
102
RTVSPost2010PropOp43
 70
     1
102
RTVSPost2010Prop44ColorIndex
 90
        5
102
RTVSPost2010Prop44ColorRGB
 90
      255
102
RTVSPost2010PropOp44
 70
     1
102
RTVSPost2010Prop45
280
     0
102
RTVSPost2010PropOp45
 70
     1
102
RTVSPost2010Prop46
 90
       50
102
RTVSPost2010PropOp46
 70
     1
102
RTVSPost2010Prop47
 90
       50
102
RTVSPost2010PropOp47
 70
     1
102
RTVSPost2010Prop48
 90
       50
102
RTVSPost2010PropOp48
 70
     1
102
RTVSPost2010Prop49
280
     0
102
RTVSPost2010PropOp49
 70
     1
102
RTVSPost2010Prop50
 90
       50
102
RTVSPost2010PropOp50
 70
     1
102
RTVSPost2010Prop51ColorIndex
 90
      256
102
RTVSPost2010Prop51ColorRGB
 90
-16777216
102
RTVSPost2010PropOp51
 70
     0
102
RTVSPost2010Prop52
140
1.0
102
RTVSPost2010PropOp52
 70
     0
102
RTVSPost2010Prop53
 90
        2
102
RTVSPost2010PropOp53
 70
     1
102
RTVSPost2010Prop54
  1
strokes_ogs.tif
102
RTVSPost2010PropOp54
 70
     1
102
RTVSPost2010Prop55
280
     0
102
RTVSPost2010PropOp55
 70
     1
102
RTVSPost2010Prop56
140
1.0
102
RTVSPost2010PropOp56
 70
     1
102
RTVSPost2010Prop57
140
1.0
102
RTVSPost2010PropOp57
 70
     1
  0
XRECORD
  5
AA9
102
{ACAD_REACTORS
330
AA8
102
}
330
AA8
100
AcDbXrecord
280
     1
102
RTVSPost2010Prop28
280
     0
102
RTVSPost2010PropOp28
 70
     1
102
RTVSPost2010Prop29
280
     1
102
RTVSPost2010PropOp29
 70
     1
102
RTVSPost2010Prop30
280
     1
102
RTVSPost2010PropOp30
 70
     1
102
RTVSPost2010Prop31
280
     0
102
RTVSPost2010PropOp31
 70
     1
102
RTVSPost2010Prop32
280
     0
102
RTVSPost2010PropOp32
 70
     1
102
RTVSPost2010Prop33
280
     0
102
RTVSPost2010PropOp33
 70
     1
102
RTVSPost2010Prop34
280
     0
102
RTVSPost2010PropOp34
 70
     1
102
RTVSPost2010Prop35
280
     0
102
RTVSPost2010PropOp35
 70
     1
102
RTVSPost2010Prop36
280
     0
102
RTVSPost2010PropOp36
 70
     1
102
RTVSPost2010Prop37
 90
       50
102
RTVSPost2010PropOp37
 70
     1
102
RTVSPost2010Prop38
140
0.0
102
RTVSPost2010PropOp38
 70
     1
102
RTVSPost2010Prop39
140
1.0
102
RTVSPost2010PropOp39
 70
     1
102
RTVSPost2010Prop40
 90
        0
102
RTVSPost2010PropOp40
 70
     1
102
RTVSPost2010Prop41ColorIndex
 90
       18
102
RTVSPost2010Prop41ColorRGB
 90
        0
102
RTVSPost2010PropOp41
 70
     1
102
RTVSPost2010Prop42
 90
       50
102
RTVSPost2010PropOp42
 70
     1
102
RTVSPost2010Prop43
 90
        3
102
RTVSPost2010PropOp43
 70
     1
102
RTVSPost2010Prop44ColorIndex
 90
        5
102
RTVSPost2010Prop44ColorRGB
 90
      255
102
RTVSPost2010PropOp44
 70
     1
102
RTVSPost2010Prop45
280
     0
102
RTVSPost2010PropOp45
 70
     1
102
RTVSPost2010Prop46
 90
       50
102
RTVSPost2010PropOp46
 70
     1
102
RTVSPost2010Prop47
 90
       50
102
RTVSPost2010PropOp47
 70
     1
102
RTVSPost2010Prop48
 90
       50
102
RTVSPost2010PropOp48
 70
     1
102
RTVSPost2010Prop49
280
     0
102
RTVSPost2010PropOp49
 70
     1
102
RTVSPost2010Prop50
 90
       50
102
RTVSPost2010PropOp50
 70
     1
102
RTVSPost2010Prop51ColorIndex
 90
      256
102
RTVSPost2010Prop51ColorRGB
 90
-16777216
102
RTVSPost2010PropOp51
 70
     0
102
RTVSPost2010Prop52
140
1.0
102
RTVSPost2010PropOp52
 70
     0
102
RTVSPost2010Prop53
 90
        2
102
RTVSPost2010PropOp53
 70
     1
102
RTVSPost2010Prop54
  1
strokes_ogs.tif
102
RTVSPost2010PropOp54
 70
     1
102
RTVSPost2010Prop55
280
     0
102
RTVSPost2010PropOp55
 70
     1
102
RTVSPost2010Prop56
140
1.0
102
RTVSPost2010PropOp56
 70
     1
102
RTVSPost2010Prop57
140
1.0
102
RTVSPost2010PropOp57
 70
     1
  0
XRECORD
  5
A9D
102
{ACAD_REACTORS
330
A9C
102
}
330
A9C
100
AcDbXrecord
280
     1
102
RTVSPost2010Prop28
280
     0
102
RTVSPost2010PropOp28
 70
     1
102
RTVSPost2010Prop29
280
     1
102
RTVSPost2010PropOp29
 70
     1
102
RTVSPost2010Prop30
280
     1
102
RTVSPost2010PropOp30
 70
     1
102
RTVSPost2010Prop31
280
     0
102
RTVSPost2010PropOp31
 70
     1
102
RTVSPost2010Prop32
280
     0
102
RTVSPost2010PropOp32
 70
     1
102
RTVSPost2010Prop33
280
     0
102
RTVSPost2010PropOp33
 70
     1
102
RTVSPost2010Prop34
280
     0
102
RTVSPost2010PropOp34
 70
     1
102
RTVSPost2010Prop35
280
     0
102
RTVSPost2010PropOp35
 70
     1
102
RTVSPost2010Prop36
280
     0
102
RTVSPost2010PropOp36
 70
     1
102
RTVSPost2010Prop37
 90
       50
102
RTVSPost2010PropOp37
 70
     1
102
RTVSPost2010Prop38
140
0.0
102
RTVSPost2010PropOp38
 70
     1
102
RTVSPost2010Prop39
140
1.0
102
RTVSPost2010PropOp39
 70
     1
102
RTVSPost2010Prop40
 90
        0
102
RTVSPost2010PropOp40
 70
     1
102
RTVSPost2010Prop41ColorIndex
 90
       18
102
RTVSPost2010Prop41ColorRGB
 90
        0
102
RTVSPost2010PropOp41
 70
     1
102
RTVSPost2010Prop42
 90
       50
102
RTVSPost2010PropOp42
 70
     1
102
RTVSPost2010Prop43
 90
        3
102
RTVSPost2010PropOp43
 70
     1
102
RTVSPost2010Prop44ColorIndex
 90
        5
102
RTVSPost2010Prop44ColorRGB
 90
      255
102
RTVSPost2010PropOp44
 70
     1
102
RTVSPost2010Prop45
280
     0
102
RTVSPost2010PropOp45
 70
     1
102
RTVSPost2010Prop46
 90
       50
102
RTVSPost2010PropOp46
 70
     1
102
RTVSPost2010Prop47
 90
       50
102
RTVSPost2010PropOp47
 70
     1
102
RTVSPost2010Prop48
 90
       50
102
RTVSPost2010PropOp48
 70
     1
102
RTVSPost2010Prop49
280
     0
102
RTVSPost2010PropOp49
 70
     1
102
RTVSPost2010Prop50
 90
       50
102
RTVSPost2010PropOp50
 70
     1
102
RTVSPost2010Prop51ColorIndex
 90
      256
102
RTVSPost2010Prop51ColorRGB
 90
-16777216
102
RTVSPost2010PropOp51
 70
     0
102
RTVSPost2010Prop52
140
1.0
102
RTVSPost2010PropOp52
 70
     0
102
RTVSPost2010Prop53
 90
        2
102
RTVSPost2010PropOp53
 70
     1
102
RTVSPost2010Prop54
  1
strokes_ogs.tif
102
RTVSPost2010PropOp54
 70
     1
102
RTVSPost2010Prop55
280
     0
102
RTVSPost2010PropOp55
 70
     1
102
RTVSPost2010Prop56
140
1.0
102
RTVSPost2010PropOp56
 70
     1
102
RTVSPost2010Prop57
140
1.0
102
RTVSPost2010PropOp57
 70
     1
  0
XRECORD
  5
AB5
102
{ACAD_REACTORS
330
AB4
102
}
330
AB4
100
AcDbXrecord
280
     1
102
RTVSPost2010Prop28
280
     0
102
RTVSPost2010PropOp28
 70
     1
102
RTVSPost2010Prop29
280
     1
102
RTVSPost2010PropOp29
 70
     1
102
RTVSPost2010Prop30
280
     1
102
RTVSPost2010PropOp30
 70
     1
102
RTVSPost2010Prop31
280
     0
102
RTVSPost2010PropOp31
 70
     1
102
RTVSPost2010Prop32
280
     0
102
RTVSPost2010PropOp32
 70
     1
102
RTVSPost2010Prop33
280
     0
102
RTVSPost2010PropOp33
 70
     1
102
RTVSPost2010Prop34
280
     0
102
RTVSPost2010PropOp34
 70
     1
102
RTVSPost2010Prop35
280
     0
102
RTVSPost2010PropOp35
 70
     1
102
RTVSPost2010Prop36
280
     0
102
RTVSPost2010PropOp36
 70
     1
102
RTVSPost2010Prop37
 90
       50
102
RTVSPost2010PropOp37
 70
     1
102
RTVSPost2010Prop38
140
0.0
102
RTVSPost2010PropOp38
 70
     1
102
RTVSPost2010Prop39
140
1.0
102
RTVSPost2010PropOp39
 70
     1
102
RTVSPost2010Prop40
 90
        0
102
RTVSPost2010PropOp40
 70
     1
102
RTVSPost2010Prop41ColorIndex
 90
       18
102
RTVSPost2010Prop41ColorRGB
 90
        0
102
RTVSPost2010PropOp41
 70
     1
102
RTVSPost2010Prop42
 90
       50
102
RTVSPost2010PropOp42
 70
     1
102
RTVSPost2010Prop43
 90
        3
102
RTVSPost2010PropOp43
 70
     1
102
RTVSPost2010Prop44ColorIndex
 90
        5
102
RTVSPost2010Prop44ColorRGB
 90
      255
102
RTVSPost2010PropOp44
 70
     1
102
RTVSPost2010Prop45
280
     0
102
RTVSPost2010PropOp45
 70
     1
102
RTVSPost2010Prop46
 90
       50
102
RTVSPost2010PropOp46
 70
     1
102
RTVSPost2010Prop47
 90
       50
102
RTVSPost2010PropOp47
 70
     1
102
RTVSPost2010Prop48
 90
       50
102
RTVSPost2010PropOp48
 70
     1
102
RTVSPost2010Prop49
280
     0
102
RTVSPost2010PropOp49
 70
     1
102
RTVSPost2010Prop50
 90
       50
102
RTVSPost2010PropOp50
 70
     1
102
RTVSPost2010Prop51ColorIndex
 90
      256
102
RTVSPost2010Prop51ColorRGB
 90
-16777216
102
RTVSPost2010PropOp51
 70
     0
102
RTVSPost2010Prop52
140
1.0
102
RTVSPost2010PropOp52
 70
     0
102
RTVSPost2010Prop53
 90
        2
102
RTVSPost2010PropOp53
 70
     1
102
RTVSPost2010Prop54
  1
strokes_ogs.tif
102
RTVSPost2010PropOp54
 70
     1
102
RTVSPost2010Prop55
280
     0
102
RTVSPost2010PropOp55
 70
     1
102
RTVSPost2010Prop56
140
1.0
102
RTVSPost2010PropOp56
 70
     1
102
RTVSPost2010Prop57
140
1.0
102
RTVSPost2010PropOp57
 70
     1
  0
ENDSEC
  0
EOF
