  0
SECTION
  2
HEADER
  9
$ACADVER
  1
AC1027
  9
$ACADMAINTVER
 70
   125
  9
$DWGCODEPAGE
  3
ANSI_932
  9
$LASTSAVEDBY
  1
satoe
  9
$REQUIREDVERSIONS
160
                 0
  9
$INSBASE
 10
0.0
 20
0.0
 30
0.0
  9
$EXTMIN
 10
-0.0000002887081791
 20
-0.0000007087007816
 30
0.0
  9
$EXTMAX
 10
839.9999997112917
 20
593.9999992912992
 30
0.0
  9
$LIMMIN
 10
0.0
 20
0.0
  9
$LIMMAX
 10
420.0
 20
297.0
  9
$ORTHOMODE
 70
     0
  9
$REGENMODE
 70
     1
  9
$FILLMODE
 70
     1
  9
$QTEXTMODE
 70
     0
  9
$MIRRTEXT
 70
     0
  9
$LTSCALE
 40
1.0
  9
$ATTMODE
 70
     1
  9
$TEXTSIZE
 40
2.5
  9
$TRACEWID
 40
1.0
  9
$TEXTSTYLE
  7
Standard
  9
$CLAYER
  8
0
  9
$CELTYPE
  6
ByLayer
  9
$CECOLOR
 62
   256
  9
$CELTSCALE
 40
1.0
  9
$DISPSILH
 70
     0
  9
$DIMSCALE
 40
1.0
  9
$DIMASZ
 40
2.5
  9
$DIMEXO
 40
0.625
  9
$DIMDLI
 40
3.75
  9
$DIMRND
 40
0.0
  9
$DIMDLE
 40
0.0
  9
$DIMEXE
 40
1.25
  9
$DIMTP
 40
0.0
  9
$DIMTM
 40
0.0
  9
$DIMTXT
 40
2.5
  9
$DIMCEN
 40
2.5
  9
$DIMTSZ
 40
0.0
  9
$DIMTOL
 70
     0
  9
$DIMLIM
 70
     0
  9
$DIMTIH
 70
     0
  9
$DIMTOH
 70
     0
  9
$DIMSE1
 70
     0
  9
$DIMSE2
 70
     0
  9
$DIMTAD
 70
     1
  9
$DIMZIN
 70
     8
  9
$DIMBLK
  1

  9
$DIMASO
 70
     1
  9
$DIMSHO
 70
     1
  9
$DIMPOST
  1

  9
$DIMAPOST
  1

  9
$DIMALT
 70
     0
  9
$DIMALTD
 70
     3
  9
$DIMALTF
 40
0.03937007874016
  9
$DIMLFAC
 40
1.0
  9
$DIMTOFL
 70
     1
  9
$DIMTVP
 40
0.0
  9
$DIMTIX
 70
     0
  9
$DIMSOXD
 70
     0
  9
$DIMSAH
 70
     0
  9
$DIMBLK1
  1

  9
$DIMBLK2
  1

  9
$DIMSTYLE
  2
ISO-25
  9
$DIMCLRD
 70
     0
  9
$DIMCLRE
 70
     0
  9
$DIMCLRT
 70
     0
  9
$DIMTFAC
 40
1.0
  9
$DIMGAP
 40
0.625
  9
$DIMJUST
 70
     0
  9
$DIMSD1
 70
     0
  9
$DIMSD2
 70
     0
  9
$DIMTOLJ
 70
     0
  9
$DIMTZIN
 70
     8
  9
$DIMALTZ
 70
     0
  9
$DIMALTTZ
 70
     0
  9
$DIMUPT
 70
     0
  9
$DIMDEC
 70
     2
  9
$DIMTDEC
 70
     2
  9
$DIMALTU
 70
     2
  9
$DIMALTTD
 70
     3
  9
$DIMTXSTY
  7
Standard
  9
$DIMAUNIT
 70
     0
  9
$DIMADEC
 70
     0
  9
$DIMALTRND
 40
0.0
  9
$DIMAZIN
 70
     0
  9
$DIMDSEP
 70
    44
  9
$DIMATFIT
 70
     3
  9
$DIMFRAC
 70
     0
  9
$DIMLDRBLK
  1

  9
$DIMLUNIT
 70
     2
  9
$DIMLWD
 70
    -2
  9
$DIMLWE
 70
    -2
  9
$DIMTMOVE
 70
     0
  9
$DIMFXL
 40
1.0
  9
$DIMFXLON
 70
     0
  9
$DIMJOGANG
 40
0.7853981633974483
  9
$DIMTFILL
 70
     0
  9
$DIMTFILLCLR
 70
     0
  9
$DIMARCSYM
 70
     0
  9
$DIMLTYPE
  6

  9
$DIMLTEX1
  6

  9
$DIMLTEX2
  6

  9
$DIMTXTDIRECTION
 70
     0
  9
$LUNITS
 70
     2
  9
$LUPREC
 70
     4
  9
$SKETCHINC
 40
1.0
  9
$FILLETRAD
 40
0.0
  9
$AUNITS
 70
     0
  9
$AUPREC
 70
     0
  9
$MENU
  1
.
  9
$ELEVATION
 40
0.0
  9
$PELEVATION
 40
0.0
  9
$THICKNESS
 40
0.0
  9
$LIMCHECK
 70
     0
  9
$CHAMFERA
 40
0.0
  9
$CHAMFERB
 40
0.0
  9
$CHAMFERC
 40
0.0
  9
$CHAMFERD
 40
0.0
  9
$SKPOLY
 70
     0
  9
$TDCREATE
 40
2457301.619189815
  9
$TDUCREATE
 40
2457301.244197986
  9
$TDUPDATE
 40
2460285.753321759
  9
$TDUUPDATE
 40
2460285.378321759
  9
$TDINDWG
 40
0.2143960648
  9
$TDUSRTIMER
 40
0.2143960417
  9
$USRTIMER
 70
     1
  9
$ANGBASE
 50
0.0
  9
$ANGDIR
 70
     0
  9
$PDMODE
 70
     0
  9
$PDSIZE
 40
0.0
  9
$PLINEWID
 40
0.0
  9
$SPLFRAME
 70
     0
  9
$SPLINETYPE
 70
     6
  9
$SPLINESEGS
 70
     8
  9
$HANDSEED
  5
1D81
  9
$SURFTAB1
 70
     6
  9
$SURFTAB2
 70
     6
  9
$SURFTYPE
 70
     6
  9
$SURFU
 70
     6
  9
$SURFV
 70
     6
  9
$UCSBASE
  2

  9
$UCSNAME
  2

  9
$UCSORG
 10
0.0
 20
0.0
 30
0.0
  9
$UCSXDIR
 10
1.0
 20
0.0
 30
0.0
  9
$UCSYDIR
 10
0.0
 20
1.0
 30
0.0
  9
$UCSORTHOREF
  2

  9
$UCSORTHOVIEW
 70
     0
  9
$UCSORGTOP
 10
0.0
 20
0.0
 30
0.0
  9
$UCSORGBOTTOM
 10
0.0
 20
0.0
 30
0.0
  9
$UCSORGLEFT
 10
0.0
 20
0.0
 30
0.0
  9
$UCSORGRIGHT
 10
0.0
 20
0.0
 30
0.0
  9
$UCSORGFRONT
 10
0.0
 20
0.0
 30
0.0
  9
$UCSORGBACK
 10
0.0
 20
0.0
 30
0.0
  9
$PUCSBASE
  2

  9
$PUCSNAME
  2

  9
$PUCSORG
 10
0.0
 20
0.0
 30
0.0
  9
$PUCSXDIR
 10
1.0
 20
0.0
 30
0.0
  9
$PUCSYDIR
 10
0.0
 20
1.0
 30
0.0
  9
$PUCSORTHOREF
  2

  9
$PUCSORTHOVIEW
 70
     0
  9
$PUCSORGTOP
 10
0.0
 20
0.0
 30
0.0
  9
$PUCSORGBOTTOM
 10
0.0
 20
0.0
 30
0.0
  9
$PUCSORGLEFT
 10
0.0
 20
0.0
 30
0.0
  9
$PUCSORGRIGHT
 10
0.0
 20
0.0
 30
0.0
  9
$PUCSORGFRONT
 10
0.0
 20
0.0
 30
0.0
  9
$PUCSORGBACK
 10
0.0
 20
0.0
 30
0.0
  9
$USERI1
 70
     0
  9
$USERI2
 70
     0
  9
$USERI3
 70
     0
  9
$USERI4
 70
     0
  9
$USERI5
 70
     0
  9
$USERR1
 40
0.0
  9
$USERR2
 40
0.0
  9
$USERR3
 40
0.0
  9
$USERR4
 40
0.0
  9
$USERR5
 40
0.0
  9
$WORLDVIEW
 70
     1
  9
$SHADEDGE
 70
     3
  9
$SHADEDIF
 70
    70
  9
$TILEMODE
 70
     1
  9
$MAXACTVP
 70
    64
  9
$PINSBASE
 10
0.0
 20
0.0
 30
0.0
  9
$PLIMCHECK
 70
     0
  9
$PEXTMIN
 10
-0.0237639389299602
 20
-0.0158664553705421
 30
-0.0000000000000058
  9
$PEXTMAX
 10
420.0205047876521
 20
297.0023665479626
 30
0.0000000000000104
  9
$PLIMMIN
 10
-0.0757129113366091
 20
-0.0119989771415305
  9
$PLIMMAX
 10
419.9242870886634
 20
296.9880010228585
  9
$UNITMODE
 70
     0
  9
$VISRETAIN
 70
     1
  9
$PLINEGEN
 70
     0
  9
$PSLTSCALE
 70
     1
  9
$TREEDEPTH
 70
  3020
  9
$CMLSTYLE
  2
Standard
  9
$CMLJUST
 70
     0
  9
$CMLSCALE
 40
20.0
  9
$PROXYGRAPHICS
 70
     1
  9
$MEASUREMENT
 70
     1
  9
$CELWEIGHT
370
    -1
  9
$ENDCAPS
280
     0
  9
$JOINSTYLE
280
     0
  9
$LWDISPLAY
290
     0
  9
$INSUNITS
 70
     4
  9
$HYPERLINKBASE
  1

  9
$STYLESHEET
  1
monochrome.ctb
  9
$XEDIT
290
     1
  9
$CEPSNTYPE
380
     0
  9
$PSTYLEMODE
290
     1
  9
$FINGERPRINTGUID
  2
{DCF6FB66-BDC8-43BF-91FC-A26568E07BE6}
  9
$VERSIONGUID
  2
{14A9B90C-16D9-1940-9761-C34589614BC2}
  9
$EXTNAMES
290
     1
  9
$PSVPSCALE
 40
0.0
  9
$OLESTARTUP
290
     0
  9
$SORTENTS
280
   127
  9
$INDEXCTL
280
     0
  9
$HIDETEXT
280
     1
  9
$XCLIPFRAME
280
     2
  9
$HALOGAP
280
     0
  9
$OBSCOLOR
 70
   257
  9
$OBSLTYPE
280
     0
  9
$INTERSECTIONDISPLAY
280
     0
  9
$INTERSECTIONCOLOR
 70
   257
  9
$DIMASSOC
280
     2
  9
$PROJECTNAME
  1

  9
$CAMERADISPLAY
290
     0
  9
$LENSLENGTH
 40
50.0
  9
$CAMERAHEIGHT
 40
0.0
  9
$STEPSPERSEC
 40
2.0
  9
$STEPSIZE
 40
6.0
  9
$3DDWFPREC
 40
2.0
  9
$PSOLWIDTH
 40
5.0
  9
$PSOLHEIGHT
 40
80.0
  9
$LOFTANG1
 40
1.570796326794896
  9
$LOFTANG2
 40
1.570796326794896
  9
$LOFTMAG1
 40
0.0
  9
$LOFTMAG2
 40
0.0
  9
$LOFTPARAM
 70
     7
  9
$LOFTNORMALS
280
     1
  9
$LATITUDE
 40
37.795
  9
$LONGITUDE
 40
-122.394
  9
$NORTHDIRECTION
 40
0.0
  9
$TIMEZONE
 70
 -8000
  9
$LIGHTGLYPHDISPLAY
280
     1
  9
$TILEMODELIGHTSYNCH
280
     1
  9
$CMATERIAL
347
EC
  9
$SOLIDHIST
280
     0
  9
$SHOWHIST
280
     1
  9
$DWFFRAME
280
     2
  9
$DGNFRAME
280
     0
  9
$REALWORLDSCALE
290
     1
  9
$INTERFERECOLOR
 62
     1
  9
$INTERFEREOBJVS
345
F9
  9
$INTERFEREVPVS
346
F6
  9
$CSHADOW
280
     0
  9
$SHADOWPLANELOCATION
 40
0.0
  0
ENDSEC
  0
SECTION
  2
CLASSES
  0
CLASS
  1
ACDBDICTIONARYWDFLT
  2
AcDbDictionaryWithDefault
  3
ObjectDBX Classes
 90
        0
 91
        1
280
     0
281
     0
  0
CLASS
  1
DICTIONARYVAR
  2
AcDbDictionaryVar
  3
ObjectDBX Classes
 90
        0
 91
       14
280
     0
281
     0
  0
CLASS
  1
TABLESTYLE
  2
AcDbTableStyle
  3
ObjectDBX Classes
 90
     4095
 91
        1
280
     0
281
     0
  0
CLASS
  1
MATERIAL
  2
AcDbMaterial
  3
ObjectDBX Classes
 90
     1153
 91
        3
280
     0
281
     0
  0
CLASS
  1
VISUALSTYLE
  2
AcDbVisualStyle
  3
ObjectDBX Classes
 90
     4095
 91
       24
280
     0
281
     0
  0
CLASS
  1
SCALE
  2
AcDbScale
  3
ObjectDBX Classes
 90
     1153
 91
       17
280
     0
281
     0
  0
CLASS
  1
MLEADERSTYLE
  2
AcDbMLeaderStyle
  3
ACDB_MLEADERSTYLE_CLASS
 90
     4095
 91
        1
280
     0
281
     0
  0
CLASS
  1
CELLSTYLEMAP
  2
AcDbCellStyleMap
  3
ObjectDBX Classes
 90
     1152
 91
        1
280
     0
281
     0
  0
CLASS
  1
EXACXREFPANELOBJECT
  2
ExAcXREFPanelObject
  3
EXAC_ESW
 90
     1025
 91
        0
280
     0
281
     0
  0
CLASS
  1
NPOCOLLECTION
  2
AcDbImpNonPersistentObjectsCollection
  3
ObjectDBX Classes
 90
     1153
 91
        0
280
     0
281
     0
  0
CLASS
  1
LAYER_INDEX
  2
AcDbLayerIndex
  3
ObjectDBX Classes
 90
        0
 91
        0
280
     0
281
     0
  0
CLASS
  1
SPATIAL_INDEX
  2
AcDbSpatialIndex
  3
ObjectDBX Classes
 90
        0
 91
        0
280
     0
281
     0
  0
CLASS
  1
IDBUFFER
  2
AcDbIdBuffer
  3
ObjectDBX Classes
 90
        0
 91
        0
280
     0
281
     0
  0
CLASS
  1
ACDBSECTIONVIEWSTYLE
  2
AcDbSectionViewStyle
  3
ObjectDBX Classes
 90
     1025
 91
        1
280
     0
281
     0
  0
CLASS
  1
ACDBDETAILVIEWSTYLE
  2
AcDbDetailViewStyle
  3
ObjectDBX Classes
 90
     1025
 91
        1
280
     0
281
     0
  0
CLASS
  1
SORTENTSTABLE
  2
AcDbSortentsTable
  3
ObjectDBX Classes
 90
        0
 91
        3
280
     0
281
     0
  0
CLASS
  1
DIMASSOC
  2
AcDbDimAssoc
  3
"AcDbDimAssoc|Product Desc:     AcDim ARX App For Dimension|Company:          Autodesk, Inc.|WEB Address:      www.autodesk.com"
 90
        0
 91
       20
280
     0
281
     0
  0
CLASS
  1
RAPIDRTRENDERSETTINGS
  2
AcDbRapidRTRenderSettings
  3
ObjectDBX Classes
 90
     1024
 91
        7
280
     0
281
     0
  0
CLASS
  1
MENTALRAYRENDERSETTINGS
  2
AcDbMentalRayRenderSettings
  3
SCENEOE
 90
     1024
 91
        1
280
     0
281
     0
  0
ENDSEC
  0
SECTION
  2
TABLES
  0
TABLE
  2
VPORT
  5
8
102
{ACAD_XDICTIONARY
360
5E7
102
}
330
0
100
AcDbSymbolTable
 70
     1
1001
ACAD
1000
DbSaveVer
1071
      278
  0
VPORT
  5
EA
330
8
100
AcDbSymbolTableRecord
100
AcDbViewportTableRecord
  2
*Active
 70
     0
 10
0.0
 20
0.0
 11
1.0
 21
1.0
 12
420.0000016670694
 22
310.8013659299554
 13
0.0
 23
0.0
 14
10.0
 24
10.0
 15
10.0
 25
10.0
 16
0.0
 26
0.0
 36
1.0
 17
0.0
 27
0.0
 37
0.0
 40
627.706538293652
 41
2.472312703583062
 42
50.0
 43
0.0
 44
0.0
 50
0.0
 51
0.0
 71
     0
 72
   100
 73
     1
 74
     3
 75
     0
 76
     1
 77
     0
 78
     0
281
     0
 65
     1
110
0.0
120
0.0
130
0.0
111
1.0
121
0.0
131
0.0
112
0.0
122
1.0
132
0.0
 79
     0
146
0.0
348
F5
 60
     3
 61
     5
292
     1
282
     1
141
0.0
142
0.0
 63
   250
421
  3355443
1001
ACAD_NAV_VCDISPLAY
1070
     3
  0
ENDTAB
  0
TABLE
  2
LTYPE
  5
5
330
0
100
AcDbSymbolTable
 70
     5
  0
LTYPE
  5
14
330
5
100
AcDbSymbolTableRecord
100
AcDbLinetypeTableRecord
  2
ByBlock
 70
     0
  3

 72
    65
 73
     0
 40
0.0
  0
LTYPE
  5
15
330
5
100
AcDbSymbolTableRecord
100
AcDbLinetypeTableRecord
  2
ByLayer
 70
     0
  3

 72
    65
 73
     0
 40
0.0
  0
LTYPE
  5
16
330
5
100
AcDbSymbolTableRecord
100
AcDbLinetypeTableRecord
  2
Continuous
 70
     0
  3
Solid line
 72
    65
 73
     0
 40
0.0
  0
LTYPE
  5
242
330
5
100
AcDbSymbolTableRecord
100
AcDbLinetypeTableRecord
  2
DASHED
 70
     0
  3
Dashed __ __ __ __ __ __ __ __ __ __ __ __ __ _
 72
    65
 73
     2
 40
19.05
 49
12.7
 74
     0
 49
-6.349999999999999
 74
     0
  0
LTYPE
  5
243
330
5
100
AcDbSymbolTableRecord
100
AcDbLinetypeTableRecord
  2
DASHED2
 70
     0
  3
Dashed (.5x) _ _ _ _ _ _ _ _ _ _ _ _ _ _ _ _ _
 72
    65
 73
     2
 40
9.524999999999998
 49
6.349999999999999
 74
     0
 49
-3.174999999999999
 74
     0
  0
LTYPE
  5
538
330
5
100
AcDbSymbolTableRecord
100
AcDbLinetypeTableRecord
  2
Amconstr
 70
     0
  3
_______________________
 72
    65
 73
     2
 40
9999.0
 49
9999.0
 74
     0
 49
0.0
 74
     0
  0
ENDTAB
  0
TABLE
  2
LAYER
  5
2
102
{ACAD_XDICTIONARY
360
1FF
102
}
330
0
100
AcDbSymbolTable
 70
     9
  0
LAYER
  5
10
102
{ACAD_XDICTIONARY
360
13C
102
}
330
2
100
AcDbSymbolTableRecord
100
AcDbLayerTableRecord
  2
0
 70
     0
 62
     7
  6
Continuous
370
    -3
390
F
347
EE
348
0
  0
LAYER
  5
244
102
{ACAD_XDICTIONARY
360
245
102
}
330
2
100
AcDbSymbolTableRecord
100
AcDbLayerTableRecord
  2
WAKU
 70
     0
 62
     7
  6
Continuous
370
    -3
390
F
347
EE
348
0
  0
LAYER
  5
539
102
{ACAD_XDICTIONARY
360
53A
102
}
330
2
100
AcDbSymbolTableRecord
100
AcDbLayerTableRecord
  2
AM_CL
 70
     0
 62
    -1
  6
Amconstr
370
    25
390
F
347
EE
348
0
  0
LAYER
  5
647
102
{ACAD_XDICTIONARY
360
648
102
}
330
2
100
AcDbSymbolTableRecord
100
AcDbLayerTableRecord
  2
文字
 70
     0
 62
     7
  6
Continuous
370
    -3
390
F
347
EE
348
0
  0
LAYER
  5
17B6
330
2
100
AcDbSymbolTableRecord
100
AcDbLayerTableRecord
  2
Defpoints
 70
     0
 62
     7
  6
Continuous
290
     0
370
    -3
390
F
347
EE
348
0
  0
LAYER
  5
17B7
330
2
100
AcDbSymbolTableRecord
100
AcDbLayerTableRecord
  2
寸法
 70
     0
 62
     7
  6
Continuous
370
    13
390
F
347
EE
348
0
1001
AcAecLayerStandard
1000

1000

1001
AcCmTransparency
1071
        0
  0
LAYER
  5
17B8
330
2
100
AcDbSymbolTableRecord
100
AcDbLayerTableRecord
  2
実線
 70
     0
 62
     7
  6
Continuous
370
    25
390
F
347
EE
348
0
  0
LAYER
  5
19AB
102
{ACAD_XDICTIONARY
360
19AC
102
}
330
2
100
AcDbSymbolTableRecord
100
AcDbLayerTableRecord
  2
SUNPO
 70
     0
 62
     2
  6
Continuous
370
    -3
390
F
347
EE
348
0
  0
LAYER
  5
19AD
102
{ACAD_XDICTIONARY
360
19AE
102
}
330
2
100
AcDbSymbolTableRecord
100
AcDbLayerTableRecord
  2
役物1
 70
     0
 62
     3
  6
Continuous
370
    -3
390
19B1
347
EE
348
0
  0
ENDTAB
  0
TABLE
  2
STYLE
  5
3
330
0
100
AcDbSymbolTable
 70
     5
  0
STYLE
  5
11
330
3
100
AcDbSymbolTableRecord
100
AcDbTextStyleTableRecord
  2
Standard
 70
     0
 40
0.0
 41
1.0
 50
0.0
 71
     0
 42
2.5
  3
txt.shx
  4
extfont2.shx
  0
STYLE
  5
246
330
3
100
AcDbSymbolTableRecord
100
AcDbTextStyleTableRecord
  2
WAKU
 70
     0
 40
5.0
 41
1.0
 50
0.0
 71
     0
 42
5.0
  3
MS Gothic.ttf
  4

1001
ACAD
1000
MS Gothic
1071
    32817
  0
STYLE
  5
17B9
330
3
100
AcDbSymbolTableRecord
100
AcDbTextStyleTableRecord
  2
FX_FONT
 70
     0
 40
1.0
 41
1.0
 50
0.0
 71
     0
 42
1.0
  3
monotxt
  4
bigfont
  0
STYLE
  5
19AF
330
3
100
AcDbSymbolTableRecord
100
AcDbTextStyleTableRecord
  2
IG-5
 70
     0
 40
5.0
 41
0.7
 50
0.0
 71
     0
 42
8.0
  3
txt.shx
  4
extfont.shx
  0
ENDTAB
  0
TABLE
  2
VIEW
  5
6
330
0
100
AcDbSymbolTable
 70
     4
  0
ENDTAB
  0
TABLE
  2
UCS
  5
7
330
0
100
AcDbSymbolTable
 70
     0
  0
ENDTAB
  0
TABLE
  2
APPID
  5
9
330
0
100
AcDbSymbolTable
 70
    14
  0
APPID
  5
12
330
9
100
AcDbSymbolTableRecord
100
AcDbRegAppTableRecord
  2
ACAD
 70
     0
  0
APPID
  5
9E
330
9
100
AcDbSymbolTableRecord
100
AcDbRegAppTableRecord
  2
ACAD_PSEXT
 70
     0
  0
APPID
  5
133
330
9
100
AcDbSymbolTableRecord
100
AcDbRegAppTableRecord
  2
AcadAnnoPO
 70
     0
  0
APPID
  5
134
330
9
100
AcDbSymbolTableRecord
100
AcDbRegAppTableRecord
  2
AcadAnnotative
 70
     0
  0
APPID
  5
135
330
9
100
AcDbSymbolTableRecord
100
AcDbRegAppTableRecord
  2
ACAD_DSTYLE_DIMJAG
 70
     0
  0
APPID
  5
136
330
9
100
AcDbSymbolTableRecord
100
AcDbRegAppTableRecord
  2
ACAD_DSTYLE_DIMTALN
 70
     0
  0
APPID
  5
165
330
9
100
AcDbSymbolTableRecord
100
AcDbRegAppTableRecord
  2
ACAD_MLEADERVER
 70
     0
  0
APPID
  5
217
330
9
100
AcDbSymbolTableRecord
100
AcDbRegAppTableRecord
  2
ACAD_NAV_VCDISPLAY
 70
     0
  0
APPID
  5
64F
330
9
100
AcDbSymbolTableRecord
100
AcDbRegAppTableRecord
  2
GradientColor1ACI
 70
     0
  0
APPID
  5
650
330
9
100
AcDbSymbolTableRecord
100
AcDbRegAppTableRecord
  2
GradientColor2ACI
 70
     0
  0
APPID
  5
AFA
330
9
100
AcDbSymbolTableRecord
100
AcDbRegAppTableRecord
  2
ACAD_EXEMPT_FROM_CAD_STANDARDS
 70
     0
  0
APPID
  5
E56
330
9
100
AcDbSymbolTableRecord
100
AcDbRegAppTableRecord
  2
AcAecLayerStandard
 70
     0
  0
APPID
  5
E57
330
9
100
AcDbSymbolTableRecord
100
AcDbRegAppTableRecord
  2
AcCmTransparency
 70
     0
  0
APPID
  5
17BB
330
9
100
AcDbSymbolTableRecord
100
AcDbRegAppTableRecord
  2
ACAD_DSTYLE_DIMRADIAL_EXTENSION
 70
     0
  0
ENDTAB
  0
TABLE
  2
DIMSTYLE
  5
A
330
0
100
AcDbSymbolTable
 70
     5
100
AcDbDimStyleTable
 71
     1
340
27
  0
DIMSTYLE
105
27
330
A
100
AcDbSymbolTableRecord
100
AcDbDimStyleTableRecord
  2
ISO-25
 70
     0
 41
2.5
 42
0.625
 43
3.75
 44
1.25
 73
     0
 74
     0
 77
     1
 78
     8
140
2.5
141
2.5
143
0.03937007874016
147
0.625
171
     3
172
     1
271
     2
272
     2
274
     3
278
    44
283
     0
284
     8
340
11
  0
DIMSTYLE
105
162C
330
A
100
AcDbSymbolTableRecord
100
AcDbDimStyleTableRecord
  2
AM_ISO
 70
     0
  4
"
 41
2.5
 42
1.0
 43
10.0
 44
1.0
 47
0.1
 48
0.1
 73
     0
 74
     0
 77
     1
 78
     8
 79
     2
140
3.5
141
0.0
143
0.0393701
146
0.71
147
1.5
172
     1
176
   256
177
   256
178
     2
271
     2
272
     3
274
     4
283
     0
284
     8
340
11
371
    -1
372
    -1
  0
DIMSTYLE
105
17BA
330
A
100
AcDbSymbolTableRecord
100
AcDbDimStyleTableRecord
  2
Annotative
 70
     0
 40
0.0
 41
2.5
 42
0.625
 43
3.75
 44
1.25
 73
     0
 74
     0
 77
     1
 78
     8
140
2.5
141
2.5
143
0.03937007874016
147
0.625
171
     3
172
     1
271
     2
272
     2
274
     3
278
    44
283
     0
284
     8
340
11
1001
AcadAnnotative
1000
AnnotativeData
1002
{
1070
     1
1070
     1
1002
}
1001
ACAD_DSTYLE_DIMJAG
1070
   388
1040
1.5
1001
ACAD_DSTYLE_DIMTALN
1070
   392
1070
     0
  0
DIMSTYLE
105
19B0
330
A
100
AcDbSymbolTableRecord
100
AcDbDimStyleTableRecord
  2
5
 70
     0
 41
1.0
 42
2.0
 43
10.0
 44
0.0
 73
     0
 74
     0
 77
     3
 78
     8
140
5.0
141
0.0
143
0.0394
145
1.0
147
2.0
176
   256
178
   256
271
     1
272
     1
284
     8
285
     8
286
     8
340
19AF
341
198E
342
198E
371
    -1
  0
ENDTAB
  0
TABLE
  2
BLOCK_RECORD
  5
1
330
0
100
AcDbSymbolTable
 70
    35
  0
BLOCK_RECORD
  5
1F
102
{ACAD_XDICTIONARY
360
1CE
102
}
330
1
100
AcDbSymbolTableRecord
100
AcDbBlockTableRecord
  2
*Model_Space
340
22
 70
     0
280
     1
281
     0
  0
BLOCK_RECORD
  5
D2
330
1
100
AcDbSymbolTableRecord
100
AcDbBlockTableRecord
  2
*Paper_Space
340
D3
 70
     0
280
     1
281
     0
  0
BLOCK_RECORD
  5
170E
330
1
100
AcDbSymbolTableRecord
100
AcDbBlockTableRecord
  2
*D0
340
0
 70
     0
280
     1
281
     0
  0
BLOCK_RECORD
  5
171A
330
1
100
AcDbSymbolTableRecord
100
AcDbBlockTableRecord
  2
*D1
340
0
 70
     0
280
     1
281
     0
  0
BLOCK_RECORD
  5
1726
330
1
100
AcDbSymbolTableRecord
100
AcDbBlockTableRecord
  2
*D2
340
0
 70
     0
280
     1
281
     0
  0
BLOCK_RECORD
  5
1732
330
1
100
AcDbSymbolTableRecord
100
AcDbBlockTableRecord
  2
*D3
340
0
 70
     0
280
     1
281
     0
  0
BLOCK_RECORD
  5
173E
330
1
100
AcDbSymbolTableRecord
100
AcDbBlockTableRecord
  2
*D4
340
0
 70
     0
280
     1
281
     0
  0
BLOCK_RECORD
  5
174A
330
1
100
AcDbSymbolTableRecord
100
AcDbBlockTableRecord
  2
*D5
340
0
 70
     0
280
     1
281
     0
  0
BLOCK_RECORD
  5
1756
330
1
100
AcDbSymbolTableRecord
100
AcDbBlockTableRecord
  2
*D6
340
0
 70
     0
280
     1
281
     0
  0
BLOCK_RECORD
  5
1762
330
1
100
AcDbSymbolTableRecord
100
AcDbBlockTableRecord
  2
*D7
340
0
 70
     0
280
     1
281
     0
  0
BLOCK_RECORD
  5
176E
330
1
100
AcDbSymbolTableRecord
100
AcDbBlockTableRecord
  2
*D8
340
0
 70
     0
280
     1
281
     0
  0
BLOCK_RECORD
  5
177A
330
1
100
AcDbSymbolTableRecord
100
AcDbBlockTableRecord
  2
*D9
340
0
 70
     0
280
     1
281
     0
  0
BLOCK_RECORD
  5
1788
330
1
100
AcDbSymbolTableRecord
100
AcDbBlockTableRecord
  2
*D10
340
0
 70
     0
280
     1
281
     0
  0
BLOCK_RECORD
  5
1795
330
1
100
AcDbSymbolTableRecord
100
AcDbBlockTableRecord
  2
*D11
340
0
 70
     0
280
     1
281
     0
  0
BLOCK_RECORD
  5
17A1
330
1
100
AcDbSymbolTableRecord
100
AcDbBlockTableRecord
  2
*D12
340
0
 70
     0
280
     1
281
     0
  0
BLOCK_RECORD
  5
17AD
330
1
100
AcDbSymbolTableRecord
100
AcDbBlockTableRecord
  2
*D13
340
0
 70
     0
280
     1
281
     0
  0
BLOCK_RECORD
  5
17BC
102
{ACAD_XDICTIONARY
360
1807
102
}
330
1
100
AcDbSymbolTableRecord
100
AcDbBlockTableRecord
  2
A$C43C652B4
340
0
 70
     4
280
     1
281
     0
  0
BLOCK_RECORD
  5
180D
330
1
100
AcDbSymbolTableRecord
100
AcDbBlockTableRecord
  2
*D15
340
0
 70
     0
280
     1
281
     0
  0
BLOCK_RECORD
  5
1819
330
1
100
AcDbSymbolTableRecord
100
AcDbBlockTableRecord
  2
*D16
340
0
 70
     0
280
     1
281
     0
  0
BLOCK_RECORD
  5
1825
330
1
100
AcDbSymbolTableRecord
100
AcDbBlockTableRecord
  2
*D17
340
0
 70
     0
280
     1
281
     0
  0
BLOCK_RECORD
  5
1831
330
1
100
AcDbSymbolTableRecord
100
AcDbBlockTableRecord
  2
*D18
340
0
 70
     0
280
     1
281
     0
  0
BLOCK_RECORD
  5
183D
330
1
100
AcDbSymbolTableRecord
100
AcDbBlockTableRecord
  2
*D19
340
0
 70
     0
280
     1
281
     0
  0
BLOCK_RECORD
  5
1849
330
1
100
AcDbSymbolTableRecord
100
AcDbBlockTableRecord
  2
*D20
340
0
 70
     0
280
     1
281
     0
  0
BLOCK_RECORD
  5
1855
330
1
100
AcDbSymbolTableRecord
100
AcDbBlockTableRecord
  2
*D21
340
0
 70
     0
280
     1
281
     0
  0
BLOCK_RECORD
  5
1861
330
1
100
AcDbSymbolTableRecord
100
AcDbBlockTableRecord
  2
*D22
340
0
 70
     0
280
     1
281
     0
  0
BLOCK_RECORD
  5
186D
330
1
100
AcDbSymbolTableRecord
100
AcDbBlockTableRecord
  2
*D23
340
0
 70
     0
280
     1
281
     0
  0
BLOCK_RECORD
  5
1879
330
1
100
AcDbSymbolTableRecord
100
AcDbBlockTableRecord
  2
*D24
340
0
 70
     0
280
     1
281
     0
  0
BLOCK_RECORD
  5
1887
330
1
100
AcDbSymbolTableRecord
100
AcDbBlockTableRecord
  2
*D25
340
0
 70
     0
280
     1
281
     0
  0
BLOCK_RECORD
  5
1894
330
1
100
AcDbSymbolTableRecord
100
AcDbBlockTableRecord
  2
*D26
340
0
 70
     0
280
     1
281
     0
  0
BLOCK_RECORD
  5
18A0
330
1
100
AcDbSymbolTableRecord
100
AcDbBlockTableRecord
  2
*D27
340
0
 70
     0
280
     1
281
     0
  0
BLOCK_RECORD
  5
18AC
330
1
100
AcDbSymbolTableRecord
100
AcDbBlockTableRecord
  2
*D28
340
0
 70
     0
280
     1
281
     0
  0
BLOCK_RECORD
  5
18B5
102
{ACAD_XDICTIONARY
360
1900
102
}
330
1
100
AcDbSymbolTableRecord
100
AcDbBlockTableRecord
  2
A$C4464175A
340
0
 70
     4
280
     1
281
     0
  0
BLOCK_RECORD
  5
198E
330
1
100
AcDbSymbolTableRecord
100
AcDbBlockTableRecord
  2
_DOT
340
0
102
{BLKREFS
331
1A9F
331
1AA0
331
1AAB
331
1AAC
102
}
 70
     0
280
     1
281
     0
  0
BLOCK_RECORD
  5
1A9A
330
1
100
AcDbSymbolTableRecord
100
AcDbBlockTableRecord
  2
*D31
340
0
 70
     0
280
     1
281
     0
  0
BLOCK_RECORD
  5
1AA6
330
1
100
AcDbSymbolTableRecord
100
AcDbBlockTableRecord
  2
*D32
340
0
 70
     0
280
     1
281
     0
  0
BLOCK_RECORD
  5
1AB2
102
{ACAD_XDICTIONARY
360
1ACE
102
}
330
1
100
AcDbSymbolTableRecord
100
AcDbBlockTableRecord
  2
A$C0EB379B8
340
0
 70
     4
280
     1
281
     0
  0
ENDTAB
  0
ENDSEC
  0
SECTION
  2
BLOCKS
  0
BLOCK
  5
20
330
1F
100
AcDbEntity
  8
0
100
AcDbBlockBegin
  2
*Model_Space
 70
     0
 10
0.0
 20
0.0
 30
0.0
  3
*Model_Space
  1

  0
ENDBLK
  5
21
330
1F
100
AcDbEntity
  8
0
100
AcDbBlockEnd
  0
BLOCK
  5
D4
330
D2
100
AcDbEntity
 67
     1
  8
0
100
AcDbBlockBegin
  2
*Paper_Space
 70
     0
 10
0.0
 20
0.0
 30
0.0
  3
*Paper_Space
  1

  0
ENDBLK
  5
D5
330
D2
100
AcDbEntity
 67
     1
  8
0
100
AcDbBlockEnd
  0
BLOCK
  5
170F
330
170E
100
AcDbEntity
  8
0
100
AcDbBlockBegin
  2
*D0
 70
     1
 10
0.0
 20
0.0
 30
0.0
  3
*D0
  1

  0
LINE
  5
1710
330
170E
100
AcDbEntity
  8
寸法
 62
     0
440
 16777216
370
    -2
100
AcDbLine
 10
6657.992383841943
 20
17623.63510116302
 30
0.0
 11
6657.992383841943
 21
17601.04904391623
 31
0.0
  0
LINE
  5
1711
330
170E
100
AcDbEntity
  8
寸法
 62
     0
440
 16777216
370
    -2
100
AcDbLine
 10
6757.989619500609
 20
17624.0022851082
 30
0.0
 11
6757.989619500609
 21
17601.04904391623
 31
0.0
  0
LINE
  5
1712
330
170E
100
AcDbEntity
  8
寸法
 62
     0
440
 16777216
370
    -2
100
AcDbLine
 10
6660.492383841944
 20
17602.29904391623
 30
0.0
 11
6755.489619500608
 21
17602.29904391623
 31
0.0
  0
SOLID
  5
1713
330
170E
100
AcDbEntity
  8
寸法
 62
     0
440
 16777216
100
AcDbTrace
 10
6660.492383841944
 20
17602.7157105829
 30
0.0
 11
6660.492383841944
 21
17601.88237724956
 31
0.0
 12
6657.992383841943
 22
17602.29904391623
 32
0.0
 13
6657.992383841943
 23
17602.29904391623
 33
0.0
  0
SOLID
  5
1714
330
170E
100
AcDbEntity
  8
寸法
 62
     0
440
 16777216
100
AcDbTrace
 10
6755.489619500608
 20
17602.7157105829
 30
0.0
 11
6755.489619500608
 21
17601.88237724956
 31
0.0
 12
6757.989619500609
 22
17602.29904391623
 32
0.0
 13
6757.989619500609
 23
17602.29904391623
 33
0.0
  0
MTEXT
  5
1715
330
170E
100
AcDbEntity
  8
寸法
 62
     0
440
 16777216
100
AcDbMText
 10
6707.991001671278
 20
17604.20047638554
 30
0.0
 40
2.5
 41
0.0
 46
0.0
 71
     5
 72
     1
  1
100
 73
     1
 44
1.0
  0
POINT
  5
1716
330
170E
100
AcDbEntity
  8
Defpoints
 62
     0
440
 16777216
100
AcDbPoint
 10
6657.992383841943
 20
17624.26010116302
 30
0.0
  0
POINT
  5
1717
330
170E
100
AcDbEntity
  8
Defpoints
 62
     0
440
 16777216
100
AcDbPoint
 10
6757.989619500609
 20
17624.6272851082
 30
0.0
  0
POINT
  5
1718
330
170E
100
AcDbEntity
  8
Defpoints
 62
     0
440
 16777216
100
AcDbPoint
 10
6757.989619500609
 20
17602.29904391623
 30
0.0
  0
ENDBLK
  5
1719
330
170E
100
AcDbEntity
  8
0
100
AcDbBlockEnd
  0
BLOCK
  5
171B
330
171A
100
AcDbEntity
  8
0
100
AcDbBlockBegin
  2
*D1
 70
     1
 10
0.0
 20
0.0
 30
0.0
  3
*D1
  1

  0
LINE
  5
171C
330
171A
100
AcDbEntity
  8
寸法
 62
     0
440
 16777216
370
    -2
100
AcDbLine
 10
6705.992383841944
 20
17623.77728510821
 30
0.0
 11
6705.992383841944
 21
17614.10902678931
 31
0.0
  0
LINE
  5
171D
330
171A
100
AcDbEntity
  8
寸法
 62
     0
440
 16777216
370
    -2
100
AcDbLine
 10
6657.992383841943
 20
17623.63510116302
 30
0.0
 11
6657.992383841943
 21
17614.10902678931
 31
0.0
  0
LINE
  5
171E
330
171A
100
AcDbEntity
  8
寸法
 62
     0
440
 16777216
370
    -2
100
AcDbLine
 10
6703.492383841943
 20
17615.35902678931
 30
0.0
 11
6660.492383841944
 21
17615.35902678931
 31
0.0
  0
SOLID
  5
171F
330
171A
100
AcDbEntity
  8
寸法
 62
     0
440
 16777216
100
AcDbTrace
 10
6703.492383841943
 20
17615.77569345598
 30
0.0
 11
6703.492383841943
 21
17614.94236012264
 31
0.0
 12
6705.992383841944
 22
17615.35902678931
 32
0.0
 13
6705.992383841944
 23
17615.35902678931
 33
0.0
  0
SOLID
  5
1720
330
171A
100
AcDbEntity
  8
寸法
 62
     0
440
 16777216
100
AcDbTrace
 10
6660.492383841944
 20
17615.77569345598
 30
0.0
 11
6660.492383841944
 21
17614.94236012264
 31
0.0
 12
6657.992383841943
 22
17615.35902678931
 32
0.0
 13
6657.992383841943
 23
17615.35902678931
 33
0.0
  0
MTEXT
  5
1721
330
171A
100
AcDbEntity
  8
寸法
 62
     0
440
 16777216
100
AcDbMText
 10
6681.992383841944
 20
17617.26045925862
 30
0.0
 40
2.5
 41
0.0
 46
0.0
 71
     5
 72
     1
  1
48
 73
     1
 44
1.0
  0
POINT
  5
1722
330
171A
100
AcDbEntity
  8
Defpoints
 62
     0
440
 16777216
100
AcDbPoint
 10
6705.992383841944
 20
17624.40228510821
 30
0.0
  0
POINT
  5
1723
330
171A
100
AcDbEntity
  8
Defpoints
 62
     0
440
 16777216
100
AcDbPoint
 10
6657.992383841943
 20
17624.26010116302
 30
0.0
  0
POINT
  5
1724
330
171A
100
AcDbEntity
  8
Defpoints
 62
     0
440
 16777216
100
AcDbPoint
 10
6657.992383841943
 20
17615.35902678931
 30
0.0
  0
ENDBLK
  5
1725
330
171A
100
AcDbEntity
  8
0
100
AcDbBlockEnd
  0
BLOCK
  5
1727
330
1726
100
AcDbEntity
  8
0
100
AcDbBlockBegin
  2
*D2
 70
     1
 10
0.0
 20
0.0
 30
0.0
  3
*D2
  1

  0
LINE
  5
1728
330
1726
100
AcDbEntity
  8
寸法
 62
     0
440
 16777216
370
    -2
100
AcDbLine
 10
6720.992383841942
 20
17623.78009172731
 30
0.0
 11
6720.992383841942
 21
17614.10902678931
 31
0.0
  0
LINE
  5
1729
330
1726
100
AcDbEntity
  8
寸法
 62
     0
440
 16777216
370
    -2
100
AcDbLine
 10
6757.989619500609
 20
17620.96401933606
 30
0.0
 11
6757.989619500609
 21
17614.10902678931
 31
0.0
  0
LINE
  5
172A
330
1726
100
AcDbEntity
  8
寸法
 62
     0
440
 16777216
370
    -2
100
AcDbLine
 10
6723.492383841942
 20
17615.35902678931
 30
0.0
 11
6755.489619500608
 21
17615.35902678931
 31
0.0
  0
SOLID
  5
172B
330
1726
100
AcDbEntity
  8
寸法
 62
     0
440
 16777216
100
AcDbTrace
 10
6723.492383841942
 20
17615.77569345598
 30
0.0
 11
6723.492383841942
 21
17614.94236012264
 31
0.0
 12
6720.992383841942
 22
17615.35902678931
 32
0.0
 13
6720.992383841942
 23
17615.35902678931
 33
0.0
  0
SOLID
  5
172C
330
1726
100
AcDbEntity
  8
寸法
 62
     0
440
 16777216
100
AcDbTrace
 10
6755.489619500608
 20
17615.77569345598
 30
0.0
 11
6755.489619500608
 21
17614.94236012264
 31
0.0
 12
6757.989619500609
 22
17615.35902678931
 32
0.0
 13
6757.989619500609
 23
17615.35902678931
 33
0.0
  0
MTEXT
  5
172D
330
1726
100
AcDbEntity
  8
寸法
 62
     0
440
 16777216
100
AcDbMText
 10
6739.491001671274
 20
17617.26131191891
 30
0.0
 40
2.5
 41
0.0
 46
0.0
 71
     5
 72
     1
  1
37
 73
     1
 44
1.0
  0
POINT
  5
172E
330
1726
100
AcDbEntity
  8
Defpoints
 62
     0
440
 16777216
100
AcDbPoint
 10
6720.992383841942
 20
17624.40509172731
 30
0.0
  0
POINT
  5
172F
330
1726
100
AcDbEntity
  8
Defpoints
 62
     0
440
 16777216
100
AcDbPoint
 10
6757.989619500609
 20
17621.58901933606
 30
0.0
  0
POINT
  5
1730
330
1726
100
AcDbEntity
  8
Defpoints
 62
     0
440
 16777216
100
AcDbPoint
 10
6757.989619500609
 20
17615.35902678931
 30
0.0
  0
ENDBLK
  5
1731
330
1726
100
AcDbEntity
  8
0
100
AcDbBlockEnd
  0
BLOCK
  5
1733
330
1732
100
AcDbEntity
  8
0
100
AcDbBlockBegin
  2
*D3
 70
     1
 10
0.0
 20
0.0
 30
0.0
  3
*D3
  1

  0
LINE
  5
1734
330
1732
100
AcDbEntity
  8
寸法
 62
     0
440
 16777216
370
    -2
100
AcDbLine
 10
6657.418666583763
 20
17652.40228510821
 30
0.0
 11
6647.293271218057
 21
17652.40228510821
 31
0.0
  0
LINE
  5
1735
330
1732
100
AcDbEntity
  8
寸法
 62
     0
440
 16777216
370
    -2
100
AcDbLine
 10
6657.277524750643
 20
17624.40228510821
 30
0.0
 11
6647.293271218057
 21
17624.40228510821
 31
0.0
  0
LINE
  5
1736
330
1732
100
AcDbEntity
  8
寸法
 62
     0
440
 16777216
370
    -2
100
AcDbLine
 10
6648.543271218056
 20
17649.90228510821
 30
0.0
 11
6648.543271218056
 21
17626.90228510821
 31
0.0
  0
SOLID
  5
1737
330
1732
100
AcDbEntity
  8
寸法
 62
     0
440
 16777216
100
AcDbTrace
 10
6648.126604551389
 20
17649.90228510821
 30
0.0
 11
6648.959937884723
 21
17649.90228510821
 31
0.0
 12
6648.543271218056
 22
17652.40228510821
 32
0.0
 13
6648.543271218056
 23
17652.40228510821
 33
0.0
  0
SOLID
  5
1738
330
1732
100
AcDbEntity
  8
寸法
 62
     0
440
 16777216
100
AcDbTrace
 10
6648.126604551389
 20
17626.90228510821
 30
0.0
 11
6648.959937884723
 21
17626.90228510821
 31
0.0
 12
6648.543271218056
 22
17624.40228510821
 32
0.0
 13
6648.543271218056
 23
17624.40228510821
 33
0.0
  0
MTEXT
  5
1739
330
1732
100
AcDbEntity
  8
寸法
 62
     0
440
 16777216
100
AcDbMText
 10
6645.83320414211
 20
17638.40228510821
 30
0.0
 40
2.5
 41
0.0
 46
0.0
 71
     5
 72
     1
  1
28{\H1.750000;\S+1^ -0;}
 11
0.0000000000000001
 21
1.0
 31
0.0
 73
     1
 44
1.0
  0
POINT
  5
173A
330
1732
100
AcDbEntity
  8
Defpoints
 62
     0
440
 16777216
100
AcDbPoint
 10
6658.043666583762
 20
17652.40228510821
 30
0.0
  0
POINT
  5
173B
330
1732
100
AcDbEntity
  8
Defpoints
 62
     0
440
 16777216
100
AcDbPoint
 10
6657.902524750642
 20
17624.40228510821
 30
0.0
  0
POINT
  5
173C
330
1732
100
AcDbEntity
  8
Defpoints
 62
     0
440
 16777216
100
AcDbPoint
 10
6648.543271218056
 20
17624.40228510821
 30
0.0
  0
ENDBLK
  5
173D
330
1732
100
AcDbEntity
  8
0
100
AcDbBlockEnd
  0
BLOCK
  5
173F
330
173E
100
AcDbEntity
  8
0
100
AcDbBlockBegin
  2
*D4
 70
     1
 10
0.0
 20
0.0
 30
0.0
  3
*D4
  1

  0
LINE
  5
1740
330
173E
100
AcDbEntity
  8
寸法
 62
     0
440
 16777216
370
    -2
100
AcDbLine
 10
6750.246107988054
 20
17634.40228510821
 30
0.0
 11
6776.923936576626
 21
17634.40228510821
 31
0.0
  0
LINE
  5
1741
330
173E
100
AcDbEntity
  8
寸法
 62
     0
440
 16777216
370
    -2
100
AcDbLine
 10
6758.768223371593
 20
17624.4022851082
 30
0.0
 11
6776.923936576626
 21
17624.4022851082
 31
0.0
  0
LINE
  5
1742
330
173E
100
AcDbEntity
  8
寸法
 62
     0
440
 16777216
370
    -2
100
AcDbLine
 10
6775.673936576627
 20
17631.90228510821
 30
0.0
 11
6775.673936576627
 21
17626.9022851082
 31
0.0
  0
SOLID
  5
1743
330
173E
100
AcDbEntity
  8
寸法
 62
     0
440
 16777216
100
AcDbTrace
 10
6775.257269909959
 20
17631.90228510821
 30
0.0
 11
6776.090603243293
 21
17631.90228510821
 31
0.0
 12
6775.673936576627
 22
17634.40228510821
 32
0.0
 13
6775.673936576627
 23
17634.40228510821
 33
0.0
  0
SOLID
  5
1744
330
173E
100
AcDbEntity
  8
寸法
 62
     0
440
 16777216
100
AcDbTrace
 10
6775.257269909959
 20
17626.9022851082
 30
0.0
 11
6776.090603243293
 21
17626.9022851082
 31
0.0
 12
6775.673936576627
 22
17624.4022851082
 32
0.0
 13
6775.673936576627
 23
17624.4022851082
 33
0.0
  0
MTEXT
  5
1745
330
173E
100
AcDbEntity
  8
寸法
 62
     0
440
 16777216
100
AcDbMText
 10
6772.96386950068
 20
17629.4022851082
 30
0.0
 40
2.5
 41
0.0
 46
0.0
 71
     5
 72
     1
  1
10{\H1.750000;\S+2^ -0;}
 11
0.0000000000000001
 21
1.0
 31
0.0
 73
     1
 44
1.0
  0
POINT
  5
1746
330
173E
100
AcDbEntity
  8
Defpoints
 62
     0
440
 16777216
100
AcDbPoint
 10
6749.621107988054
 20
17634.40228510821
 30
0.0
  0
POINT
  5
1747
330
173E
100
AcDbEntity
  8
Defpoints
 62
     0
440
 16777216
100
AcDbPoint
 10
6758.143223371593
 20
17624.4022851082
 30
0.0
  0
POINT
  5
1748
330
173E
100
AcDbEntity
  8
Defpoints
 62
     0
440
 16777216
100
AcDbPoint
 10
6775.673936576627
 20
17624.4022851082
 30
0.0
  0
ENDBLK
  5
1749
330
173E
100
AcDbEntity
  8
0
100
AcDbBlockEnd
  0
BLOCK
  5
174B
330
174A
100
AcDbEntity
  8
0
100
AcDbBlockBegin
  2
*D5
 70
     1
 10
0.0
 20
0.0
 30
0.0
  3
*D5
  1

  0
LINE
  5
174C
330
174A
100
AcDbEntity
  8
寸法
 62
     0
440
 16777216
370
    -2
100
AcDbLine
 10
6750.091471580512
 20
17634.81384687865
 30
0.0
 11
6766.381647029588
 21
17649.06752968105
 31
0.0
  0
LINE
  5
174D
330
174A
100
AcDbEntity
  8
寸法
 62
     0
440
 16777216
370
    -2
100
AcDbLine
 10
6758.391030750566
 20
17625.32848952193
 30
0.0
 11
6774.681206199645
 21
17639.58217232433
 31
0.0
  0
LINE
  5
174E
330
174A
100
AcDbEntity
  8
寸法
 62
     0
440
 16777216
370
    -2
100
AcDbLine
 10
6767.087166926451
 20
17646.36295177034
 30
0.0
 11
6772.094231932952
 21
17640.64050315327
 31
0.0
  0
SOLID
  5
174F
330
174A
100
AcDbEntity
  8
寸法
 62
     0
440
 16777216
100
AcDbTrace
 10
6767.400742654757
 20
17646.63732628397
 30
0.0
 11
6766.773591198147
 21
17646.08857725671
 31
0.0
 12
6765.440919844674
 22
17648.24440614017
 32
0.0
 13
6765.440919844674
 23
17648.24440614017
 33
0.0
  0
SOLID
  5
1750
330
174A
100
AcDbEntity
  8
寸法
 62
     0
440
 16777216
100
AcDbTrace
 10
6772.407807661259
 20
17640.91487766689
 30
0.0
 11
6771.780656204647
 21
17640.36612863964
 31
0.0
 12
6773.740479014731
 22
17638.75904878344
 32
0.0
 13
6773.740479014731
 23
17638.75904878344
 33
0.0
  0
MTEXT
  5
1751
330
174A
100
AcDbEntity
  8
寸法
 62
     0
440
 16777216
100
AcDbMText
 10
6771.294403847128
 20
17644.99244574356
 30
0.0
 40
2.5
 41
0.0
 46
0.0
 71
     5
 72
     1
  1
(13)
 11
0.6584988327111752
 21
-0.752581747930429
 31
0.0
 73
     1
 44
1.0
  0
POINT
  5
1752
330
174A
100
AcDbEntity
  8
Defpoints
 62
     0
440
 16777216
100
AcDbPoint
 10
6749.621107988057
 20
17634.40228510821
 30
0.0
  0
POINT
  5
1753
330
174A
100
AcDbEntity
  8
Defpoints
 62
     0
440
 16777216
100
AcDbPoint
 10
6757.92066715811
 20
17624.91692775148
 30
0.0
  0
POINT
  5
1754
330
174A
100
AcDbEntity
  8
Defpoints
 62
     0
440
 16777216
100
AcDbPoint
 10
6773.740479014731
 20
17638.75904878344
 30
0.0
  0
ENDBLK
  5
1755
330
174A
100
AcDbEntity
  8
0
100
AcDbBlockEnd
  0
BLOCK
  5
1757
330
1756
100
AcDbEntity
  8
0
100
AcDbBlockBegin
  2
*D6
 70
     1
 10
0.0
 20
0.0
 30
0.0
  3
*D6
  1

  0
LINE
  5
1758
330
1756
100
AcDbEntity
  8
寸法
 62
     0
440
 16777216
370
    -2
100
AcDbLine
 10
6657.992383841945
 20
17653.01217206365
 30
0.0
 11
6657.992383841945
 21
17662.27023320404
 31
0.0
  0
LINE
  5
1759
330
1756
100
AcDbEntity
  8
寸法
 62
     0
440
 16777216
370
    -2
100
AcDbLine
 10
6687.992383841944
 20
17652.80228510821
 30
0.0
 11
6687.992383841944
 21
17662.27023320404
 31
0.0
  0
LINE
  5
175A
330
1756
100
AcDbEntity
  8
寸法
 62
     0
440
 16777216
370
    -2
100
AcDbLine
 10
6660.492383841945
 20
17661.02023320404
 30
0.0
 11
6685.492383841945
 21
17661.02023320404
 31
0.0
  0
SOLID
  5
175B
330
1756
100
AcDbEntity
  8
寸法
 62
     0
440
 16777216
100
AcDbTrace
 10
6660.492383841945
 20
17661.43689987071
 30
0.0
 11
6660.492383841945
 21
17660.60356653737
 31
0.0
 12
6657.992383841945
 22
17661.02023320404
 32
0.0
 13
6657.992383841945
 23
17661.02023320404
 33
0.0
  0
SOLID
  5
175C
330
1756
100
AcDbEntity
  8
寸法
 62
     0
440
 16777216
100
AcDbTrace
 10
6685.492383841945
 20
17661.43689987071
 30
0.0
 11
6685.492383841945
 21
17660.60356653737
 31
0.0
 12
6687.992383841944
 22
17661.02023320404
 32
0.0
 13
6687.992383841944
 23
17661.02023320404
 33
0.0
  0
MTEXT
  5
175D
330
1756
100
AcDbEntity
  8
寸法
 62
     0
440
 16777216
100
AcDbMText
 10
6672.992383841945
 20
17662.92251833364
 30
0.0
 40
2.5
 41
0.0
 46
0.0
 71
     5
 72
     1
  1
30
 73
     1
 44
1.0
  0
POINT
  5
175E
330
1756
100
AcDbEntity
  8
Defpoints
 62
     0
440
 16777216
100
AcDbPoint
 10
6657.992383841945
 20
17652.38717206365
 30
0.0
  0
POINT
  5
175F
330
1756
100
AcDbEntity
  8
Defpoints
 62
     0
440
 16777216
100
AcDbPoint
 10
6687.992383841944
 20
17652.17728510821
 30
0.0
  0
POINT
  5
1760
330
1756
100
AcDbEntity
  8
Defpoints
 62
     0
440
 16777216
100
AcDbPoint
 10
6687.992383841944
 20
17661.02023320404
 30
0.0
  0
ENDBLK
  5
1761
330
1756
100
AcDbEntity
  8
0
100
AcDbBlockEnd
  0
BLOCK
  5
1763
330
1762
100
AcDbEntity
  8
0
100
AcDbBlockBegin
  2
*D7
 70
     1
 10
0.0
 20
0.0
 30
0.0
  3
*D7
  1

  0
ARC
  5
1764
330
1762
100
AcDbEntity
  8
寸法
 62
     0
440
 16777216
370
    -2
100
AcDbCircle
 10
6713.494736599239
 20
17629.50675105709
 30
0.0
 40
8.264157111617874
100
AcDbArc
 50
231.5896195827552
 51
308.4103804172448
  0
SOLID
  5
1765
330
1762
100
AcDbEntity
  8
寸法
 62
     0
440
 16777216
100
AcDbTrace
 10
6708.055024372001
 20
17622.74753530462
 30
0.0
 11
6708.665576552753
 21
17623.31469531646
 31
0.0
 12
6706.658820426875
 22
17624.8627718528
 32
0.0
 13
6706.658820426875
 23
17624.8627718528
 33
0.0
  0
SOLID
  5
1766
330
1762
100
AcDbEntity
  8
寸法
 62
     0
440
 16777216
100
AcDbTrace
 10
6718.323896645722
 20
17623.31469531646
 30
0.0
 11
6718.934448826475
 21
17622.74753530462
 31
0.0
 12
6720.3306527716
 22
17624.8627718528
 32
0.0
 13
6720.3306527716
 23
17624.8627718528
 33
0.0
  0
MTEXT
  5
1767
330
1762
100
AcDbEntity
  8
寸法
 62
     0
440
 16777216
100
AcDbMText
 10
6713.494736599239
 20
17623.12270990727
 30
0.0
 40
2.5
 41
0.0
 46
0.0
 71
     5
 72
     1
  1
112°
 73
     1
 44
1.0
  0
POINT
  5
1768
330
1762
100
AcDbEntity
  8
Defpoints
 62
     0
440
 16777216
100
AcDbPoint
 10
6710.858361350531
 20
17621.6743939206
 30
0.0
  0
POINT
  5
1769
330
1762
100
AcDbEntity
  8
Defpoints
 62
     0
440
 16777216
100
AcDbPoint
 10
6713.213765464399
 20
17629.31587333503
 30
0.0
  0
POINT
  5
176A
330
1762
100
AcDbEntity
  8
Defpoints
 62
     0
440
 16777216
100
AcDbPoint
 10
6713.775707734078
 20
17629.31587333503
 30
0.0
  0
POINT
  5
176B
330
1762
100
AcDbEntity
  8
Defpoints
 62
     0
440
 16777216
100
AcDbPoint
 10
6720.78151545504
 20
17624.55647831831
 30
0.0
  0
POINT
  5
176C
330
1762
100
AcDbEntity
  8
Defpoints
 62
     0
440
 16777216
100
AcDbPoint
 10
6706.207957743437
 20
17624.55647831831
 30
0.0
  0
ENDBLK
  5
176D
330
1762
100
AcDbEntity
  8
0
100
AcDbBlockEnd
  0
BLOCK
  5
176F
330
176E
100
AcDbEntity
  8
0
100
AcDbBlockBegin
  2
*D8
 70
     1
 10
0.0
 20
0.0
 30
0.0
  3
*D8
  1

  0
LINE
  5
1770
330
176E
100
AcDbEntity
  8
寸法
 62
     0
440
 16777216
370
    -2
100
AcDbLine
 10
6713.836406612343
 20
17630.27562687237
 30
0.0
 11
6720.460953133368
 21
17640.42255733245
 31
0.0
  0
LINE
  5
1771
330
176E
100
AcDbEntity
  8
寸法
 62
     0
440
 16777216
370
    -2
100
AcDbLine
 10
6721.458226749027
 20
17625.29962922766
 30
0.0
 11
6728.082773270054
 21
17635.44655968774
 31
0.0
  0
LINE
  5
1772
330
176E
100
AcDbEntity
  8
寸法
 62
     0
440
 16777216
370
    -2
100
AcDbLine
 10
6721.870980163918
 20
17638.00919375165
 30
0.0
 11
6725.306066187087
 21
17635.76655621178
 31
0.0
  0
SOLID
  5
1773
330
176E
100
AcDbEntity
  8
寸法
 62
     0
440
 16777216
100
AcDbTrace
 10
6722.098760172656
 20
17638.35808826111
 30
0.0
 11
6721.643200155181
 21
17637.66029924219
 31
0.0
 12
6719.777613107159
 22
17639.37587380407
 32
0.0
 13
6719.777613107159
 23
17639.37587380407
 33
0.0
  0
SOLID
  5
1774
330
176E
100
AcDbEntity
  8
寸法
 62
     0
440
 16777216
100
AcDbTrace
 10
6725.533846195826
 20
17636.11545072124
 30
0.0
 11
6725.078286178351
 21
17635.41766170232
 31
0.0
 12
6727.399433243845
 22
17634.39987615936
 32
0.0
 13
6727.399433243845
 23
17634.39987615936
 33
0.0
  0
MTEXT
  5
1775
330
176E
100
AcDbEntity
  8
寸法
 62
     0
440
 16777216
100
AcDbMText
 10
6724.82608645626
 20
17638.78347168556
 30
0.0
 40
2.5
 41
0.0
 46
0.0
 71
     5
 72
     1
  1
(9)
 11
0.8373468227030363
 21
-0.5466720209679015
 31
0.0
 73
     1
 44
1.0
  0
POINT
  5
1776
330
176E
100
AcDbEntity
  8
Defpoints
 62
     0
440
 16777216
100
AcDbPoint
 10
6713.494736599236
 20
17629.75228510818
 30
0.0
  0
POINT
  5
1777
330
176E
100
AcDbEntity
  8
Defpoints
 62
     0
440
 16777216
100
AcDbPoint
 10
6721.116556735921
 20
17624.77628746347
 30
0.0
  0
POINT
  5
1778
330
176E
100
AcDbEntity
  8
Defpoints
 62
     0
440
 16777216
100
AcDbPoint
 10
6727.399433243845
 20
17634.39987615936
 30
0.0
  0
ENDBLK
  5
1779
330
176E
100
AcDbEntity
  8
0
100
AcDbBlockEnd
  0
BLOCK
  5
177B
330
177A
100
AcDbEntity
  8
0
100
AcDbBlockBegin
  2
*D9
 70
     1
 10
0.0
 20
0.0
 30
0.0
  3
*D9
  1

  0
LINE
  5
177C
330
177A
100
AcDbEntity
  8
寸法
 62
     0
440
 16777216
370
    -2
100
AcDbLine
 10
6712.869736599238
 20
17629.75228510818
 30
0.0
 11
6701.584914488802
 21
17629.75228510818
 31
0.0
  0
LINE
  5
177D
330
177A
100
AcDbEntity
  8
寸法
 62
     0
440
 16777216
370
    -2
100
AcDbLine
 10
6702.275299026229
 20
17624.75228510818
 30
0.0
 11
6704.084914488801
 21
17624.75228510818
 31
0.0
  0
LINE
  5
177E
330
177A
100
AcDbEntity
  8
寸法
 62
     0
440
 16777216
370
    -2
100
AcDbLine
 10
6702.834914488801
 20
17622.25228510818
 30
0.0
 11
6702.834914488801
 21
17619.75228510818
 31
0.0
  0
LINE
  5
177F
330
177A
100
AcDbEntity
  8
寸法
 62
     0
440
 16777216
370
    -2
100
AcDbLine
 10
6702.834914488801
 20
17632.25228510818
 30
0.0
 11
6702.834914488801
 21
17640.32203272073
 31
0.0
  0
LINE
  5
1780
330
177A
100
AcDbEntity
  8
寸法
 62
     0
440
 16777216
370
    -2
100
AcDbLine
 10
6702.834914488801
 20
17624.75228510818
 30
0.0
 11
6702.834914488801
 21
17629.75228510818
 31
0.0
  0
SOLID
  5
1781
330
177A
100
AcDbEntity
  8
寸法
 62
     0
440
 16777216
100
AcDbTrace
 10
6702.418247822135
 20
17622.25228510818
 30
0.0
 11
6703.251581155469
 21
17622.25228510818
 31
0.0
 12
6702.834914488801
 22
17624.75228510818
 32
0.0
 13
6702.834914488801
 23
17624.75228510818
 33
0.0
  0
SOLID
  5
1782
330
177A
100
AcDbEntity
  8
寸法
 62
     0
440
 16777216
100
AcDbTrace
 10
6702.418247822135
 20
17632.25228510818
 30
0.0
 11
6703.251581155469
 21
17632.25228510818
 31
0.0
 12
6702.834914488801
 22
17629.75228510818
 32
0.0
 13
6702.834914488801
 23
17629.75228510818
 33
0.0
  0
MTEXT
  5
1783
330
177A
100
AcDbEntity
  8
寸法
 62
     0
440
 16777216
100
AcDbMText
 10
6700.124847412856
 20
17637.53715891445
 30
0.0
 40
2.5
 41
0.0
 46
0.0
 71
     5
 72
     1
  1
5{\H1.750000;\S+2^ -0;}
 11
0.0000000000000001
 21
1.0
 31
0.0
 73
     1
 44
1.0
  0
POINT
  5
1784
330
177A
100
AcDbEntity
  8
Defpoints
 62
     0
440
 16777216
100
AcDbPoint
 10
6713.494736599239
 20
17629.75228510818
 30
0.0
  0
POINT
  5
1785
330
177A
100
AcDbEntity
  8
Defpoints
 62
     0
440
 16777216
100
AcDbPoint
 10
6701.65029902623
 20
17624.75228510818
 30
0.0
  0
POINT
  5
1786
330
177A
100
AcDbEntity
  8
Defpoints
 62
     0
440
 16777216
100
AcDbPoint
 10
6702.834914488801
 20
17624.75228510818
 30
0.0
  0
ENDBLK
  5
1787
330
177A
100
AcDbEntity
  8
0
100
AcDbBlockEnd
  0
BLOCK
  5
1789
330
1788
100
AcDbEntity
  8
0
100
AcDbBlockBegin
  2
*D10
 70
     1
 10
0.0
 20
0.0
 30
0.0
  3
*D10
  1

  0
LINE
  5
178A
330
1788
100
AcDbEntity
  8
寸法
 62
     0
440
 16777216
370
    -2
100
AcDbLine
 10
6748.936910259832
 20
17634.6144135332
 30
0.0
 11
6746.962250554085
 21
17636.69340482665
 31
0.0
  0
ARC
  5
178B
330
1788
100
AcDbEntity
  8
寸法
 62
     0
440
 16777216
370
    -2
100
AcDbCircle
 10
6758.304120057772
 20
17624.75228510822
 30
0.0
 40
15.21901162694938
100
AcDbArc
 50
142.9481550936682
 51
170.5775097392704
  0
SOLID
  5
178C
330
1788
100
AcDbEntity
  8
寸法
 62
     0
440
 16777216
100
AcDbTrace
 10
6745.84717575477
 20
17634.19983102027
 30
0.0
 11
6746.468763442639
 21
17633.64478760689
 31
0.0
 12
6747.823099838836
 22
17635.78707237719
 32
0.0
 13
6747.823099838836
 23
17635.78707237719
 33
0.0
  0
SOLID
  5
178D
330
1788
100
AcDbEntity
  8
寸法
 62
     0
440
 16777216
100
AcDbTrace
 10
6743.705702579084
 20
17627.20961577669
 30
0.0
 11
6742.875184840752
 21
17627.27806086972
 31
0.0
 12
6743.085108430822
 22
17624.75228510821
 32
0.0
 13
6743.085108430822
 23
17624.75228510821
 33
0.0
  0
MTEXT
  5
178E
330
1788
100
AcDbEntity
  8
寸法
 62
     0
440
 16777216
100
AcDbMText
 10
6742.572493285052
 20
17631.50695202352
 30
0.0
 40
2.5
 41
0.0
 46
0.0
 71
     5
 72
     1
  1
46°
 11
0.3945380667308241
 21
0.9188795970638937
 31
0.0
 73
     1
 44
1.0
  0
POINT
  5
178F
330
1788
100
AcDbEntity
  8
Defpoints
 62
     0
440
 16777216
100
AcDbPoint
 10
6745.256540799158
 20
17632.58675958909
 30
0.0
  0
POINT
  5
1790
330
1788
100
AcDbEntity
  8
Defpoints
 62
     0
440
 16777216
100
AcDbPoint
 10
6749.367334902209
 20
17634.16124730848
 30
0.0
  0
POINT
  5
1791
330
1788
100
AcDbEntity
  8
Defpoints
 62
     0
440
 16777216
100
AcDbPoint
 10
6721.269613072684
 20
17624.7522851082
 30
0.0
  0
POINT
  5
1792
330
1788
100
AcDbEntity
  8
Defpoints
 62
     0
440
 16777216
100
AcDbPoint
 10
6757.13961950061
 20
17624.75228510822
 30
0.0
  0
POINT
  5
1793
330
1788
100
AcDbEntity
  8
Defpoints
 62
     0
440
 16777216
100
AcDbPoint
 10
6757.502152480393
 20
17625.59662482211
 30
0.0
  0
ENDBLK
  5
1794
330
1788
100
AcDbEntity
  8
0
100
AcDbBlockEnd
  0
BLOCK
  5
1796
330
1795
100
AcDbEntity
  8
0
100
AcDbBlockBegin
  2
*D11
 70
     1
 10
0.0
 20
0.0
 30
0.0
  3
*D11
  1

  0
ARC
  5
1797
330
1795
100
AcDbEntity
  8
寸法
 62
     0
440
 16777216
370
    -2
100
AcDbCircle
 10
6721.116128535557
 20
17624.7522851082
 30
0.0
 40
6.557474996002938
100
AcDbArc
 50
21.97818907395873
 51
123.8315855893191
  0
SOLID
  5
1798
330
1795
100
AcDbEntity
  8
寸法
 62
     0
440
 16777216
100
AcDbTrace
 10
6727.606074601289
 20
17627.285869714
 30
0.0
 11
6726.788021698344
 21
17627.12701792007
 31
0.0
 12
6727.673603531562
 22
17624.7522851082
 32
0.0
 13
6727.673603531562
 23
17624.7522851082
 33
0.0
  0
SOLID
  5
1799
330
1795
100
AcDbEntity
  8
寸法
 62
     0
440
 16777216
100
AcDbTrace
 10
6717.758934809618
 20
17629.90388469128
 30
0.0
 11
6717.171526248041
 21
17630.49498165983
 31
0.0
 12
6715.691939623173
 22
17628.43720749082
 32
0.0
 13
6715.691939623173
 23
17628.43720749082
 33
0.0
  0
MTEXT
  5
179A
330
1795
100
AcDbEntity
  8
寸法
 62
     0
440
 16777216
100
AcDbMText
 10
6721.480182660036
 20
17633.20335486895
 30
0.0
 40
2.5
 41
0.0
 46
0.0
 71
     5
 72
     1
  1
146°
 11
0.9990734377236801
 21
-0.043037960395307
 31
0.0
 73
     1
 44
1.0
  0
POINT
  5
179B
330
1795
100
AcDbEntity
  8
Defpoints
 62
     0
440
 16777216
100
AcDbPoint
 10
6725.452384832144
 20
17629.671366288
 30
0.0
  0
POINT
  5
179C
330
1795
100
AcDbEntity
  8
Defpoints
 62
     0
440
 16777216
100
AcDbPoint
 10
6713.972387528468
 20
17629.60538509382
 30
0.0
  0
POINT
  5
179D
330
1795
100
AcDbEntity
  8
Defpoints
 62
     0
440
 16777216
100
AcDbPoint
 10
6721.269613072684
 20
17624.7522851082
 30
0.0
  0
POINT
  5
179E
330
1795
100
AcDbEntity
  8
Defpoints
 62
     0
440
 16777216
100
AcDbPoint
 10
6757.139619500609
 20
17624.75228510821
 30
0.0
  0
POINT
  5
179F
330
1795
100
AcDbEntity
  8
Defpoints
 62
     0
440
 16777216
100
AcDbPoint
 10
6720.978195249428
 20
17624.84599007711
 30
0.0
  0
ENDBLK
  5
17A0
330
1795
100
AcDbEntity
  8
0
100
AcDbBlockEnd
  0
BLOCK
  5
17A2
330
17A1
100
AcDbEntity
  8
0
100
AcDbBlockBegin
  2
*D12
 70
     1
 10
0.0
 20
0.0
 30
0.0
  3
*D12
  1

  0
LINE
  5
17A3
330
17A1
100
AcDbEntity
  8
寸法
 62
     0
440
 16777216
370
    -2
100
AcDbLine
 10
6683.442383841944
 20
17650.70228510821
 30
0.0
 11
6681.4697280703
 21
17650.70228510821
 31
0.0
  0
LINE
  5
17A4
330
17A1
100
AcDbEntity
  8
寸法
 62
     0
440
 16777216
370
    -2
100
AcDbLine
 10
6683.44238384193
 20
17624.75228510819
 30
0.0
 11
6681.4697280703
 21
17624.75228510819
 31
0.0
  0
LINE
  5
17A5
330
17A1
100
AcDbEntity
  8
寸法
 62
     0
440
 16777216
370
    -2
100
AcDbLine
 10
6682.7197280703
 20
17648.20228510821
 30
0.0
 11
6682.7197280703
 21
17627.25228510819
 31
0.0
  0
SOLID
  5
17A6
330
17A1
100
AcDbEntity
  8
寸法
 62
     0
440
 16777216
100
AcDbTrace
 10
6682.303061403634
 20
17648.20228510821
 30
0.0
 11
6683.136394736968
 21
17648.20228510821
 31
0.0
 12
6682.7197280703
 22
17650.70228510821
 32
0.0
 13
6682.7197280703
 23
17650.70228510821
 33
0.0
  0
SOLID
  5
17A7
330
17A1
100
AcDbEntity
  8
寸法
 62
     0
440
 16777216
100
AcDbTrace
 10
6682.303061403634
 20
17627.25228510819
 30
0.0
 11
6683.136394736968
 21
17627.25228510819
 31
0.0
 12
6682.7197280703
 22
17624.75228510819
 32
0.0
 13
6682.7197280703
 23
17624.75228510819
 33
0.0
  0
MTEXT
  5
17A8
330
17A1
100
AcDbEntity
  8
寸法
 62
     0
440
 16777216
100
AcDbMText
 10
6680.455914973435
 20
17637.7272851082
 30
0.0
 40
2.5
 41
0.0
 46
0.0
 71
     5
 72
     1
  1
(26)
 11
0.0000000000000001
 21
1.0
 31
0.0
 73
     1
 44
1.0
  0
POINT
  5
17A9
330
17A1
100
AcDbEntity
  8
Defpoints
 62
     0
440
 16777216
100
AcDbPoint
 10
6684.067383841945
 20
17650.70228510821
 30
0.0
  0
POINT
  5
17AA
330
17A1
100
AcDbEntity
  8
Defpoints
 62
     0
440
 16777216
100
AcDbPoint
 10
6684.067383841929
 20
17624.75228510819
 30
0.0
  0
POINT
  5
17AB
330
17A1
100
AcDbEntity
  8
Defpoints
 62
     0
440
 16777216
100
AcDbPoint
 10
6682.7197280703
 20
17624.75228510819
 30
0.0
  0
ENDBLK
  5
17AC
330
17A1
100
AcDbEntity
  8
0
100
AcDbBlockEnd
  0
BLOCK
  5
17AE
330
17AD
100
AcDbEntity
  8
0
100
AcDbBlockBegin
  2
*D13
 70
     1
 10
0.0
 20
0.0
 30
0.0
  3
*D13
  1

  0
LINE
  5
17AF
330
17AD
100
AcDbEntity
  8
実線
 62
     0
440
 16777216
370
    -2
100
AcDbLine
 10
6640.047568454891
 20
17608.64899967534
 30
0.0
 11
6656.331728021807
 21
17623.03437903426
 31
0.0
  0
MTEXT
  5
17B0
330
17AD
100
AcDbEntity
  8
実線
 62
     0
440
 16777216
100
AcDbMText
 10
6642.44450594203
 20
17613.60504743998
 30
0.0
 40
2.5
 41
0.0
 46
0.0
 71
     5
 72
     1
  1
R0,85
 11
0.7494494985492192
 21
0.6620615146074601
 31
0.0
 73
     1
 44
1.0
  0
LINE
  5
17B1
330
17AD
100
AcDbEntity
  8
実線
 62
     0
440
 16777216
370
    -2
100
AcDbLine
 10
6658.842383841928
 20
17625.25228510818
 30
0.0
 11
6658.20535176818
 21
17624.68953282078
 31
0.0
  0
SOLID
  5
17B2
330
17AD
100
AcDbEntity
  8
実線
 62
     0
440
 16777216
100
AcDbTrace
 10
6656.055869057387
 20
17623.34664965865
 30
0.0
 11
6656.607586986226
 21
17622.72210840986
 31
0.0
 12
6658.20535176818
 22
17624.68953282078
 32
0.0
 13
6658.20535176818
 23
17624.68953282078
 33
0.0
  0
POINT
  5
17B3
330
17AD
100
AcDbEntity
  8
Defpoints
 62
     0
440
 16777216
100
AcDbPoint
 10
6658.20535176818
 20
17624.68953282078
 30
0.0
  0
POINT
  5
17B4
330
17AD
100
AcDbEntity
  8
Defpoints
 62
     0
440
 16777216
100
AcDbPoint
 10
6658.842383841928
 20
17625.25228510818
 30
0.0
  0
ENDBLK
  5
17B5
330
17AD
100
AcDbEntity
  8
0
100
AcDbBlockEnd
  0
BLOCK
  5
1809
330
17BC
100
AcDbEntity
  8
0
100
AcDbBlockBegin
  2
A$C43C652B4
 70
     0
 10
0.0
 20
0.0
 30
0.0
  3
A$C43C652B4
  1

  0
LINE
  5
17BD
330
17BC
100
AcDbEntity
  8
実線
 62
     0
100
AcDbLine
 10
50.38195180589264
 20
50.00324124816325
 30
0.0
 11
50.38195180589264
 21
49.6532412481647
 31
0.0
  0
LINE
  5
17BE
330
17BC
100
AcDbEntity
  8
実線
 62
     0
100
AcDbLine
 10
56.53195180589228
 20
50.00324124816325
 30
0.0
 11
50.38195180589264
 21
50.00324124816325
 31
0.0
  0
LINE
  5
17BF
102
{ACAD_REACTORS
330
17FF
102
}
330
17BC
100
AcDbEntity
  8
実線
 62
     0
100
AcDbLine
 10
56.53195180589228
 20
49.6532412481647
 30
0.0
 11
50.38195180589264
 21
49.6532412481647
 31
0.0
  0
LINE
  5
17C0
330
17BC
100
AcDbEntity
  8
実線
 62
     0
100
AcDbLine
 10
28.23195180589119
 20
23.3532412481618
 30
0.0
 11
75.1094280897696
 21
23.35324124816543
 31
0.0
  0
LINE
  5
17C1
330
17BC
100
AcDbEntity
  8
実線
 62
     0
100
AcDbLine
 10
29.73195180588937
 20
51.35324124816179
 30
0.0
 11
56.53195180589228
 21
51.35324124816179
 31
0.0
  0
LINE
  5
17C2
330
17BC
100
AcDbEntity
  8
実線
 62
     0
100
AcDbLine
 10
27.38195180589355
 20
50.50324124816325
 30
0.0
 11
27.38195180589173
 21
24.2032412481567
 31
0.0
  0
LINE
  5
17C3
330
17BC
100
AcDbEntity
  8
実線
 62
     0
100
AcDbLine
 10
82.40665363395875
 20
28.55634123377604
 30
0.0
 11
75.40084591299728
 21
23.79694621705858
 31
0.0
  0
LINE
  5
17C4
102
{ACAD_REACTORS
330
17F2
102
}
330
17BC
100
AcDbEntity
  8
実線
 62
     0
100
AcDbLine
 10
82.60333342834655
 20
28.26682947498193
 30
0.0
 11
75.5975257073851
 21
23.50743445826447
 31
0.0
  0
ARC
  5
17C5
330
17BC
100
AcDbEntity
  8
実線
100
AcDbCircle
 10
75.1094280897696
 20
24.20324124816398
 30
0.0
 40
0.85
100
AcDbArc
 50
270.0
 51
305.6502350645029
  0
ARC
  5
17C6
330
17BC
100
AcDbEntity
  8
実線
100
AcDbCircle
 10
75.1094280897696
 20
24.20324124816398
 30
0.0
 40
0.5
100
AcDbArc
 50
270.0
 51
305.6502350645029
  0
LINE
  5
17C7
330
17BC
100
AcDbEntity
  8
実線
 62
     0
100
AcDbLine
 10
56.53195180589228
 20
51.35324124816179
 30
0.0
 11
28.231951805893
 21
51.35324124816179
 31
0.0
  0
LINE
  5
17C8
330
17BC
100
AcDbEntity
  8
実線
 62
     0
100
AcDbLine
 10
27.73195180588846
 20
50.50324124816325
 30
0.0
 11
27.73195180588937
 21
24.2032412481567
 31
0.0
  0
LINE
  5
17C9
330
17BC
100
AcDbEntity
  8
実線
 62
     0
100
AcDbLine
 10
28.231951805893
 20
51.00324124815961
 30
0.0
 11
56.53195180589228
 21
51.00324124815961
 31
0.0
  0
LINE
  5
17CA
102
{ACAD_REACTORS
330
17FF
102
}
330
17BC
100
AcDbEntity
  8
実線
 62
     0
100
AcDbLine
 10
28.23195180589119
 20
23.70324124816034
 30
0.0
 11
75.1094280897696
 21
23.70324124813487
 31
0.0
  0
POINT
  5
17CB
330
17BC
100
AcDbEntity
  8
実線
100
AcDbPoint
 10
92.78259615290881
 20
23.35324124815816
 30
0.0
  0
LINE
  5
17CC
102
{ACAD_REACTORS
330
17F9
330
17FC
102
}
330
17BC
100
AcDbEntity
  8
実線
 62
     0
100
AcDbLine
 10
90.6591810366317
 20
23.70324124815306
 30
0.0
 11
126.5291874645563
 21
23.70324124816761
 31
0.0
  0
LINE
  5
17CD
330
17BC
100
AcDbEntity
  8
実線
 62
     0
100
AcDbLine
 10
90.6591810366317
 20
23.35324124813997
 30
0.0
 11
126.5291874645563
 21
23.35324124815816
 31
0.0
  0
LINE
  5
17CE
102
{ACAD_REACTORS
330
17E7
102
}
330
17BC
100
AcDbEntity
  8
実線
100
AcDbLine
 10
119.010675952004
 20
33.3532412481618
 30
0.0
 11
127.145493530189
 21
24.78861876179144
 31
0.0
  0
LINE
  5
17CF
102
{ACAD_REACTORS
330
17F9
102
}
330
17BC
100
AcDbEntity
  8
実線
100
AcDbLine
 10
118.7569028661555
 20
33.11220344843241
 30
0.0
 11
126.8917204443405
 21
24.54758096206206
 31
0.0
  0
POINT
  5
17D0
102
{ACAD_REACTORS
330
17E0
102
}
330
17BC
100
AcDbEntity
  8
実線
100
AcDbPoint
 10
75.38195180589173
 20
23.35324124816543
 30
0.0
  0
POINT
  5
17D1
102
{ACAD_REACTORS
330
17E3
102
}
330
17BC
100
AcDbEntity
  8
実線
100
AcDbPoint
 10
90.3819518058899
 20
23.35604786726253
 30
0.0
  0
LINE
  5
17D2
102
{ACAD_REACTORS
330
17E7
330
17EA
102
}
330
17BC
100
AcDbEntity
  8
実線
100
AcDbLine
 10
119.010675952004
 20
33.35324124816543
 30
0.0
 11
118.7569028661555
 21
33.11220344843241
 31
0.0
  0
ARC
  5
17D3
330
17BC
100
AcDbEntity
  8
実線
100
AcDbCircle
 10
56.53195180589228
 20
50.50324124816325
 30
0.0
 40
0.85
100
AcDbArc
 50
270.0
 51
90.0
  0
ARC
  5
17D4
330
17BC
100
AcDbEntity
  8
実線
100
AcDbCircle
 10
56.53195180589228
 20
50.50324124816325
 30
0.0
 40
0.5
100
AcDbArc
 50
270.0
 51
90.0
  0
ARC
  5
17D5
330
17BC
100
AcDbEntity
  8
実線
100
AcDbCircle
 10
28.231951805893
 20
50.50324124816325
 30
0.0
 40
0.85
100
AcDbArc
 50
90.0
 51
180.0
  0
ARC
  5
17D6
330
17BC
100
AcDbEntity
  8
実線
100
AcDbCircle
 10
28.231951805893
 20
50.50324124816325
 30
0.0
 40
0.5
100
AcDbArc
 50
90.0
 51
180.0
  0
ARC
  5
17D7
102
{ACAD_REACTORS
330
1805
102
}
330
17BC
100
AcDbEntity
  8
実線
100
AcDbCircle
 10
28.23195180589119
 20
24.2032412481567
 30
0.0
 40
0.85
100
AcDbArc
 50
180.0
 51
270.0
  0
ARC
  5
17D8
330
17BC
100
AcDbEntity
  8
実線
100
AcDbCircle
 10
28.23195180589119
 20
24.2032412481567
 30
0.0
 40
0.5
100
AcDbArc
 50
180.0
 51
270.0
  0
ARC
  5
17D9
330
17BC
100
AcDbEntity
  8
実線
100
AcDbCircle
 10
90.6591810366317
 20
24.20324124814215
 30
0.0
 40
0.85
100
AcDbArc
 50
234.3497649355395
 51
270.0
  0
ARC
  5
17DA
102
{ACAD_REACTORS
330
17F5
102
}
330
17BC
100
AcDbEntity
  8
実線
100
AcDbCircle
 10
90.6591810366317
 20
24.20324124814215
 30
0.0
 40
0.5
100
AcDbArc
 50
234.3497649355395
 51
270.0
  0
ARC
  5
17DB
102
{ACAD_REACTORS
330
17EA
102
}
330
17BC
100
AcDbEntity
  8
実線
100
AcDbCircle
 10
126.5291874645563
 20
24.20324124816034
 30
0.0
 40
0.85
100
AcDbArc
 50
270.0
 51
43.52566483287721
  0
ARC
  5
17DC
330
17BC
100
AcDbEntity
  8
実線
100
AcDbCircle
 10
126.5291874645563
 20
24.20324124816034
 30
0.0
 40
0.5
100
AcDbArc
 50
270.0
 51
43.52566483284132
  0
DIMENSION
  5
17DD
330
17BC
100
AcDbEntity
  8
寸法
100
AcDbDimension
280
     0
  2
*D0
 10
127.3791874645567
 20
1.250000056188582
 30
0.0
 11
77.38056963522467
 21
1.250000056188582
 31
0.0
 12
-6630.610432036052
 22
-17601.04904386004
 32
0.0
 70
   128
 71
     5
 42
99.99723565866498
 73
     0
 74
     0
 75
     0
  3
ISO-25
100
AcDbAlignedDimension
 13
27.38195180589173
 23
23.21105730297859
 33
0.0
 14
127.3791874645567
 24
23.57824124816034
 34
0.0
100
AcDbRotatedDimension
  0
DIMENSION
  5
17DE
102
{ACAD_XDICTIONARY
360
17DF
102
}
102
{ACAD_REACTORS
330
17E0
102
}
330
17BC
100
AcDbEntity
  8
寸法
100
AcDbDimension
280
     0
  2
*D1
 10
27.38195180589173
 20
14.30998292926597
 30
0.0
 11
51.38195180589173
 21
16.21141539857126
 31
0.0
 12
-6630.610432036052
 22
-17601.04904386004
 32
0.0
 71
     5
 42
48.0
 73
     0
 74
     0
 75
     0
  3
ISO-25
100
AcDbAlignedDimension
 13
75.38195180589173
 23
23.35324124816543
 33
0.0
 14
27.38195180589173
 24
23.21105730297859
 34
0.0
100
AcDbRotatedDimension
  0
DIMENSION
  5
17E1
102
{ACAD_XDICTIONARY
360
17E2
102
}
102
{ACAD_REACTORS
330
17E3
102
}
330
17BC
100
AcDbEntity
  8
寸法
100
AcDbDimension
280
     0
  2
*D2
 10
127.3791874645567
 20
14.30998292926597
 30
0.0
 11
108.8805696352228
 21
16.21226805886908
 31
0.0
 12
-6630.610432036052
 22
-17601.04904386004
 32
0.0
 71
     5
 42
36.9972356586668
 73
     0
 74
     0
 75
     0
  3
ISO-25
100
AcDbAlignedDimension
 13
90.3819518058899
 23
23.35604786726253
 33
0.0
 14
127.3791874645567
 24
20.5399754760183
 34
0.0
100
AcDbRotatedDimension
  0
DIMENSION
  5
17E4
330
17BC
100
AcDbEntity
  8
寸法
100
AcDbDimension
280
     0
  2
*D3
 10
17.9328391820045
 20
23.3532412481618
 30
0.0
 11
15.22277210605807
 21
37.35324124816179
 31
0.0
 12
-6630.610432036052
 22
-17601.04904386004
 32
0.0
 71
     5
 42
28.0
 73
     0
 74
     0
 75
     0
  3
ISO-25
100
AcDbAlignedDimension
 13
27.43323454771053
 23
51.35324124816179
 33
0.0
 14
27.29209271459058
 24
23.3532412481618
 34
0.0
 50
90.0
100
AcDbRotatedDimension
1001
ACAD
1000
DSTYLE
1002
{
1070
   146
1040
0.7
1070
    47
1040
1.0
1070
    48
1040
0.000000001
1070
   147
1040
0.625
1070
    72
1070
     0
1070
    71
1070
     1
1002
}
  0
DIMENSION
  5
17E5
102
{ACAD_XDICTIONARY
360
17E6
102
}
102
{ACAD_REACTORS
330
17E7
102
}
330
17BC
100
AcDbEntity
  8
寸法
100
AcDbDimension
280
     0
  2
*D4
 10
145.0635045405743
 20
23.35324124815279
 30
0.0
 11
145.0635045405715
 21
28.35324124815643
 31
0.0
 12
-6630.610432036052
 22
-17601.04904386004
 32
0.0
 70
   128
 71
     5
 42
10.00000000001091
 73
     0
 74
     0
 75
     0
  3
ISO-25
100
AcDbAlignedDimension
 13
119.0106759520022
 23
33.35324124816543
 33
0.0
 14
127.5327913355404
 24
23.35324124815452
 34
0.0
 50
90.0
100
AcDbRotatedDimension
1001
ACAD
1000
DSTYLE
1002
{
1070
   146
1040
0.7
1070
    47
1040
2.0
1070
    48
1040
0.000000001
1070
   147
1040
0.625
1070
    72
1070
     0
1070
    71
1070
     1
1002
}
  0
DIMENSION
  5
17E8
102
{ACAD_XDICTIONARY
360
17E9
102
}
102
{ACAD_REACTORS
330
17EA
102
}
330
17BC
100
AcDbEntity
  8
寸法
100
AcDbDimension
280
     0
  2
*D5
 10
143.1300469786783
 20
37.7100049233959
 30
0.0
 11
140.6839718110759
 21
43.94340188351634
 31
0.0
 12
-6630.610432036052
 22
-17601.04904386004
 32
0.0
 70
     1
  1
(13)
 71
     5
 42
12.60375684477003
 73
     0
 74
     0
 75
     0
  3
ISO-25
100
AcDbAlignedDimension
 13
119.010675952004
 23
33.35324124816543
 33
0.0
 14
127.3102351220604
 24
23.86788389143839
 34
0.0
1001
ACAD
1000
DSTYLE
1002
{
1070
   271
1070
     0
1002
}
  0
DIMENSION
  5
17EB
330
17BC
100
AcDbEntity
  8
寸法
100
AcDbDimension
280
     0
  2
*D6
 10
57.38195180589264
 20
59.97118934399259
 30
0.0
 11
42.38195180589264
 21
61.8734744735957
 31
0.0
 12
-6630.610432036052
 22
-17601.04904386004
 32
0.0
 71
     5
 42
30.0
 73
     0
 74
     0
 75
     0
  3
ISO-25
100
AcDbAlignedDimension
 13
27.38195180589264
 23
51.33812820360254
 33
0.0
 14
57.38195180589264
 24
51.12824124816325
 34
0.0
100
AcDbRotatedDimension
  0
ARC
  5
17EC
102
{ACAD_REACTORS
330
17F5
102
}
330
17BC
100
AcDbEntity
  8
実線
100
AcDbCircle
 10
82.88430456318655
 20
27.85324124813633
 30
0.0
 40
0.85
100
AcDbArc
 50
55.80977466322407
 51
124.1902253367759
  0
ARC
  5
17ED
330
17BC
100
AcDbEntity
  8
実線
100
AcDbCircle
 10
82.88430456318655
 20
27.85324124813633
 30
0.0
 40
0.5
100
AcDbArc
 50
55.80977466326718
 51
124.1902253367328
  0
LINE
  5
17EE
102
{ACAD_REACTORS
330
17FC
102
}
330
17BC
100
AcDbEntity
  8
実線
 62
     0
100
AcDbLine
 10
83.36195549241438
 20
28.55634123377604
 30
0.0
 11
90.36776321337583
 21
23.79694621705858
 31
0.0
  0
LINE
  5
17EF
102
{ACAD_REACTORS
330
17F2
102
}
330
17BC
100
AcDbEntity
  8
実線
 62
     0
100
AcDbLine
 10
83.16527569802657
 20
28.26682947498193
 30
0.0
 11
90.17108341898802
 21
23.50743445826447
 31
0.0
  0
DIMENSION
  5
17F0
102
{ACAD_XDICTIONARY
360
17F1
102
}
102
{ACAD_REACTORS
330
17F2
102
}
330
17BC
100
AcDbEntity
  8
寸法
 62
     2
100
AcDbDimension
280
     0
  2
*D7
 10
75.5975257073851
 20
23.50743445826447
 30
0.0
 11
82.88430456318655
 21
22.07366604722847
 31
0.0
 12
-6630.610432036052
 22
-17601.04904386004
 32
0.0
 70
     2
 71
     5
 42
1.948128645339874
 73
     0
 74
     0
 75
     0
  3
ISO-25
100
AcDb2LineAngularDimension
 13
83.16527569802657
 23
28.26682947498193
 33
0.0
 14
90.17108341898802
 24
23.50743445826447
 34
0.0
 15
82.60333342834655
 25
28.26682947498193
 35
0.0
 16
80.24792931447974
 26
20.62535006055623
 36
0.0
  0
DIMENSION
  5
17F3
102
{ACAD_XDICTIONARY
360
17F4
102
}
102
{ACAD_REACTORS
330
17F5
102
}
330
17BC
100
AcDbEntity
  8
寸法
100
AcDbDimension
280
     0
  2
*D8
 10
96.78900120779326
 20
33.35083229931261
 30
0.0
 11
92.97809113945186
 21
35.83883112166732
 31
0.0
 12
-6630.610432036052
 22
-17601.04904386004
 32
0.0
 70
   129
  1
(9)
 71
     5
 42
9.102345563432209
 73
     0
 74
     0
 75
     0
  3
ISO-25
100
AcDbAlignedDimension
 13
82.88430456318655
 23
28.70324124813633
 33
0.0
 14
90.50612469987118
 24
23.72724360342691
 34
0.0
1001
ACAD
1000
DSTYLE
1002
{
1070
   271
1070
     0
1002
}
  0
DIMENSION
  5
17F6
330
17BC
100
AcDbEntity
  8
寸法
100
AcDbDimension
280
     0
  2
*D9
 10
72.22448245274972
 20
23.70324124813851
 30
0.0
 11
72.224482452747
 21
36.48811505440972
 31
0.0
 12
-6630.610432036052
 22
-17601.04904386004
 32
0.0
 70
   128
 71
     5
 42
4.999999999996362
 73
     0
 74
     0
 75
     0
  3
ISO-25
100
AcDbAlignedDimension
 13
82.88430456318655
 23
28.70324124813487
 33
0.0
 14
71.03986699017696
 24
23.70324124813851
 34
0.0
 50
90.0
100
AcDbRotatedDimension
1001
ACAD
1000
DSTYLE
1002
{
1070
    47
1040
2.0
1070
    48
1040
0.000000001
1070
    71
1070
     1
1070
   146
1040
0.7
1002
}
  0
DIMENSION
  5
17F7
102
{ACAD_XDICTIONARY
360
17F8
102
}
102
{ACAD_REACTORS
330
17F9
102
}
330
17BC
100
AcDbEntity
  8
寸法
 62
     2
100
AcDbDimension
280
     0
  2
*D10
 10
126.8917204443405
 20
24.54758096206206
 30
0.0
 11
111.9620612489998
 21
30.45790816347653
 31
0.0
 12
-6630.610432036052
 22
-17601.04904386004
 32
0.0
 70
     2
 71
     5
 42
0.8111301663414831
 73
     0
 74
     0
 75
     0
  3
ISO-25
100
AcDb2LineAngularDimension
 13
90.6591810366317
 23
23.70324124815306
 33
0.0
 14
126.5291874645563
 24
23.70324124816761
 34
0.0
 15
118.7569028661555
 25
33.11220344843241
 35
0.0
 16
114.6461087631069
 26
31.53771572904225
 36
0.0
  0
DIMENSION
  5
17FA
102
{ACAD_XDICTIONARY
360
17FB
102
}
102
{ACAD_REACTORS
330
17FC
102
}
330
17BC
100
AcDbEntity
  8
寸法
 62
     2
100
AcDbDimension
280
     0
  2
*D11
 10
90.36776321337583
 20
23.79694621705858
 30
0.0
 11
90.78791684867701
 21
30.25464033519893
 31
0.0
 12
-6630.610432036052
 22
-17601.04904386004
 32
0.0
 70
   130
 71
     5
 42
2.544860649464521
 73
     0
 74
     0
 75
     0
  3
ISO-25
100
AcDb2LineAngularDimension
 13
90.6591810366317
 23
23.70324124815306
 33
0.0
 14
126.5291874645563
 24
23.70324124816761
 34
0.0
 15
83.36195549241438
 25
28.55634123377604
 35
0.0
 16
94.84195279609229
 26
28.62232242796017
 36
0.0
  0
DIMENSION
  5
17FD
102
{ACAD_XDICTIONARY
360
17FE
102
}
102
{ACAD_REACTORS
330
17FF
102
}
330
17BC
100
AcDbEntity
  8
寸法
100
AcDbDimension
280
     0
  2
*D12
 10
52.10929603424848
 20
23.70324124814579
 30
0.0
 11
52.10929603424574
 21
36.67824124815524
 31
0.0
 12
-6630.610432036052
 22
-17601.04904386004
 32
0.0
 70
   128
  1
(26)
 71
     5
 42
25.95000000001892
 73
     0
 74
     0
 75
     0
  3
ISO-25
100
AcDbAlignedDimension
 13
53.45695180589245
 23
49.6532412481647
 33
0.0
 14
53.45695180587791
 24
23.70324124814579
 34
0.0
 50
90.0
100
AcDbRotatedDimension
1001
ACAD
1000
DSTYLE
1002
{
1070
   271
1070
     1
1002
}
  0
LINE
  5
1800
330
17BC
100
AcDbEntity
  8
寸法
100
AcDbLine
 10
57.68398032219739
 20
23.70324124814579
 30
0.0
 11
64.56502969262328
 21
43.51990581113205
 31
0.0
  0
LINE
  5
1801
330
17BC
100
AcDbEntity
  8
寸法
100
AcDbLine
 10
64.56502969262328
 20
43.51990581113205
 30
0.0
 11
81.17358893865457
 21
43.51990581113205
 31
0.0
  0
TEXT
  5
1802
330
17BC
100
AcDbEntity
  8
寸法
 62
     7
100
AcDbText
 10
66.04930301038947
 20
44.98057254455125
 30
0.0
 40
3.0
  1
カラー面
  7
FX_FONT
 72
     1
 11
72.94930301038949
 21
44.98057254455125
 31
0.0
100
AcDbText
  0
DIMENSION
  5
1803
102
{ACAD_XDICTIONARY
360
1804
102
}
102
{ACAD_REACTORS
330
1805
102
}
330
17BC
100
AcDbEntity
  8
実線
 62
     2
100
AcDbDimension
280
     0
  2
*D13
 10
28.23195180589119
 20
24.2032412481567
 30
0.0
 11
13.24253526252778
 21
10.96163412320311
 31
0.0
 12
-6630.610432036039
 22
-17601.04904386002
 32
0.0
 70
   132
 71
     5
 42
0.8499999999767169
 73
     0
 74
     0
 75
     0
  3
ISO-25
100
AcDbRadialDimension
 15
27.59491973214153
 25
23.64048896075474
 35
0.0
 40
0.0
1001
ACAD
1000
DSTYLE
1002
{
1070
   288
1070
     1
1002
}
1001
ACAD_DSTYLE_DIMRADIAL_EXTENSION
1070
   387
1070
     1
1070
   388
1040
3.141592653589793
1070
   390
1040
4.712388980384689
  0
TEXT
  5
1806
330
17BC
100
AcDbEntity
  8
寸法
 62
     7
100
AcDbText
 10
0.0000004763143782
 20
1.903788699368305
 30
0.0
 40
3.0
  1
R全て変更
  7
FX_FONT
 72
     1
 11
8.30000047631438
 21
1.903788699368305
 31
0.0
100
AcDbText
  0
ENDBLK
  5
180A
330
17BC
100
AcDbEntity
  8
0
100
AcDbBlockEnd
  0
BLOCK
  5
180E
330
180D
100
AcDbEntity
  8
0
100
AcDbBlockBegin
  2
*D15
 70
     1
 10
0.0
 20
0.0
 30
0.0
  3
*D15
  1

  0
LINE
  5
180F
330
180D
100
AcDbEntity
  8
寸法
 62
     0
440
 16777216
370
    -2
100
AcDbLine
 10
6657.992383841943
 20
17623.63510116302
 30
0.0
 11
6657.992383841943
 21
17601.04904391623
 31
0.0
  0
LINE
  5
1810
330
180D
100
AcDbEntity
  8
寸法
 62
     0
440
 16777216
370
    -2
100
AcDbLine
 10
6757.989619500609
 20
17624.0022851082
 30
0.0
 11
6757.989619500609
 21
17601.04904391623
 31
0.0
  0
LINE
  5
1811
330
180D
100
AcDbEntity
  8
寸法
 62
     0
440
 16777216
370
    -2
100
AcDbLine
 10
6660.492383841944
 20
17602.29904391623
 30
0.0
 11
6755.489619500608
 21
17602.29904391623
 31
0.0
  0
SOLID
  5
1812
330
180D
100
AcDbEntity
  8
寸法
 62
     0
440
 16777216
100
AcDbTrace
 10
6660.492383841944
 20
17602.7157105829
 30
0.0
 11
6660.492383841944
 21
17601.88237724956
 31
0.0
 12
6657.992383841943
 22
17602.29904391623
 32
0.0
 13
6657.992383841943
 23
17602.29904391623
 33
0.0
  0
SOLID
  5
1813
330
180D
100
AcDbEntity
  8
寸法
 62
     0
440
 16777216
100
AcDbTrace
 10
6755.489619500608
 20
17602.7157105829
 30
0.0
 11
6755.489619500608
 21
17601.88237724956
 31
0.0
 12
6757.989619500609
 22
17602.29904391623
 32
0.0
 13
6757.989619500609
 23
17602.29904391623
 33
0.0
  0
MTEXT
  5
1814
330
180D
100
AcDbEntity
  8
寸法
 62
     0
440
 16777216
100
AcDbMText
 10
6707.991001671278
 20
17604.20047638554
 30
0.0
 40
2.5
 41
0.0
 46
0.0
 71
     5
 72
     1
  1
100
 73
     1
 44
1.0
  0
POINT
  5
1815
330
180D
100
AcDbEntity
  8
Defpoints
 62
     0
440
 16777216
100
AcDbPoint
 10
6657.992383841943
 20
17624.26010116302
 30
0.0
  0
POINT
  5
1816
330
180D
100
AcDbEntity
  8
Defpoints
 62
     0
440
 16777216
100
AcDbPoint
 10
6757.989619500609
 20
17624.6272851082
 30
0.0
  0
POINT
  5
1817
330
180D
100
AcDbEntity
  8
Defpoints
 62
     0
440
 16777216
100
AcDbPoint
 10
6757.989619500609
 20
17602.29904391623
 30
0.0
  0
ENDBLK
  5
1818
330
180D
100
AcDbEntity
  8
0
100
AcDbBlockEnd
  0
BLOCK
  5
181A
330
1819
100
AcDbEntity
  8
0
100
AcDbBlockBegin
  2
*D16
 70
     1
 10
0.0
 20
0.0
 30
0.0
  3
*D16
  1

  0
LINE
  5
181B
330
1819
100
AcDbEntity
  8
寸法
 62
     0
440
 16777216
370
    -2
100
AcDbLine
 10
6705.992383841944
 20
17623.77728510821
 30
0.0
 11
6705.992383841944
 21
17614.10902678931
 31
0.0
  0
LINE
  5
181C
330
1819
100
AcDbEntity
  8
寸法
 62
     0
440
 16777216
370
    -2
100
AcDbLine
 10
6657.992383841943
 20
17623.63510116302
 30
0.0
 11
6657.992383841943
 21
17614.10902678931
 31
0.0
  0
LINE
  5
181D
330
1819
100
AcDbEntity
  8
寸法
 62
     0
440
 16777216
370
    -2
100
AcDbLine
 10
6703.492383841943
 20
17615.35902678931
 30
0.0
 11
6660.492383841944
 21
17615.35902678931
 31
0.0
  0
SOLID
  5
181E
330
1819
100
AcDbEntity
  8
寸法
 62
     0
440
 16777216
100
AcDbTrace
 10
6703.492383841943
 20
17615.77569345598
 30
0.0
 11
6703.492383841943
 21
17614.94236012264
 31
0.0
 12
6705.992383841944
 22
17615.35902678931
 32
0.0
 13
6705.992383841944
 23
17615.35902678931
 33
0.0
  0
SOLID
  5
181F
330
1819
100
AcDbEntity
  8
寸法
 62
     0
440
 16777216
100
AcDbTrace
 10
6660.492383841944
 20
17615.77569345598
 30
0.0
 11
6660.492383841944
 21
17614.94236012264
 31
0.0
 12
6657.992383841943
 22
17615.35902678931
 32
0.0
 13
6657.992383841943
 23
17615.35902678931
 33
0.0
  0
MTEXT
  5
1820
330
1819
100
AcDbEntity
  8
寸法
 62
     0
440
 16777216
100
AcDbMText
 10
6681.992383841944
 20
17617.26045925862
 30
0.0
 40
2.5
 41
0.0
 46
0.0
 71
     5
 72
     1
  1
48
 73
     1
 44
1.0
  0
POINT
  5
1821
330
1819
100
AcDbEntity
  8
Defpoints
 62
     0
440
 16777216
100
AcDbPoint
 10
6705.992383841944
 20
17624.40228510821
 30
0.0
  0
POINT
  5
1822
330
1819
100
AcDbEntity
  8
Defpoints
 62
     0
440
 16777216
100
AcDbPoint
 10
6657.992383841943
 20
17624.26010116302
 30
0.0
  0
POINT
  5
1823
330
1819
100
AcDbEntity
  8
Defpoints
 62
     0
440
 16777216
100
AcDbPoint
 10
6657.992383841943
 20
17615.35902678931
 30
0.0
  0
ENDBLK
  5
1824
330
1819
100
AcDbEntity
  8
0
100
AcDbBlockEnd
  0
BLOCK
  5
1826
330
1825
100
AcDbEntity
  8
0
100
AcDbBlockBegin
  2
*D17
 70
     1
 10
0.0
 20
0.0
 30
0.0
  3
*D17
  1

  0
LINE
  5
1827
330
1825
100
AcDbEntity
  8
寸法
 62
     0
440
 16777216
370
    -2
100
AcDbLine
 10
6720.992383841942
 20
17623.78009172731
 30
0.0
 11
6720.992383841942
 21
17614.10902678931
 31
0.0
  0
LINE
  5
1828
330
1825
100
AcDbEntity
  8
寸法
 62
     0
440
 16777216
370
    -2
100
AcDbLine
 10
6757.989619500609
 20
17620.96401933606
 30
0.0
 11
6757.989619500609
 21
17614.10902678931
 31
0.0
  0
LINE
  5
1829
330
1825
100
AcDbEntity
  8
寸法
 62
     0
440
 16777216
370
    -2
100
AcDbLine
 10
6723.492383841942
 20
17615.35902678931
 30
0.0
 11
6755.489619500608
 21
17615.35902678931
 31
0.0
  0
SOLID
  5
182A
330
1825
100
AcDbEntity
  8
寸法
 62
     0
440
 16777216
100
AcDbTrace
 10
6723.492383841942
 20
17615.77569345598
 30
0.0
 11
6723.492383841942
 21
17614.94236012264
 31
0.0
 12
6720.992383841942
 22
17615.35902678931
 32
0.0
 13
6720.992383841942
 23
17615.35902678931
 33
0.0
  0
SOLID
  5
182B
330
1825
100
AcDbEntity
  8
寸法
 62
     0
440
 16777216
100
AcDbTrace
 10
6755.489619500608
 20
17615.77569345598
 30
0.0
 11
6755.489619500608
 21
17614.94236012264
 31
0.0
 12
6757.989619500609
 22
17615.35902678931
 32
0.0
 13
6757.989619500609
 23
17615.35902678931
 33
0.0
  0
MTEXT
  5
182C
330
1825
100
AcDbEntity
  8
寸法
 62
     0
440
 16777216
100
AcDbMText
 10
6739.491001671274
 20
17617.26131191891
 30
0.0
 40
2.5
 41
0.0
 46
0.0
 71
     5
 72
     1
  1
37
 73
     1
 44
1.0
  0
POINT
  5
182D
330
1825
100
AcDbEntity
  8
Defpoints
 62
     0
440
 16777216
100
AcDbPoint
 10
6720.992383841942
 20
17624.40509172731
 30
0.0
  0
POINT
  5
182E
330
1825
100
AcDbEntity
  8
Defpoints
 62
     0
440
 16777216
100
AcDbPoint
 10
6757.989619500609
 20
17621.58901933606
 30
0.0
  0
POINT
  5
182F
330
1825
100
AcDbEntity
  8
Defpoints
 62
     0
440
 16777216
100
AcDbPoint
 10
6757.989619500609
 20
17615.35902678931
 30
0.0
  0
ENDBLK
  5
1830
330
1825
100
AcDbEntity
  8
0
100
AcDbBlockEnd
  0
BLOCK
  5
1832
330
1831
100
AcDbEntity
  8
0
100
AcDbBlockBegin
  2
*D18
 70
     1
 10
0.0
 20
0.0
 30
0.0
  3
*D18
  1

  0
LINE
  5
1833
330
1831
100
AcDbEntity
  8
寸法
 62
     0
440
 16777216
370
    -2
100
AcDbLine
 10
6657.418666583763
 20
17652.40228510821
 30
0.0
 11
6647.293271218057
 21
17652.40228510821
 31
0.0
  0
LINE
  5
1834
330
1831
100
AcDbEntity
  8
寸法
 62
     0
440
 16777216
370
    -2
100
AcDbLine
 10
6657.277524750643
 20
17624.40228510821
 30
0.0
 11
6647.293271218057
 21
17624.40228510821
 31
0.0
  0
LINE
  5
1835
330
1831
100
AcDbEntity
  8
寸法
 62
     0
440
 16777216
370
    -2
100
AcDbLine
 10
6648.543271218056
 20
17649.90228510821
 30
0.0
 11
6648.543271218056
 21
17626.90228510821
 31
0.0
  0
SOLID
  5
1836
330
1831
100
AcDbEntity
  8
寸法
 62
     0
440
 16777216
100
AcDbTrace
 10
6648.126604551389
 20
17649.90228510821
 30
0.0
 11
6648.959937884723
 21
17649.90228510821
 31
0.0
 12
6648.543271218056
 22
17652.40228510821
 32
0.0
 13
6648.543271218056
 23
17652.40228510821
 33
0.0
  0
SOLID
  5
1837
330
1831
100
AcDbEntity
  8
寸法
 62
     0
440
 16777216
100
AcDbTrace
 10
6648.126604551389
 20
17626.90228510821
 30
0.0
 11
6648.959937884723
 21
17626.90228510821
 31
0.0
 12
6648.543271218056
 22
17624.40228510821
 32
0.0
 13
6648.543271218056
 23
17624.40228510821
 33
0.0
  0
MTEXT
  5
1838
330
1831
100
AcDbEntity
  8
寸法
 62
     0
440
 16777216
100
AcDbMText
 10
6645.83320414211
 20
17638.40228510821
 30
0.0
 40
2.5
 41
0.0
 46
0.0
 71
     5
 72
     1
  1
28{\H1.750000;\S+1^ -0;}
 11
0.0000000000000001
 21
1.0
 31
0.0
 73
     1
 44
1.0
  0
POINT
  5
1839
330
1831
100
AcDbEntity
  8
Defpoints
 62
     0
440
 16777216
100
AcDbPoint
 10
6658.043666583762
 20
17652.40228510821
 30
0.0
  0
POINT
  5
183A
330
1831
100
AcDbEntity
  8
Defpoints
 62
     0
440
 16777216
100
AcDbPoint
 10
6657.902524750642
 20
17624.40228510821
 30
0.0
  0
POINT
  5
183B
330
1831
100
AcDbEntity
  8
Defpoints
 62
     0
440
 16777216
100
AcDbPoint
 10
6648.543271218056
 20
17624.40228510821
 30
0.0
  0
ENDBLK
  5
183C
330
1831
100
AcDbEntity
  8
0
100
AcDbBlockEnd
  0
BLOCK
  5
183E
330
183D
100
AcDbEntity
  8
0
100
AcDbBlockBegin
  2
*D19
 70
     1
 10
0.0
 20
0.0
 30
0.0
  3
*D19
  1

  0
LINE
  5
183F
330
183D
100
AcDbEntity
  8
寸法
 62
     0
440
 16777216
370
    -2
100
AcDbLine
 10
6750.246107988054
 20
17634.40228510821
 30
0.0
 11
6776.923936576626
 21
17634.40228510821
 31
0.0
  0
LINE
  5
1840
330
183D
100
AcDbEntity
  8
寸法
 62
     0
440
 16777216
370
    -2
100
AcDbLine
 10
6758.768223371593
 20
17624.4022851082
 30
0.0
 11
6776.923936576626
 21
17624.4022851082
 31
0.0
  0
LINE
  5
1841
330
183D
100
AcDbEntity
  8
寸法
 62
     0
440
 16777216
370
    -2
100
AcDbLine
 10
6775.673936576627
 20
17631.90228510821
 30
0.0
 11
6775.673936576627
 21
17626.9022851082
 31
0.0
  0
SOLID
  5
1842
330
183D
100
AcDbEntity
  8
寸法
 62
     0
440
 16777216
100
AcDbTrace
 10
6775.257269909959
 20
17631.90228510821
 30
0.0
 11
6776.090603243293
 21
17631.90228510821
 31
0.0
 12
6775.673936576627
 22
17634.40228510821
 32
0.0
 13
6775.673936576627
 23
17634.40228510821
 33
0.0
  0
SOLID
  5
1843
330
183D
100
AcDbEntity
  8
寸法
 62
     0
440
 16777216
100
AcDbTrace
 10
6775.257269909959
 20
17626.9022851082
 30
0.0
 11
6776.090603243293
 21
17626.9022851082
 31
0.0
 12
6775.673936576627
 22
17624.4022851082
 32
0.0
 13
6775.673936576627
 23
17624.4022851082
 33
0.0
  0
MTEXT
  5
1844
330
183D
100
AcDbEntity
  8
寸法
 62
     0
440
 16777216
100
AcDbMText
 10
6772.96386950068
 20
17629.4022851082
 30
0.0
 40
2.5
 41
0.0
 46
0.0
 71
     5
 72
     1
  1
10{\H1.750000;\S+2^ -0;}
 11
0.0000000000000001
 21
1.0
 31
0.0
 73
     1
 44
1.0
  0
POINT
  5
1845
330
183D
100
AcDbEntity
  8
Defpoints
 62
     0
440
 16777216
100
AcDbPoint
 10
6749.621107988054
 20
17634.40228510821
 30
0.0
  0
POINT
  5
1846
330
183D
100
AcDbEntity
  8
Defpoints
 62
     0
440
 16777216
100
AcDbPoint
 10
6758.143223371593
 20
17624.4022851082
 30
0.0
  0
POINT
  5
1847
330
183D
100
AcDbEntity
  8
Defpoints
 62
     0
440
 16777216
100
AcDbPoint
 10
6775.673936576627
 20
17624.4022851082
 30
0.0
  0
ENDBLK
  5
1848
330
183D
100
AcDbEntity
  8
0
100
AcDbBlockEnd
  0
BLOCK
  5
184A
330
1849
100
AcDbEntity
  8
0
100
AcDbBlockBegin
  2
*D20
 70
     1
 10
0.0
 20
0.0
 30
0.0
  3
*D20
  1

  0
LINE
  5
184B
330
1849
100
AcDbEntity
  8
寸法
 62
     0
440
 16777216
370
    -2
100
AcDbLine
 10
6750.091471580512
 20
17634.81384687865
 30
0.0
 11
6766.381647029588
 21
17649.06752968105
 31
0.0
  0
LINE
  5
184C
330
1849
100
AcDbEntity
  8
寸法
 62
     0
440
 16777216
370
    -2
100
AcDbLine
 10
6758.391030750566
 20
17625.32848952193
 30
0.0
 11
6774.681206199645
 21
17639.58217232433
 31
0.0
  0
LINE
  5
184D
330
1849
100
AcDbEntity
  8
寸法
 62
     0
440
 16777216
370
    -2
100
AcDbLine
 10
6767.087166926451
 20
17646.36295177034
 30
0.0
 11
6772.094231932952
 21
17640.64050315327
 31
0.0
  0
SOLID
  5
184E
330
1849
100
AcDbEntity
  8
寸法
 62
     0
440
 16777216
100
AcDbTrace
 10
6767.400742654757
 20
17646.63732628397
 30
0.0
 11
6766.773591198147
 21
17646.08857725671
 31
0.0
 12
6765.440919844674
 22
17648.24440614017
 32
0.0
 13
6765.440919844674
 23
17648.24440614017
 33
0.0
  0
SOLID
  5
184F
330
1849
100
AcDbEntity
  8
寸法
 62
     0
440
 16777216
100
AcDbTrace
 10
6772.407807661259
 20
17640.91487766689
 30
0.0
 11
6771.780656204647
 21
17640.36612863964
 31
0.0
 12
6773.740479014731
 22
17638.75904878344
 32
0.0
 13
6773.740479014731
 23
17638.75904878344
 33
0.0
  0
MTEXT
  5
1850
330
1849
100
AcDbEntity
  8
寸法
 62
     0
440
 16777216
100
AcDbMText
 10
6771.294403847128
 20
17644.99244574356
 30
0.0
 40
2.5
 41
0.0
 46
0.0
 71
     5
 72
     1
  1
(13)
 11
0.6584988327111752
 21
-0.752581747930429
 31
0.0
 73
     1
 44
1.0
  0
POINT
  5
1851
330
1849
100
AcDbEntity
  8
Defpoints
 62
     0
440
 16777216
100
AcDbPoint
 10
6749.621107988057
 20
17634.40228510821
 30
0.0
  0
POINT
  5
1852
330
1849
100
AcDbEntity
  8
Defpoints
 62
     0
440
 16777216
100
AcDbPoint
 10
6757.92066715811
 20
17624.91692775148
 30
0.0
  0
POINT
  5
1853
330
1849
100
AcDbEntity
  8
Defpoints
 62
     0
440
 16777216
100
AcDbPoint
 10
6773.740479014731
 20
17638.75904878344
 30
0.0
  0
ENDBLK
  5
1854
330
1849
100
AcDbEntity
  8
0
100
AcDbBlockEnd
  0
BLOCK
  5
1856
330
1855
100
AcDbEntity
  8
0
100
AcDbBlockBegin
  2
*D21
 70
     1
 10
0.0
 20
0.0
 30
0.0
  3
*D21
  1

  0
LINE
  5
1857
330
1855
100
AcDbEntity
  8
寸法
 62
     0
440
 16777216
370
    -2
100
AcDbLine
 10
6657.992383841945
 20
17653.01217206365
 30
0.0
 11
6657.992383841945
 21
17662.27023320404
 31
0.0
  0
LINE
  5
1858
330
1855
100
AcDbEntity
  8
寸法
 62
     0
440
 16777216
370
    -2
100
AcDbLine
 10
6687.992383841944
 20
17652.80228510821
 30
0.0
 11
6687.992383841944
 21
17662.27023320404
 31
0.0
  0
LINE
  5
1859
330
1855
100
AcDbEntity
  8
寸法
 62
     0
440
 16777216
370
    -2
100
AcDbLine
 10
6660.492383841945
 20
17661.02023320404
 30
0.0
 11
6685.492383841945
 21
17661.02023320404
 31
0.0
  0
SOLID
  5
185A
330
1855
100
AcDbEntity
  8
寸法
 62
     0
440
 16777216
100
AcDbTrace
 10
6660.492383841945
 20
17661.43689987071
 30
0.0
 11
6660.492383841945
 21
17660.60356653737
 31
0.0
 12
6657.992383841945
 22
17661.02023320404
 32
0.0
 13
6657.992383841945
 23
17661.02023320404
 33
0.0
  0
SOLID
  5
185B
330
1855
100
AcDbEntity
  8
寸法
 62
     0
440
 16777216
100
AcDbTrace
 10
6685.492383841945
 20
17661.43689987071
 30
0.0
 11
6685.492383841945
 21
17660.60356653737
 31
0.0
 12
6687.992383841944
 22
17661.02023320404
 32
0.0
 13
6687.992383841944
 23
17661.02023320404
 33
0.0
  0
MTEXT
  5
185C
330
1855
100
AcDbEntity
  8
寸法
 62
     0
440
 16777216
100
AcDbMText
 10
6672.992383841945
 20
17662.92251833364
 30
0.0
 40
2.5
 41
0.0
 46
0.0
 71
     5
 72
     1
  1
30
 73
     1
 44
1.0
  0
POINT
  5
185D
330
1855
100
AcDbEntity
  8
Defpoints
 62
     0
440
 16777216
100
AcDbPoint
 10
6657.992383841945
 20
17652.38717206365
 30
0.0
  0
POINT
  5
185E
330
1855
100
AcDbEntity
  8
Defpoints
 62
     0
440
 16777216
100
AcDbPoint
 10
6687.992383841944
 20
17652.17728510821
 30
0.0
  0
POINT
  5
185F
330
1855
100
AcDbEntity
  8
Defpoints
 62
     0
440
 16777216
100
AcDbPoint
 10
6687.992383841944
 20
17661.02023320404
 30
0.0
  0
ENDBLK
  5
1860
330
1855
100
AcDbEntity
  8
0
100
AcDbBlockEnd
  0
BLOCK
  5
1862
330
1861
100
AcDbEntity
  8
0
100
AcDbBlockBegin
  2
*D22
 70
     1
 10
0.0
 20
0.0
 30
0.0
  3
*D22
  1

  0
ARC
  5
1863
330
1861
100
AcDbEntity
  8
寸法
 62
     0
440
 16777216
370
    -2
100
AcDbCircle
 10
6713.494736599239
 20
17629.50675105709
 30
0.0
 40
8.264157111617874
100
AcDbArc
 50
231.5896195827552
 51
308.4103804172448
  0
SOLID
  5
1864
330
1861
100
AcDbEntity
  8
寸法
 62
     0
440
 16777216
100
AcDbTrace
 10
6708.055024372001
 20
17622.74753530462
 30
0.0
 11
6708.665576552753
 21
17623.31469531646
 31
0.0
 12
6706.658820426875
 22
17624.8627718528
 32
0.0
 13
6706.658820426875
 23
17624.8627718528
 33
0.0
  0
SOLID
  5
1865
330
1861
100
AcDbEntity
  8
寸法
 62
     0
440
 16777216
100
AcDbTrace
 10
6718.323896645722
 20
17623.31469531646
 30
0.0
 11
6718.934448826475
 21
17622.74753530462
 31
0.0
 12
6720.3306527716
 22
17624.8627718528
 32
0.0
 13
6720.3306527716
 23
17624.8627718528
 33
0.0
  0
MTEXT
  5
1866
330
1861
100
AcDbEntity
  8
寸法
 62
     0
440
 16777216
100
AcDbMText
 10
6713.494736599239
 20
17623.12270990727
 30
0.0
 40
2.5
 41
0.0
 46
0.0
 71
     5
 72
     1
  1
112°
 73
     1
 44
1.0
  0
POINT
  5
1867
330
1861
100
AcDbEntity
  8
Defpoints
 62
     0
440
 16777216
100
AcDbPoint
 10
6710.858361350531
 20
17621.6743939206
 30
0.0
  0
POINT
  5
1868
330
1861
100
AcDbEntity
  8
Defpoints
 62
     0
440
 16777216
100
AcDbPoint
 10
6713.213765464399
 20
17629.31587333503
 30
0.0
  0
POINT
  5
1869
330
1861
100
AcDbEntity
  8
Defpoints
 62
     0
440
 16777216
100
AcDbPoint
 10
6713.775707734078
 20
17629.31587333503
 30
0.0
  0
POINT
  5
186A
330
1861
100
AcDbEntity
  8
Defpoints
 62
     0
440
 16777216
100
AcDbPoint
 10
6720.78151545504
 20
17624.55647831831
 30
0.0
  0
POINT
  5
186B
330
1861
100
AcDbEntity
  8
Defpoints
 62
     0
440
 16777216
100
AcDbPoint
 10
6706.207957743437
 20
17624.55647831831
 30
0.0
  0
ENDBLK
  5
186C
330
1861
100
AcDbEntity
  8
0
100
AcDbBlockEnd
  0
BLOCK
  5
186E
330
186D
100
AcDbEntity
  8
0
100
AcDbBlockBegin
  2
*D23
 70
     1
 10
0.0
 20
0.0
 30
0.0
  3
*D23
  1

  0
LINE
  5
186F
330
186D
100
AcDbEntity
  8
寸法
 62
     0
440
 16777216
370
    -2
100
AcDbLine
 10
6713.836406612343
 20
17630.27562687237
 30
0.0
 11
6720.460953133368
 21
17640.42255733245
 31
0.0
  0
LINE
  5
1870
330
186D
100
AcDbEntity
  8
寸法
 62
     0
440
 16777216
370
    -2
100
AcDbLine
 10
6721.458226749027
 20
17625.29962922766
 30
0.0
 11
6728.082773270054
 21
17635.44655968774
 31
0.0
  0
LINE
  5
1871
330
186D
100
AcDbEntity
  8
寸法
 62
     0
440
 16777216
370
    -2
100
AcDbLine
 10
6721.870980163918
 20
17638.00919375165
 30
0.0
 11
6725.306066187087
 21
17635.76655621178
 31
0.0
  0
SOLID
  5
1872
330
186D
100
AcDbEntity
  8
寸法
 62
     0
440
 16777216
100
AcDbTrace
 10
6722.098760172656
 20
17638.35808826111
 30
0.0
 11
6721.643200155181
 21
17637.66029924219
 31
0.0
 12
6719.777613107159
 22
17639.37587380407
 32
0.0
 13
6719.777613107159
 23
17639.37587380407
 33
0.0
  0
SOLID
  5
1873
330
186D
100
AcDbEntity
  8
寸法
 62
     0
440
 16777216
100
AcDbTrace
 10
6725.533846195826
 20
17636.11545072124
 30
0.0
 11
6725.078286178351
 21
17635.41766170232
 31
0.0
 12
6727.399433243845
 22
17634.39987615936
 32
0.0
 13
6727.399433243845
 23
17634.39987615936
 33
0.0
  0
MTEXT
  5
1874
330
186D
100
AcDbEntity
  8
寸法
 62
     0
440
 16777216
100
AcDbMText
 10
6724.82608645626
 20
17638.78347168556
 30
0.0
 40
2.5
 41
0.0
 46
0.0
 71
     5
 72
     1
  1
(9)
 11
0.8373468227030363
 21
-0.5466720209679015
 31
0.0
 73
     1
 44
1.0
  0
POINT
  5
1875
330
186D
100
AcDbEntity
  8
Defpoints
 62
     0
440
 16777216
100
AcDbPoint
 10
6713.494736599236
 20
17629.75228510818
 30
0.0
  0
POINT
  5
1876
330
186D
100
AcDbEntity
  8
Defpoints
 62
     0
440
 16777216
100
AcDbPoint
 10
6721.116556735921
 20
17624.77628746347
 30
0.0
  0
POINT
  5
1877
330
186D
100
AcDbEntity
  8
Defpoints
 62
     0
440
 16777216
100
AcDbPoint
 10
6727.399433243845
 20
17634.39987615936
 30
0.0
  0
ENDBLK
  5
1878
330
186D
100
AcDbEntity
  8
0
100
AcDbBlockEnd
  0
BLOCK
  5
187A
330
1879
100
AcDbEntity
  8
0
100
AcDbBlockBegin
  2
*D24
 70
     1
 10
0.0
 20
0.0
 30
0.0
  3
*D24
  1

  0
LINE
  5
187B
330
1879
100
AcDbEntity
  8
寸法
 62
     0
440
 16777216
370
    -2
100
AcDbLine
 10
6712.869736599238
 20
17629.75228510818
 30
0.0
 11
6701.584914488802
 21
17629.75228510818
 31
0.0
  0
LINE
  5
187C
330
1879
100
AcDbEntity
  8
寸法
 62
     0
440
 16777216
370
    -2
100
AcDbLine
 10
6702.275299026229
 20
17624.75228510818
 30
0.0
 11
6704.084914488801
 21
17624.75228510818
 31
0.0
  0
LINE
  5
187D
330
1879
100
AcDbEntity
  8
寸法
 62
     0
440
 16777216
370
    -2
100
AcDbLine
 10
6702.834914488801
 20
17622.25228510818
 30
0.0
 11
6702.834914488801
 21
17619.75228510818
 31
0.0
  0
LINE
  5
187E
330
1879
100
AcDbEntity
  8
寸法
 62
     0
440
 16777216
370
    -2
100
AcDbLine
 10
6702.834914488801
 20
17632.25228510818
 30
0.0
 11
6702.834914488801
 21
17640.32203272073
 31
0.0
  0
LINE
  5
187F
330
1879
100
AcDbEntity
  8
寸法
 62
     0
440
 16777216
370
    -2
100
AcDbLine
 10
6702.834914488801
 20
17624.75228510818
 30
0.0
 11
6702.834914488801
 21
17629.75228510818
 31
0.0
  0
SOLID
  5
1880
330
1879
100
AcDbEntity
  8
寸法
 62
     0
440
 16777216
100
AcDbTrace
 10
6702.418247822135
 20
17622.25228510818
 30
0.0
 11
6703.251581155469
 21
17622.25228510818
 31
0.0
 12
6702.834914488801
 22
17624.75228510818
 32
0.0
 13
6702.834914488801
 23
17624.75228510818
 33
0.0
  0
SOLID
  5
1881
330
1879
100
AcDbEntity
  8
寸法
 62
     0
440
 16777216
100
AcDbTrace
 10
6702.418247822135
 20
17632.25228510818
 30
0.0
 11
6703.251581155469
 21
17632.25228510818
 31
0.0
 12
6702.834914488801
 22
17629.75228510818
 32
0.0
 13
6702.834914488801
 23
17629.75228510818
 33
0.0
  0
MTEXT
  5
1882
330
1879
100
AcDbEntity
  8
寸法
 62
     0
440
 16777216
100
AcDbMText
 10
6700.124847412856
 20
17637.53715891445
 30
0.0
 40
2.5
 41
0.0
 46
0.0
 71
     5
 72
     1
  1
5{\H1.750000;\S+2^ -0;}
 11
0.0000000000000001
 21
1.0
 31
0.0
 73
     1
 44
1.0
  0
POINT
  5
1883
330
1879
100
AcDbEntity
  8
Defpoints
 62
     0
440
 16777216
100
AcDbPoint
 10
6713.494736599239
 20
17629.75228510818
 30
0.0
  0
POINT
  5
1884
330
1879
100
AcDbEntity
  8
Defpoints
 62
     0
440
 16777216
100
AcDbPoint
 10
6701.65029902623
 20
17624.75228510818
 30
0.0
  0
POINT
  5
1885
330
1879
100
AcDbEntity
  8
Defpoints
 62
     0
440
 16777216
100
AcDbPoint
 10
6702.834914488801
 20
17624.75228510818
 30
0.0
  0
ENDBLK
  5
1886
330
1879
100
AcDbEntity
  8
0
100
AcDbBlockEnd
  0
BLOCK
  5
1888
330
1887
100
AcDbEntity
  8
0
100
AcDbBlockBegin
  2
*D25
 70
     1
 10
0.0
 20
0.0
 30
0.0
  3
*D25
  1

  0
LINE
  5
1889
330
1887
100
AcDbEntity
  8
寸法
 62
     0
440
 16777216
370
    -2
100
AcDbLine
 10
6748.936910259832
 20
17634.6144135332
 30
0.0
 11
6746.962250554085
 21
17636.69340482665
 31
0.0
  0
ARC
  5
188A
330
1887
100
AcDbEntity
  8
寸法
 62
     0
440
 16777216
370
    -2
100
AcDbCircle
 10
6758.304120057772
 20
17624.75228510822
 30
0.0
 40
15.21901162694938
100
AcDbArc
 50
142.9481550936682
 51
170.5775097392704
  0
SOLID
  5
188B
330
1887
100
AcDbEntity
  8
寸法
 62
     0
440
 16777216
100
AcDbTrace
 10
6745.84717575477
 20
17634.19983102027
 30
0.0
 11
6746.468763442639
 21
17633.64478760689
 31
0.0
 12
6747.823099838836
 22
17635.78707237719
 32
0.0
 13
6747.823099838836
 23
17635.78707237719
 33
0.0
  0
SOLID
  5
188C
330
1887
100
AcDbEntity
  8
寸法
 62
     0
440
 16777216
100
AcDbTrace
 10
6743.705702579084
 20
17627.20961577669
 30
0.0
 11
6742.875184840752
 21
17627.27806086972
 31
0.0
 12
6743.085108430822
 22
17624.75228510821
 32
0.0
 13
6743.085108430822
 23
17624.75228510821
 33
0.0
  0
MTEXT
  5
188D
330
1887
100
AcDbEntity
  8
寸法
 62
     0
440
 16777216
100
AcDbMText
 10
6742.572493285052
 20
17631.50695202352
 30
0.0
 40
2.5
 41
0.0
 46
0.0
 71
     5
 72
     1
  1
46°
 11
0.3945380667308241
 21
0.9188795970638937
 31
0.0
 73
     1
 44
1.0
  0
POINT
  5
188E
330
1887
100
AcDbEntity
  8
Defpoints
 62
     0
440
 16777216
100
AcDbPoint
 10
6745.256540799158
 20
17632.58675958909
 30
0.0
  0
POINT
  5
188F
330
1887
100
AcDbEntity
  8
Defpoints
 62
     0
440
 16777216
100
AcDbPoint
 10
6749.367334902209
 20
17634.16124730848
 30
0.0
  0
POINT
  5
1890
330
1887
100
AcDbEntity
  8
Defpoints
 62
     0
440
 16777216
100
AcDbPoint
 10
6721.269613072684
 20
17624.7522851082
 30
0.0
  0
POINT
  5
1891
330
1887
100
AcDbEntity
  8
Defpoints
 62
     0
440
 16777216
100
AcDbPoint
 10
6757.13961950061
 20
17624.75228510822
 30
0.0
  0
POINT
  5
1892
330
1887
100
AcDbEntity
  8
Defpoints
 62
     0
440
 16777216
100
AcDbPoint
 10
6757.502152480393
 20
17625.59662482211
 30
0.0
  0
ENDBLK
  5
1893
330
1887
100
AcDbEntity
  8
0
100
AcDbBlockEnd
  0
BLOCK
  5
1895
330
1894
100
AcDbEntity
  8
0
100
AcDbBlockBegin
  2
*D26
 70
     1
 10
0.0
 20
0.0
 30
0.0
  3
*D26
  1

  0
ARC
  5
1896
330
1894
100
AcDbEntity
  8
寸法
 62
     0
440
 16777216
370
    -2
100
AcDbCircle
 10
6721.116128535557
 20
17624.7522851082
 30
0.0
 40
6.557474996002938
100
AcDbArc
 50
21.97818907395873
 51
123.8315855893191
  0
SOLID
  5
1897
330
1894
100
AcDbEntity
  8
寸法
 62
     0
440
 16777216
100
AcDbTrace
 10
6727.606074601289
 20
17627.285869714
 30
0.0
 11
6726.788021698344
 21
17627.12701792007
 31
0.0
 12
6727.673603531562
 22
17624.7522851082
 32
0.0
 13
6727.673603531562
 23
17624.7522851082
 33
0.0
  0
SOLID
  5
1898
330
1894
100
AcDbEntity
  8
寸法
 62
     0
440
 16777216
100
AcDbTrace
 10
6717.758934809618
 20
17629.90388469128
 30
0.0
 11
6717.171526248041
 21
17630.49498165983
 31
0.0
 12
6715.691939623173
 22
17628.43720749082
 32
0.0
 13
6715.691939623173
 23
17628.43720749082
 33
0.0
  0
MTEXT
  5
1899
330
1894
100
AcDbEntity
  8
寸法
 62
     0
440
 16777216
100
AcDbMText
 10
6721.480182660036
 20
17633.20335486895
 30
0.0
 40
2.5
 41
0.0
 46
0.0
 71
     5
 72
     1
  1
146°
 11
0.9990734377236801
 21
-0.043037960395307
 31
0.0
 73
     1
 44
1.0
  0
POINT
  5
189A
330
1894
100
AcDbEntity
  8
Defpoints
 62
     0
440
 16777216
100
AcDbPoint
 10
6725.452384832144
 20
17629.671366288
 30
0.0
  0
POINT
  5
189B
330
1894
100
AcDbEntity
  8
Defpoints
 62
     0
440
 16777216
100
AcDbPoint
 10
6713.972387528468
 20
17629.60538509382
 30
0.0
  0
POINT
  5
189C
330
1894
100
AcDbEntity
  8
Defpoints
 62
     0
440
 16777216
100
AcDbPoint
 10
6721.269613072684
 20
17624.7522851082
 30
0.0
  0
POINT
  5
189D
330
1894
100
AcDbEntity
  8
Defpoints
 62
     0
440
 16777216
100
AcDbPoint
 10
6757.139619500609
 20
17624.75228510821
 30
0.0
  0
POINT
  5
189E
330
1894
100
AcDbEntity
  8
Defpoints
 62
     0
440
 16777216
100
AcDbPoint
 10
6720.978195249428
 20
17624.84599007711
 30
0.0
  0
ENDBLK
  5
189F
330
1894
100
AcDbEntity
  8
0
100
AcDbBlockEnd
  0
BLOCK
  5
18A1
330
18A0
100
AcDbEntity
  8
0
100
AcDbBlockBegin
  2
*D27
 70
     1
 10
0.0
 20
0.0
 30
0.0
  3
*D27
  1

  0
LINE
  5
18A2
330
18A0
100
AcDbEntity
  8
寸法
 62
     0
440
 16777216
370
    -2
100
AcDbLine
 10
6683.442383841944
 20
17650.70228510821
 30
0.0
 11
6681.4697280703
 21
17650.70228510821
 31
0.0
  0
LINE
  5
18A3
330
18A0
100
AcDbEntity
  8
寸法
 62
     0
440
 16777216
370
    -2
100
AcDbLine
 10
6683.44238384193
 20
17624.75228510819
 30
0.0
 11
6681.4697280703
 21
17624.75228510819
 31
0.0
  0
LINE
  5
18A4
330
18A0
100
AcDbEntity
  8
寸法
 62
     0
440
 16777216
370
    -2
100
AcDbLine
 10
6682.7197280703
 20
17648.20228510821
 30
0.0
 11
6682.7197280703
 21
17627.25228510819
 31
0.0
  0
SOLID
  5
18A5
330
18A0
100
AcDbEntity
  8
寸法
 62
     0
440
 16777216
100
AcDbTrace
 10
6682.303061403634
 20
17648.20228510821
 30
0.0
 11
6683.136394736968
 21
17648.20228510821
 31
0.0
 12
6682.7197280703
 22
17650.70228510821
 32
0.0
 13
6682.7197280703
 23
17650.70228510821
 33
0.0
  0
SOLID
  5
18A6
330
18A0
100
AcDbEntity
  8
寸法
 62
     0
440
 16777216
100
AcDbTrace
 10
6682.303061403634
 20
17627.25228510819
 30
0.0
 11
6683.136394736968
 21
17627.25228510819
 31
0.0
 12
6682.7197280703
 22
17624.75228510819
 32
0.0
 13
6682.7197280703
 23
17624.75228510819
 33
0.0
  0
MTEXT
  5
18A7
330
18A0
100
AcDbEntity
  8
寸法
 62
     0
440
 16777216
100
AcDbMText
 10
6680.455914973435
 20
17637.7272851082
 30
0.0
 40
2.5
 41
0.0
 46
0.0
 71
     5
 72
     1
  1
(26)
 11
0.0000000000000001
 21
1.0
 31
0.0
 73
     1
 44
1.0
  0
POINT
  5
18A8
330
18A0
100
AcDbEntity
  8
Defpoints
 62
     0
440
 16777216
100
AcDbPoint
 10
6684.067383841945
 20
17650.70228510821
 30
0.0
  0
POINT
  5
18A9
330
18A0
100
AcDbEntity
  8
Defpoints
 62
     0
440
 16777216
100
AcDbPoint
 10
6684.067383841929
 20
17624.75228510819
 30
0.0
  0
POINT
  5
18AA
330
18A0
100
AcDbEntity
  8
Defpoints
 62
     0
440
 16777216
100
AcDbPoint
 10
6682.7197280703
 20
17624.75228510819
 30
0.0
  0
ENDBLK
  5
18AB
330
18A0
100
AcDbEntity
  8
0
100
AcDbBlockEnd
  0
BLOCK
  5
18AD
330
18AC
100
AcDbEntity
  8
0
100
AcDbBlockBegin
  2
*D28
 70
     1
 10
0.0
 20
0.0
 30
0.0
  3
*D28
  1

  0
LINE
  5
18AE
330
18AC
100
AcDbEntity
  8
実線
 62
     0
440
 16777216
370
    -2
100
AcDbLine
 10
6640.047568454891
 20
17608.64899967534
 30
0.0
 11
6656.331728021807
 21
17623.03437903426
 31
0.0
  0
MTEXT
  5
18AF
330
18AC
100
AcDbEntity
  8
実線
 62
     0
440
 16777216
100
AcDbMText
 10
6642.44450594203
 20
17613.60504743998
 30
0.0
 40
2.5
 41
0.0
 46
0.0
 71
     5
 72
     1
  1
R0,85
 11
0.7494494985492192
 21
0.6620615146074601
 31
0.0
 73
     1
 44
1.0
  0
LINE
  5
18B0
330
18AC
100
AcDbEntity
  8
実線
 62
     0
440
 16777216
370
    -2
100
AcDbLine
 10
6658.842383841928
 20
17625.25228510818
 30
0.0
 11
6658.20535176818
 21
17624.68953282078
 31
0.0
  0
SOLID
  5
18B1
330
18AC
100
AcDbEntity
  8
実線
 62
     0
440
 16777216
100
AcDbTrace
 10
6656.055869057387
 20
17623.34664965865
 30
0.0
 11
6656.607586986226
 21
17622.72210840986
 31
0.0
 12
6658.20535176818
 22
17624.68953282078
 32
0.0
 13
6658.20535176818
 23
17624.68953282078
 33
0.0
  0
POINT
  5
18B2
330
18AC
100
AcDbEntity
  8
Defpoints
 62
     0
440
 16777216
100
AcDbPoint
 10
6658.20535176818
 20
17624.68953282078
 30
0.0
  0
POINT
  5
18B3
330
18AC
100
AcDbEntity
  8
Defpoints
 62
     0
440
 16777216
100
AcDbPoint
 10
6658.842383841928
 20
17625.25228510818
 30
0.0
  0
ENDBLK
  5
18B4
330
18AC
100
AcDbEntity
  8
0
100
AcDbBlockEnd
  0
BLOCK
  5
1902
330
18B5
100
AcDbEntity
  8
0
100
AcDbBlockBegin
  2
A$C4464175A
 70
     0
 10
0.0
 20
0.0
 30
0.0
  3
A$C4464175A
  1

  0
LINE
  5
18B6
330
18B5
100
AcDbEntity
  8
実線
 62
     0
100
AcDbLine
 10
50.38195180589264
 20
50.00324124816325
 30
0.0
 11
50.38195180589264
 21
49.6532412481647
 31
0.0
  0
LINE
  5
18B7
330
18B5
100
AcDbEntity
  8
実線
 62
     0
100
AcDbLine
 10
56.53195180589228
 20
50.00324124816325
 30
0.0
 11
50.38195180589264
 21
50.00324124816325
 31
0.0
  0
LINE
  5
18B8
102
{ACAD_REACTORS
330
18F8
102
}
330
18B5
100
AcDbEntity
  8
実線
 62
     0
100
AcDbLine
 10
56.53195180589228
 20
49.6532412481647
 30
0.0
 11
50.38195180589264
 21
49.6532412481647
 31
0.0
  0
LINE
  5
18B9
330
18B5
100
AcDbEntity
  8
実線
 62
     0
100
AcDbLine
 10
28.23195180589119
 20
23.3532412481618
 30
0.0
 11
75.1094280897696
 21
23.35324124816543
 31
0.0
  0
LINE
  5
18BA
330
18B5
100
AcDbEntity
  8
実線
 62
     0
100
AcDbLine
 10
29.73195180588937
 20
51.35324124816179
 30
0.0
 11
56.53195180589228
 21
51.35324124816179
 31
0.0
  0
LINE
  5
18BB
330
18B5
100
AcDbEntity
  8
実線
 62
     0
100
AcDbLine
 10
27.38195180589355
 20
50.50324124816325
 30
0.0
 11
27.38195180589173
 21
24.2032412481567
 31
0.0
  0
LINE
  5
18BC
330
18B5
100
AcDbEntity
  8
実線
 62
     0
100
AcDbLine
 10
82.40665363395875
 20
28.55634123377604
 30
0.0
 11
75.40084591299728
 21
23.79694621705858
 31
0.0
  0
LINE
  5
18BD
102
{ACAD_REACTORS
330
18EB
102
}
330
18B5
100
AcDbEntity
  8
実線
 62
     0
100
AcDbLine
 10
82.60333342834655
 20
28.26682947498193
 30
0.0
 11
75.5975257073851
 21
23.50743445826447
 31
0.0
  0
ARC
  5
18BE
330
18B5
100
AcDbEntity
  8
実線
100
AcDbCircle
 10
75.1094280897696
 20
24.20324124816398
 30
0.0
 40
0.85
100
AcDbArc
 50
270.0
 51
305.6502350645029
  0
ARC
  5
18BF
330
18B5
100
AcDbEntity
  8
実線
100
AcDbCircle
 10
75.1094280897696
 20
24.20324124816398
 30
0.0
 40
0.5
100
AcDbArc
 50
270.0
 51
305.6502350645029
  0
LINE
  5
18C0
330
18B5
100
AcDbEntity
  8
実線
 62
     0
100
AcDbLine
 10
56.53195180589228
 20
51.35324124816179
 30
0.0
 11
28.231951805893
 21
51.35324124816179
 31
0.0
  0
LINE
  5
18C1
330
18B5
100
AcDbEntity
  8
実線
 62
     0
100
AcDbLine
 10
27.73195180588846
 20
50.50324124816325
 30
0.0
 11
27.73195180588937
 21
24.2032412481567
 31
0.0
  0
LINE
  5
18C2
330
18B5
100
AcDbEntity
  8
実線
 62
     0
100
AcDbLine
 10
28.231951805893
 20
51.00324124815961
 30
0.0
 11
56.53195180589228
 21
51.00324124815961
 31
0.0
  0
LINE
  5
18C3
102
{ACAD_REACTORS
330
18F8
102
}
330
18B5
100
AcDbEntity
  8
実線
 62
     0
100
AcDbLine
 10
28.23195180589119
 20
23.70324124816034
 30
0.0
 11
75.1094280897696
 21
23.70324124813487
 31
0.0
  0
POINT
  5
18C4
330
18B5
100
AcDbEntity
  8
実線
100
AcDbPoint
 10
92.78259615290881
 20
23.35324124815816
 30
0.0
  0
LINE
  5
18C5
102
{ACAD_REACTORS
330
18F2
330
18F5
102
}
330
18B5
100
AcDbEntity
  8
実線
 62
     0
100
AcDbLine
 10
90.6591810366317
 20
23.70324124815306
 30
0.0
 11
126.5291874645563
 21
23.70324124816761
 31
0.0
  0
LINE
  5
18C6
330
18B5
100
AcDbEntity
  8
実線
 62
     0
100
AcDbLine
 10
90.6591810366317
 20
23.35324124813997
 30
0.0
 11
126.5291874645563
 21
23.35324124815816
 31
0.0
  0
LINE
  5
18C7
102
{ACAD_REACTORS
330
18E0
102
}
330
18B5
100
AcDbEntity
  8
実線
100
AcDbLine
 10
119.010675952004
 20
33.3532412481618
 30
0.0
 11
127.145493530189
 21
24.78861876179144
 31
0.0
  0
LINE
  5
18C8
102
{ACAD_REACTORS
330
18F2
102
}
330
18B5
100
AcDbEntity
  8
実線
100
AcDbLine
 10
118.7569028661555
 20
33.11220344843241
 30
0.0
 11
126.8917204443405
 21
24.54758096206206
 31
0.0
  0
POINT
  5
18C9
102
{ACAD_REACTORS
330
18D9
102
}
330
18B5
100
AcDbEntity
  8
実線
100
AcDbPoint
 10
75.38195180589173
 20
23.35324124816543
 30
0.0
  0
POINT
  5
18CA
102
{ACAD_REACTORS
330
18DC
102
}
330
18B5
100
AcDbEntity
  8
実線
100
AcDbPoint
 10
90.3819518058899
 20
23.35604786726253
 30
0.0
  0
LINE
  5
18CB
102
{ACAD_REACTORS
330
18E0
330
18E3
102
}
330
18B5
100
AcDbEntity
  8
実線
100
AcDbLine
 10
119.010675952004
 20
33.35324124816543
 30
0.0
 11
118.7569028661555
 21
33.11220344843241
 31
0.0
  0
ARC
  5
18CC
330
18B5
100
AcDbEntity
  8
実線
100
AcDbCircle
 10
56.53195180589228
 20
50.50324124816325
 30
0.0
 40
0.85
100
AcDbArc
 50
270.0
 51
90.0
  0
ARC
  5
18CD
330
18B5
100
AcDbEntity
  8
実線
100
AcDbCircle
 10
56.53195180589228
 20
50.50324124816325
 30
0.0
 40
0.5
100
AcDbArc
 50
270.0
 51
90.0
  0
ARC
  5
18CE
330
18B5
100
AcDbEntity
  8
実線
100
AcDbCircle
 10
28.231951805893
 20
50.50324124816325
 30
0.0
 40
0.85
100
AcDbArc
 50
90.0
 51
180.0
  0
ARC
  5
18CF
330
18B5
100
AcDbEntity
  8
実線
100
AcDbCircle
 10
28.231951805893
 20
50.50324124816325
 30
0.0
 40
0.5
100
AcDbArc
 50
90.0
 51
180.0
  0
ARC
  5
18D0
102
{ACAD_REACTORS
330
18FE
102
}
330
18B5
100
AcDbEntity
  8
実線
100
AcDbCircle
 10
28.23195180589119
 20
24.2032412481567
 30
0.0
 40
0.85
100
AcDbArc
 50
180.0
 51
270.0
  0
ARC
  5
18D1
330
18B5
100
AcDbEntity
  8
実線
100
AcDbCircle
 10
28.23195180589119
 20
24.2032412481567
 30
0.0
 40
0.5
100
AcDbArc
 50
180.0
 51
270.0
  0
ARC
  5
18D2
330
18B5
100
AcDbEntity
  8
実線
100
AcDbCircle
 10
90.6591810366317
 20
24.20324124814215
 30
0.0
 40
0.85
100
AcDbArc
 50
234.3497649355395
 51
270.0
  0
ARC
  5
18D3
102
{ACAD_REACTORS
330
18EE
102
}
330
18B5
100
AcDbEntity
  8
実線
100
AcDbCircle
 10
90.6591810366317
 20
24.20324124814215
 30
0.0
 40
0.5
100
AcDbArc
 50
234.3497649355395
 51
270.0
  0
ARC
  5
18D4
102
{ACAD_REACTORS
330
18E3
102
}
330
18B5
100
AcDbEntity
  8
実線
100
AcDbCircle
 10
126.5291874645563
 20
24.20324124816034
 30
0.0
 40
0.85
100
AcDbArc
 50
270.0
 51
43.52566483287721
  0
ARC
  5
18D5
330
18B5
100
AcDbEntity
  8
実線
100
AcDbCircle
 10
126.5291874645563
 20
24.20324124816034
 30
0.0
 40
0.5
100
AcDbArc
 50
270.0
 51
43.52566483284132
  0
DIMENSION
  5
18D6
330
18B5
100
AcDbEntity
  8
寸法
100
AcDbDimension
280
     0
  2
*D15
 10
127.3791874645567
 20
1.250000056188582
 30
0.0
 11
77.38056963522467
 21
1.250000056188582
 31
0.0
 12
-6630.610432036052
 22
-17601.04904386004
 32
0.0
 70
   128
 71
     5
 42
99.99723565866498
 73
     0
 74
     0
 75
     0
  3
ISO-25
100
AcDbAlignedDimension
 13
27.38195180589173
 23
23.21105730297859
 33
0.0
 14
127.3791874645567
 24
23.57824124816034
 34
0.0
100
AcDbRotatedDimension
  0
DIMENSION
  5
18D7
102
{ACAD_XDICTIONARY
360
18D8
102
}
102
{ACAD_REACTORS
330
18D9
102
}
330
18B5
100
AcDbEntity
  8
寸法
100
AcDbDimension
280
     0
  2
*D16
 10
27.38195180589173
 20
14.30998292926597
 30
0.0
 11
51.38195180589173
 21
16.21141539857126
 31
0.0
 12
-6630.610432036052
 22
-17601.04904386004
 32
0.0
 71
     5
 42
48.0
 73
     0
 74
     0
 75
     0
  3
ISO-25
100
AcDbAlignedDimension
 13
75.38195180589173
 23
23.35324124816543
 33
0.0
 14
27.38195180589173
 24
23.21105730297859
 34
0.0
100
AcDbRotatedDimension
  0
DIMENSION
  5
18DA
102
{ACAD_XDICTIONARY
360
18DB
102
}
102
{ACAD_REACTORS
330
18DC
102
}
330
18B5
100
AcDbEntity
  8
寸法
100
AcDbDimension
280
     0
  2
*D17
 10
127.3791874645567
 20
14.30998292926597
 30
0.0
 11
108.8805696352228
 21
16.21226805886908
 31
0.0
 12
-6630.610432036052
 22
-17601.04904386004
 32
0.0
 71
     5
 42
36.9972356586668
 73
     0
 74
     0
 75
     0
  3
ISO-25
100
AcDbAlignedDimension
 13
90.3819518058899
 23
23.35604786726253
 33
0.0
 14
127.3791874645567
 24
20.5399754760183
 34
0.0
100
AcDbRotatedDimension
  0
DIMENSION
  5
18DD
330
18B5
100
AcDbEntity
  8
寸法
100
AcDbDimension
280
     0
  2
*D18
 10
17.9328391820045
 20
23.3532412481618
 30
0.0
 11
15.22277210605807
 21
37.35324124816179
 31
0.0
 12
-6630.610432036052
 22
-17601.04904386004
 32
0.0
 71
     5
 42
28.0
 73
     0
 74
     0
 75
     0
  3
ISO-25
100
AcDbAlignedDimension
 13
27.43323454771053
 23
51.35324124816179
 33
0.0
 14
27.29209271459058
 24
23.3532412481618
 34
0.0
 50
90.0
100
AcDbRotatedDimension
1001
ACAD
1000
DSTYLE
1002
{
1070
   146
1040
0.7
1070
    47
1040
1.0
1070
    48
1040
0.000000001
1070
   147
1040
0.625
1070
    72
1070
     0
1070
    71
1070
     1
1002
}
  0
DIMENSION
  5
18DE
102
{ACAD_XDICTIONARY
360
18DF
102
}
102
{ACAD_REACTORS
330
18E0
102
}
330
18B5
100
AcDbEntity
  8
寸法
100
AcDbDimension
280
     0
  2
*D19
 10
145.0635045405743
 20
23.35324124815279
 30
0.0
 11
145.0635045405715
 21
28.35324124815643
 31
0.0
 12
-6630.610432036052
 22
-17601.04904386004
 32
0.0
 70
   128
 71
     5
 42
10.00000000001091
 73
     0
 74
     0
 75
     0
  3
ISO-25
100
AcDbAlignedDimension
 13
119.0106759520022
 23
33.35324124816543
 33
0.0
 14
127.5327913355404
 24
23.35324124815452
 34
0.0
 50
90.0
100
AcDbRotatedDimension
1001
ACAD
1000
DSTYLE
1002
{
1070
   146
1040
0.7
1070
    47
1040
2.0
1070
    48
1040
0.000000001
1070
   147
1040
0.625
1070
    72
1070
     0
1070
    71
1070
     1
1002
}
  0
DIMENSION
  5
18E1
102
{ACAD_XDICTIONARY
360
18E2
102
}
102
{ACAD_REACTORS
330
18E3
102
}
330
18B5
100
AcDbEntity
  8
寸法
100
AcDbDimension
280
     0
  2
*D20
 10
143.1300469786783
 20
37.7100049233959
 30
0.0
 11
140.6839718110759
 21
43.94340188351634
 31
0.0
 12
-6630.610432036052
 22
-17601.04904386004
 32
0.0
 70
     1
  1
(13)
 71
     5
 42
12.60375684477003
 73
     0
 74
     0
 75
     0
  3
ISO-25
100
AcDbAlignedDimension
 13
119.010675952004
 23
33.35324124816543
 33
0.0
 14
127.3102351220604
 24
23.86788389143839
 34
0.0
1001
ACAD
1000
DSTYLE
1002
{
1070
   271
1070
     0
1002
}
  0
DIMENSION
  5
18E4
330
18B5
100
AcDbEntity
  8
寸法
100
AcDbDimension
280
     0
  2
*D21
 10
57.38195180589264
 20
59.97118934399259
 30
0.0
 11
42.38195180589264
 21
61.8734744735957
 31
0.0
 12
-6630.610432036052
 22
-17601.04904386004
 32
0.0
 71
     5
 42
30.0
 73
     0
 74
     0
 75
     0
  3
ISO-25
100
AcDbAlignedDimension
 13
27.38195180589264
 23
51.33812820360254
 33
0.0
 14
57.38195180589264
 24
51.12824124816325
 34
0.0
100
AcDbRotatedDimension
  0
ARC
  5
18E5
102
{ACAD_REACTORS
330
18EE
102
}
330
18B5
100
AcDbEntity
  8
実線
100
AcDbCircle
 10
82.88430456318655
 20
27.85324124813633
 30
0.0
 40
0.85
100
AcDbArc
 50
55.80977466322407
 51
124.1902253367759
  0
ARC
  5
18E6
330
18B5
100
AcDbEntity
  8
実線
100
AcDbCircle
 10
82.88430456318655
 20
27.85324124813633
 30
0.0
 40
0.5
100
AcDbArc
 50
55.80977466326718
 51
124.1902253367328
  0
LINE
  5
18E7
102
{ACAD_REACTORS
330
18F5
102
}
330
18B5
100
AcDbEntity
  8
実線
 62
     0
100
AcDbLine
 10
83.36195549241438
 20
28.55634123377604
 30
0.0
 11
90.36776321337583
 21
23.79694621705858
 31
0.0
  0
LINE
  5
18E8
102
{ACAD_REACTORS
330
18EB
102
}
330
18B5
100
AcDbEntity
  8
実線
 62
     0
100
AcDbLine
 10
83.16527569802657
 20
28.26682947498193
 30
0.0
 11
90.17108341898802
 21
23.50743445826447
 31
0.0
  0
DIMENSION
  5
18E9
102
{ACAD_XDICTIONARY
360
18EA
102
}
102
{ACAD_REACTORS
330
18EB
102
}
330
18B5
100
AcDbEntity
  8
寸法
 62
     2
100
AcDbDimension
280
     0
  2
*D22
 10
75.5975257073851
 20
23.50743445826447
 30
0.0
 11
82.88430456318655
 21
22.07366604722847
 31
0.0
 12
-6630.610432036052
 22
-17601.04904386004
 32
0.0
 70
     2
 71
     5
 42
1.948128645339874
 73
     0
 74
     0
 75
     0
  3
ISO-25
100
AcDb2LineAngularDimension
 13
83.16527569802657
 23
28.26682947498193
 33
0.0
 14
90.17108341898802
 24
23.50743445826447
 34
0.0
 15
82.60333342834655
 25
28.26682947498193
 35
0.0
 16
80.24792931447974
 26
20.62535006055623
 36
0.0
  0
DIMENSION
  5
18EC
102
{ACAD_XDICTIONARY
360
18ED
102
}
102
{ACAD_REACTORS
330
18EE
102
}
330
18B5
100
AcDbEntity
  8
寸法
100
AcDbDimension
280
     0
  2
*D23
 10
96.78900120779326
 20
33.35083229931261
 30
0.0
 11
92.97809113945186
 21
35.83883112166732
 31
0.0
 12
-6630.610432036052
 22
-17601.04904386004
 32
0.0
 70
   129
  1
(9)
 71
     5
 42
9.102345563432209
 73
     0
 74
     0
 75
     0
  3
ISO-25
100
AcDbAlignedDimension
 13
82.88430456318655
 23
28.70324124813633
 33
0.0
 14
90.50612469987118
 24
23.72724360342691
 34
0.0
1001
ACAD
1000
DSTYLE
1002
{
1070
   271
1070
     0
1002
}
  0
DIMENSION
  5
18EF
330
18B5
100
AcDbEntity
  8
寸法
100
AcDbDimension
280
     0
  2
*D24
 10
72.22448245274972
 20
23.70324124813851
 30
0.0
 11
72.224482452747
 21
36.48811505440972
 31
0.0
 12
-6630.610432036052
 22
-17601.04904386004
 32
0.0
 70
   128
 71
     5
 42
4.999999999996362
 73
     0
 74
     0
 75
     0
  3
ISO-25
100
AcDbAlignedDimension
 13
82.88430456318655
 23
28.70324124813487
 33
0.0
 14
71.03986699017696
 24
23.70324124813851
 34
0.0
 50
90.0
100
AcDbRotatedDimension
1001
ACAD
1000
DSTYLE
1002
{
1070
    47
1040
2.0
1070
    48
1040
0.000000001
1070
    71
1070
     1
1070
   146
1040
0.7
1002
}
  0
DIMENSION
  5
18F0
102
{ACAD_XDICTIONARY
360
18F1
102
}
102
{ACAD_REACTORS
330
18F2
102
}
330
18B5
100
AcDbEntity
  8
寸法
 62
     2
100
AcDbDimension
280
     0
  2
*D25
 10
126.8917204443405
 20
24.54758096206206
 30
0.0
 11
111.9620612489998
 21
30.45790816347653
 31
0.0
 12
-6630.610432036052
 22
-17601.04904386004
 32
0.0
 70
     2
 71
     5
 42
0.8111301663414831
 73
     0
 74
     0
 75
     0
  3
ISO-25
100
AcDb2LineAngularDimension
 13
90.6591810366317
 23
23.70324124815306
 33
0.0
 14
126.5291874645563
 24
23.70324124816761
 34
0.0
 15
118.7569028661555
 25
33.11220344843241
 35
0.0
 16
114.6461087631069
 26
31.53771572904225
 36
0.0
  0
DIMENSION
  5
18F3
102
{ACAD_XDICTIONARY
360
18F4
102
}
102
{ACAD_REACTORS
330
18F5
102
}
330
18B5
100
AcDbEntity
  8
寸法
 62
     2
100
AcDbDimension
280
     0
  2
*D26
 10
90.36776321337583
 20
23.79694621705858
 30
0.0
 11
90.78791684867701
 21
30.25464033519893
 31
0.0
 12
-6630.610432036052
 22
-17601.04904386004
 32
0.0
 70
   130
 71
     5
 42
2.544860649464521
 73
     0
 74
     0
 75
     0
  3
ISO-25
100
AcDb2LineAngularDimension
 13
90.6591810366317
 23
23.70324124815306
 33
0.0
 14
126.5291874645563
 24
23.70324124816761
 34
0.0
 15
83.36195549241438
 25
28.55634123377604
 35
0.0
 16
94.84195279609229
 26
28.62232242796017
 36
0.0
  0
DIMENSION
  5
18F6
102
{ACAD_XDICTIONARY
360
18F7
102
}
102
{ACAD_REACTORS
330
18F8
102
}
330
18B5
100
AcDbEntity
  8
寸法
100
AcDbDimension
280
     0
  2
*D27
 10
52.10929603424848
 20
23.70324124814579
 30
0.0
 11
52.10929603424574
 21
36.67824124815524
 31
0.0
 12
-6630.610432036052
 22
-17601.04904386004
 32
0.0
 70
   128
  1
(26)
 71
     5
 42
25.95000000001892
 73
     0
 74
     0
 75
     0
  3
ISO-25
100
AcDbAlignedDimension
 13
53.45695180589245
 23
49.6532412481647
 33
0.0
 14
53.45695180587791
 24
23.70324124814579
 34
0.0
 50
90.0
100
AcDbRotatedDimension
1001
ACAD
1000
DSTYLE
1002
{
1070
   271
1070
     1
1002
}
  0
LINE
  5
18F9
330
18B5
100
AcDbEntity
  8
寸法
100
AcDbLine
 10
57.68398032219739
 20
23.70324124814579
 30
0.0
 11
64.56502969262328
 21
43.51990581113205
 31
0.0
  0
LINE
  5
18FA
330
18B5
100
AcDbEntity
  8
寸法
100
AcDbLine
 10
64.56502969262328
 20
43.51990581113205
 30
0.0
 11
81.17358893865457
 21
43.51990581113205
 31
0.0
  0
TEXT
  5
18FB
330
18B5
100
AcDbEntity
  8
寸法
 62
     7
100
AcDbText
 10
66.04930301038947
 20
44.98057254455125
 30
0.0
 40
3.0
  1
カラー面
  7
FX_FONT
 72
     1
 11
72.94930301038949
 21
44.98057254455125
 31
0.0
100
AcDbText
  0
DIMENSION
  5
18FC
102
{ACAD_XDICTIONARY
360
18FD
102
}
102
{ACAD_REACTORS
330
18FE
102
}
330
18B5
100
AcDbEntity
  8
実線
 62
     2
100
AcDbDimension
280
     0
  2
*D28
 10
28.23195180589119
 20
24.2032412481567
 30
0.0
 11
13.24253526252778
 21
10.96163412320311
 31
0.0
 12
-6630.610432036039
 22
-17601.04904386002
 32
0.0
 70
   132
 71
     5
 42
0.8499999999767169
 73
     0
 74
     0
 75
     0
  3
ISO-25
100
AcDbRadialDimension
 15
27.59491973214153
 25
23.64048896075474
 35
0.0
 40
0.0
1001
ACAD
1000
DSTYLE
1002
{
1070
   288
1070
     1
1002
}
1001
ACAD_DSTYLE_DIMRADIAL_EXTENSION
1070
   387
1070
     1
1070
   388
1040
3.141592653589793
1070
   390
1040
4.712388980384689
  0
TEXT
  5
18FF
330
18B5
100
AcDbEntity
  8
寸法
 62
     7
100
AcDbText
 10
0.0000004763143782
 20
1.903788699368305
 30
0.0
 40
3.0
  1
R全て変更
  7
FX_FONT
 72
     1
 11
8.30000047631438
 21
1.903788699368305
 31
0.0
100
AcDbText
  0
ENDBLK
  5
1903
330
18B5
100
AcDbEntity
  8
0
100
AcDbBlockEnd
  0
BLOCK
  5
198F
330
198E
100
AcDbEntity
  8
0
100
AcDbBlockBegin
  2
_DOT
 70
     0
 10
0.0
 20
0.0
 30
0.0
  3
_DOT
  1

  0
LWPOLYLINE
  5
1990
330
198E
100
AcDbEntity
  8
0
  6
ByBlock
 62
     0
100
AcDbPolyline
 90
        2
 70
     1
 43
0.5
 10
-0.25
 20
0.0
 42
1.0
 10
0.25
 20
0.0
 42
1.0
  0
LINE
  5
1991
330
198E
100
AcDbEntity
  8
0
  6
ByBlock
 62
     0
100
AcDbLine
 10
-0.5
 20
0.0
 30
0.0
 11
-1.0
 21
0.0
 31
0.0
  0
ENDBLK
  5
1992
330
198E
100
AcDbEntity
  8
0
100
AcDbBlockEnd
  0
BLOCK
  5
1A9B
330
1A9A
100
AcDbEntity
  8
0
 48
0.2
100
AcDbBlockBegin
  2
*D31
 70
     1
 10
0.0
 20
0.0
 30
0.0
  3
*D31
  1

  0
LINE
  5
1A9C
330
1A9A
100
AcDbEntity
  8
SUNPO
 62
     0
440
 16777216
370
    -2
100
AcDbLine
 10
101.9249974159989
 20
199.7391149224391
 30
0.0
 11
109.645583758535
 21
199.7391149224391
 31
0.0
  0
LINE
  5
1A9D
330
1A9A
100
AcDbEntity
  8
SUNPO
 62
     0
440
 16777216
370
    -2
100
AcDbLine
 10
102.2999974159989
 20
209.7386153387565
 30
0.0
 11
109.645583758535
 21
209.7386153387565
 31
0.0
  0
LINE
  5
1A9E
330
1A9A
100
AcDbEntity
  8
SUNPO
440
 16777216
100
AcDbLine
 10
109.645583758535
 20
200.7391149224391
 30
0.0
 11
109.645583758535
 21
208.7386153387565
 31
0.0
  0
INSERT
  5
1A9F
330
1A9A
100
AcDbEntity
  8
SUNPO
440
 16777216
100
AcDbBlockReference
  2
_DOT
 10
109.645583758535
 20
199.7391149224391
 30
0.0
 50
270.0
  0
INSERT
  5
1AA0
330
1A9A
100
AcDbEntity
  8
SUNPO
440
 16777216
100
AcDbBlockReference
  2
_DOT
 10
109.645583758535
 20
209.7386153387565
 30
0.0
 50
90.0
  0
MTEXT
  5
1AA1
330
1A9A
100
AcDbEntity
  8
SUNPO
440
 16777216
100
AcDbMText
 10
105.1455837585349
 20
204.7388651305979
 30
0.0
 40
5.0
 41
0.0
 46
0.0
 71
     5
 72
     1
  1
\A1;10
  7
IG-5
 11
0.0000000000000001
 21
1.0
 31
0.0
 73
     1
 44
1.0
  0
POINT
  5
1AA2
330
1A9A
100
AcDbEntity
  8
Defpoints
 62
     0
440
 16777216
100
AcDbPoint
 10
99.92499741599893
 20
199.7391149224391
 30
0.0
  0
POINT
  5
1AA3
330
1A9A
100
AcDbEntity
  8
Defpoints
 62
     0
440
 16777216
100
AcDbPoint
 10
100.2999974159989
 20
209.7386153387565
 30
0.0
  0
POINT
  5
1AA4
330
1A9A
100
AcDbEntity
  8
Defpoints
 62
     0
440
 16777216
100
AcDbPoint
 10
109.645583758535
 20
209.7386153387565
 30
0.0
  0
ENDBLK
  5
1AA5
330
1A9A
100
AcDbEntity
  8
0
 48
0.2
100
AcDbBlockEnd
  0
BLOCK
  5
1AA7
330
1AA6
100
AcDbEntity
  8
0
 48
0.2
100
AcDbBlockBegin
  2
*D32
 70
     1
 10
0.0
 20
0.0
 30
0.0
  3
*D32
  1

  0
LINE
  5
1AA8
330
1AA6
100
AcDbEntity
  8
SUNPO
 62
     0
440
 16777216
370
    -2
100
AcDbLine
 10
101.9249974159989
 20
199.7391149224391
 30
0.0
 11
109.6455837585323
 21
199.7391149224391
 31
0.0
  0
LINE
  5
1AA9
330
1AA6
100
AcDbEntity
  8
SUNPO
 62
     0
440
 16777216
370
    -2
100
AcDbLine
 10
74.74141725429814
 20
89.75611436872398
 30
0.0
 11
109.6455837585322
 21
89.75611436872396
 31
0.0
  0
LINE
  5
1AAA
330
1AA6
100
AcDbEntity
  8
SUNPO
440
 16777216
100
AcDbLine
 10
109.6455837585323
 20
198.7391149224391
 30
0.0
 11
109.6455837585322
 21
90.75611436872398
 31
0.0
  0
INSERT
  5
1AAB
330
1AA6
100
AcDbEntity
  8
SUNPO
440
 16777216
100
AcDbBlockReference
  2
_DOT
 10
109.6455837585323
 20
199.7391149224391
 30
0.0
 50
90.0
  0
INSERT
  5
1AAC
330
1AA6
100
AcDbEntity
  8
SUNPO
440
 16777216
100
AcDbBlockReference
  2
_DOT
 10
109.6455837585322
 20
89.75611436872396
 30
0.0
 50
270.0
  0
MTEXT
  5
1AAD
330
1AA6
100
AcDbEntity
  8
SUNPO
440
 16777216
100
AcDbMText
 10
105.1455837585322
 20
144.7476146455815
 30
0.0
 40
5.0
 41
0.0
 46
0.0
 71
     5
 72
     1
  1
\A1;110
  7
IG-5
 11
0.0000000000000001
 21
1.0
 31
0.0
 73
     1
 44
1.0
  0
POINT
  5
1AAE
330
1AA6
100
AcDbEntity
  8
Defpoints
 62
     0
440
 16777216
100
AcDbPoint
 10
99.92499741599893
 20
199.7391149224391
 30
0.0
  0
POINT
  5
1AAF
330
1AA6
100
AcDbEntity
  8
Defpoints
 62
     0
440
 16777216
100
AcDbPoint
 10
72.74141725429814
 20
89.75611436872398
 30
0.0
  0
POINT
  5
1AB0
330
1AA6
100
AcDbEntity
  8
Defpoints
 62
     0
440
 16777216
100
AcDbPoint
 10
109.6455837585322
 20
89.75611436872396
 30
0.0
  0
ENDBLK
  5
1AB1
330
1AA6
100
AcDbEntity
  8
0
 48
0.2
100
AcDbBlockEnd
  0
BLOCK
  5
1ACF
330
1AB2
100
AcDbEntity
  8
0
100
AcDbBlockBegin
  2
A$C0EB379B8
 70
     0
 10
0.0
 20
0.0
 30
0.0
  3
A$C0EB379B8
  1

  0
LINE
  5
1AB3
330
1AB2
100
AcDbEntity
  8
役物1
100
AcDbLine
 10
28.83297066790743
 20
119.8830004673664
 30
0.0
 11
28.83297066790834
 21
111.4830004673686
 31
0.0
  0
ARC
  5
1AB4
330
1AB2
100
AcDbEntity
  8
役物1
100
AcDbCircle
 10
28.58297066790561
 20
119.8830004673664
 30
0.0
 40
0.25
100
AcDbArc
 50
0.0
 51
180.0
  0
LINE
  5
1AB5
330
1AB2
100
AcDbEntity
  8
役物1
100
AcDbLine
 10
28.33297066790562
 20
119.8830004673664
 30
0.0
 11
28.33297066790925
 21
114.9830004673686
 31
0.0
  0
LINE
  5
1AB6
330
1AB2
100
AcDbEntity
  8
役物1
100
AcDbLine
 10
27.98297066790707
 20
119.8830004673664
 30
0.0
 11
27.98297066790798
 21
114.9830004673686
 31
0.0
  0
ARC
  5
1AB7
330
1AB2
100
AcDbEntity
  8
役物1
100
AcDbCircle
 10
28.58297066790652
 20
119.8830004673664
 30
0.0
 40
0.6000000000012733
100
AcDbArc
 50
0.0
 51
180.0
  0
LINE
  5
1AB8
330
1AB2
100
AcDbEntity
  8
役物1
100
AcDbLine
 10
22.16399852306091
 20
110.4830004673686
 30
0.0
 11
28.1829706679078
 21
110.4830004673686
 31
0.0
  0
LINE
  5
1AB9
330
1AB2
100
AcDbEntity
  8
役物1
100
AcDbLine
 10
19.18297066790779
 20
110.4830004673686
 30
0.0
 11
28.1829706679078
 21
110.4830004673686
 31
0.0
  0
ARC
  5
1ABA
330
1AB2
100
AcDbEntity
  8
役物1
100
AcDbCircle
 10
28.1829706679078
 20
111.4830004673686
 30
0.0
 40
1.0
100
AcDbArc
 50
270.0
 51
0.0
  0
ARC
  5
1ABB
330
1AB2
100
AcDbEntity
  8
役物1
100
AcDbCircle
 10
28.1829706679078
 20
111.4830004673686
 30
0.0
 40
0.65
100
AcDbArc
 50
270.0
 51
0.0
  0
LINE
  5
1ABC
330
1AB2
100
AcDbEntity
  8
役物1
100
AcDbLine
 10
19.18297066790779
 20
110.8330004673708
 30
0.0
 11
28.1829706679078
 21
110.8330004673708
 31
0.0
  0
ARC
  5
1ABD
330
1AB2
100
AcDbEntity
  8
役物1
100
AcDbCircle
 10
19.18297066790779
 20
109.8330004673708
 30
0.0
 40
1.0
100
AcDbArc
 50
90.0
 51
180.0
  0
ARC
  5
1ABE
330
1AB2
100
AcDbEntity
  8
役物1
100
AcDbCircle
 10
19.18297066790779
 20
109.8330004673708
 30
0.0
 40
0.65
100
AcDbArc
 50
90.0
 51
180.0
  0
LINE
  5
1ABF
330
1AB2
100
AcDbEntity
  8
役物1
100
AcDbLine
 10
28.33297066790834
 20
114.9830004673686
 30
0.0
 11
27.98297066790616
 21
114.9830004673686
 31
0.0
  0
LINE
  5
1AC0
330
1AB2
100
AcDbEntity
  8
役物1
100
AcDbLine
 10
29.1829706679078
 20
119.8830004673664
 30
0.0
 11
29.1829706679078
 21
111.4830004673686
 31
0.0
  0
LINE
  5
1AC1
330
1AB2
100
AcDbEntity
  8
役物1
100
AcDbLine
 10
18.18297066790779
 20
109.8330004673708
 30
0.0
 11
18.18297066791052
 21
17.28740336104695
 31
0.0
  0
LINE
  5
1AC2
330
1AB2
100
AcDbEntity
  8
役物1
100
AcDbLine
 10
18.53297066790816
 20
109.8330004673708
 30
0.0
 11
18.53297066792089
 21
17.28740336104695
 31
0.0
  0
ARC
  5
1AC3
330
1AB2
100
AcDbEntity
  8
役物1
100
AcDbCircle
 10
16.68297066792053
 20
17.28740336104695
 30
0.0
 40
1.85
100
AcDbArc
 50
312.9999999999796
 51
0.0
  0
ARC
  5
1AC4
330
1AB2
100
AcDbEntity
  8
役物1
100
AcDbCircle
 10
16.68297066792053
 20
17.28740336104695
 30
0.0
 40
1.5
100
AcDbArc
 50
312.9999999999796
 51
0.0
  0
LINE
  5
1AC5
330
1AB2
100
AcDbEntity
  8
役物1
100
AcDbLine
 10
17.94466763403721
 20
15.93439901305194
 30
0.0
 11
1.681388866269628
 21
0.7686462120337012
 31
0.0
  0
LINE
  5
1AC6
330
1AB2
100
AcDbEntity
  8
役物1
100
AcDbLine
 10
3.608483803433557
 20
5.300346235556418
 30
0.0
 11
0.3173921461453233
 21
2.23135361527332
 31
0.0
  0
LINE
  5
1AC7
330
1AB2
100
AcDbEntity
  8
役物1
100
AcDbLine
 10
3.847183229456788
 20
5.044372439989302
 30
0.0
 11
0.5560915721676452
 21
1.975379819702567
 31
0.0
  0
LINE
  5
1AC8
330
1AB2
100
AcDbEntity
  8
役物1
100
AcDbLine
 10
17.70596820802217
 20
16.19037280860814
 30
0.0
 11
1.442689440249125
 21
1.024620007608092
 31
0.0
  0
LINE
  5
1AC9
330
1AB2
100
AcDbEntity
  8
役物1
100
AcDbLine
 10
3.6084838034281
 20
5.300346235560056
 30
0.0
 11
3.847183229450422
 21
5.044372439996578
 31
0.0
  0
ARC
  5
1ACA
330
1AB2
100
AcDbEntity
  8
役物1
100
AcDbCircle
 10
0.9993905062070211
 20
1.49999991365351
 30
0.0
 40
1.0
100
AcDbArc
 50
132.9999999999416
 51
312.9999999999417
  0
ARC
  5
1ACB
330
1AB2
100
AcDbEntity
  8
役物1
100
AcDbCircle
 10
0.9993905062070211
 20
1.49999991365351
 30
0.0
 40
0.65
100
AcDbArc
 50
132.9999999999796
 51
312.9999999999796
  0
DIMENSION
  5
1ACC
330
1AB2
100
AcDbEntity
  8
SUNPO
100
AcDbDimension
280
     0
  2
*D31
 10
38.52855701044388
 20
120.4825008836861
 30
0.0
 11
34.02855701044385
 21
115.4827506755274
 31
0.0
 12
-71.11702674809112
 22
-89.25611445507048
 32
0.0
 71
     5
 42
9.999500416317459
 73
     0
 74
     0
 75
     0
  3
5
100
AcDbAlignedDimension
 13
28.8079706679078
 23
110.4830004673686
 33
0.0
 14
29.1829706679078
 24
120.4825008836861
 34
0.0
 50
90.0
100
AcDbRotatedDimension
  0
DIMENSION
  5
1ACD
330
1AB2
100
AcDbEntity
  8
SUNPO
100
AcDbDimension
280
     0
  2
*D32
 10
38.52855701044115
 20
0.4999999136534968
 30
0.0
 11
38.52855701044115
 21
55.49150019051106
 31
0.0
 12
-71.11702674809112
 22
-89.25611445507048
 32
0.0
 70
   128
 71
     5
 42
109.9830005537151
 73
     0
 74
     0
 75
     0
  3
5
100
AcDbAlignedDimension
 13
28.8079706679078
 23
110.4830004673686
 33
0.0
 14
1.624390506207021
 24
0.499999913653511
 34
0.0
 50
90.0
100
AcDbRotatedDimension
  0
ENDBLK
  5
1AD0
330
1AB2
100
AcDbEntity
  8
0
100
AcDbBlockEnd
  0
ENDSEC
  0
SECTION
  2
ENTITIES
  0
MTEXT
  5
3BA
330
1F
100
AcDbEntity
  8
WAKU
100
AcDbMText
 10
133.8849112072821
 20
35.21985575918302
 30
0.0
 40
5.0
 41
190.5002997985425
 46
0.0
 71
     1
 72
     5
  1
アイジールーフシリーズ参考ディテール
  7
WAKU
 73
     1
 44
1.0
  0
LINE
  5
3BB
330
1F
100
AcDbEntity
  8
WAKU
100
AcDbLine
 10
127.9999997112918
 20
39.99999929129922
 30
0.0
 11
127.9999997112918
 21
23.99999929129945
 31
0.0
  0
LINE
  5
3BC
330
1F
100
AcDbEntity
  8
WAKU
100
AcDbLine
 10
31.99999971129182
 20
23.99999929129945
 30
0.0
 11
127.9999997112918
 21
23.99999929129945
 31
0.0
  0
LINE
  5
3BD
330
1F
100
AcDbEntity
  8
WAKU
100
AcDbLine
 10
31.99999971129182
 20
39.99999929129922
 30
0.0
 11
127.9999997112918
 21
39.99999929129922
 31
0.0
  0
LINE
  5
3BE
330
1F
100
AcDbEntity
  8
WAKU
100
AcDbLine
 10
129.9999997112918
 20
41.99999929129922
 30
0.0
 11
129.9999997112918
 21
21.99999929129945
 31
0.0
  0
LINE
  5
3BF
330
1F
100
AcDbEntity
  8
WAKU
100
AcDbLine
 10
29.99999971129182
 20
41.99999929129922
 30
0.0
 11
809.9999997112918
 21
41.99999929129922
 31
0.0
  0
LINE
  5
3C0
330
1F
100
AcDbEntity
  8
WAKU
100
AcDbLine
 10
29.99999971129182
 20
21.99999929129945
 30
0.0
 11
809.9999997112918
 21
21.99999929129945
 31
0.0
  0
MTEXT
  5
3C1
330
1F
100
AcDbEntity
  8
WAKU
100
AcDbMText
 10
40.90853043579772
 20
35.53439598740943
 30
0.0
 40
6.0
 41
190.5002997985425
 46
0.0
 71
     1
 72
     5
  1
アイジー工業株式会社
  7
WAKU
 73
     1
 44
1.0
  0
LINE
  5
3C2
330
1F
100
AcDbEntity
  8
WAKU
100
AcDbLine
 10
29.99999971129182
 20
571.9999992912992
 30
0.0
 11
29.99999971129182
 21
21.99999929129945
 31
0.0
  0
LINE
  5
3C3
330
1F
100
AcDbEntity
  8
WAKU
100
AcDbLine
 10
29.99999971129182
 20
41.99999929129922
 30
0.0
 11
29.99999971129182
 21
21.99999929129945
 31
0.0
  0
LINE
  5
3C4
330
1F
100
AcDbEntity
  8
WAKU
100
AcDbLine
 10
31.99999971129182
 20
39.99999929129922
 30
0.0
 11
31.99999971129182
 21
23.99999929129945
 31
0.0
  0
MTEXT
  5
3C5
330
1F
100
AcDbEntity
  8
WAKU
100
AcDbMText
 10
276.818617573821
 20
39.72724776496057
 30
0.0
 40
5.0
 41
10.0
 46
0.0
 71
     1
 72
     5
  1
名称
  7
WAKU
 73
     1
 44
1.0
  0
LINE
  5
3C6
330
1F
100
AcDbEntity
  8
WAKU
100
AcDbLine
 10
284.9999997112918
 20
41.99999929129922
 30
0.0
 11
284.9999997112918
 21
21.99999929129945
 31
0.0
  0
LINE
  5
3C7
330
1F
100
AcDbEntity
  8
WAKU
100
AcDbLine
 10
274.9999997112918
 20
41.99999929129922
 30
0.0
 11
274.9999997112918
 21
21.99999929129945
 31
0.0
  0
LINE
  5
3C8
330
1F
100
AcDbEntity
  8
WAKU
100
AcDbLine
 10
511.3090120415344
 20
41.99999929129922
 30
0.0
 11
511.3090120415344
 21
21.99999929129945
 31
0.0
  0
MTEXT
  5
3C9
330
1F
100
AcDbEntity
  8
WAKU
100
AcDbMText
 10
503.1276299040637
 20
39.72724776496057
 30
0.0
 40
5.0
 41
10.0
 46
26.01112855658425
 71
     1
 72
     5
  1
単位
  7
WAKU
 73
     1
 44
1.0
1001
ACAD
1000
ACAD_MTEXT_DEFINED_HEIGHT_BEGIN
1070
    46
1040
26.01112855658425
1000
ACAD_MTEXT_DEFINED_HEIGHT_END
  0
MTEXT
  5
3CA
330
1F
100
AcDbEntity
  8
WAKU
100
AcDbMText
 10
527.6764589568584
 20
35.21985575918302
 30
0.0
 40
5.0
 41
190.5002997985425
 46
0.0
 71
     1
 72
     5
  1
mm
  7
WAKU
 73
     1
 44
1.0
  0
LINE
  5
3CB
330
1F
100
AcDbEntity
  8
WAKU
100
AcDbLine
 10
501.3090120415345
 20
21.99999929129945
 30
0.0
 11
501.3090120415345
 21
41.99999929129922
 31
0.0
  0
MTEXT
  5
3CC
330
1F
100
AcDbEntity
  8
WAKU
100
AcDbMText
 10
553.1276299040637
 20
39.72724776496057
 30
0.0
 40
5.0
 41
10.0
 46
0.0
 71
     1
 72
     5
  1
縮尺
  7
WAKU
 73
     1
 44
1.0
  0
LINE
  5
3CD
330
1F
100
AcDbEntity
  8
WAKU
100
AcDbLine
 10
561.3090120415344
 20
41.99999929129922
 30
0.0
 11
561.3090120415344
 21
21.99999929129945
 31
0.0
  0
LINE
  5
3CE
330
1F
100
AcDbEntity
  8
WAKU
100
AcDbLine
 10
551.3090120415345
 20
41.99999929129922
 30
0.0
 11
551.3090120415345
 21
21.99999929129945
 31
0.0
  0
LINE
  5
3CF
330
1F
100
AcDbEntity
  8
WAKU
  6
DASHED2
 48
0.5
100
AcDbLine
 10
701.3090120415345
 20
31.99999929129922
 30
0.0
 11
809.9999997112918
 21
31.99999929129922
 31
0.0
  0
MTEXT
  5
3D0
330
1F
100
AcDbEntity
  8
WAKU
100
AcDbMText
 10
693.1276299040637
 20
39.72724776496057
 30
0.0
 40
5.0
 41
10.0
 46
0.0
 71
     1
 72
     5
  1
特記
  7
WAKU
 73
     1
 44
1.0
  0
LINE
  5
3D1
330
1F
100
AcDbEntity
  8
WAKU
100
AcDbLine
 10
701.3090120415345
 20
41.99999929129922
 30
0.0
 11
701.3090120415345
 21
21.99999929129945
 31
0.0
  0
LINE
  5
3D2
330
1F
100
AcDbEntity
  8
WAKU
100
AcDbLine
 10
691.3090120415345
 20
41.99999929129922
 30
0.0
 11
691.3090120415345
 21
21.99999929129945
 31
0.0
  0
MTEXT
  5
3D3
330
1F
100
AcDbEntity
  8
WAKU
100
AcDbMText
 10
635.6335526105395
 20
35.21985575918302
 30
0.0
 40
5.0
 41
190.5002997985425
 46
0.0
 71
     1
 72
     5
  1
wrp007-07-03
  7
WAKU
 73
     1
 44
1.0
  0
LINE
  5
3D4
330
1F
100
AcDbEntity
  8
WAKU
100
AcDbLine
 10
611.3090120415344
 20
41.99999929129922
 30
0.0
 11
611.3090120415344
 21
21.99999929129945
 31
0.0
  0
LINE
  5
3D5
330
1F
100
AcDbEntity
  8
WAKU
100
AcDbLine
 10
621.3090120415345
 20
41.99999929129922
 30
0.0
 11
621.3090120415345
 21
21.99999929129945
 31
0.0
  0
MTEXT
  5
3D6
330
1F
100
AcDbEntity
  8
WAKU
100
AcDbMText
 10
613.1276299040637
 20
39.72724776496057
 30
0.0
 40
5.0
 41
10.0
 46
0.0
 71
     1
 72
     5
  1
図番
  7
WAKU
 73
     1
 44
1.0
  0
MTEXT
  5
3D7
330
1F
100
AcDbEntity
  8
WAKU
100
AcDbMText
 10
570.6335526105394
 20
35.21985575918302
 30
0.0
 40
5.0
 41
190.5002997985425
 46
0.0
 71
     1
 72
     5
  1
1/2（A3）
  7
WAKU
 73
     1
 44
1.0
  0
LINE
  5
3D8
330
1F
100
AcDbEntity
  8
WAKU
100
AcDbLine
 10
809.9999997112918
 20
21.99999929129945
 30
0.0
 11
809.9999997112918
 21
571.9999992912992
 31
0.0
  0
LINE
  5
3D9
330
1F
100
AcDbEntity
  8
WAKU
100
AcDbLine
 10
809.9999997112918
 20
571.9999992912992
 30
0.0
 11
29.99999971129182
 21
571.9999992912992
 31
0.0
  0
MTEXT
  5
523
330
1F
100
AcDbEntity
  8
WAKU
100
AcDbMText
 10
293.7861823457974
 20
39.85062828628925
 30
0.0
 40
5.0
 41
202.3305186377118
 46
19.99999999999977
 71
     1
 72
     5
  1
アイジールーフ　スーパーガルテクト　改修(合板下地工法(カバー))\P流れと平行な壁03{\W0.8;（\W0.75;改修用壁押えD(Ⅱ)、改修用壁押えカバー、L型捨板、段付面戸D）}
  7
WAKU
 73
     1
 44
1.0
1001
ACAD
1000
ACAD_MTEXT_DEFINED_HEIGHT_BEGIN
1070
    46
1040
19.99999999999977
1000
ACAD_MTEXT_DEFINED_HEIGHT_END
  0
LWPOLYLINE
  5
547
330
1F
100
AcDbEntity
  8
AM_CL
100
AcDbPolyline
 90
        4
 70
     1
 43
0.0
 10
-0.0000002887081791
 20
-0.0000007087007816
 10
839.9999997112917
 20
-0.0000007087007816
 10
839.9999997112917
 20
593.9999992912992
 10
-0.0000002887081791
 20
593.9999992912992
  0
LINE
  5
F43
330
1F
100
AcDbEntity
  8
0
100
AcDbLine
 10
220.3704610694256
 20
552.2960069765134
 30
0.0
 11
220.3704610694258
 21
66.78076913259554
 31
0.0
  0
LINE
  5
F44
330
1F
100
AcDbEntity
  8
0
100
AcDbLine
 10
255.8828251220664
 20
552.2960069765134
 30
0.0
 11
255.8828251220666
 21
404.3109367783048
 31
0.0
  0
LINE
  5
F45
330
1F
100
AcDbEntity
  8
0
100
AcDbLine
 10
225.8828251219033
 20
552.2960069765134
 30
0.0
 11
225.8828251218956
 21
404.3109367783048
 31
0.0
  0
LINE
  5
F46
330
1F
100
AcDbEntity
  8
0
 62
     4
100
AcDbLine
 10
223.8322973596851
 20
445.1271236936267
 30
0.0
 11
223.8322973596851
 21
449.1271236936521
 31
0.0
  0
LINE
  5
F47
330
1F
100
AcDbEntity
  8
0
 62
     4
100
AcDbLine
 10
224.1822973596854
 20
445.1271236936267
 30
0.0
 11
223.8322973596851
 21
445.1271236936267
 31
0.0
  0
LINE
  5
F48
330
1F
100
AcDbEntity
  8
0
 62
     4
100
AcDbLine
 10
222.1822973596791
 20
321.1697669153954
 30
0.0
 11
222.1822973596791
 21
449.1271236936521
 31
0.0
  0
LINE
  5
F49
330
1F
100
AcDbEntity
  8
0
100
AcDbLine
 10
655.0816888019398
 20
196.9646264168199
 30
0.0
 11
220.3704610694258
 21
196.9646264168217
 31
0.0
  0
LINE
  5
F4A
330
1F
100
AcDbEntity
  8
0
100
AcDbLine
 10
655.0816888019398
 20
193.9646264168017
 30
0.0
 11
220.3704610694258
 21
193.9646264168035
 31
0.0
  0
LINE
  5
F4B
330
1F
100
AcDbEntity
  8
0
100
AcDbLine
 10
265.370461069695
 20
193.9646264168035
 30
0.0
 11
220.3704610694258
 21
133.9646264164379
 31
0.0
  0
LINE
  5
F4C
330
1F
100
AcDbEntity
  8
0
100
AcDbLine
 10
220.3704610694258
 20
133.9646264164379
 30
0.0
 11
265.370461069695
 21
133.9646264164379
 31
0.0
  0
LINE
  5
F4D
330
1F
100
AcDbEntity
  8
0
  6
DASHED
 62
     1
 48
0.2
100
AcDbLine
 10
224.3822951631255
 20
221.8083764169718
 30
0.0
 11
655.0816888019398
 21
221.8083764169718
 31
0.0
  0
ARC
  5
F4E
330
1F
100
AcDbEntity
  8
0
  6
DASHED
 62
     1
 48
0.2
100
AcDbCircle
 10
224.3822951631255
 20
222.8083764169718
 30
0.0
 40
1.0
100
AcDbArc
 50
180.0
 51
270.0
  0
LINE
  5
F4F
330
1F
100
AcDbEntity
  8
0
100
AcDbLine
 10
655.0816888019398
 20
240.4396257151842
 30
0.0
 11
325.5412344682654
 21
240.4396257151879
 31
0.0
  0
LINE
  5
F50
330
1F
100
AcDbEntity
  8
0
100
AcDbLine
 10
655.0816888019398
 20
240.0896257151857
 30
0.0
 11
325.5412344682654
 21
240.0896257151857
 31
0.0
  0
LINE
  5
F51
330
1F
100
AcDbEntity
  8
0
100
AcDbLine
 10
249.991234467826
 20
263.0896264172192
 30
0.0
 11
249.991234467826
 21
223.0896264169736
 31
0.0
  0
LINE
  5
F52
330
1F
100
AcDbEntity
  8
0
  6
DASHED
 62
     1
 48
0.2
100
AcDbLine
 10
224.3822951631428
 20
290.4121993644079
 30
0.0
 11
224.3822951631428
 21
263.4207658770541
 31
0.0
  0
LINE
  5
F53
330
1F
100
AcDbEntity
  8
0
  6
DASHED
 62
     1
 48
0.2
100
AcDbLine
 10
223.3822951631255
 20
290.4121993644079
 30
0.0
 11
223.3822951631255
 21
222.8083764169718
 31
0.0
  0
LINE
  5
F54
330
1F
100
AcDbEntity
  8
0
  6
DASHED
 62
     1
 48
0.2
100
AcDbLine
 10
221.3392110694185
 20
552.2960069765136
 30
0.0
 11
221.3392110694185
 21
207.2458764168799
 31
0.0
  0
LINE
  5
F55
330
1F
100
AcDbEntity
  8
0
 62
     8
100
AcDbLine
 10
222.8822951631228
 20
315.9501853971709
 30
0.0
 11
223.8822951631391
 21
315.9501853971709
 31
0.0
  0
LINE
  5
F56
330
1F
100
AcDbEntity
  8
0
 62
     8
100
AcDbLine
 10
223.8822951631391
 20
315.9501853971709
 30
0.0
 11
223.8822951631391
 21
294.4832671762964
 31
0.0
  0
HATCH
  5
F57
330
1F
100
AcDbEntity
  8
0
 62
     8
100
AcDbHatch
 10
0.0
 20
0.0
 30
0.0
210
0.0
220
0.0
230
1.0
  2
ANSI31
 70
     0
 71
     0
 91
        1
 92
        7
 72
     1
 73
     1
 93
       12
 10
222.8822951631337
 20
294.4832671762928
 42
0.1989123673796687
 10
223.7609748195719
 20
292.3619468327201
 42
0.0
 10
224.2965087255161
 20
291.8264129267885
 42
-0.1989123673796199
 10
224.8822951631446
 20
290.4121993644079
 42
0.0
 10
224.8822951631446
 20
265.9501853968744
 42
0.0
 10
225.8822951631501
 20
265.9501853968744
 42
0.0
 10
225.8822951631501
 20
290.4121993644079
 42
0.1989123673795235
 10
225.003615506701
 20
292.533519707977
 42
0.0
 10
224.4680816007685
 20
293.0690536139122
 42
-0.1989123673796509
 10
223.8822951631391
 20
294.4832671762928
 42
0.0
 10
223.8822951631391
 20
315.9501853971709
 42
0.0
 10
222.8822951631337
 20
315.9501853971709
 42
0.0
 97
        0
 75
     0
 76
     1
 52
0.0
 41
0.500000000002965
 77
     0
 78
     1
 53
44.99999999999999
 43
-1867.918459951727
 44
-667.5887890136324
 45
-1.1225320151403
 46
1.1225320151403
 79
     0
 47
0.0739230489997991
 98
        1
 10
223.3794770237382
 20
297.9328145049516
  0
ARC
  5
F58
330
1F
100
AcDbEntity
  8
0
 62
     8
100
AcDbCircle
 10
225.8822951631501
 20
294.4832671762928
 30
0.0
 40
3.00000000001779
100
AcDbArc
 50
180.0
 51
224.9999999999723
  0
ARC
  5
F59
330
1F
100
AcDbEntity
  8
0
 62
     4
100
AcDbCircle
 10
223.1822973596854
 20
449.1271236936521
 30
0.0
 40
0.650000000003953
100
AcDbArc
 50
0.0
 51
180.0
  0
ARC
  5
F5A
330
1F
100
AcDbEntity
  8
0
 62
     4
100
AcDbCircle
 10
223.1822973596854
 20
449.1271236936521
 30
0.0
 40
1.000000000006081
100
AcDbArc
 50
0.0
 51
180.0
  0
LINE
  5
F5B
330
1F
100
AcDbEntity
  8
0
 62
     8
100
AcDbLine
 10
224.2965087255043
 20
291.8264129267885
 30
0.0
 11
223.7609748195719
 21
292.3619468327201
 31
0.0
  0
LINE
  5
F5C
330
1F
100
AcDbEntity
  8
0
 62
     8
100
AcDbLine
 10
224.8822951631446
 20
290.4121993644079
 30
0.0
 11
224.8822951631446
 21
265.9501853968744
 31
0.0
  0
LINE
  5
F5D
330
1F
100
AcDbEntity
  8
0
 62
     8
100
AcDbLine
 10
224.8822951631446
 20
265.9501853968744
 30
0.0
 11
225.8822951631501
 21
265.9501853968744
 31
0.0
  0
LINE
  5
F5E
330
1F
100
AcDbEntity
  8
0
 62
     4
100
AcDbLine
 10
224.1822973596854
 20
445.1271236936267
 30
0.0
 11
224.1822973596854
 21
449.1271236936521
 31
0.0
  0
LINE
  5
F5F
330
1F
100
AcDbEntity
  8
0
 62
     4
100
AcDbLine
 10
222.5322973596849
 20
321.1697669153954
 30
0.0
 11
222.5322973596849
 21
449.1271236936521
 31
0.0
  0
ARC
  5
F60
330
1F
100
AcDbEntity
  8
0
 62
     4
100
AcDbCircle
 10
323.5162344682494
 20
252.9146264171544
 30
0.0
 40
0.5250000000032041
100
AcDbArc
 50
0.0
 51
180.0
  0
ARC
  5
F61
330
1F
100
AcDbEntity
  8
0
 62
     4
100
AcDbCircle
 10
323.5162344682494
 20
252.9146264171544
 30
0.0
 40
0.1750000000012196
100
AcDbArc
 50
0.0
 51
180.0
  0
LINE
  5
F62
330
1F
100
AcDbEntity
  8
0
 62
     4
100
AcDbLine
 10
322.9912344682534
 20
252.9146264171544
 30
0.0
 11
322.9912344682534
 21
223.9396264169849
 31
0.0
  0
LINE
  5
F63
330
1F
100
AcDbEntity
  8
0
100
AcDbLine
 10
655.0816888019398
 20
224.4396257151869
 30
0.0
 11
430.2508631253677
 21
224.4396257151869
 31
0.0
  0
LINE
  5
F64
330
1F
100
AcDbEntity
  8
0
  6
DASHED
 62
     1
 48
0.2
100
AcDbLine
 10
655.0816888019398
 20
207.2458764168799
 30
0.0
 11
221.3392110694358
 21
207.2458764168799
 31
0.0
  0
LINE
  5
F65
330
1F
100
AcDbEntity
  8
0
100
AcDbLine
 10
655.0816888019398
 20
205.9646264168717
 30
0.0
 11
220.3704610694258
 21
205.9646264168781
 31
0.0
  0
LINE
  5
F66
330
1F
100
AcDbEntity
  8
0
100
AcDbLine
 10
655.0816888019398
 20
202.9646264168563
 30
0.0
 11
220.3704610694258
 21
202.9646264168599
 31
0.0
  0
LINE
  5
F67
330
1F
100
AcDbEntity
  8
0
100
AcDbLine
 10
655.0816888019398
 20
199.9646264168344
 30
0.0
 11
220.3704610694258
 21
199.9646264168344
 31
0.0
  0
LINE
  5
F68
330
1F
100
AcDbEntity
  8
0
  6
DASHED
 62
     1
 48
0.2
100
AcDbLine
 10
324.8912344682658
 20
254.4977103694768
 30
0.0
 11
324.8912344682658
 21
241.589625715193
 31
0.0
  0
LINE
  5
F69
330
1F
100
AcDbEntity
  8
0
100
AcDbLine
 10
324.3912344682631
 20
250.439625715246
 30
0.0
 11
324.3912344682631
 21
241.589625715193
 31
0.0
  0
LINE
  5
F6A
330
1F
100
AcDbEntity
  8
0
  6
DASHED
 62
     1
 48
0.2
100
AcDbLine
 10
324.8912344682658
 20
254.4977103694768
 30
0.0
 11
323.4912344682562
 21
256.2671581737326
 31
0.0
  0
LINE
  5
F6B
330
1F
100
AcDbEntity
  8
0
100
AcDbLine
 10
265.370461069695
 20
133.9646264164379
 30
0.0
 11
265.370461069695
 21
193.9646264168035
 31
0.0
  0
LINE
  5
F6C
330
1F
100
AcDbEntity
  8
0
  6
DASHED
 62
     1
 48
0.2
100
AcDbLine
 10
323.4912344682562
 20
263.4207658770541
 30
0.0
 11
323.4912344682562
 21
256.2671581737326
 31
0.0
  0
LINE
  5
F6D
330
1F
100
AcDbEntity
  8
0
100
AcDbLine
 10
321.9912344682534
 20
263.0896264172192
 30
0.0
 11
321.9912344682534
 21
223.0896264169736
 31
0.0
  0
ARC
  5
F6E
330
1F
100
AcDbEntity
  8
0
 62
     8
100
AcDbCircle
 10
222.8822951631228
 20
290.4121993644079
 30
0.0
 40
2.000000000011859
100
AcDbArc
 50
0.0
 51
44.99999999997232
  0
ARC
  5
F6F
330
1F
100
AcDbEntity
  8
0
 62
     8
100
AcDbCircle
 10
222.8822951631228
 20
290.4121993644079
 30
0.0
 40
3.00000000001779
100
AcDbArc
 50
0.0
 51
44.99999999997232
  0
ARC
  5
F70
330
1F
100
AcDbEntity
  8
0
 62
     8
100
AcDbCircle
 10
225.8822951631501
 20
294.4832671762964
 30
0.0
 40
2.000000000011859
100
AcDbArc
 50
180.0
 51
224.9999999999723
  0
LINE
  5
F71
330
1F
100
AcDbEntity
  8
0
 62
     8
100
AcDbLine
 10
225.003615506701
 20
292.5335197079807
 30
0.0
 11
224.4680816007685
 21
293.0690536139158
 31
0.0
  0
LINE
  5
F72
330
1F
100
AcDbEntity
  8
0
 62
     4
100
AcDbLine
 10
323.3412344682583
 20
252.9146264171544
 30
0.0
 11
323.3412344682583
 21
223.9396264169849
 31
0.0
  0
LINE
  5
F73
330
1F
100
AcDbEntity
  8
0
 62
     4
100
AcDbLine
 10
324.0412344682572
 20
252.9146264171544
 30
0.0
 11
324.0412344682572
 21
245.4396264171086
 31
0.0
  0
ARC
  5
F74
330
1F
100
AcDbEntity
  8
0
 62
     4
100
AcDbCircle
 10
323.8412344682583
 20
223.9396264169849
 30
0.0
 40
0.8500000000050404
100
AcDbArc
 50
180.0
 51
270.0
  0
LINE
  5
F75
330
1F
100
AcDbEntity
  8
0
 62
     4
100
AcDbLine
 10
323.6912344682523
 20
252.9146264171544
 30
0.0
 11
323.6912344682523
 21
245.4396264171086
 31
0.0
  0
ARC
  5
F76
330
1F
100
AcDbEntity
  8
0
 62
     4
100
AcDbCircle
 10
323.8412344682583
 20
223.9396264169849
 30
0.0
 40
0.500000000002965
100
AcDbArc
 50
180.0
 51
270.0
  0
LINE
  5
F77
330
1F
100
AcDbEntity
  8
0
 62
     4
100
AcDbLine
 10
323.6912344682523
 20
245.4396264171086
 30
0.0
 11
324.0412344682572
 21
245.4396264171086
 31
0.0
  0
LINE
  5
F78
330
1F
100
AcDbEntity
  8
0
 62
     4
100
AcDbLine
 10
323.8412344682583
 20
223.4396264169776
 30
0.0
 11
405.5201975163964
 21
223.4396264169776
 31
0.0
  0
ARC
  5
F79
330
1F
100
AcDbEntity
  8
0
 62
     4
100
AcDbCircle
 10
405.5201975163964
 20
223.9396264169812
 30
0.0
 40
0.500000000002965
100
AcDbArc
 50
270.0
 51
60.00000000000029
  0
ARC
  5
F7A
330
1F
100
AcDbEntity
  8
0
 62
     4
100
AcDbCircle
 10
405.5201975163964
 20
223.9396264169812
 30
0.0
 40
0.8500000000050404
100
AcDbArc
 50
270.0
 51
60.00000000000029
  0
LINE
  5
F7B
330
1F
100
AcDbEntity
  8
0
 62
     6
100
AcDbLine
 10
398.512598190553
 20
229.6896167697854
 30
0.0
 11
409.1870660034974
 21
223.5267099045217
 31
0.0
  0
LINE
  5
F7C
330
1F
100
AcDbEntity
  8
0
 62
     4
100
AcDbLine
 10
398.0210642114998
 20
229.2507472550609
 30
0.0
 11
405.9451975164002
 21
224.6757474169866
 31
0.0
  0
LINE
  5
F7D
330
1F
100
AcDbEntity
  8
0
 62
     4
100
AcDbLine
 10
397.8460642114915
 20
228.9476382550605
 30
0.0
 11
405.7701975163972
 21
224.3726384169826
 31
0.0
  0
LINE
  5
F7E
330
1F
100
AcDbEntity
  8
0
 62
     4
100
AcDbLine
 10
398.0210642114998
 20
229.2507472550609
 30
0.0
 11
397.8460640721287
 21
228.9476380136624
 31
0.0
  0
LINE
  5
F7F
330
1F
100
AcDbEntity
  8
0
 62
     6
100
AcDbLine
 10
398.3375981905447
 20
229.3865078784587
 30
0.0
 11
409.012066003489
 21
223.2236010131968
 31
0.0
  0
ARC
  5
F80
330
1F
100
AcDbEntity
  8
0
 62
     6
100
AcDbCircle
 10
398.1160680165185
 20
229.0028063616286
 30
0.0
 40
0.7930603480608978
100
AcDbArc
 50
60.00000000000029
 51
240.0000000000003
  0
ARC
  5
F81
330
1F
100
AcDbEntity
  8
0
 62
     6
100
AcDbCircle
 10
398.1160680400344
 20
229.0028064023831
 30
0.0
 40
0.443060301001471
100
AcDbArc
 50
60.00000000000029
 51
240.0000000000003
  0
ARC
  5
F82
330
1F
100
AcDbEntity
  8
0
 62
     6
100
AcDbCircle
 10
409.5120660034917
 20
224.0896264169827
 30
0.0
 40
0.6500000000038544
100
AcDbArc
 50
240.0000000000003
 51
270.0
  0
ARC
  5
F83
330
1F
100
AcDbEntity
  8
0
 62
     6
100
AcDbCircle
 10
409.5120660034917
 20
224.0896264169827
 30
0.0
 40
1.000000000005929
100
AcDbArc
 50
240.0000000000003
 51
270.0
  0
LINE
  5
F84
330
1F
100
AcDbEntity
  8
0
 62
     6
100
AcDbLine
 10
403.4136551905722
 20
225.0284957697553
 30
0.0
 11
397.719537842484
 21
228.3159959534754
 31
0.0
  0
LINE
  5
F85
330
1F
100
AcDbEntity
  8
0
 62
     6
100
AcDbLine
 10
403.588655190575
 20
225.3316047697611
 30
0.0
 11
397.8945378895414
 21
228.6191049263074
 31
0.0
  0
LINE
  5
F86
330
1F
100
AcDbEntity
  8
0
 62
     6
100
AcDbLine
 10
429.5108811891259
 20
223.4396264169812
 30
0.0
 11
409.5120660034917
 21
223.4396264169812
 31
0.0
  0
LINE
  5
F87
330
1F
100
AcDbEntity
  8
0
 62
     6
100
AcDbLine
 10
403.4136551905722
 20
225.0284957697553
 30
0.0
 11
403.588655190575
 21
225.3316047697611
 31
0.0
  0
LINE
  5
F88
330
1F
100
AcDbEntity
  8
0
 62
     6
100
AcDbLine
 10
409.5120660034917
 20
223.089626416979
 30
0.0
 11
429.5108811891259
 21
223.089626416979
 31
0.0
  0
LINE
  5
F89
330
1F
100
AcDbEntity
  8
0
 62
     4
100
AcDbLine
 10
323.8412344682583
 20
223.089626416979
 30
0.0
 11
405.5201975163964
 21
223.089626416979
 31
0.0
  0
LINE
  5
F8A
330
1F
100
AcDbEntity
  8
0
 62
     6
100
AcDbLine
 10
429.5108811891259
 20
223.089626416979
 30
0.0
 11
429.5108811891259
 21
223.4396257150878
 31
0.0
  0
LINE
  5
F8B
330
1F
100
AcDbEntity
  8
0
100
AcDbLine
 10
321.9912344682534
 20
223.0896264169736
 30
0.0
 11
249.991234467826
 21
223.0896264169736
 31
0.0
  0
LINE
  5
F8C
330
1F
100
AcDbEntity
  8
0
100
AcDbLine
 10
321.9912344682534
 20
263.0896264172192
 30
0.0
 11
249.991234467826
 21
263.0896264172192
 31
0.0
  0
LINE
  5
F8D
330
1F
100
AcDbEntity
  8
0
100
AcDbLine
 10
324.0412344682572
 20
241.589625715193
 30
0.0
 11
324.0412344682572
 21
250.439625715246
 31
0.0
  0
ARC
  5
F8E
330
1F
100
AcDbEntity
  8
0
100
AcDbCircle
 10
325.5412344682654
 20
241.589625715193
 30
0.0
 40
1.500000000008895
100
AcDbArc
 50
180.0
 51
270.0
  0
LINE
  5
F8F
330
1F
100
AcDbEntity
  8
0
100
AcDbLine
 10
324.3912344682631
 20
250.439625715246
 30
0.0
 11
324.0412344682572
 21
250.439625715246
 31
0.0
  0
ARC
  5
F90
330
1F
100
AcDbEntity
  8
0
100
AcDbCircle
 10
325.5412344682654
 20
241.589625715193
 30
0.0
 40
1.150000000006819
100
AcDbArc
 50
180.0
 51
270.0
  0
LINE
  5
F91
330
1F
100
AcDbEntity
  8
0
100
AcDbLine
 10
430.2508631253677
 20
240.089625013294
 30
0.0
 11
430.2508631253677
 21
224.4396257151869
 31
0.0
  0
LINE
  5
F92
330
1F
100
AcDbEntity
  8
0
 62
     3
100
AcDbLine
 10
227.0559433408125
 20
334.116861193423
 30
0.0
 11
235.2694238477188
 21
332.6686029745328
 31
0.0
  0
ARC
  5
F93
330
1F
100
AcDbEntity
  8
0
 62
     3
100
AcDbCircle
 10
226.8822951631437
 20
264.9166684051309
 30
0.0
 40
0.6500000000038544
100
AcDbArc
 50
180.0
 51
263.5632394730901
  0
ARC
  5
F94
330
1F
100
AcDbEntity
  8
0
 62
     3
100
AcDbCircle
 10
350.4357401590632
 20
243.3038397854801
 30
0.0
 40
0.6500000000038544
100
AcDbArc
 50
285.0000000004261
 51
90.00000000031267
  0
LINE
  5
F95
330
1F
100
AcDbEntity
  8
0
 62
     3
100
AcDbLine
 10
226.9951664786295
 20
333.7721784798636
 30
0.0
 11
235.2086469855312
 21
332.3239202609769
 31
0.0
  0
LINE
  5
F96
330
1F
100
AcDbEntity
  8
0
 62
     3
100
AcDbLine
 10
227.3822951631464
 20
334.0592927926758
 30
0.0
 11
235.3761163701019
 21
334.0592927926758
 31
0.0
  0
LINE
  5
F97
330
1F
100
AcDbEntity
  8
0
 62
     3
100
AcDbLine
 10
226.232295163144
 20
333.1320534404025
 30
0.0
 11
226.232295163144
 21
264.9166684051309
 31
0.0
  0
ARC
  5
F98
330
1F
100
AcDbEntity
  8
0
 62
     3
100
AcDbCircle
 10
235.3414473369667
 20
333.3628109559435
 30
0.0
 40
0.6973441695183923
100
AcDbArc
 50
262.7154439325902
 51
87.66948533018645
  0
ARC
  5
F99
330
1F
100
AcDbEntity
  8
0
 62
     3
100
AcDbCircle
 10
235.3414473369667
 20
333.3628109559435
 30
0.0
 40
1.047344169520467
100
AcDbArc
 50
257.2845560674685
 51
87.66948533018645
  0
LINE
  5
F9A
330
1F
100
AcDbEntity
  8
0
 62
     3
100
AcDbLine
 10
226.809425936206
 20
264.2707658770563
 30
0.0
 11
325.5073794972059
 21
264.2707658770563
 31
0.0
  0
LINE
  5
F9B
330
1F
100
AcDbEntity
  8
0
 62
     3
100
AcDbLine
 10
227.3822951631464
 20
334.4092888461076
 30
0.0
 11
227.3822951631464
 21
334.0592927926758
 31
0.0
  0
LINE
  5
F9C
330
1F
100
AcDbEntity
  8
0
 62
     3
100
AcDbLine
 10
225.8822951631391
 20
333.1320534404025
 30
0.0
 11
225.8822951631501
 21
264.9166684051255
 31
0.0
  0
LINE
  5
F9D
330
1F
100
AcDbEntity
  8
0
 62
     3
100
AcDbLine
 10
227.3822951631464
 20
334.4092888461076
 30
0.0
 11
235.384036476662
 21
334.4092888461076
 31
0.0
  0
ARC
  5
F9E
330
1F
100
AcDbEntity
  8
0
 62
     3
100
AcDbCircle
 10
226.8822951631437
 20
333.1320534404025
 30
0.0
 40
0.6500000000038544
100
AcDbArc
 50
79.99999999983611
 51
180.0
  0
ARC
  5
F9F
330
1F
100
AcDbEntity
  8
0
 62
     3
100
AcDbCircle
 10
226.8822951631437
 20
264.9166684051255
 30
0.0
 40
1.000000000005929
100
AcDbArc
 50
180.0
 51
264.811473634958
  0
LINE
  5
FA0
330
1F
100
AcDbEntity
  8
0
 62
     3
100
AcDbLine
 10
226.7918620133078
 20
263.9207658770559
 30
0.0
 11
325.5073794972004
 21
263.9207658770523
 31
0.0
  0
ARC
  5
FA1
330
1F
100
AcDbEntity
  8
0
 62
     3
100
AcDbCircle
 10
226.8822951631437
 20
333.1320534404025
 30
0.0
 40
1.000000000005929
100
AcDbArc
 50
79.99999999983611
 51
180.0
  0
LINE
  5
FA2
330
1F
100
AcDbEntity
  8
0
 62
     3
100
AcDbLine
 10
327.1573794970864
 20
243.9538397853433
 30
0.0
 11
350.4357401590578
 21
243.9538397854816
 31
0.0
  0
ARC
  5
FA3
330
1F
100
AcDbEntity
  8
0
 62
     3
100
AcDbCircle
 10
327.1573794970864
 20
244.9538397853506
 30
0.0
 40
1.000000000006136
100
AcDbArc
 50
179.9999999995831
 51
270.0000000003127
  0
LINE
  5
FA4
330
1F
100
AcDbEntity
  8
0
 62
     3
100
AcDbLine
 10
327.1573794970755
 20
244.3038397853456
 30
0.0
 11
350.4357401590523
 21
244.303839785482
 31
0.0
  0
ARC
  5
FA5
330
1F
100
AcDbEntity
  8
0
 62
     3
100
AcDbCircle
 10
327.1573794970691
 20
244.9538397853506
 30
0.0
 40
0.6500000000039891
100
AcDbArc
 50
179.9999999995831
 51
270.0000000003127
  0
HATCH
  5
FA6
330
1F
100
AcDbEntity
  8
0
 62
     8
 48
0.1
100
AcDbHatch
 10
0.0
 20
0.0
 30
0.0
210
0.0
220
0.0
230
1.0
  2
ANSI31
 70
     0
 71
     0
 91
        1
 92
        7
 72
     0
 73
     1
 93
        8
 10
344.3356776109222
 20
240.9964034346084
 10
347.1573794970927
 20
241.7524761763087
 10
347.1573794970927
 20
243.9538397853433
 10
327.1573794970927
 20
243.9538397853433
 10
327.1573794970927
 20
240.4396257151879
 10
347.1573794970927
 20
240.4396257151879
 10
347.1573794970927
 20
241.3901295131658
 10
344.4262642766933
 20
240.6583293954067
 97
        0
 75
     0
 76
     1
 52
315.0
 41
1.0
 77
     0
 78
     1
 53
0.0
 43
-535.6748289655588
 44
-2362.881758001083
 45
0.0000000000000011
 46
3.174999999999999
 79
     0
 47
0.0826895495006285
 98
        1
 10
338.5066133254113
 20
240.7595538775189
1001
GradientColor1ACI
1070
     5
1001
GradientColor2ACI
1070
     2
1001
ACAD
1010
0.0
1020
0.0
1030
0.0
  0
LINE
  5
FA7
330
1F
100
AcDbEntity
  8
0
 62
     3
100
AcDbLine
 10
350.6039725383789
 20
242.6759879983841
 30
0.0
 11
344.3356776109231
 21
240.9964034346089
 31
0.0
  0
LINE
  5
FA8
330
1F
100
AcDbEntity
  8
0
 62
     3
100
AcDbLine
 10
344.3356776109231
 20
240.9964034346052
 30
0.0
 11
344.4262642766953
 21
240.6583293953994
 31
0.0
  0
LINE
  5
FA9
330
1F
100
AcDbEntity
  8
0
 62
     3
100
AcDbLine
 10
350.6945592041684
 20
242.337913959182
 30
0.0
 11
344.4262642767071
 21
240.6583293954103
 31
0.0
  0
LINE
  5
FAA
330
1F
100
AcDbEntity
  8
0
 62
     3
100
AcDbLine
 10
326.5073794972114
 20
263.2707658770418
 30
0.0
 11
326.507379497064
 21
244.9538397853542
 31
0.0
  0
ARC
  5
FAB
330
1F
100
AcDbEntity
  8
0
 62
     3
100
AcDbCircle
 10
325.5073794972059
 20
263.270765877049
 30
0.0
 40
1.000000000006136
100
AcDbArc
 50
359.9999999995831
 51
90.0
  0
LINE
  5
FAC
330
1F
100
AcDbEntity
  8
0
 62
     3
100
AcDbLine
 10
326.1573794972064
 20
263.2707658770454
 30
0.0
 11
326.1573794970754
 21
244.9538397853579
 31
0.0
  0
ARC
  5
FAD
330
1F
100
AcDbEntity
  8
0
 62
     3
100
AcDbCircle
 10
325.5073794972004
 20
263.270765877049
 30
0.0
 40
0.6500000000039891
100
AcDbArc
 50
359.9999999995831
 51
90.0
  0
ARC
  5
FAE
330
1F
100
AcDbEntity
  8
0
 62
     3
100
AcDbCircle
 10
350.4357401590632
 20
243.3038397854765
 30
0.0
 40
1.000000000005929
100
AcDbArc
 50
285.0000000004261
 51
90.00000000041687
  0
LINE
  5
FAF
330
1F
100
AcDbEntity
  8
0
  6
DASHED
 62
     1
 48
0.2
100
AcDbLine
 10
224.3822951631364
 20
263.4207658770541
 30
0.0
 11
323.4912344682562
 21
263.4207658770541
 31
0.0
  0
LINE
  5
FB0
330
1F
100
AcDbEntity
  8
0
100
AcDbLine
 10
321.9912344682534
 20
263.0896264172192
 30
0.0
 11
249.991234467826
 21
223.0896264169736
 31
0.0
  0
TEXT
  5
FB1
330
1F
100
AcDbEntity
  8
文字
100
AcDbText
 10
437.6748432438198
 20
261.7540951258849
 30
0.0
 40
8.0
  1
（現場調達）
100
AcDbText
  0
TEXT
  5
FB2
330
1F
100
AcDbEntity
  8
文字
100
AcDbText
 10
443.6151833395014
 20
270.6203914636666
 30
0.0
 40
8.0
  1
吊り子
100
AcDbText
  0
LINE
  5
FB3
330
1F
100
AcDbEntity
  8
文字
100
AcDbLine
 10
405.8100740574673
 20
225.4764171136143
 30
0.0
 11
434.3703818865369
 21
274.944321353369
 31
0.0
  0
LINE
  5
FB4
330
1F
100
AcDbEntity
  8
文字
100
AcDbLine
 10
441.370381886537
 20
274.944321353369
 30
0.0
 11
434.3703818865369
 21
274.944321353369
 31
0.0
  0
LINE
  5
FB5
330
1F
100
AcDbEntity
  8
文字
100
AcDbLine
 10
408.2097582669432
 20
293.5377145041314
 30
0.0
 11
401.2097582669433
 21
293.5377145041314
 31
0.0
  0
LINE
  5
FB6
330
1F
100
AcDbEntity
  8
文字
100
AcDbLine
 10
360.8438844621724
 20
223.6219701823533
 30
0.0
 11
401.2097582669433
 21
293.5377145041314
 31
0.0
  0
TEXT
  5
FB7
330
1F
100
AcDbEntity
  8
文字
100
AcDbText
 10
410.4545597199078
 20
289.213784614429
 30
0.0
 40
8.0
  1
L型捨板
100
AcDbText
  0
TEXT
  5
FB8
330
1F
100
AcDbEntity
  8
文字
100
AcDbText
 10
383.9173565421478
 20
305.0181707256741
 30
0.0
 40
8.0
  1
段付面戸Ｄ
100
AcDbText
  0
LINE
  5
FB9
330
1F
100
AcDbEntity
  8
文字
100
AcDbLine
 10
335.8730380864736
 20
242.139365857552
 30
0.0
 11
374.6725550891833
 21
309.3421006153765
 31
0.0
  0
LINE
  5
FBA
330
1F
100
AcDbEntity
  8
文字
100
AcDbLine
 10
381.6725550891832
 20
309.3421006153765
 30
0.0
 11
374.6725550891832
 21
309.3421006153765
 31
0.0
  0
LINE
  5
FBB
330
1F
100
AcDbEntity
  8
文字
100
AcDbLine
 10
295.6811090237159
 20
341.6523074095211
 30
0.0
 11
288.6811090237159
 21
341.6523074095211
 31
0.0
  0
LINE
  5
FBC
330
1F
100
AcDbEntity
  8
文字
100
AcDbLine
 10
288.6811090237154
 20
341.6523074095211
 30
0.0
 11
244.0048551896361
 21
264.2707658770563
 31
0.0
  0
TEXT
  5
FBD
330
1F
100
AcDbEntity
  8
文字
100
AcDbText
 10
296.6759426385281
 20
337.6329364413426
 30
0.0
 40
8.0
  1
改修用壁押えD（Ⅱ）
100
AcDbText
  0
TEXT
  5
FBE
330
1F
100
AcDbEntity
  8
文字
100
AcDbText
 10
536.1725193477825
 20
284.0848624764593
 30
0.0
 40
8.0
  1
本体
100
AcDbText
  0
TEXT
  5
FBF
330
1F
100
AcDbEntity
  8
文字
100
AcDbText
 10
281.8288792241649
 20
107.7743652693911
 30
0.0
 40
8.0
  1
たる木
 72
     2
 11
308.4955458908317
 21
107.7743652693911
 31
0.0
100
AcDbText
  0
LINE
  5
FC0
330
1F
100
AcDbEntity
  8
文字
100
AcDbLine
 10
527.6132732523103
 20
287.8003581826551
 30
0.0
 11
494.3736927371182
 21
230.227715908068
 31
0.0
  0
LINE
  5
FC1
330
1F
100
AcDbEntity
  8
文字
100
AcDbLine
 10
556.2178037011631
 20
273.7740567590239
 30
0.0
 11
526.2154041670562
 21
221.8083764169718
 31
0.0
  0
TEXT
  5
FC2
330
1F
100
AcDbEntity
  8
文字
100
AcDbText
 10
422.4342181618156
 20
146.4942519379177
 30
0.0
 40
8.0
  1
既存下葺き材
100
AcDbText
  0
TEXT
  5
FC3
330
1F
100
AcDbEntity
  8
文字
100
AcDbText
 10
563.4343358345772
 20
269.8513565825464
 30
0.0
 40
8.0
  1
下葺き材
100
AcDbText
  0
LINE
  5
FC4
330
1F
100
AcDbEntity
  8
文字
100
AcDbLine
 10
412.2097321490807
 20
150.4525981497948
 30
0.0
 11
379.4201176534168
 21
207.2458764168799
 31
0.0
  0
TEXT
  5
FC5
330
1F
100
AcDbEntity
  8
文字
100
AcDbText
 10
407.6584901074202
 20
116.1662321843308
 30
0.0
 40
8.0
  1
野地板
100
AcDbText
  0
LINE
  5
FC6
330
1F
100
AcDbEntity
  8
文字
100
AcDbLine
 10
398.0522128600478
 20
120.2848891145407
 30
0.0
 11
352.3646675575601
 21
199.4180388515527
 31
0.0
  0
LINE
  5
FC7
330
1F
100
AcDbEntity
  8
文字
100
AcDbLine
 10
534.6132732523103
 20
287.8003581826551
 30
0.0
 11
527.6132732523103
 21
287.8003581826551
 31
0.0
  0
LINE
  5
FC8
330
1F
100
AcDbEntity
  8
文字
100
AcDbLine
 10
563.2178037011631
 20
273.7740567590239
 30
0.0
 11
556.2178037011631
 21
273.7740567590239
 31
0.0
  0
LINE
  5
FC9
330
1F
100
AcDbEntity
  8
文字
100
AcDbLine
 10
419.2097321490816
 20
150.4525981497948
 30
0.0
 11
412.2097321490817
 21
150.4525981497948
 31
0.0
  0
LINE
  5
FCA
330
1F
100
AcDbEntity
  8
文字
100
AcDbLine
 10
405.0522128600477
 20
120.2848891145408
 30
0.0
 11
398.0522128600478
 21
120.2848891145408
 31
0.0
  0
LINE
  5
FCB
330
1F
100
AcDbEntity
  8
文字
100
AcDbLine
 10
276.6232058385813
 20
111.3984226846672
 30
0.0
 11
269.6232058385813
 21
111.3984226846672
 31
0.0
  0
LINE
  5
FCC
330
1F
100
AcDbEntity
  8
文字
100
AcDbLine
 10
269.6232058385813
 20
111.3984226846672
 30
0.0
 11
246.7794331873374
 21
150.9649975531732
 31
0.0
  0
LINE
  5
FCD
330
1F
100
AcDbEntity
  8
文字
100
AcDbLine
 10
270.5999457838861
 20
509.4408090201153
 30
0.0
 11
239.6043222052267
 21
455.7548141695953
 31
0.0
  0
LINE
  5
FCE
330
1F
100
AcDbEntity
  8
文字
100
AcDbLine
 10
277.599945783887
 20
509.4408090201153
 30
0.0
 11
270.5999457838861
 21
509.4408090201153
 31
0.0
  0
TEXT
  5
FCF
330
1F
100
AcDbEntity
  8
文字
100
AcDbText
 10
279.9394996527604
 20
504.6880315190886
 30
0.0
 40
8.0
  1
既存外壁材
 72
     2
 11
325.8061663194271
 21
504.6880315190886
 31
0.0
100
AcDbText
  0
LINE
  5
FD0
330
1F
100
AcDbEntity
  8
文字
100
AcDbLine
 10
330.3884108987338
 20
319.4382684983711
 30
0.0
 11
323.3884108987338
 21
319.4382684983711
 31
0.0
  0
LINE
  5
FD1
330
1F
100
AcDbEntity
  8
文字
100
AcDbLine
 10
323.3884108987348
 20
319.4382684983711
 30
0.0
 11
278.8101171761454
 21
242.2263988561188
 31
0.0
  0
TEXT
  5
FD2
330
1F
100
AcDbEntity
  8
文字
100
AcDbText
 10
332.2165674996465
 20
315.9000167805397
 30
0.0
 40
8.0
  1
受木
100
AcDbText
  0
LINE
  5
FD3
330
1F
100
AcDbEntity
  8
0
100
AcDbLine
 10
222.8822973596907
 20
347.2921383390215
 30
0.0
 11
255.8828251220666
 21
392.2921383390216
 31
0.0
  0
LINE
  5
FEE
330
1F
100
AcDbEntity
  8
0
 62
     9
100
AcDbLine
 10
267.0430335459032
 20
426.6091027981795
 30
0.0
 11
255.8828251220666
 21
426.6091027981795
 31
0.0
  0
LWPOLYLINE
  5
FEF
330
1F
100
AcDbEntity
  8
0
 48
0.1
100
AcDbPolyline
 90
        4
 70
     1
 43
0.0
 10
222.8822973596907
 20
392.2921383390216
 10
255.8828251220666
 20
392.2921383390216
 10
255.8828251220666
 20
347.2921383390252
 10
222.8822973596907
 20
347.2921383390252
  0
LINE
  5
FF0
330
1F
100
AcDbEntity
  8
0
 62
     8
100
AcDbLine
 10
222.8822951631228
 20
315.9501853971709
 30
0.0
 11
222.8822951631228
 21
294.4832671762964
 31
0.0
  0
LINE
  5
FF1
330
1F
100
AcDbEntity
  8
0
 48
0.1
100
AcDbLine
 10
225.8828251218956
 20
404.3109367783048
 30
0.0
 11
255.8828251220666
 21
404.3109367783048
 31
0.0
  0
HATCH
  5
FF2
330
1F
100
AcDbEntity
  8
0
 62
     9
100
AcDbHatch
 10
0.0
 20
0.0
 30
0.0
210
0.0
220
0.0
230
1.0
  2
ANSI37
 70
     0
 71
     0
 91
        1
 92
        1
 93
        3
 72
     1
 10
222.5322973596849
 20
343.6620626876341
 11
222.5322973596858
 21
334.4092888461076
 72
     1
 10
222.5322973596858
 20
334.4092888461076
 11
235.3840364766092
 21
334.4092888461076
 72
     1
 10
235.3840364766092
 20
334.4092888461076
 11
222.5322973596849
 21
343.6620626876341
 97
        0
 75
     1
 76
     1
 52
0.0
 41
1.0
 77
     0
 78
     2
 53
45.0
 43
4672.053897636321
 44
-8540.86953711487
 45
-2.245064030267287
 46
2.245064030267288
 79
     0
 53
135.0
 43
4672.053897636321
 44
-8540.86953711487
 45
-2.245064030267288
 46
-2.245064030267287
 79
     0
 98
        1
 10
226.9050532264155
 20
338.042212976818
1001
GradientColor1ACI
1070
     5
1001
GradientColor2ACI
1070
     2
1001
ACAD
1010
0.0
1020
0.0
1030
0.0
  0
LINE
  5
FF3
330
1F
100
AcDbEntity
  8
0
 62
     9
100
AcDbLine
 10
222.5322973596849
 20
343.6620626876351
 30
0.0
 11
235.3840364766092
 21
334.4092888461076
 31
0.0
  0
LINE
  5
FF4
330
1F
100
AcDbEntity
  8
0
 62
     9
100
AcDbLine
 10
227.3822951631464
 20
334.4092888461076
 30
0.0
 11
222.5322973596849
 21
334.4092888461076
 31
0.0
  0
LWPOLYLINE
  5
FF5
330
1F
100
AcDbEntity
  8
0
 62
     2
100
AcDbPolyline
 90
        4
 70
     1
 43
0.0
 10
326.5073794971222
 20
254.8176180757049
 10
326.5073794971222
 20
249.7176180757055
 10
327.5073794971213
 20
249.7176180757055
 10
327.5073794971213
 20
254.8176180757058
  0
LWPOLYLINE
  5
FF6
330
1F
100
AcDbEntity
  8
0
 62
     2
100
AcDbPolyline
 90
        2
 70
     0
 43
0.0
 10
293.5073794971222
 20
251.1926180757003
 10
326.5073794971213
 20
251.1926180757058
  0
LWPOLYLINE
  5
FF7
330
1F
100
AcDbEntity
  8
0
 62
     2
100
AcDbPolyline
 90
        2
 70
     0
 43
0.0
 10
326.5073794971213
 20
253.3426180757045
 10
293.5073794971213
 20
253.3426180756991
  0
LINE
  5
FF8
330
1F
100
AcDbEntity
  8
0
 62
     2
100
AcDbLine
 10
293.5073794971213
 20
253.3426180756991
 30
0.0
 11
289.5073794971231
 21
252.2676180756993
 31
0.0
  0
LINE
  5
FF9
330
1F
100
AcDbEntity
  8
0
 62
     2
100
AcDbLine
 10
289.5073794971231
 20
252.2676180756993
 30
0.0
 11
293.5073794971222
 21
251.1926180757003
 31
0.0
  0
TEXT
  5
FFA
330
1F
100
AcDbEntity
  8
文字
100
AcDbText
 10
287.4524723403019
 20
452.9526961122041
 30
0.0
 40
8.0
  1
シーリング材
100
AcDbText
  0
LINE
  5
FFB
330
1F
100
AcDbEntity
  8
文字
100
AcDbLine
 10
260.0087947120379
 20
422.1305944707339
 30
0.0
 11
280.1347906519222
 21
456.9898419915383
 31
0.0
  0
TEXT
  5
FFC
330
1F
100
AcDbEntity
  8
文字
100
AcDbText
 10
288.3959631625853
 20
363.5573277591042
 30
0.0
 40
8.0
  1
改修用壁押えカバー
100
AcDbText
  0
LINE
  5
FFD
330
1F
100
AcDbEntity
  8
文字
100
AcDbLine
 10
286.7174342323419
 20
366.8814692531682
 30
0.0
 11
279.7174342323419
 21
366.8814692531682
 31
0.0
  0
LINE
  5
FFE
330
1F
100
AcDbEntity
  8
文字
100
AcDbLine
 10
257.2328251220772
 20
327.9369838858637
 30
0.0
 11
279.7174342323419
 21
366.8814692531682
 31
0.0
  0
LWPOLYLINE
  5
FFF
330
1F
100
AcDbEntity
  8
0
 62
     2
100
AcDbPolyline
 90
        4
 70
     1
 43
0.0
 10
257.2328251220733
 20
374.0037539103454
 10
257.2328251220733
 20
368.903753910345
 10
258.2328251220733
 20
368.903753910345
 10
258.2328251220733
 20
374.0037539103454
  0
LWPOLYLINE
  5
1000
330
1F
100
AcDbEntity
  8
0
 62
     2
100
AcDbPolyline
 90
        2
 70
     0
 43
0.0
 10
224.2328251220733
 20
370.3787539103454
 10
257.2328251220733
 20
370.3787539103454
  0
LWPOLYLINE
  5
1001
330
1F
100
AcDbEntity
  8
0
 62
     2
100
AcDbPolyline
 90
        2
 70
     0
 43
0.0
 10
257.2328251220733
 20
372.528753910345
 10
224.2328251220733
 20
372.528753910345
  0
LINE
  5
1002
330
1F
100
AcDbEntity
  8
0
 62
     2
100
AcDbLine
 10
224.2328251220733
 20
372.528753910345
 30
0.0
 11
220.2328251220734
 21
371.4537539103452
 31
0.0
  0
LINE
  5
1003
330
1F
100
AcDbEntity
  8
0
 62
     2
100
AcDbLine
 10
220.2328251220734
 20
371.4537539103452
 30
0.0
 11
224.2328251220733
 21
370.3787539103454
 31
0.0
  0
LINE
  5
1004
330
1F
100
AcDbEntity
  8
文字
100
AcDbLine
 10
279.7174342323419
 20
415.1965784261765
 30
0.0
 11
250.1313332712306
 21
363.9519483636735
 31
0.0
  0
LINE
  5
1005
330
1F
100
AcDbEntity
  8
文字
100
AcDbLine
 10
279.7174342323419
 20
430.3982602803811
 30
0.0
 11
225.4815534599284
 21
336.458959189319
 31
0.0
  0
TEXT
  5
1006
330
1F
100
AcDbEntity
  8
文字
100
AcDbText
 10
290.0331966609241
 20
426.3611144010468
 30
0.0
 40
8.0
  1
シーリング材
100
AcDbText
  0
LINE
  5
1007
330
1F
100
AcDbEntity
  8
文字
100
AcDbLine
 10
279.7174342323419
 20
430.3982602803811
 30
0.0
 11
289.7174342323419
 21
430.3982602803811
 31
0.0
  0
LINE
  5
1008
330
1F
100
AcDbEntity
  8
文字
100
AcDbLine
 10
287.1347906519231
 20
456.9898419915383
 30
0.0
 11
280.1347906519222
 21
456.9898419915383
 31
0.0
  0
LINE
  5
1009
330
1F
100
AcDbEntity
  8
文字
100
AcDbLine
 10
286.7174342323405
 20
415.1965784261765
 30
0.0
 11
279.7174342323406
 21
415.1965784261765
 31
0.0
  0
TEXT
  5
100A
330
1F
100
AcDbEntity
  8
文字
100
AcDbText
 10
288.5455908332533
 20
411.6583267083451
 30
0.0
 40
8.0
  1
受木
100
AcDbText
  0
LINE
  5
100B
330
1F
100
AcDbEntity
  8
0
100
AcDbLine
 10
655.0816888019398
 20
211.5271264169072
 30
0.0
 11
222.3079610693531
 21
211.527126416909
 31
0.0
  0
LINE
  5
100C
330
1F
100
AcDbEntity
  8
0
100
AcDbLine
 10
655.0816888019398
 20
208.527126416889
 30
0.0
 11
222.3079610693385
 21
208.5271264168909
 31
0.0
  0
LINE
  5
100D
330
1F
100
AcDbEntity
  8
0
100
AcDbLine
 10
655.0816888019398
 20
220.527126416959
 30
0.0
 11
222.3079610693958
 21
220.5271264169654
 31
0.0
  0
LINE
  5
100E
330
1F
100
AcDbEntity
  8
0
100
AcDbLine
 10
655.0816888019398
 20
217.5271264169436
 30
0.0
 11
222.3079610693812
 21
217.5271264169472
 31
0.0
  0
LINE
  5
100F
330
1F
100
AcDbEntity
  8
0
100
AcDbLine
 10
655.0816888019398
 20
214.5271264169218
 30
0.0
 11
222.3079610693667
 21
214.5271264169218
 31
0.0
  0
LINE
  5
1010
330
1F
100
AcDbEntity
  8
0
100
AcDbLine
 10
222.3079610693958
 20
220.5271264169654
 30
0.0
 11
222.3079610693385
 21
208.5271264168909
 31
0.0
  0
LWPOLYLINE
  5
1011
330
1F
100
AcDbEntity
  8
0
 62
     8
 48
0.1
100
AcDbPolyline
 90
        4
 70
     1
 43
0.0
 10
347.1573794970927
 20
240.4396257151879
 10
347.1573794970927
 20
243.9538397853433
 10
327.1573794970927
 20
243.9538397853433
 10
327.1573794970927
 20
240.4396257151879
  0
LWPOLYLINE
  5
1012
330
1F
100
AcDbEntity
  8
0
 62
     2
100
AcDbPolyline
 90
        4
 70
     1
 43
0.0
 10
416.9614735963087
 20
223.4396264169812
 10
422.0614735963081
 20
223.4396264169812
 10
422.0614735963081
 20
224.4396264169803
 10
416.9614735963078
 20
224.4396264169803
  0
LWPOLYLINE
  5
1013
330
1F
100
AcDbEntity
  8
0
 62
     2
100
AcDbPolyline
 90
        2
 70
     0
 43
0.0
 10
420.5864735963132
 20
190.4396264169812
 10
420.5864735963078
 20
223.4396264169803
  0
LWPOLYLINE
  5
1014
330
1F
100
AcDbEntity
  8
0
 62
     2
100
AcDbPolyline
 90
        2
 70
     0
 43
0.0
 10
418.436473596309
 20
223.4396264169803
 10
418.4364735963145
 20
190.4396264169803
  0
LINE
  5
1015
330
1F
100
AcDbEntity
  8
0
 62
     2
100
AcDbLine
 10
418.4364735963145
 20
190.4396264169803
 30
0.0
 11
419.5114735963143
 21
186.4396264169821
 31
0.0
  0
LINE
  5
1016
330
1F
100
AcDbEntity
  8
0
 62
     2
100
AcDbLine
 10
419.5114735963143
 20
186.4396264169821
 30
0.0
 11
420.5864735963132
 21
190.4396264169812
 31
0.0
  0
TEXT
  5
1017
330
1F
100
AcDbEntity
  8
文字
100
AcDbText
 10
287.4887798634524
 20
392.8352618405365
 30
0.0
 40
8.0
  1
防水テープD
100
AcDbText
  0
LINE
  5
1018
330
1F
100
AcDbEntity
  8
0
 62
     4
 48
0.2
100
AcDbLine
 10
222.1822973596791
 20
321.1697669153954
 30
0.0
 11
222.5322973596849
 21
321.1697669153954
 31
0.0
  0
LINE
  5
1019
330
1F
100
AcDbEntity
  8
0
  6
DASHED
 62
     1
 48
0.2
100
AcDbLine
 10
223.9171978780162
 20
450.943433469716
 30
0.0
 11
224.8877705765624
 21
449.8718150003063
 31
0.0
  0
LINE
  5
101A
330
1F
100
AcDbEntity
  8
0
 62
     9
100
AcDbLine
 10
266.232825122067
 20
417.009102798181
 30
0.0
 11
255.8828251220666
 21
417.009102798181
 31
0.0
  0
LINE
  5
101B
330
1F
100
AcDbEntity
  8
0
  6
DASHED
 62
     1
 48
0.2
100
AcDbLine
 10
224.8877705765624
 20
449.8718150003063
 30
0.0
 11
224.8877705765624
 21
444.3824323869725
 31
0.0
  0
LINE
  5
101C
330
1F
100
AcDbEntity
  8
0
  6
DASHED
 62
     1
 48
0.2
100
AcDbLine
 10
223.9171978780162
 20
450.943433469716
 30
0.0
 11
223.9171978780162
 21
552.2960069765136
 31
0.0
  0
LINE
  5
101D
330
1F
100
AcDbEntity
  8
0
  6
DASHED2
 62
     1
100
AcDbLine
 10
223.9171978780162
 20
443.3108139175628
 30
0.0
 11
224.8877705765624
 21
444.3824323869725
 31
0.0
  0
LINE
  5
101E
330
1F
100
AcDbEntity
  8
0
  6
DASHED
 62
     1
 48
0.2
100
AcDbLine
 10
223.9171978780162
 20
443.3108139175628
 30
0.0
 11
223.9171978780162
 21
412.9547450828771
 31
0.0
  0
TEXT
  5
101F
330
1F
100
AcDbEntity
  8
文字
100
AcDbText
 10
154.4922042608733
 20
416.4634270775658
 30
0.0
 40
8.0
  1
既存雨押え
 72
     2
 11
200.35887092754
 21
416.4634270775658
 31
0.0
100
AcDbText
  0
LINE
  5
1020
330
1F
100
AcDbEntity
  8
文字
100
AcDbLine
 10
208.0081960777759
 20
420.0767665080233
 30
0.0
 11
222.1822973596791
 21
395.5265029361416
 31
0.0
  0
LINE
  5
1021
330
1F
100
AcDbEntity
  8
文字
100
AcDbLine
 10
201.0081960777759
 20
420.0767665080233
 30
0.0
 11
208.0081960777759
 21
420.0767665080233
 31
0.0
  0
LINE
  5
1022
330
1F
100
AcDbEntity
  8
文字
100
AcDbLine
 10
279.7174342323419
 20
396.2523949466517
 30
0.0
 11
223.214045013294
 21
298.3856540194214
 31
0.0
  0
LINE
  5
1023
330
1F
100
AcDbEntity
  8
文字
100
AcDbLine
 10
286.7174342323419
 20
396.2523949466517
 30
0.0
 11
279.7174342323419
 21
396.2523949466517
 31
0.0
  0
TEXT
  5
1024
330
1F
100
AcDbEntity
  8
文字
100
AcDbText
 10
596.9509422542946
 20
250.8058525872274
 30
0.0
 40
8.0
  1
耐水合板
100
AcDbText
  0
LINE
  5
1025
330
1F
100
AcDbEntity
  8
文字
100
AcDbLine
 10
595.0667678965503
 20
253.6997833800604
 30
0.0
 11
588.0667678965503
 21
253.6997833800604
 31
0.0
  0
LINE
  5
1026
330
1F
100
AcDbEntity
  8
文字
100
AcDbLine
 10
565.4504238540091
 20
214.5271264169218
 30
0.0
 11
588.0667678965503
 21
253.6997833800604
 31
0.0
  0
LINE
  5
12A6
330
1F
100
AcDbEntity
  8
0
 62
     8
100
AcDbLine
 10
225.8822951631501
 20
290.4121993644079
 30
0.0
 11
225.88229516315
 21
265.9501853968744
 31
0.0
  0
MTEXT
  5
146F
102
{ACAD_XDICTIONARY
360
1470
102
}
330
1F
100
AcDbEntity
  8
WAKU
100
AcDbMText
 10
513.3297022101278
 20
89.61480441106777
 30
0.0
 40
5.0
 41
286.6702975011639
 46
0.0
 71
     1
 72
     5
  1
\pi-5,l5;・改修用壁押えD(Ⅱ)\P　受木の寸法は、高さ36～45mm、幅は60～80mmの範囲で選定してください。幅30～40mmの受木を使用する場合は、ダブルで施工してください。\P・改修用壁押えカバー\P　受木の寸法は、既存外壁の厚さに合わせて選定してください。
  7
WAKU
 73
     1
 44
1.0
1001
ACAD
1000
ACAD_MTEXT_COLUMN_INFO_BEGIN
1070
    75
1070
     2
1070
    79
1070
     0
1070
    76
1070
     1
1070
    78
1070
     0
1070
    48
1040
286.6702975011639
1070
    49
1040
12.5
1070
    50
1070
     1
1040
0.0
1000
ACAD_MTEXT_COLUMN_INFO_END
  0
TEXT
  5
1471
330
1F
100
AcDbEntity
  8
WAKU
100
AcDbText
 10
517.0955965898807
 20
109.4555052373891
 30
0.0
 40
5.0
  1
流れ長さ
  7
WAKU
100
AcDbText
  0
TEXT
  5
1472
330
1F
100
AcDbEntity
  8
WAKU
100
AcDbText
 10
708.3545903990125
 20
101.6948128984929
 30
0.0
 40
5.0
  1
改質アスファルトルーフィング
  7
WAKU
100
AcDbText
  0
TEXT
  5
1473
330
1F
100
AcDbEntity
  8
WAKU
100
AcDbText
 10
517.0955965898807
 20
117.5175922043922
 30
0.0
 40
5.0
  1
勾配
  7
WAKU
100
AcDbText
  0
TEXT
  5
1474
330
1F
100
AcDbEntity
  8
WAKU
100
AcDbText
 10
517.0955965898807
 20
101.6948128984929
 30
0.0
 40
5.0
  1
下葺き材
  7
WAKU
100
AcDbText
  0
TEXT
  5
1475
330
1F
100
AcDbEntity
  8
WAKU
100
AcDbText
 10
566.3326613421357
 20
109.4555052373891
 30
0.0
 40
5.0
  1
7ｍ以下
  7
WAKU
100
AcDbText
  0
TEXT
  5
1476
330
1F
100
AcDbEntity
  8
WAKU
100
AcDbText
 10
566.3326613421357
 20
101.6948128984929
 30
0.0
 40
5.0
  1
粘着層付き改質アスファルトルーフィング
  7
WAKU
100
AcDbText
  0
TEXT
  5
1477
330
1F
100
AcDbEntity
  8
WAKU
100
AcDbText
 10
708.3545903990125
 20
109.6876803179536
 30
0.0
 40
5.0
  1
20ｍ以下
  7
WAKU
100
AcDbText
  0
LINE
  5
1478
330
1F
100
AcDbEntity
  8
WAKU
100
AcDbLine
 10
515.2406363916478
 20
123.9999992912992
 30
0.0
 11
515.2406363916478
 21
91.99999929129921
 31
0.0
  0
LINE
  5
1479
330
1F
100
AcDbEntity
  8
0
100
AcDbLine
 10
799.9999997112917
 20
123.9999992912992
 30
0.0
 11
799.9999997112917
 21
91.99999929129921
 31
0.0
  0
LINE
  5
147A
330
1F
100
AcDbEntity
  8
WAKU
100
AcDbLine
 10
799.9999997112917
 20
99.99999929129922
 30
0.0
 11
515.2406363916478
 21
99.99999929129922
 31
0.0
  0
LINE
  5
147B
330
1F
100
AcDbEntity
  8
WAKU
100
AcDbLine
 10
799.9999997112917
 20
107.9999992912992
 30
0.0
 11
515.2406363916478
 21
107.9999992912992
 31
0.0
  0
LINE
  5
147C
330
1F
100
AcDbEntity
  8
WAKU
100
AcDbLine
 10
799.9999997112917
 20
115.9999992912992
 30
0.0
 11
515.2406363916478
 21
115.9999992912992
 31
0.0
  0
LINE
  5
147D
330
1F
100
AcDbEntity
  8
WAKU
100
AcDbLine
 10
799.9999997112917
 20
123.9999992912992
 30
0.0
 11
515.2406363916478
 21
123.9999992912992
 31
0.0
  0
LINE
  5
147E
330
1F
100
AcDbEntity
  8
WAKU
100
AcDbLine
 10
564.8307402818844
 20
123.9999992912992
 30
0.0
 11
564.8307402818844
 21
91.99999929129921
 31
0.0
  0
LINE
  5
147F
330
1F
100
AcDbEntity
  8
WAKU
100
AcDbLine
 10
707.8018716435234
 20
123.9999992912992
 30
0.0
 11
707.8018716435234
 21
91.99999929129921
 31
0.0
  0
TEXT
  5
1480
330
1F
100
AcDbEntity
  8
WAKU
100
AcDbText
 10
513.3297022101278
 20
135.5790666680575
 30
0.0
 40
5.0
  1
・勾配によって使用する下葺き材が異なりますので、施工前に下葺き材の種類を確認してください。
  7
WAKU
100
AcDbText
  0
TEXT
  5
1481
330
1F
100
AcDbEntity
  8
WAKU
100
AcDbText
 10
566.3326613421357
 20
116.9767658793969
 30
0.0
 40
5.0
  1
2.5寸～3.5寸未満
  7
WAKU
100
AcDbText
  0
TEXT
  5
1482
330
1F
100
AcDbEntity
  8
WAKU
100
AcDbText
 10
708.3545903990125
 20
117.3678371398746
 30
0.0
 40
5.0
  1
3.5寸以上
  7
WAKU
100
AcDbText
  0
TEXT
  5
1483
330
1F
100
AcDbEntity
  8
WAKU
100
AcDbText
 10
520.4637102084525
 20
127.2918153774206
 30
0.0
 40
5.0
  1
3.5寸未満の勾配の屋根では、本体の横ジョイント部全てにジョイント下地を施工してください。
  7
WAKU
100
AcDbText
  0
LINE
  5
1484
330
1F
100
AcDbEntity
  8
WAKU
100
AcDbLine
 10
799.9999997112917
 20
91.99999929129921
 30
0.0
 11
515.2406363916478
 21
91.99999929129921
 31
0.0
  0
TEXT
  5
1485
330
1F
100
AcDbEntity
  8
WAKU
100
AcDbText
 10
517.0955965898807
 20
93.69481289849295
 30
0.0
 40
5.0
  1
ジョイント下地
  7
WAKU
100
AcDbText
  0
TEXT
  5
1486
330
1F
100
AcDbEntity
  8
WAKU
100
AcDbText
 10
566.3326613421357
 20
92.9767658793969
 30
0.0
 40
5.0
  1
本体の横ジョイント部に施工
  7
WAKU
100
AcDbText
  0
TEXT
  5
1487
330
1F
100
AcDbEntity
  8
WAKU
100
AcDbText
 10
708.3545903990125
 20
92.9767658793969
 30
0.0
 40
5.0
  1
無しも可
  7
WAKU
100
AcDbText
  0
LINE
  5
164D
102
{ACAD_REACTORS
330
1667
102
}
330
1F
100
AcDbEntity
  8
0
 62
     3
100
AcDbLine
 10
267.5328251220662
 20
426.0591027981766
 30
0.0
 11
267.5328251220672
 21
417.6591027981788
 31
0.0
  0
ARC
  5
164E
102
{ACAD_REACTORS
330
1667
102
}
330
1F
100
AcDbEntity
  8
0
 62
     3
100
AcDbCircle
 10
267.2828251220644
 20
426.0591027981766
 30
0.0
 40
0.25
100
AcDbArc
 50
0.0
 51
180.0
  0
LINE
  5
164F
102
{ACAD_REACTORS
330
1667
102
}
330
1F
100
AcDbEntity
  8
0
 62
     3
100
AcDbLine
 10
267.0328251220644
 20
426.0591027981766
 30
0.0
 11
267.0328251220681
 21
421.1591027981788
 31
0.0
  0
LINE
  5
1650
102
{ACAD_REACTORS
330
1667
102
}
330
1F
100
AcDbEntity
  8
0
 62
     3
100
AcDbLine
 10
266.6828251220659
 20
426.0591027981766
 30
0.0
 11
266.6828251220668
 21
421.1591027981788
 31
0.0
  0
ARC
  5
1651
102
{ACAD_REACTORS
330
1667
102
}
330
1F
100
AcDbEntity
  8
0
 62
     3
100
AcDbCircle
 10
267.2828251220654
 20
426.0591027981766
 30
0.0
 40
0.6000000000012733
100
AcDbArc
 50
0.0
 51
180.0
  0
LINE
  5
1652
102
{ACAD_REACTORS
330
1667
102
}
330
1F
100
AcDbEntity
  8
0
 62
     3
100
AcDbLine
 10
260.8638529772197
 20
416.6591027981788
 30
0.0
 11
266.8828251220666
 21
416.6591027981788
 31
0.0
  0
LINE
  5
1653
102
{ACAD_REACTORS
330
1667
102
}
330
1F
100
AcDbEntity
  8
0
 62
     3
100
AcDbLine
 10
257.8828251220666
 20
416.6591027981788
 30
0.0
 11
266.8828251220666
 21
416.6591027981788
 31
0.0
  0
ARC
  5
1654
102
{ACAD_REACTORS
330
1667
102
}
330
1F
100
AcDbEntity
  8
0
 62
     3
100
AcDbCircle
 10
266.8828251220666
 20
417.6591027981788
 30
0.0
 40
1.0
100
AcDbArc
 50
270.0
 51
0.0
  0
ARC
  5
1655
102
{ACAD_REACTORS
330
1667
102
}
330
1F
100
AcDbEntity
  8
0
 62
     3
100
AcDbCircle
 10
266.8828251220666
 20
417.6591027981788
 30
0.0
 40
0.65
100
AcDbArc
 50
270.0
 51
0.0
  0
LINE
  5
1656
102
{ACAD_REACTORS
330
1667
102
}
330
1F
100
AcDbEntity
  8
0
 62
     3
100
AcDbLine
 10
257.8828251220666
 20
417.009102798181
 30
0.0
 11
266.8828251220666
 21
417.009102798181
 31
0.0
  0
ARC
  5
1657
102
{ACAD_REACTORS
330
1667
102
}
330
1F
100
AcDbEntity
  8
0
 62
     3
100
AcDbCircle
 10
257.8828251220666
 20
416.0091027981811
 30
0.0
 40
1.0
100
AcDbArc
 50
90.0
 51
180.0
  0
ARC
  5
1658
102
{ACAD_REACTORS
330
1667
102
}
330
1F
100
AcDbEntity
  8
0
 62
     3
100
AcDbCircle
 10
257.8828251220666
 20
416.0091027981811
 30
0.0
 40
0.65
100
AcDbArc
 50
90.0
 51
180.0
  0
LINE
  5
1659
102
{ACAD_REACTORS
330
1667
102
}
330
1F
100
AcDbEntity
  8
0
 62
     3
100
AcDbLine
 10
267.0328251220671
 20
421.1591027981788
 30
0.0
 11
266.682825122065
 21
421.1591027981788
 31
0.0
  0
LINE
  5
165A
102
{ACAD_REACTORS
330
1667
102
}
330
1F
100
AcDbEntity
  8
0
 62
     3
100
AcDbLine
 10
267.8828251220666
 20
426.0591027981766
 30
0.0
 11
267.8828251220666
 21
417.6591027981788
 31
0.0
  0
LINE
  5
165B
102
{ACAD_REACTORS
330
1667
102
}
330
1F
100
AcDbEntity
  8
0
 62
     3
100
AcDbLine
 10
256.8828251220666
 20
416.0091027981811
 30
0.0
 11
256.8828251220693
 21
323.4635056918572
 31
0.0
  0
LINE
  5
165C
102
{ACAD_REACTORS
330
1667
102
}
330
1F
100
AcDbEntity
  8
0
 62
     3
100
AcDbLine
 10
257.232825122067
 20
416.0091027981811
 30
0.0
 11
257.2328251220797
 21
323.4635056918572
 31
0.0
  0
ARC
  5
165D
102
{ACAD_REACTORS
330
1667
102
}
330
1F
100
AcDbEntity
  8
0
 62
     3
100
AcDbCircle
 10
255.3828251220793
 20
323.4635056918572
 30
0.0
 40
1.85
100
AcDbArc
 50
312.9999999999779
 51
0.0
  0
ARC
  5
165E
102
{ACAD_REACTORS
330
1667
102
}
330
1F
100
AcDbEntity
  8
0
 62
     3
100
AcDbCircle
 10
255.3828251220793
 20
323.4635056918572
 30
0.0
 40
1.5
100
AcDbArc
 50
312.9999999999779
 51
0.0
  0
LINE
  5
165F
102
{ACAD_REACTORS
330
1667
102
}
330
1F
100
AcDbEntity
  8
0
 62
     3
100
AcDbLine
 10
256.644522088196
 20
322.1105013438622
 30
0.0
 11
240.3812433204284
 21
306.944748542844
 31
0.0
  0
LINE
  5
1660
102
{ACAD_REACTORS
330
1667
102
}
330
1F
100
AcDbEntity
  8
0
 62
     3
100
AcDbLine
 10
242.3083382575924
 20
311.4764485663667
 30
0.0
 11
239.0172466003041
 21
308.4074559460836
 31
0.0
  0
LINE
  5
1661
102
{ACAD_REACTORS
330
1667
102
}
330
1F
100
AcDbEntity
  8
0
 62
     3
100
AcDbLine
 10
242.5470376836156
 20
311.2204747707996
 30
0.0
 11
239.2559460263265
 21
308.1514821505128
 31
0.0
  0
LINE
  5
1662
102
{ACAD_REACTORS
330
1667
102
}
330
1F
100
AcDbEntity
  8
0
 62
     3
100
AcDbLine
 10
256.405822662181
 20
322.3664751394184
 30
0.0
 11
240.1425438944079
 21
307.2007223384184
 31
0.0
  0
LINE
  5
1663
102
{ACAD_REACTORS
330
1667
102
}
330
1F
100
AcDbEntity
  8
0
 62
     3
100
AcDbLine
 10
242.3083382575869
 20
311.4764485663703
 30
0.0
 11
242.5470376836092
 21
311.2204747708068
 31
0.0
  0
ARC
  5
1664
102
{ACAD_REACTORS
330
1667
102
}
330
1F
100
AcDbEntity
  8
0
 62
     3
100
AcDbCircle
 10
239.6992449603658
 20
307.6761022444638
 30
0.0
 40
1.0
100
AcDbArc
 50
132.9999999999416
 51
312.9999999999417
  0
ARC
  5
1665
102
{ACAD_REACTORS
330
1667
102
}
330
1F
100
AcDbEntity
  8
0
 62
     3
100
AcDbCircle
 10
239.6992449603658
 20
307.6761022444638
 30
0.0
 40
0.65
100
AcDbArc
 50
132.9999999999813
 51
312.9999999999779
  0
POINT
  5
1666
102
{ACAD_REACTORS
330
1667
102
}
330
1F
100
AcDbEntity
  8
0
 62
     3
100
AcDbPoint
 10
257.2328251220815
 20
322.6591027981789
 30
0.0
  0
HATCH
  5
1678
330
1F
100
AcDbEntity
  8
0
 62
     9
100
AcDbHatch
 10
0.0
 20
0.0
 30
0.0
210
0.0
220
0.0
230
1.0
  2
ANSI37
 70
     0
 71
     0
 91
        1
 92
        7
 72
     1
 73
     1
 93
       11
 10
267.5328251220644
 20
426.0591027981766
 42
1.0
 10
267.0328251220644
 20
426.0591027981765
 42
0.0
 10
267.0328251220681
 20
421.1591027981788
 42
0.0
 10
266.6828251220668
 20
421.1591027981788
 42
0.0
 10
266.682825122064
 20
426.0591027981766
 42
-0.2983198016075648
 10
267.0430335459032
 20
426.6091027981795
 42
0.0
 10
255.8828251220666
 20
426.6091027981795
 42
0.0
 10
255.8828251220666
 20
417.009102798181
 42
0.0
 10
266.232825122067
 20
417.009102798181
 42
0.0
 10
266.8828251220666
 20
417.0091027981788
 42
0.4142135623731268
 10
267.5328251220666
 20
417.6591027981789
 42
0.0
 97
        0
 75
     1
 76
     1
 52
0.0
 41
1.0
 77
     0
 78
     2
 53
45.0
 43
0.0
 44
0.0
 45
-2.245064030267287
 46
2.245064030267288
 79
     0
 53
135.0
 43
0.0
 44
0.0
 45
-2.245064030267288
 46
-2.245064030267287
 79
     0
 47
0.0554530093417882
 98
        1
 10
261.7626161524663
 20
419.6689652224327
1001
GradientColor1ACI
1070
     5
1001
GradientColor2ACI
1070
     2
1001
ACAD
1010
0.0
1020
0.0
1030
0.0
  0
VIEWPORT
  5
564
102
{ACAD_XDICTIONARY
360
565
102
}
330
D2
100
AcDbEntity
 67
     1
  8
0
100
AcDbViewport
 10
209.9242870886635
 20
148.4880010228585
 30
0.0
 40
776.8649315960914
 41
314.2260000000001
 68
     1
 69
     1
 12
209.9242870886635
 22
148.4880010228585
 13
0.0
 23
0.0
 14
10.0
 24
10.0
 15
10.0
 25
10.0
 16
0.0
 26
0.0
 36
1.0
 17
0.0
 27
0.0
 37
0.0
 42
50.0
 43
0.0
 44
0.0
 45
314.2260000000001
 50
0.0
 51
0.0
 72
  1000
 90
   819232
  1

281
     0
 71
     1
 74
     0
110
0.0
120
0.0
130
0.0
111
1.0
121
0.0
131
0.0
112
0.0
122
1.0
132
0.0
 79
     0
146
0.0
170
     0
 61
     5
348
F5
292
     1
282
     1
141
0.0
142
0.0
 63
   250
421
  3355443
  0
VIEWPORT
  5
56F
102
{ACAD_XDICTIONARY
360
570
102
}
330
D2
100
AcDbEntity
 67
     1
  8
0
100
AcDbViewport
 10
209.9999998805998
 20
148.5000005031572
 30
0.0
 40
420.0
 41
297.0
 68
     2
 69
     2
 12
420.0
 22
297.0
 13
0.0
 23
0.0
 14
2.5
 24
2.5
 15
10.0
 25
10.0
 16
0.0
 26
0.0
 36
1.0
 17
0.0
 27
0.0
 37
0.0
 42
50.0
 43
0.0
 44
0.0
 45
599.3674698795181
 50
0.0
 51
0.0
 72
   100
 90
   835680
  1

281
     0
 71
     1
 74
     0
110
0.0
120
0.0
130
0.0
111
1.0
121
0.0
131
0.0
112
0.0
122
1.0
132
0.0
 79
     0
146
0.0
170
     0
 61
     5
348
F5
292
     1
282
     1
141
0.0
142
0.0
 63
   250
421
  3355443
  0
ENDSEC
  0
SECTION
  2
OBJECTS
  0
DICTIONARY
  5
C
330
0
100
AcDbDictionary
281
     1
  3
ACAD_CIP_PREVIOUS_PRODUCT_INFO
350
216
  3
ACAD_COLOR
350
6B
  3
ACAD_DETAILVIEWSTYLE
350
21B
  3
ACAD_GROUP
350
D
  3
ACAD_LAYOUT
350
1A
  3
ACAD_MATERIAL
350
6A
  3
ACAD_MLEADERSTYLE
350
12D
  3
ACAD_MLINESTYLE
350
17
  3
ACAD_PLOTSETTINGS
350
19
  3
ACAD_PLOTSTYLENAME
350
E
  3
ACAD_RENDER_ACTIVE_RAPIDRT_SETTINGS
350
1C9A
  3
ACAD_RENDER_ACTIVE_SETTINGS
350
1CB0
  3
ACAD_RENDER_RAPIDRT_SETTINGS
350
1C93
  3
ACAD_SCALELIST
350
10C
  3
ACAD_SECTIONVIEWSTYLE
350
219
  3
ACAD_TABLESTYLE
350
7E
  3
ACAD_VISUALSTYLE
350
EF
  3
ACDB_RECOMPOSE_DATA
350
1D74
  3
AcDbVariableDictionary
350
5E
  3
AcDsDecomposeData
350
1D7A
  0
DICTIONARY
  5
5E7
330
8
100
AcDbDictionary
280
     1
281
     1
  0
DICTIONARY
  5
1FF
330
2
100
AcDbDictionary
280
     1
281
     1
  3
ACAD_LAYERSTATES
360
200
  0
DICTIONARY
  5
13C
330
10
100
AcDbDictionary
280
     1
281
     1
  0
DICTIONARY
  5
245
330
244
100
AcDbDictionary
280
     1
281
     1
  0
DICTIONARY
  5
53A
330
539
100
AcDbDictionary
280
     1
281
     1
  0
DICTIONARY
  5
648
330
647
100
AcDbDictionary
280
     1
281
     1
  0
DICTIONARY
  5
19AC
330
19AB
100
AcDbDictionary
280
     1
281
     1
  0
DICTIONARY
  5
19AE
330
19AD
100
AcDbDictionary
280
     1
281
     1
  0
DICTIONARY
  5
1CE
330
1F
100
AcDbDictionary
280
     1
281
     1
  3
ACAD_SORTENTS
360
166B
  0
DICTIONARY
  5
1807
330
17BC
100
AcDbDictionary
280
     1
281
     1
  3
ACAD_SORTENTS
360
1808
  0
DICTIONARY
  5
1900
330
18B5
100
AcDbDictionary
280
     1
281
     1
  3
ACAD_SORTENTS
360
1901
  0
DICTIONARY
  5
1ACE
330
1AB2
100
AcDbDictionary
280
     1
281
     1
  0
DICTIONARY
  5
17DF
330
17DE
100
AcDbDictionary
280
     1
281
     1
  3
ACAD_DIMASSOC
360
17E0
  0
DICTIONARY
  5
17E2
330
17E1
100
AcDbDictionary
280
     1
281
     1
  3
ACAD_DIMASSOC
360
17E3
  0
DICTIONARY
  5
17E6
330
17E5
100
AcDbDictionary
280
     1
281
     1
  3
ACAD_DIMASSOC
360
17E7
  0
DICTIONARY
  5
17E9
330
17E8
100
AcDbDictionary
280
     1
281
     1
  3
ACAD_DIMASSOC
360
17EA
  0
DICTIONARY
  5
17F1
330
17F0
100
AcDbDictionary
280
     1
281
     1
  3
ACAD_DIMASSOC
360
17F2
  0
DICTIONARY
  5
17F4
330
17F3
100
AcDbDictionary
280
     1
281
     1
  3
ACAD_DIMASSOC
360
17F5
  0
DICTIONARY
  5
17F8
330
17F7
100
AcDbDictionary
280
     1
281
     1
  3
ACAD_DIMASSOC
360
17F9
  0
DICTIONARY
  5
17FB
330
17FA
100
AcDbDictionary
280
     1
281
     1
  3
ACAD_DIMASSOC
360
17FC
  0
DICTIONARY
  5
17FE
330
17FD
100
AcDbDictionary
280
     1
281
     1
  3
ACAD_DIMASSOC
360
17FF
  0
DICTIONARY
  5
1804
330
1803
100
AcDbDictionary
280
     1
281
     1
  3
ACAD_DIMASSOC
360
1805
  0
DICTIONARY
  5
18D8
330
18D7
100
AcDbDictionary
280
     1
281
     1
  3
ACAD_DIMASSOC
360
18D9
  0
DICTIONARY
  5
18DB
330
18DA
100
AcDbDictionary
280
     1
281
     1
  3
ACAD_DIMASSOC
360
18DC
  0
DICTIONARY
  5
18DF
330
18DE
100
AcDbDictionary
280
     1
281
     1
  3
ACAD_DIMASSOC
360
18E0
  0
DICTIONARY
  5
18E2
330
18E1
100
AcDbDictionary
280
     1
281
     1
  3
ACAD_DIMASSOC
360
18E3
  0
DICTIONARY
  5
18EA
330
18E9
100
AcDbDictionary
280
     1
281
     1
  3
ACAD_DIMASSOC
360
18EB
  0
DICTIONARY
  5
18ED
330
18EC
100
AcDbDictionary
280
     1
281
     1
  3
ACAD_DIMASSOC
360
18EE
  0
DICTIONARY
  5
18F1
330
18F0
100
AcDbDictionary
280
     1
281
     1
  3
ACAD_DIMASSOC
360
18F2
  0
DICTIONARY
  5
18F4
330
18F3
100
AcDbDictionary
280
     1
281
     1
  3
ACAD_DIMASSOC
360
18F5
  0
DICTIONARY
  5
18F7
330
18F6
100
AcDbDictionary
280
     1
281
     1
  3
ACAD_DIMASSOC
360
18F8
  0
DICTIONARY
  5
18FD
330
18FC
100
AcDbDictionary
280
     1
281
     1
  3
ACAD_DIMASSOC
360
18FE
  0
DICTIONARY
  5
1470
330
146F
100
AcDbDictionary
280
     1
281
     1
  0
DICTIONARY
  5
565
330
564
100
AcDbDictionary
280
     1
281
     1
  3
ASDK_XREC_ANNOTATION_SCALE_INFO
360
566
  0
DICTIONARY
  5
570
330
56F
100
AcDbDictionary
280
     1
281
     1
  3
ASDK_XREC_ANNOTATION_SCALE_INFO
360
571
  0
XRECORD
  5
216
102
{ACAD_REACTORS
330
C
102
}
330
C
100
AcDbXrecord
280
     1
300
ACD
300
2023
300

  0
DICTIONARY
  5
6B
102
{ACAD_REACTORS
330
C
102
}
330
C
100
AcDbDictionary
281
     1
  0
DICTIONARY
  5
21B
102
{ACAD_REACTORS
330
C
102
}
330
C
100
AcDbDictionary
281
     1
  3
Metric50
350
21C
  0
DICTIONARY
  5
D
102
{ACAD_REACTORS
330
C
102
}
330
C
100
AcDbDictionary
281
     1
  3
*A1
350
1667
  0
DICTIONARY
  5
1A
102
{ACAD_REACTORS
330
C
102
}
330
C
100
AcDbDictionary
281
     1
  3
Model
350
22
  3
wrp007-07-03
350
D3
  0
DICTIONARY
  5
6A
102
{ACAD_REACTORS
330
C
102
}
330
C
100
AcDbDictionary
281
     1
  3
ByBlock
350
ED
  3
ByLayer
350
EC
  3
Global
350
EE
  0
DICTIONARY
  5
12D
102
{ACAD_REACTORS
330
C
102
}
330
C
100
AcDbDictionary
281
     1
  3
Standard
350
12E
  0
DICTIONARY
  5
17
102
{ACAD_REACTORS
330
C
102
}
330
C
100
AcDbDictionary
281
     1
  3
Standard
350
18
  0
DICTIONARY
  5
19
102
{ACAD_REACTORS
330
C
102
}
330
C
100
AcDbDictionary
281
     1
  0
ACDBDICTIONARYWDFLT
  5
E
102
{ACAD_REACTORS
330
C
102
}
330
C
100
AcDbDictionary
281
     1
  3
Normal
350
F
  3
スタイル 1
350
19B1
100
AcDbDictionaryWithDefault
340
F
  0
RAPIDRTRENDERSETTINGS
  5
1C9A
102
{ACAD_REACTORS
330
C
102
}
330
C
100
AcDbRenderSettings
 90
        2
  1
中
290
     1
290
     0
290
     1
290
     1
  1

  1
5 レンダリング レベルを適用
 90
        0
100
AcDbRapidRTRenderSettings
 90
        3
 70
     0
 90
        5
 90
        1
 70
     1
 70
     2
 40
3.0
 40
3.0
290
     1
  0
MENTALRAYRENDERSETTINGS
  5
1CB0
102
{ACAD_XDICTIONARY
360
1CB1
102
}
102
{ACAD_REACTORS
330
C
102
}
330
C
100
AcDbRenderSettings
 90
        2
  1
中間
290
     1
290
     1
290
     1
290
     1
  1

  1

 90
        0
100
AcDbMentalRayRenderSettings
 90
        2
 90
        0
 90
        1
 70
     2
 40
3.0
 40
3.0
 40
0.0500000007450581
 40
0.0500000007450581
 40
0.0500000007450581
 40
0.0500000007450581
 70
     0
290
     0
290
     1
 90
        5
 90
        5
 90
        5
290
     0
 90
      500
290
     0
 40
1.0
 90
    10000
 90
        5
 90
        5
 90
        5
290
     0
 90
      200
290
     0
290
     0
290
     0
 40
1.0
 40
1.0
 40
1500.0
 70
     0
 70
     0
 40
10.0
 70
     0
 70
     0
290
     0
  1

 90
       32
 70
     0
 90
     1048
290
     0
 40
1.0
  0
DICTIONARY
  5
1C93
102
{ACAD_REACTORS
330
C
102
}
330
C
100
AcDbDictionary
281
     1
  3
オーバーナイト品質
350
1C99
  3
コーヒー ブレイク品質
350
1C97
  3
ランチ タイム品質
350
1C98
  3
中
350
1C95
  3
低
350
1C94
  3
高
350
1C96
  0
DICTIONARY
  5
10C
102
{ACAD_REACTORS
330
C
102
}
330
C
100
AcDbDictionary
281
     1
  3
A0
350
10D
  3
A1
350
1BE
  3
A2
350
1BF
  3
A3
350
1C0
  3
A4
350
1C1
  3
A5
350
1C2
  3
A6
350
1C3
  3
A7
350
1C4
  3
A8
350
1C5
  3
A9
350
1C6
  3
B0
350
1C7
  3
B1
350
1C8
  3
B2
350
1C9
  3
B3
350
1CA
  3
B4
350
1CB
  3
B5
350
1CC
  3
B6
350
1CD
  0
DICTIONARY
  5
219
102
{ACAD_REACTORS
330
C
102
}
330
C
100
AcDbDictionary
281
     1
  3
Metric50
350
21A
  0
DICTIONARY
  5
7E
102
{ACAD_REACTORS
330
C
102
}
330
C
100
AcDbDictionary
281
     1
  3
Standard
350
7F
  0
DICTIONARY
  5
EF
102
{ACAD_REACTORS
330
C
102
}
330
C
100
AcDbDictionary
281
     1
  3
2dWireframe
350
F5
  3
Basic
350
F4
  3
Brighten
350
FB
  3
ColorChange
350
FF
  3
Conceptual
350
F8
  3
Dim
350
FA
  3
EdgeColorOff
350
1E6
  3
Facepattern
350
FE
  3
Flat
350
F0
  3
FlatWithEdges
350
F1
  3
Gouraud
350
F2
  3
GouraudWithEdges
350
F3
  3
Hidden
350
F7
  3
JitterOff
350
1E4
  3
Linepattern
350
FD
  3
OverhangOff
350
1E5
  3
Realistic
350
F9
  3
Shaded
350
1F3
  3
Shaded with edges
350
1F2
  3
Shades of Gray
350
1EF
  3
Sketchy
350
1F0
  3
Thicken
350
FC
  3
Wireframe
350
F6
  3
X-Ray
350
1F1
  0
XRECORD
  5
1D74
102
{ACAD_REACTORS
330
C
102
}
330
C
100
AcDbXrecord
280
     1
 90
        1
330
7F
330
146F
  0
DICTIONARY
  5
5E
102
{ACAD_REACTORS
330
C
102
}
330
C
100
AcDbDictionary
281
     1
  3
CANNOSCALE
350
146
  3
CMLEADERSTYLE
350
145
  3
CTABLESTYLE
350
84
  3
CVIEWDETAILSTYLE
350
227
  3
CVIEWSECTIONSTYLE
350
228
  3
DIMASSOC
350
5F
  3
HIDETEXT
350
63
  3
LAYEREVAL
350
1AE
  3
LAYERNOTIFY
350
1AF
  3
LIGHTINGUNITS
350
625
  3
MSLTSCALE
350
624
  0
DICTIONARY
  5
1D7A
102
{ACAD_REACTORS
330
C
102
}
330
C
100
AcDbDictionary
281
     1
  3
AcDsRecords
350
1D7C
  3
AcDsSchemas
350
1D7B
1001
ACAD
1070
     2
  0
DICTIONARY
  5
200
102
{ACAD_REACTORS
330
1FF
102
}
330
1FF
100
AcDbDictionary
281
     1
  0
SORTENTSTABLE
  5
166B
102
{ACAD_REACTORS
330
1CE
102
}
330
1CE
100
AcDbSortentsTable
330
1F
331
F44
  5
F46
331
F45
  5
F47
331
F46
  5
F48
331
F47
  5
F49
331
F48
  5
F4A
331
F49
  5
F4B
331
F4A
  5
F4C
331
F4B
  5
F4D
331
F4C
  5
F4E
331
F4D
  5
F4F
331
F4E
  5
F50
331
F4F
  5
F51
331
F50
  5
F52
331
F51
  5
F53
331
F52
  5
F54
331
F53
  5
F55
331
F54
  5
F56
331
F55
  5
F57
331
F56
  5
F58
331
F57
  5
F59
331
F58
  5
F5A
331
F59
  5
F5B
331
F5A
  5
F5C
331
F5B
  5
F5D
331
F5C
  5
F5E
331
F5D
  5
F5F
331
F5E
  5
F60
331
F5F
  5
F61
331
F60
  5
F62
331
F61
  5
F63
331
F62
  5
F64
331
F63
  5
F65
331
F64
  5
F66
331
F65
  5
F67
331
F66
  5
F68
331
F67
  5
F69
331
F68
  5
F6A
331
F69
  5
F6B
331
F6A
  5
F6C
331
F6B
  5
F6D
331
F6C
  5
F6E
331
F6D
  5
F6F
331
F6E
  5
F70
331
F6F
  5
F71
331
F70
  5
F72
331
F71
  5
F73
331
F72
  5
F74
331
F73
  5
F75
331
F74
  5
F76
331
F75
  5
F77
331
F76
  5
F78
331
F77
  5
F79
331
F78
  5
F7A
331
F79
  5
F7B
331
F7A
  5
F7C
331
F7B
  5
F7D
331
F7C
  5
F7E
331
F7D
  5
F7F
331
F7E
  5
F80
331
F7F
  5
F81
331
F80
  5
F82
331
F81
  5
F83
331
F82
  5
F84
331
F83
  5
F85
331
F84
  5
F86
331
F85
  5
F87
331
F86
  5
F88
331
F87
  5
F89
331
F88
  5
F8A
331
F89
  5
F8B
331
F8A
  5
F8C
331
F8B
  5
F8D
331
F8C
  5
F8E
331
F8D
  5
F8F
331
F8E
  5
F90
331
F8F
  5
F91
331
F90
  5
F92
331
F91
  5
F93
331
F92
  5
F94
331
F93
  5
F95
331
F94
  5
F96
331
F95
  5
F97
331
F96
  5
F98
331
F97
  5
F99
331
F98
  5
F9A
331
F99
  5
F9B
331
F9A
  5
F9C
331
F9B
  5
F9D
331
F9C
  5
F9E
331
F9D
  5
F9F
331
F9E
  5
FA0
331
F9F
  5
FA1
331
FA0
  5
FA2
331
FA1
  5
FA3
331
FA2
  5
FA4
331
FA3
  5
FA5
331
FA4
  5
FA6
331
FA5
  5
FA7
331
FA6
  5
FA8
331
FA7
  5
FA9
331
FA8
  5
FAA
331
FA9
  5
FAB
331
FAA
  5
FAC
331
FAB
  5
FAD
331
FAC
  5
FAE
331
FAD
  5
FAF
331
FAE
  5
FB0
331
FAF
  5
FB1
331
FB0
  5
FB2
331
FB1
  5
FB3
331
FB2
  5
FB4
331
FB3
  5
FB5
331
FB4
  5
FB6
331
FB5
  5
FB7
331
FB6
  5
FB8
331
FB7
  5
FB9
331
FB8
  5
FBA
331
FB9
  5
FBB
331
FBA
  5
FBC
331
FBB
  5
FBD
331
FBC
  5
FBE
331
FBD
  5
FBF
331
FBE
  5
FC0
331
FBF
  5
FC1
331
FC0
  5
FC2
331
FC1
  5
FC3
331
FC2
  5
FC4
331
FC3
  5
FC5
331
FC4
  5
FC6
331
FC5
  5
FC7
331
FC6
  5
FC8
331
FC7
  5
FC9
331
FC8
  5
FCA
331
FC9
  5
FCB
331
FCA
  5
FCC
331
FCB
  5
FCD
331
FCC
  5
FCE
331
FCD
  5
FCF
331
FCE
  5
FD0
331
FCF
  5
FD1
331
FD0
  5
FD2
331
FD1
  5
FD3
331
FD2
  5
FD7
331
FD3
  5
FEE
331
FEE
  5
FF0
331
FEF
  5
FF1
331
FF0
  5
FF2
331
FF1
  5
FF3
331
FF2
  5
FF4
331
FF3
  5
FF5
331
FF4
  5
FF6
331
FF5
  5
FF7
331
FF6
  5
FF8
331
FF7
  5
FF9
331
FF8
  5
FFA
331
FF9
  5
FFB
331
FFA
  5
FFC
331
FFB
  5
FFD
331
FFC
  5
FFE
331
FFD
  5
FFF
331
FFE
  5
1000
331
FFF
  5
1001
331
1000
  5
1002
331
1001
  5
1003
331
1002
  5
1004
331
1003
  5
1005
331
1004
  5
1006
331
1005
  5
1007
331
1006
  5
1008
331
1007
  5
1009
331
1008
  5
100A
331
1009
  5
100B
331
100A
  5
100C
331
100B
  5
100D
331
100C
  5
100E
331
100D
  5
100F
331
100E
  5
1010
331
100F
  5
1011
331
1010
  5
1012
331
1011
  5
1013
331
1012
  5
1014
331
1013
  5
1015
331
1014
  5
1016
331
1015
  5
1017
331
1016
  5
1018
331
1017
  5
1019
331
1018
  5
101A
331
1019
  5
101B
331
101A
  5
101C
331
101B
  5
101D
331
101C
  5
101E
331
101D
  5
101F
331
101E
  5
1020
331
101F
  5
1021
331
1020
  5
1022
331
1021
  5
1023
331
1022
  5
1024
331
1023
  5
1025
331
1024
  5
1026
331
1025
  5
12A6
331
1026
  5
146F
331
12A6
  5
1471
331
146F
  5
1472
331
1471
  5
1473
331
1472
  5
1474
331
1473
  5
1475
331
1474
  5
1476
331
1475
  5
1477
331
1476
  5
1478
331
1477
  5
1479
331
1478
  5
147A
331
1479
  5
147B
331
147A
  5
147C
331
147B
  5
147D
331
147C
  5
147E
331
147D
  5
147F
331
147E
  5
1480
331
147F
  5
1481
331
1480
  5
1482
331
1481
  5
1483
331
1482
  5
1484
331
1483
  5
1485
331
1484
  5
1486
331
1485
  5
1487
331
1486
  5
164D
331
1487
  5
164E
331
164D
  5
164F
331
164E
  5
1650
331
164F
  5
1651
331
1650
  5
1652
331
1651
  5
1653
331
1652
  5
1654
331
1653
  5
1655
331
1654
  5
1656
331
1655
  5
1657
331
1656
  5
1658
331
1657
  5
1659
331
1658
  5
165A
331
1659
  5
165B
331
165A
  5
165C
331
165B
  5
165D
331
165C
  5
165E
331
165D
  5
165F
331
165E
  5
1660
331
165F
  5
1661
331
1660
  5
1662
331
1661
  5
1663
331
1662
  5
1664
331
1663
  5
1665
331
1664
  5
1666
331
1665
  5
166A
331
1666
  5
166C
331
1678
  5
F45
  0
SORTENTSTABLE
  5
1808
102
{ACAD_REACTORS
330
1807
102
}
330
1807
100
AcDbSortentsTable
330
17BC
  0
SORTENTSTABLE
  5
1901
102
{ACAD_REACTORS
330
1900
102
}
330
1900
100
AcDbSortentsTable
330
18B5
  0
DIMASSOC
  5
17E0
102
{ACAD_REACTORS
330
17DF
102
}
330
17DF
100
AcDbDimAssoc
330
17DE
 90
        1
 70
     0
 71
     0
  1
AcDbOsnapPointRef
 72
     4
331
17D0
 73
     2
 91
        0
 40
0.0
 10
0.0
 20
0.0
 30
0.0
 75
     0
  0
DIMASSOC
  5
17E3
102
{ACAD_REACTORS
330
17E2
102
}
330
17E2
100
AcDbDimAssoc
330
17E1
 90
        1
 70
     0
 71
     0
  1
AcDbOsnapPointRef
 72
     4
331
17D1
 73
     2
 91
        0
 40
0.0
 10
0.0
 20
0.0
 30
0.0
 75
     0
  0
DIMASSOC
  5
17E7
102
{ACAD_REACTORS
330
17E6
102
}
330
17E6
100
AcDbDimAssoc
330
17E5
 90
        1
 70
     0
 71
     0
  1
AcDbOsnapPointRef
 72
    11
331
17D2
 73
     2
 91
        0
 40
0.0
 10
0.0
 20
0.0
 30
0.0
332
17CE
 74
     2
 92
        0
 75
     0
  0
DIMASSOC
  5
17EA
102
{ACAD_REACTORS
330
17E9
102
}
330
17E9
100
AcDbDimAssoc
330
17E8
 90
        3
 70
     0
 71
     0
  1
AcDbOsnapPointRef
 72
    13
331
17D2
 73
     2
 91
        0
 40
0.0
 10
0.0
 20
0.0
 30
2.000000000000000E+50
 75
     0
  1
AcDbOsnapPointRef
 72
     2
331
17DB
 73
     2
 91
        0
 40
5.877620224008294
 10
0.0
 20
0.0
 30
0.0
 75
     0
  0
DIMASSOC
  5
17F2
102
{ACAD_REACTORS
330
17F1
102
}
330
17F1
100
AcDbDimAssoc
330
17F0
 90
       15
 70
     0
 71
     0
  1
AcDbOsnapPointRef
 72
    13
331
17EF
 73
     2
 91
        0
 40
0.0
 10
0.0
 20
0.0
 30
2.000000000000000E+50
 75
     0
  1
AcDbOsnapPointRef
 72
     1
331
17EF
 73
     2
 91
        0
 40
1.0
 10
0.0
 20
0.0
 30
2.000000000000000E+50
 75
     0
  1
AcDbOsnapPointRef
 72
    13
331
17C4
 73
     2
 91
        0
 40
0.0
 10
0.0
 20
0.0
 30
2.000000000000000E+50
 75
     0
  1
AcDbOsnapPointRef
 72
     1
331
17C4
 73
     2
 91
        0
 40
1.0
 10
0.0
 20
0.0
 30
2.000000000000000E+50
 75
     0
  0
DIMASSOC
  5
17F5
102
{ACAD_REACTORS
330
17F4
102
}
330
17F4
100
AcDbDimAssoc
330
17F3
 90
        3
 70
     0
 71
     0
  1
AcDbOsnapPointRef
 72
     2
331
17EC
 73
     2
 91
        0
 40
1.570796326794896
 10
0.0
 20
0.0
 30
0.0
 75
     0
  1
AcDbOsnapPointRef
 72
     2
331
17DA
 73
     2
 91
        0
 40
4.401281989892162
 10
0.0
 20
0.0
 30
0.0
 75
     0
  0
DIMASSOC
  5
17F9
102
{ACAD_REACTORS
330
17F8
102
}
330
17F8
100
AcDbDimAssoc
330
17F7
 90
       15
 70
     0
 71
     0
  1
AcDbOsnapPointRef
 72
    13
331
17CC
 73
     2
 91
        0
 40
0.0
 10
0.0
 20
0.0
 30
2.000000000000000E+50
 75
     0
  1
AcDbOsnapPointRef
 72
     1
331
17CC
 73
     2
 91
        0
 40
1.0
 10
0.0
 20
0.0
 30
2.000000000000000E+50
 75
     0
  1
AcDbOsnapPointRef
 72
    13
331
17CF
 73
     2
 91
        0
 40
0.0
 10
0.0
 20
0.0
 30
2.000000000000000E+50
 75
     0
  1
AcDbOsnapPointRef
 72
     1
331
17CF
 73
     2
 91
        0
 40
0.9999999999999998
 10
0.0
 20
0.0
 30
2.000000000000000E+50
 75
     0
  0
DIMASSOC
  5
17FC
102
{ACAD_REACTORS
330
17FB
102
}
330
17FB
100
AcDbDimAssoc
330
17FA
 90
       15
 70
     0
 71
     0
  1
AcDbOsnapPointRef
 72
    13
331
17CC
 73
     2
 91
        0
 40
0.0
 10
0.0
 20
0.0
 30
2.000000000000000E+50
 75
     0
  1
AcDbOsnapPointRef
 72
     1
331
17CC
 73
     2
 91
        0
 40
1.0
 10
0.0
 20
0.0
 30
2.000000000000000E+50
 75
     0
  1
AcDbOsnapPointRef
 72
    13
331
17EE
 73
     2
 91
        0
 40
0.0
 10
0.0
 20
0.0
 30
2.000000000000000E+50
 75
     0
  1
AcDbOsnapPointRef
 72
     1
331
17EE
 73
     2
 91
        0
 40
1.0
 10
0.0
 20
0.0
 30
2.000000000000000E+50
 75
     0
  0
DIMASSOC
  5
17FF
102
{ACAD_REACTORS
330
17FE
102
}
330
17FE
100
AcDbDimAssoc
330
17FD
 90
        3
 70
     0
 71
     0
  1
AcDbOsnapPointRef
 72
     2
331
17BF
 73
     2
 91
        0
 40
0.5000000000000001
 10
0.0
 20
0.0
 30
0.0
 75
     0
  1
AcDbOsnapPointRef
 72
     8
331
17CA
 73
     2
 91
        0
 40
0.5381049066556047
 10
0.0
 20
0.0
 30
0.0
 75
     1
  1
AcDbOsnapPointRef
 72
     2
331
17BF
 73
     2
 91
        0
 40
0.5000000000000001
 10
0.0
 20
0.0
 30
0.0
 75
     0
  0
DIMASSOC
  5
1805
102
{ACAD_REACTORS
330
1804
102
}
330
1804
100
AcDbDimAssoc
330
1803
 90
        2
 70
     0
 71
     0
  1
AcDbOsnapPointRef
 72
     3
331
17D7
 73
     2
 91
        0
 40
0.0
 10
0.0
 20
0.0
 30
0.0
 75
     0
  0
DIMASSOC
  5
18D9
102
{ACAD_REACTORS
330
18D8
102
}
330
18D8
100
AcDbDimAssoc
330
18D7
 90
        1
 70
     0
 71
     0
  1
AcDbOsnapPointRef
 72
     4
331
18C9
 73
     2
 91
        0
 40
0.0
 10
0.0
 20
0.0
 30
0.0
 75
     0
  0
DIMASSOC
  5
18DC
102
{ACAD_REACTORS
330
18DB
102
}
330
18DB
100
AcDbDimAssoc
330
18DA
 90
        1
 70
     0
 71
     0
  1
AcDbOsnapPointRef
 72
     4
331
18CA
 73
     2
 91
        0
 40
0.0
 10
0.0
 20
0.0
 30
0.0
 75
     0
  0
DIMASSOC
  5
18E0
102
{ACAD_REACTORS
330
18DF
102
}
330
18DF
100
AcDbDimAssoc
330
18DE
 90
        1
 70
     0
 71
     0
  1
AcDbOsnapPointRef
 72
    11
331
18CB
 73
     2
 91
        0
 40
0.0
 10
0.0
 20
0.0
 30
0.0
332
18C7
 74
     2
 92
        0
 75
     0
  0
DIMASSOC
  5
18E3
102
{ACAD_REACTORS
330
18E2
102
}
330
18E2
100
AcDbDimAssoc
330
18E1
 90
        3
 70
     0
 71
     0
  1
AcDbOsnapPointRef
 72
    13
331
18CB
 73
     2
 91
        0
 40
0.0
 10
0.0
 20
0.0
 30
2.000000000000000E+50
 75
     0
  1
AcDbOsnapPointRef
 72
     2
331
18D4
 73
     2
 91
        0
 40
5.877620224008294
 10
0.0
 20
0.0
 30
0.0
 75
     0
  0
DIMASSOC
  5
18EB
102
{ACAD_REACTORS
330
18EA
102
}
330
18EA
100
AcDbDimAssoc
330
18E9
 90
       15
 70
     0
 71
     0
  1
AcDbOsnapPointRef
 72
    13
331
18E8
 73
     2
 91
        0
 40
0.0
 10
0.0
 20
0.0
 30
2.000000000000000E+50
 75
     0
  1
AcDbOsnapPointRef
 72
     1
331
18E8
 73
     2
 91
        0
 40
1.0
 10
0.0
 20
0.0
 30
2.000000000000000E+50
 75
     0
  1
AcDbOsnapPointRef
 72
    13
331
18BD
 73
     2
 91
        0
 40
0.0
 10
0.0
 20
0.0
 30
2.000000000000000E+50
 75
     0
  1
AcDbOsnapPointRef
 72
     1
331
18BD
 73
     2
 91
        0
 40
1.0
 10
0.0
 20
0.0
 30
2.000000000000000E+50
 75
     0
  0
DIMASSOC
  5
18EE
102
{ACAD_REACTORS
330
18ED
102
}
330
18ED
100
AcDbDimAssoc
330
18EC
 90
        3
 70
     0
 71
     0
  1
AcDbOsnapPointRef
 72
     2
331
18E5
 73
     2
 91
        0
 40
1.570796326794896
 10
0.0
 20
0.0
 30
0.0
 75
     0
  1
AcDbOsnapPointRef
 72
     2
331
18D3
 73
     2
 91
        0
 40
4.401281989892162
 10
0.0
 20
0.0
 30
0.0
 75
     0
  0
DIMASSOC
  5
18F2
102
{ACAD_REACTORS
330
18F1
102
}
330
18F1
100
AcDbDimAssoc
330
18F0
 90
       15
 70
     0
 71
     0
  1
AcDbOsnapPointRef
 72
    13
331
18C5
 73
     2
 91
        0
 40
0.0
 10
0.0
 20
0.0
 30
2.000000000000000E+50
 75
     0
  1
AcDbOsnapPointRef
 72
     1
331
18C5
 73
     2
 91
        0
 40
1.0
 10
0.0
 20
0.0
 30
2.000000000000000E+50
 75
     0
  1
AcDbOsnapPointRef
 72
    13
331
18C8
 73
     2
 91
        0
 40
0.0
 10
0.0
 20
0.0
 30
2.000000000000000E+50
 75
     0
  1
AcDbOsnapPointRef
 72
     1
331
18C8
 73
     2
 91
        0
 40
0.9999999999999998
 10
0.0
 20
0.0
 30
2.000000000000000E+50
 75
     0
  0
DIMASSOC
  5
18F5
102
{ACAD_REACTORS
330
18F4
102
}
330
18F4
100
AcDbDimAssoc
330
18F3
 90
       15
 70
     0
 71
     0
  1
AcDbOsnapPointRef
 72
    13
331
18C5
 73
     2
 91
        0
 40
0.0
 10
0.0
 20
0.0
 30
2.000000000000000E+50
 75
     0
  1
AcDbOsnapPointRef
 72
     1
331
18C5
 73
     2
 91
        0
 40
1.0
 10
0.0
 20
0.0
 30
2.000000000000000E+50
 75
     0
  1
AcDbOsnapPointRef
 72
    13
331
18E7
 73
     2
 91
        0
 40
0.0
 10
0.0
 20
0.0
 30
2.000000000000000E+50
 75
     0
  1
AcDbOsnapPointRef
 72
     1
331
18E7
 73
     2
 91
        0
 40
1.0
 10
0.0
 20
0.0
 30
2.000000000000000E+50
 75
     0
  0
DIMASSOC
  5
18F8
102
{ACAD_REACTORS
330
18F7
102
}
330
18F7
100
AcDbDimAssoc
330
18F6
 90
        3
 70
     0
 71
     0
  1
AcDbOsnapPointRef
 72
     2
331
18B8
 73
     2
 91
        0
 40
0.5000000000000001
 10
0.0
 20
0.0
 30
0.0
 75
     0
  1
AcDbOsnapPointRef
 72
     8
331
18C3
 73
     2
 91
        0
 40
0.5381049066556047
 10
0.0
 20
0.0
 30
0.0
 75
     1
  1
AcDbOsnapPointRef
 72
     2
331
18B8
 73
     2
 91
        0
 40
0.5000000000000001
 10
0.0
 20
0.0
 30
0.0
 75
     0
  0
DIMASSOC
  5
18FE
102
{ACAD_REACTORS
330
18FD
102
}
330
18FD
100
AcDbDimAssoc
330
18FC
 90
        2
 70
     0
 71
     0
  1
AcDbOsnapPointRef
 72
     3
331
18D0
 73
     2
 91
        0
 40
0.0
 10
0.0
 20
0.0
 30
0.0
 75
     0
  0
XRECORD
  5
566
102
{ACAD_REACTORS
330
565
102
}
330
565
100
AcDbXrecord
280
     1
 90
        1
340
10D
  0
XRECORD
  5
571
102
{ACAD_REACTORS
330
570
102
}
330
570
100
AcDbXrecord
280
     1
 90
        1
340
10D
  0
ACDBDETAILVIEWSTYLE
  5
21C
102
{ACAD_XDICTIONARY
360
1D7F
102
}
102
{ACAD_REACTORS
330
21B
102
}
330
21B
100
AcDbModelDocViewStyle
 70
     0
  3
Metric50
290
     0
100
AcDbDetailViewStyle
 70
     0
 71
     0
 90
        3
 71
     1
340
11
 62
   256
 40
5.0
340
0
 62
   256
 40
5.0
300

 40
0.0
280
     1
 71
     2
340
16
 90
       25
 62
   256
 71
     3
340
11
 62
   256
 40
5.0
 90
        0
 40
15.0
 90
        1
300
%<\AcVar ViewDetailId>% (%<\AcVar ViewScale \f "%sn">%)
 71
     4
340
16
 90
       25
 62
   256
340
16
 90
       25
 62
   256
280
     0
  0
GROUP
  5
1667
102
{ACAD_REACTORS
330
D
102
}
330
D
100
AcDbGroup
300

 70
     1
 71
     1
340
1666
340
1665
340
1664
340
1663
340
1662
340
1661
340
1660
340
165F
340
165E
340
165D
340
165C
340
165B
340
165A
340
1659
340
1658
340
1657
340
1656
340
1655
340
1654
340
1653
340
1652
340
1651
340
1650
340
164F
340
164E
340
164D
  0
LAYOUT
  5
22
102
{ACAD_XDICTIONARY
360
205
102
}
102
{ACAD_REACTORS
330
1A
102
}
330
1A
100
AcDbPlotSettings
  1

  2
Adobe PDF
  4
A3
  6

 40
3.174999952316284
 41
3.174999952316284
 42
3.17498779296875
 43
3.17498779296875
 44
297.0318298339844
 45
420.1583251953125
 46
-3.168142676364027
 47
-3.108648657813716
 48
29.99999038752867
 49
22.00000440998611
140
809.9999903875286
141
572.0000044099861
142
1.0
143
2.0
 70
 11940
 72
     1
 73
     1
 74
     1
  7
monochrome.ctb
 75
     0
147
0.4893335039727877
 76
     0
 77
     2
 78
   300
148
0.0256330985855584
149
0.0181267671141541
100
AcDbLayout
  1
Model
 70
     1
 71
     0
 10
0.0
 20
0.0
 11
12.0
 21
9.0
 12
0.0
 22
0.0
 32
0.0
 14
0.0
 24
0.0
 34
0.0
 15
0.0
 25
0.0
 35
0.0
146
0.0
 13
0.0
 23
0.0
 33
0.0
 16
1.0
 26
0.0
 36
0.0
 17
0.0
 27
1.0
 37
0.0
 76
     0
330
1F
331
EA
1001
ACAD_PSEXT
1000
Adobe PDF
1000
Adobe PDF Converter
1000
Documents\*.pdf
1000

1070
     0
  0
LAYOUT
  5
D3
102
{ACAD_XDICTIONARY
360
5EB
102
}
102
{ACAD_REACTORS
330
1A
102
}
330
1A
100
AcDbPlotSettings
  1

  2
Adobe PDF.pc3
  4
A3
  6

 40
0.1481666713953018
 41
0.010498046875
 42
0.0
 43
0.0
 44
420.0
 45
297.0
 46
-0.096217698988653
 47
-0.0143655251040116
 48
0.0
 49
0.0
140
0.0
141
0.0
142
1.0
143
1.0
 70
   550
 72
     1
 73
     0
 74
     1
  7
monochrome.ctb
 75
    16
147
0.9999999999999998
 76
     1
 77
     2
 78
   300
148
0.0237639389299602
149
0.0158664553705421
100
AcDbLayout
  1
wrp007-07-03
 70
     1
 71
     1
 10
-0.0757129113366091
 20
-0.0119989771415305
 11
419.9242870886634
 21
296.9880010228585
 12
0.0
 22
0.0
 32
0.0
 14
-0.0237639389299602
 24
-0.0158664553705421
 34
-0.0000000000000058
 15
420.0205047876521
 25
297.0023665479626
 35
0.0000000000000104
146
0.0
 13
0.0
 23
0.0
 33
0.0
 16
1.0
 26
0.0
 36
0.0
 17
0.0
 27
1.0
 37
0.0
 76
     0
330
D2
331
564
1001
ACAD_PSEXT
1000
Adobe PDF.pc3
1000
Adobe PDF Converter
1000
Documents\*.pdf
1000

1070
     0
  0
MATERIAL
  5
ED
102
{ACAD_XDICTIONARY
360
1F9
102
}
102
{ACAD_REACTORS
330
6A
102
}
330
6A
100
AcDbMaterial
  1
ByBlock
 94
       63
  0
MATERIAL
  5
EC
102
{ACAD_XDICTIONARY
360
1F7
102
}
102
{ACAD_REACTORS
330
6A
102
}
330
6A
100
AcDbMaterial
  1
ByLayer
 94
       63
  0
MATERIAL
  5
EE
102
{ACAD_XDICTIONARY
360
173
102
}
102
{ACAD_REACTORS
330
6A
102
}
330
6A
100
AcDbMaterial
  1
Global
 43
0.0007999999797903
 43
0.0
 43
0.0
 43
0.0
 43
0.0
 43
0.0007999999797903
 43
0.0
 43
0.0
 43
0.0
 43
0.0
 43
1.0
 43
0.0
 43
0.0
 43
0.0
 43
0.0
 43
1.0
 49
0.0007999999797903
 49
0.0
 49
0.0
 49
0.0
 49
0.0
 49
0.0007999999797903
 49
0.0
 49
0.0
 49
0.0
 49
0.0
 49
1.0
 49
0.0
 49
0.0
 49
0.0
 49
0.0
 49
1.0
142
0.0007999999797903
142
0.0
142
0.0
142
0.0
142
0.0
142
0.0007999999797903
142
0.0
142
0.0
142
0.0
142
0.0
142
1.0
142
0.0
142
0.0
142
0.0
142
0.0
142
1.0
144
0.0007999999797903
144
0.0
144
0.0
144
0.0
144
0.0
144
0.0007999999797903
144
0.0
144
0.0
144
0.0
144
0.0
144
1.0
144
0.0
144
0.0
144
0.0
144
0.0
144
1.0
 94
       63
1001
ACAD
1070
    -1
1070
     3
1070
     0
1000

1071
        0
1070
     0
  0
MLEADERSTYLE
  5
12E
102
{ACAD_REACTORS
330
12D
102
}
330
12D
100
AcDbMLeaderStyle
179
     2
170
     2
171
     1
172
     0
 90
        2
 40
0.0
 41
0.0
173
     1
 91
-1056964608
340
14
 92
       -2
290
     1
 42
2.0
291
     1
 43
8.0
  3
Standard
 44
4.0
300

342
11
174
     1
178
     1
175
     1
176
     0
 93
-1056964608
 45
4.0
292
     0
297
     0
 46
4.0
 94
-1056964608
 47
1.0
 49
1.0
140
1.0
293
     1
141
0.0
294
     1
177
     0
142
1.0
295
     0
296
     0
143
3.75
271
     0
272
     9
273
     9
298
     0
  0
MLINESTYLE
  5
18
102
{ACAD_REACTORS
330
17
102
}
330
17
100
AcDbMlineStyle
  2
STANDARD
 70
     0
  3

 62
   256
 51
90.0
 52
90.0
 71
     2
 49
0.5
 62
   256
  6
BYLAYER
 49
-0.5
 62
   256
  6
BYLAYER
  0
ACDBPLACEHOLDER
  5
F
102
{ACAD_REACTORS
330
E
102
}
330
E
  0
ACDBPLACEHOLDER
  5
19B1
102
{ACAD_REACTORS
330
E
102
}
330
E
  0
DICTIONARY
  5
1CB1
330
1CB0
100
AcDbDictionary
280
     1
281
     1
  3
ACAD_XREC_ROUNDTRIP
360
1CB3
  3
ADSK_XREC_MENTALRAYSETTINGSINFO
360
1CB2
  0
RAPIDRTRENDERSETTINGS
  5
1C99
102
{ACAD_REACTORS
330
1C93
102
}
330
1C93
100
AcDbRenderSettings
 90
        2
  1
オーバーナイト品質
290
     1
290
     0
290
     1
290
     1
  1

  1
12 時間のレンダリング
 90
        5
100
AcDbRapidRTRenderSettings
 90
        3
 70
     1
 90
        1
 90
      720
 70
     2
 70
     2
 40
3.0
 40
3.0
290
     1
  0
RAPIDRTRENDERSETTINGS
  5
1C97
102
{ACAD_REACTORS
330
1C93
102
}
330
1C93
100
AcDbRenderSettings
 90
        2
  1
コーヒー ブレイク品質
290
     1
290
     0
290
     1
290
     1
  1

  1
10 分のレンダリング
 90
        3
100
AcDbRapidRTRenderSettings
 90
        3
 70
     1
 90
        1
 90
       10
 70
     1
 70
     2
 40
3.0
 40
3.0
290
     1
  0
RAPIDRTRENDERSETTINGS
  5
1C98
102
{ACAD_REACTORS
330
1C93
102
}
330
1C93
100
AcDbRenderSettings
 90
        2
  1
ランチ タイム品質
290
     1
290
     0
290
     1
290
     1
  1

  1
60 分のレンダリング
 90
        4
100
AcDbRapidRTRenderSettings
 90
        3
 70
     1
 90
        1
 90
       60
 70
     2
 70
     2
 40
3.0
 40
3.0
290
     1
  0
RAPIDRTRENDERSETTINGS
  5
1C95
102
{ACAD_REACTORS
330
1C93
102
}
330
1C93
100
AcDbRenderSettings
 90
        2
  1
中
290
     1
290
     0
290
     1
290
     1
  1

  1
5 レンダリング レベルを適用
 90
        1
100
AcDbRapidRTRenderSettings
 90
        3
 70
     0
 90
        5
 90
        1
 70
     1
 70
     2
 40
3.0
 40
3.0
290
     1
  0
RAPIDRTRENDERSETTINGS
  5
1C94
102
{ACAD_REACTORS
330
1C93
102
}
330
1C93
100
AcDbRenderSettings
 90
        2
  1
低
290
     1
290
     0
290
     1
290
     1
  1

  1
1 レンダリング レベルを適用
 90
        0
100
AcDbRapidRTRenderSettings
 90
        3
 70
     0
 90
        1
 90
        1
 70
     0
 70
     2
 40
3.0
 40
3.0
290
     1
  0
RAPIDRTRENDERSETTINGS
  5
1C96
102
{ACAD_REACTORS
330
1C93
102
}
330
1C93
100
AcDbRenderSettings
 90
        2
  1
高
290
     1
290
     0
290
     1
290
     1
  1

  1
10 レンダリング レベルを適用
 90
        2
100
AcDbRapidRTRenderSettings
 90
        3
 70
     0
 90
       10
 90
        1
 70
     2
 70
     2
 40
3.0
 40
3.0
290
     1
  0
SCALE
  5
10D
102
{ACAD_REACTORS
330
10C
102
}
330
10C
100
AcDbScale
 70
     0
300
1:1
140
1.0
141
1.0
290
     1
  0
SCALE
  5
1BE
102
{ACAD_REACTORS
330
10C
102
}
330
10C
100
AcDbScale
 70
     0
300
1:2
140
1.0
141
2.0
290
     0
  0
SCALE
  5
1BF
102
{ACAD_REACTORS
330
10C
102
}
330
10C
100
AcDbScale
 70
     0
300
1:4
140
1.0
141
4.0
290
     0
  0
SCALE
  5
1C0
102
{ACAD_REACTORS
330
10C
102
}
330
10C
100
AcDbScale
 70
     0
300
1:5
140
1.0
141
5.0
290
     0
  0
SCALE
  5
1C1
102
{ACAD_REACTORS
330
10C
102
}
330
10C
100
AcDbScale
 70
     0
300
1:8
140
1.0
141
8.0
290
     0
  0
SCALE
  5
1C2
102
{ACAD_REACTORS
330
10C
102
}
330
10C
100
AcDbScale
 70
     0
300
1:10
140
1.0
141
10.0
290
     0
  0
SCALE
  5
1C3
102
{ACAD_REACTORS
330
10C
102
}
330
10C
100
AcDbScale
 70
     0
300
1:16
140
1.0
141
16.0
290
     0
  0
SCALE
  5
1C4
102
{ACAD_REACTORS
330
10C
102
}
330
10C
100
AcDbScale
 70
     0
300
1:20
140
1.0
141
20.0
290
     0
  0
SCALE
  5
1C5
102
{ACAD_REACTORS
330
10C
102
}
330
10C
100
AcDbScale
 70
     0
300
1:30
140
1.0
141
30.0
290
     0
  0
SCALE
  5
1C6
102
{ACAD_REACTORS
330
10C
102
}
330
10C
100
AcDbScale
 70
     0
300
1:40
140
1.0
141
40.0
290
     0
  0
SCALE
  5
1C7
102
{ACAD_REACTORS
330
10C
102
}
330
10C
100
AcDbScale
 70
     0
300
1:50
140
1.0
141
50.0
290
     0
  0
SCALE
  5
1C8
102
{ACAD_REACTORS
330
10C
102
}
330
10C
100
AcDbScale
 70
     0
300
1:100
140
1.0
141
100.0
290
     0
  0
SCALE
  5
1C9
102
{ACAD_REACTORS
330
10C
102
}
330
10C
100
AcDbScale
 70
     0
300
2:1
140
2.0
141
1.0
290
     0
  0
SCALE
  5
1CA
102
{ACAD_REACTORS
330
10C
102
}
330
10C
100
AcDbScale
 70
     0
300
4:1
140
4.0
141
1.0
290
     0
  0
SCALE
  5
1CB
102
{ACAD_REACTORS
330
10C
102
}
330
10C
100
AcDbScale
 70
     0
300
8:1
140
8.0
141
1.0
290
     0
  0
SCALE
  5
1CC
102
{ACAD_REACTORS
330
10C
102
}
330
10C
100
AcDbScale
 70
     0
300
10:1
140
10.0
141
1.0
290
     0
  0
SCALE
  5
1CD
102
{ACAD_REACTORS
330
10C
102
}
330
10C
100
AcDbScale
 70
     0
300
100:1
140
100.0
141
1.0
290
     0
  0
ACDBSECTIONVIEWSTYLE
  5
21A
102
{ACAD_XDICTIONARY
360
1D7D
102
}
102
{ACAD_REACTORS
330
219
102
}
330
219
100
AcDbModelDocViewStyle
 70
     0
  3
Metric50
290
     0
100
AcDbSectionViewStyle
 70
     0
 71
     0
 90
      102
 71
     1
340
11
 62
   256
 40
5.0
340
0
340
0
 62
   256
 40
5.0
300
I, O, Q, S, X, Z
 40
10.0
 90
        0
 40
2.5
 90
        0
 71
     2
340
16
 90
       25
 62
   256
340
16
 90
       50
 62
   256
 40
5.0
 40
2.5
 40
5.0
 71
     3
340
11
 62
   256
 40
5.0
 90
        0
 40
15.0
 90
        1
300
%<\AcVar ViewSectionStartId>%-%<\AcVar ViewSectionEndId>% (%<\AcVar ViewScale \f "%sn">%)
 71
     4
 62
   256
 62
   257
300
ANSI31
 40
1.0
 90
        0
290
     0
290
     0
 90
        6
 40
0.0
 40
1.570796326794896
 40
0.2617993877991494
 40
1.308996938995747
 40
-0.2617993877991494
 40
1.832595714594046
  0
TABLESTYLE
  5
7F
102
{ACAD_XDICTIONARY
360
162
102
}
102
{ACAD_REACTORS
330
7E
102
}
330
7E
100
AcDbTableStyle
280
     0
  3
Standard
 70
     0
 71
     0
 40
1.5
 41
1.5
280
     0
281
     0
  7
Standard
140
4.5
170
     2
 62
     0
 63
     7
283
     0
 90
      512
 91
        0
  1

274
    -2
284
     1
 64
     0
275
    -2
285
     1
 65
     0
276
    -2
286
     1
 66
     0
277
    -2
287
     1
 67
     0
278
    -2
288
     1
 68
     0
279
    -2
289
     1
 69
     0
  7
Standard
140
6.0
170
     5
 62
     0
 63
     7
283
     0
 90
      512
 91
        0
  1

274
    -2
284
     1
 64
     0
275
    -2
285
     1
 65
     0
276
    -2
286
     1
 66
     0
277
    -2
287
     1
 67
     0
278
    -2
288
     1
 68
     0
279
    -2
289
     1
 69
     0
  7
Standard
140
4.5
170
     5
 62
     0
 63
     7
283
     0
 90
      512
 91
        0
  1

274
    -2
284
     1
 64
     0
275
    -2
285
     1
 65
     0
276
    -2
286
     1
 66
     0
277
    -2
287
     1
 67
     0
278
    -2
288
     1
 68
     0
279
    -2
289
     1
 69
     0
  0
VISUALSTYLE
  5
F5
102
{ACAD_REACTORS
330
EF
102
}
330
EF
100
AcDbVisualStyle
  2
2dWireframe
 70
     4
177
     3
291
     0
 70
    58
 90
        0
176
     1
 90
        2
176
     1
 90
        1
176
     1
 90
        0
176
     1
 40
0.6
176
     1
 40
30.0
176
     1
 62
     7
420
 16777215
176
     1
 90
        1
176
     1
 90
        4
176
     1
 62
     7
176
     1
 62
   257
176
     1
 90
        1
176
     1
 90
        1
176
     1
 40
1.0
176
     1
 90
        0
176
     1
 62
   257
176
     1
 40
1.0
176
     1
 90
        1
176
     1
 90
        6
176
     1
 90
        2
176
     1
 62
     7
176
     1
 90
        5
176
     1
 90
        0
176
     1
 90
        0
176
     1
290
     0
176
     1
 90
        1
176
     1
 40
0.0
176
     1
 90
        0
176
     1
290
     1
176
     1
290
     1
176
     1
290
     0
176
     1
290
     0
176
     1
290
     0
176
     1
290
     0
176
     1
290
     0
176
     1
290
     0
176
     1
290
     0
176
     1
 90
       50
176
     1
 40
0.0
176
     1
 40
1.0
176
     1
 90
        0
176
     1
 62
    18
420
        0
176
     1
 90
       50
176
     1
 90
        3
176
     1
 62
     5
420
      255
176
     1
290
     0
176
     1
 90
       50
176
     1
 90
       50
176
     1
 90
       50
176
     1
290
     0
176
     1
 90
       50
176
     1
 62
   256
176
     0
 40
1.0
176
     0
 90
        2
176
     1
  1
strokes_ogs.tif
176
     1
290
     0
176
     1
 40
1.0
176
     1
 40
1.0
176
     1
1001
ACAD
1000
AcDbSavedByObjectVersion
1070
     0
  0
VISUALSTYLE
  5
F4
102
{ACAD_REACTORS
330
EF
102
}
330
EF
100
AcDbVisualStyle
  2
Basic
 70
     7
177
     3
291
     1
 70
    58
 90
        1
176
     1
 90
        0
176
     1
 90
        1
176
     1
 90
        0
176
     1
 40
0.6
176
     1
 40
30.0
176
     1
 62
     7
420
 16777215
176
     1
 90
        0
176
     1
 90
        4
176
     1
 62
     7
176
     1
 62
   257
176
     1
 90
        1
176
     1
 90
        1
176
     1
 40
1.0
176
     1
 90
        8
176
     1
 62
     7
176
     1
 40
1.0
176
     1
 90
        1
176
     1
 90
        6
176
     1
 90
        2
176
     1
 62
     7
176
     1
 90
        5
176
     1
 90
        0
176
     1
 90
        0
176
     1
290
     0
176
     1
 90
        1
176
     1
 40
0.0
176
     1
 90
        0
176
     1
290
     0
176
     1
290
     1
176
     1
290
     1
176
     1
290
     0
176
     1
290
     0
176
     1
290
     0
176
     1
290
     0
176
     1
290
     0
176
     1
290
     0
176
     1
 90
       50
176
     1
 40
0.0
176
     1
 40
1.0
176
     1
 90
        0
176
     1
 62
    18
420
        0
176
     1
 90
       50
176
     1
 90
        3
176
     1
 62
     5
420
      255
176
     1
290
     0
176
     1
 90
       50
176
     1
 90
       50
176
     1
 90
       50
176
     1
290
     0
176
     1
 90
       50
176
     1
 62
   256
176
     0
 40
1.0
176
     0
 90
        2
176
     1
  1
strokes_ogs.tif
176
     1
290
     0
176
     1
 40
1.0
176
     1
 40
1.0
176
     1
1001
ACAD
1000
AcDbSavedByObjectVersion
1070
     0
  0
VISUALSTYLE
  5
FB
102
{ACAD_REACTORS
330
EF
102
}
330
EF
100
AcDbVisualStyle
  2
Brighten
 70
    12
177
     3
291
     1
 70
    58
 90
        2
176
     1
 90
        2
176
     1
 90
        1
176
     1
 90
        0
176
     1
 40
0.6
176
     1
 40
30.0
176
     1
 62
     7
420
 16777215
176
     1
 90
        1
176
     1
 90
        4
176
     1
 62
     7
176
     1
 62
   257
176
     1
 90
        1
176
     1
 90
        1
176
     1
 40
1.0
176
     1
 90
        8
176
     1
 62
     7
176
     1
 40
1.0
176
     1
 90
        1
176
     1
 90
        6
176
     1
 90
        2
176
     1
 62
     7
176
     1
 90
        5
176
     1
 90
        0
176
     1
 90
        0
176
     1
290
     0
176
     1
 90
        1
176
     1
 40
50.0
176
     1
 90
        0
176
     1
290
     0
176
     1
290
     1
176
     1
290
     1
176
     1
290
     0
176
     1
290
     0
176
     1
290
     0
176
     1
290
     0
176
     1
290
     0
176
     1
290
     0
176
     1
 90
       50
176
     1
 40
0.0
176
     1
 40
1.0
176
     1
 90
        0
176
     1
 62
    18
420
        0
176
     1
 90
       50
176
     1
 90
        3
176
     1
 62
     5
420
      255
176
     1
290
     0
176
     1
 90
       50
176
     1
 90
       50
176
     1
 90
       50
176
     1
290
     0
176
     1
 90
       50
176
     1
 62
   256
176
     0
 40
1.0
176
     0
 90
        2
176
     1
  1
strokes_ogs.tif
176
     1
290
     0
176
     1
 40
1.0
176
     1
 40
1.0
176
     1
1001
ACAD
1000
AcDbSavedByObjectVersion
1070
     0
  0
VISUALSTYLE
  5
FF
102
{ACAD_REACTORS
330
EF
102
}
330
EF
100
AcDbVisualStyle
  2
ColorChange
 70
    16
177
     3
291
     1
 70
    58
 90
        2
176
     1
 90
        2
176
     1
 90
        3
176
     1
 90
        0
176
     1
 40
0.6
176
     1
 40
30.0
176
     1
 62
     8
420
  8421504
176
     1
 90
        1
176
     1
 90
        4
176
     1
 62
     7
176
     1
 62
   257
176
     1
 90
        1
176
     1
 90
        1
176
     1
 40
1.0
176
     1
 90
        8
176
     1
 62
     8
420
  8421504
176
     1
 40
1.0
176
     1
 90
        1
176
     1
 90
        6
176
     1
 90
        2
176
     1
 62
     7
176
     1
 90
        5
176
     1
 90
        0
176
     1
 90
        0
176
     1
290
     0
176
     1
 90
        1
176
     1
 40
0.0
176
     1
 90
        0
176
     1
290
     0
176
     1
290
     1
176
     1
290
     1
176
     1
290
     0
176
     1
290
     0
176
     1
290
     0
176
     1
290
     0
176
     1
290
     0
176
     1
290
     0
176
     1
 90
       50
176
     1
 40
0.0
176
     1
 40
1.0
176
     1
 90
        0
176
     1
 62
    18
420
        0
176
     1
 90
       50
176
     1
 90
        3
176
     1
 62
     5
420
      255
176
     1
290
     0
176
     1
 90
       50
176
     1
 90
       50
176
     1
 90
       50
176
     1
290
     0
176
     1
 90
       50
176
     1
 62
   256
176
     0
 40
1.0
176
     0
 90
        2
176
     1
  1
strokes_ogs.tif
176
     1
290
     0
176
     1
 40
1.0
176
     1
 40
1.0
176
     1
1001
ACAD
1000
AcDbSavedByObjectVersion
1070
     0
  0
VISUALSTYLE
  5
F8
102
{ACAD_REACTORS
330
EF
102
}
330
EF
100
AcDbVisualStyle
  2
Conceptual
 70
     9
177
     3
291
     0
 70
    58
 90
        3
176
     1
 90
        2
176
     1
 90
        1
176
     1
 90
        0
176
     1
 40
0.6
176
     1
 40
30.0
176
     1
 62
     7
420
 16777215
176
     1
 90
        2
176
     1
 90
        2
176
     1
 62
     7
176
     1
 62
   257
176
     1
 90
        1
176
     1
 90
        1
176
     1
 40
40.0
176
     1
 90
        8
176
     1
 62
     7
176
     1
 40
1.0
176
     1
 90
        1
176
     1
 90
        6
176
     1
 90
        2
176
     1
 62
     7
176
     1
 90
        3
176
     1
 90
        0
176
     1
 90
        0
176
     1
290
     0
176
     1
 90
        1
176
     1
 40
0.0
176
     1
 90
        0
176
     1
290
     0
176
     1
290
     1
176
     1
290
     1
176
     1
290
     0
176
     1
290
     0
176
     1
290
     0
176
     1
290
     0
176
     1
290
     0
176
     1
290
     0
176
     1
 90
       50
176
     1
 40
0.0
176
     1
 40
1.0
176
     1
 90
        0
176
     1
 62
    18
420
        0
176
     1
 90
       50
176
     1
 90
        3
176
     1
 62
     5
420
      255
176
     1
290
     0
176
     1
 90
       50
176
     1
 90
       50
176
     1
 90
       50
176
     1
290
     0
176
     1
 90
       50
176
     1
 62
   256
176
     0
 40
1.0
176
     0
 90
        2
176
     1
  1
strokes_ogs.tif
176
     1
290
     0
176
     1
 40
1.0
176
     1
 40
1.0
176
     1
1001
ACAD
1000
AcDbSavedByObjectVersion
1070
     0
  0
VISUALSTYLE
  5
FA
102
{ACAD_REACTORS
330
EF
102
}
330
EF
100
AcDbVisualStyle
  2
Dim
 70
    11
177
     3
291
     1
 70
    58
 90
        2
176
     1
 90
        2
176
     1
 90
        1
176
     1
 90
        0
176
     1
 40
0.6
176
     1
 40
30.0
176
     1
 62
     7
420
 16777215
176
     1
 90
        1
176
     1
 90
        4
176
     1
 62
     7
176
     1
 62
   257
176
     1
 90
        1
176
     1
 90
        1
176
     1
 40
1.0
176
     1
 90
        8
176
     1
 62
     7
176
     1
 40
1.0
176
     1
 90
        1
176
     1
 90
        6
176
     1
 90
        2
176
     1
 62
     7
176
     1
 90
        5
176
     1
 90
        0
176
     1
 90
        0
176
     1
290
     0
176
     1
 90
        1
176
     1
 40
-50.0
176
     1
 90
        0
176
     1
290
     0
176
     1
290
     1
176
     1
290
     1
176
     1
290
     0
176
     1
290
     0
176
     1
290
     0
176
     1
290
     0
176
     1
290
     0
176
     1
290
     0
176
     1
 90
       50
176
     1
 40
0.0
176
     1
 40
1.0
176
     1
 90
        0
176
     1
 62
    18
420
        0
176
     1
 90
       50
176
     1
 90
        3
176
     1
 62
     5
420
      255
176
     1
290
     0
176
     1
 90
       50
176
     1
 90
       50
176
     1
 90
       50
176
     1
290
     0
176
     1
 90
       50
176
     1
 62
   256
176
     0
 40
1.0
176
     0
 90
        2
176
     1
  1
strokes_ogs.tif
176
     1
290
     0
176
     1
 40
1.0
176
     1
 40
1.0
176
     1
1001
ACAD
1000
AcDbSavedByObjectVersion
1070
     0
  0
VISUALSTYLE
  5
1E6
102
{ACAD_REACTORS
330
EF
102
}
330
EF
100
AcDbVisualStyle
  2
EdgeColorOff
 70
    22
177
     3
291
     1
 70
    58
 90
        2
176
     0
 90
        2
176
     0
 90
        0
176
     0
 90
        0
176
     0
 40
0.6
176
     0
 40
30.0
176
     0
 62
     7
420
 16777215
176
     0
 90
        1
176
     0
 90
        4
176
     0
 62
     7
176
     0
 62
   257
176
     0
 90
        1
176
     0
 90
        1
176
     0
 40
1.0
176
     0
 90
        8
176
     2
 62
     7
176
     0
 40
1.0
176
     0
 90
        1
176
     0
 90
        6
176
     0
 90
        2
176
     0
 62
     7
176
     0
 90
        5
176
     0
 90
        0
176
     0
 90
        0
176
     0
290
     0
176
     0
 90
        1
176
     0
 40
0.0
176
     0
 90
        0
176
     0
290
     0
176
     1
290
     1
176
     1
290
     1
176
     1
290
     0
176
     1
290
     0
176
     1
290
     0
176
     1
290
     0
176
     1
290
     0
176
     1
290
     0
176
     1
 90
       50
176
     1
 40
0.0
176
     1
 40
1.0
176
     1
 90
        0
176
     1
 62
    18
420
        0
176
     1
 90
       50
176
     1
 90
        3
176
     1
 62
     5
420
      255
176
     1
290
     0
176
     1
 90
       50
176
     1
 90
       50
176
     1
 90
       50
176
     1
290
     0
176
     1
 90
       50
176
     1
 62
   256
176
     0
 40
1.0
176
     0
 90
        2
176
     1
  1
strokes_ogs.tif
176
     1
290
     0
176
     1
 40
1.0
176
     1
 40
1.0
176
     1
1001
ACAD
1000
AcDbSavedByObjectVersion
1070
     0
  0
VISUALSTYLE
  5
FE
102
{ACAD_REACTORS
330
EF
102
}
330
EF
100
AcDbVisualStyle
  2
Facepattern
 70
    15
177
     3
291
     1
 70
    58
 90
        2
176
     1
 90
        2
176
     1
 90
        1
176
     1
 90
        0
176
     1
 40
0.6
176
     1
 40
30.0
176
     1
 62
     7
420
 16777215
176
     1
 90
        1
176
     1
 90
        4
176
     1
 62
     7
176
     1
 62
   257
176
     1
 90
        1
176
     1
 90
        1
176
     1
 40
1.0
176
     1
 90
        8
176
     1
 62
     7
176
     1
 40
1.0
176
     1
 90
        1
176
     1
 90
        6
176
     1
 90
        2
176
     1
 62
     7
176
     1
 90
        5
176
     1
 90
        0
176
     1
 90
        0
176
     1
290
     0
176
     1
 90
        1
176
     1
 40
0.0
176
     1
 90
        0
176
     1
290
     0
176
     1
290
     1
176
     1
290
     1
176
     1
290
     0
176
     1
290
     0
176
     1
290
     0
176
     1
290
     0
176
     1
290
     0
176
     1
290
     0
176
     1
 90
       50
176
     1
 40
0.0
176
     1
 40
1.0
176
     1
 90
        0
176
     1
 62
    18
420
        0
176
     1
 90
       50
176
     1
 90
        3
176
     1
 62
     5
420
      255
176
     1
290
     0
176
     1
 90
       50
176
     1
 90
       50
176
     1
 90
       50
176
     1
290
     0
176
     1
 90
       50
176
     1
 62
   256
176
     0
 40
1.0
176
     0
 90
        2
176
     1
  1
strokes_ogs.tif
176
     1
290
     0
176
     1
 40
1.0
176
     1
 40
1.0
176
     1
1001
ACAD
1000
AcDbSavedByObjectVersion
1070
     0
  0
VISUALSTYLE
  5
F0
102
{ACAD_REACTORS
330
EF
102
}
330
EF
100
AcDbVisualStyle
  2
Flat
 70
     0
177
     3
291
     1
 70
    58
 90
        2
176
     1
 90
        1
176
     1
 90
        1
176
     1
 90
        2
176
     1
 40
0.6
176
     1
 40
30.0
176
     1
 62
     7
420
 16777215
176
     1
 90
        0
176
     1
 90
        0
176
     1
 62
     7
176
     1
 62
   257
176
     1
 90
        1
176
     1
 90
        1
176
     1
 40
1.0
176
     1
 90
        8
176
     1
 62
     7
176
     1
 40
1.0
176
     1
 90
        1
176
     1
 90
        6
176
     1
 90
        2
176
     1
 62
     7
176
     1
 90
        5
176
     1
 90
        0
176
     1
 90
        0
176
     1
290
     0
176
     1
 90
       13
176
     1
 40
0.0
176
     1
 90
        0
176
     1
290
     0
176
     1
290
     1
176
     1
290
     1
176
     1
290
     0
176
     1
290
     0
176
     1
290
     0
176
     1
290
     0
176
     1
290
     0
176
     1
290
     0
176
     1
 90
       50
176
     1
 40
0.0
176
     1
 40
1.0
176
     1
 90
        0
176
     1
 62
    18
420
        0
176
     1
 90
       50
176
     1
 90
        3
176
     1
 62
     5
420
      255
176
     1
290
     0
176
     1
 90
       50
176
     1
 90
       50
176
     1
 90
       50
176
     1
290
     0
176
     1
 90
       50
176
     1
 62
   256
176
     0
 40
1.0
176
     0
 90
        2
176
     1
  1
strokes_ogs.tif
176
     1
290
     0
176
     1
 40
1.0
176
     1
 40
1.0
176
     1
1001
ACAD
1000
AcDbSavedByObjectVersion
1070
     0
  0
VISUALSTYLE
  5
F1
102
{ACAD_REACTORS
330
EF
102
}
330
EF
100
AcDbVisualStyle
  2
FlatWithEdges
 70
     1
177
     3
291
     1
 70
    58
 90
        2
176
     1
 90
        1
176
     1
 90
        1
176
     1
 90
        2
176
     1
 40
0.6
176
     1
 40
30.0
176
     1
 62
     7
420
 16777215
176
     1
 90
        1
176
     1
 90
        0
176
     1
 62
     7
176
     1
 62
   257
176
     1
 90
        1
176
     1
 90
        1
176
     1
 40
1.0
176
     1
 90
        0
176
     1
 62
   257
176
     1
 40
1.0
176
     1
 90
        1
176
     1
 90
        6
176
     1
 90
        2
176
     1
 62
     7
176
     1
 90
        5
176
     1
 90
        0
176
     1
 90
        0
176
     1
290
     0
176
     1
 90
       13
176
     1
 40
0.0
176
     1
 90
        0
176
     1
290
     0
176
     1
290
     1
176
     1
290
     1
176
     1
290
     0
176
     1
290
     0
176
     1
290
     0
176
     1
290
     0
176
     1
290
     0
176
     1
290
     0
176
     1
 90
       50
176
     1
 40
0.0
176
     1
 40
1.0
176
     1
 90
        0
176
     1
 62
    18
420
        0
176
     1
 90
       50
176
     1
 90
        3
176
     1
 62
     5
420
      255
176
     1
290
     0
176
     1
 90
       50
176
     1
 90
       50
176
     1
 90
       50
176
     1
290
     0
176
     1
 90
       50
176
     1
 62
   256
176
     0
 40
1.0
176
     0
 90
        2
176
     1
  1
strokes_ogs.tif
176
     1
290
     0
176
     1
 40
1.0
176
     1
 40
1.0
176
     1
1001
ACAD
1000
AcDbSavedByObjectVersion
1070
     0
  0
VISUALSTYLE
  5
F2
102
{ACAD_REACTORS
330
EF
102
}
330
EF
100
AcDbVisualStyle
  2
Gouraud
 70
     2
177
     3
291
     1
 70
    58
 90
        2
176
     1
 90
        2
176
     1
 90
        1
176
     1
 90
        2
176
     1
 40
0.6
176
     1
 40
30.0
176
     1
 62
     7
420
 16777215
176
     1
 90
        0
176
     1
 90
        0
176
     1
 62
     7
176
     1
 62
   257
176
     1
 90
        1
176
     1
 90
        1
176
     1
 40
1.0
176
     1
 90
        0
176
     1
 62
     7
176
     1
 40
1.0
176
     1
 90
        1
176
     1
 90
        6
176
     1
 90
        2
176
     1
 62
     7
176
     1
 90
        5
176
     1
 90
        0
176
     1
 90
        0
176
     1
290
     0
176
     1
 90
       13
176
     1
 40
0.0
176
     1
 90
        0
176
     1
290
     0
176
     1
290
     1
176
     1
290
     1
176
     1
290
     0
176
     1
290
     0
176
     1
290
     0
176
     1
290
     0
176
     1
290
     0
176
     1
290
     0
176
     1
 90
       50
176
     1
 40
0.0
176
     1
 40
1.0
176
     1
 90
        0
176
     1
 62
    18
420
        0
176
     1
 90
       50
176
     1
 90
        3
176
     1
 62
     5
420
      255
176
     1
290
     0
176
     1
 90
       50
176
     1
 90
       50
176
     1
 90
       50
176
     1
290
     0
176
     1
 90
       50
176
     1
 62
   256
176
     0
 40
1.0
176
     0
 90
        2
176
     1
  1
strokes_ogs.tif
176
     1
290
     0
176
     1
 40
1.0
176
     1
 40
1.0
176
     1
1001
ACAD
1000
AcDbSavedByObjectVersion
1070
     0
  0
VISUALSTYLE
  5
F3
102
{ACAD_REACTORS
330
EF
102
}
330
EF
100
AcDbVisualStyle
  2
GouraudWithEdges
 70
     3
177
     3
291
     1
 70
    58
 90
        2
176
     1
 90
        2
176
     1
 90
        1
176
     1
 90
        2
176
     1
 40
0.6
176
     1
 40
30.0
176
     1
 62
     7
420
 16777215
176
     1
 90
        1
176
     1
 90
        0
176
     1
 62
     7
176
     1
 62
   257
176
     1
 90
        1
176
     1
 90
        1
176
     1
 40
1.0
176
     1
 90
        0
176
     1
 62
   257
176
     1
 40
1.0
176
     1
 90
        1
176
     1
 90
        6
176
     1
 90
        2
176
     1
 62
     7
176
     1
 90
        5
176
     1
 90
        0
176
     1
 90
        0
176
     1
290
     0
176
     1
 90
       13
176
     1
 40
0.0
176
     1
 90
        0
176
     1
290
     0
176
     1
290
     1
176
     1
290
     1
176
     1
290
     0
176
     1
290
     0
176
     1
290
     0
176
     1
290
     0
176
     1
290
     0
176
     1
290
     0
176
     1
 90
       50
176
     1
 40
0.0
176
     1
 40
1.0
176
     1
 90
        0
176
     1
 62
    18
420
        0
176
     1
 90
       50
176
     1
 90
        3
176
     1
 62
     5
420
      255
176
     1
290
     0
176
     1
 90
       50
176
     1
 90
       50
176
     1
 90
       50
176
     1
290
     0
176
     1
 90
       50
176
     1
 62
   256
176
     0
 40
1.0
176
     0
 90
        2
176
     1
  1
strokes_ogs.tif
176
     1
290
     0
176
     1
 40
1.0
176
     1
 40
1.0
176
     1
1001
ACAD
1000
AcDbSavedByObjectVersion
1070
     0
  0
VISUALSTYLE
  5
F7
102
{ACAD_REACTORS
330
EF
102
}
330
EF
100
AcDbVisualStyle
  2
Hidden
 70
     6
177
     3
291
     0
 70
    58
 90
        1
176
     1
 90
        2
176
     1
 90
        2
176
     1
 90
        0
176
     1
 40
0.6
176
     1
 40
30.0
176
     1
 62
     7
420
 16777215
176
     1
 90
        2
176
     1
 90
        2
176
     1
 62
     7
176
     1
 62
   257
176
     1
 90
        2
176
     1
 90
        1
176
     1
 40
40.0
176
     1
 90
        0
176
     1
 62
   257
176
     1
 40
1.0
176
     1
 90
        1
176
     1
 90
        6
176
     1
 90
        2
176
     1
 62
     7
176
     1
 90
        3
176
     1
 90
        0
176
     1
 90
        0
176
     1
290
     0
176
     1
 90
        1
176
     1
 40
0.0
176
     1
 90
        0
176
     1
290
     0
176
     1
290
     1
176
     1
290
     1
176
     1
290
     0
176
     1
290
     0
176
     1
290
     0
176
     1
290
     0
176
     1
290
     0
176
     1
290
     0
176
     1
 90
       50
176
     1
 40
0.0
176
     1
 40
1.0
176
     1
 90
        0
176
     1
 62
    18
420
        0
176
     1
 90
       50
176
     1
 90
        3
176
     1
 62
     5
420
      255
176
     1
290
     0
176
     1
 90
       50
176
     1
 90
       50
176
     1
 90
       50
176
     1
290
     0
176
     1
 90
       50
176
     1
 62
   256
176
     0
 40
1.0
176
     0
 90
        2
176
     1
  1
strokes_ogs.tif
176
     1
290
     0
176
     1
 40
1.0
176
     1
 40
1.0
176
     1
1001
ACAD
1000
AcDbSavedByObjectVersion
1070
     0
  0
VISUALSTYLE
  5
1E4
102
{ACAD_REACTORS
330
EF
102
}
330
EF
100
AcDbVisualStyle
  2
JitterOff
 70
    20
177
     3
291
     1
 70
    58
 90
        2
176
     0
 90
        2
176
     0
 90
        0
176
     0
 90
        0
176
     0
 40
0.6
176
     0
 40
30.0
176
     0
 62
     7
420
 16777215
176
     0
 90
        1
176
     0
 90
        4
176
     0
 62
     7
176
     0
 62
   257
176
     0
 90
        1
176
     0
 90
        1
176
     0
 40
1.0
176
     0
 90
       10
176
     2
 62
     7
176
     0
 40
1.0
176
     0
 90
        1
176
     0
 90
        6
176
     0
 90
        2
176
     0
 62
     7
176
     0
 90
        5
176
     0
 90
        0
176
     0
 90
        0
176
     0
290
     0
176
     0
 90
        1
176
     0
 40
0.0
176
     0
 90
        0
176
     0
290
     0
176
     1
290
     1
176
     1
290
     1
176
     1
290
     0
176
     1
290
     0
176
     1
290
     0
176
     1
290
     0
176
     1
290
     0
176
     1
290
     0
176
     1
 90
       50
176
     1
 40
0.0
176
     1
 40
1.0
176
     1
 90
        0
176
     1
 62
    18
420
        0
176
     1
 90
       50
176
     1
 90
        3
176
     1
 62
     5
420
      255
176
     1
290
     0
176
     1
 90
       50
176
     1
 90
       50
176
     1
 90
       50
176
     1
290
     0
176
     1
 90
       50
176
     1
 62
   256
176
     0
 40
1.0
176
     0
 90
        2
176
     1
  1
strokes_ogs.tif
176
     1
290
     0
176
     1
 40
1.0
176
     1
 40
1.0
176
     1
1001
ACAD
1000
AcDbSavedByObjectVersion
1070
     0
  0
VISUALSTYLE
  5
FD
102
{ACAD_REACTORS
330
EF
102
}
330
EF
100
AcDbVisualStyle
  2
Linepattern
 70
    14
177
     3
291
     1
 70
    58
 90
        2
176
     1
 90
        2
176
     1
 90
        1
176
     1
 90
        0
176
     1
 40
0.6
176
     1
 40
30.0
176
     1
 62
     7
420
 16777215
176
     1
 90
        1
176
     1
 90
        4
176
     1
 62
     7
176
     1
 62
   257
176
     1
 90
        7
176
     1
 90
        7
176
     1
 40
1.0
176
     1
 90
        8
176
     1
 62
     7
176
     1
 40
1.0
176
     1
 90
        1
176
     1
 90
        6
176
     1
 90
        2
176
     1
 62
     7
176
     1
 90
        5
176
     1
 90
        0
176
     1
 90
        0
176
     1
290
     0
176
     1
 90
        1
176
     1
 40
0.0
176
     1
 90
        0
176
     1
290
     0
176
     1
290
     1
176
     1
290
     1
176
     1
290
     0
176
     1
290
     0
176
     1
290
     0
176
     1
290
     0
176
     1
290
     0
176
     1
290
     0
176
     1
 90
       50
176
     1
 40
0.0
176
     1
 40
1.0
176
     1
 90
        0
176
     1
 62
    18
420
        0
176
     1
 90
       50
176
     1
 90
        3
176
     1
 62
     5
420
      255
176
     1
290
     0
176
     1
 90
       50
176
     1
 90
       50
176
     1
 90
       50
176
     1
290
     0
176
     1
 90
       50
176
     1
 62
   256
176
     0
 40
1.0
176
     0
 90
        2
176
     1
  1
strokes_ogs.tif
176
     1
290
     0
176
     1
 40
1.0
176
     1
 40
1.0
176
     1
1001
ACAD
1000
AcDbSavedByObjectVersion
1070
     0
  0
VISUALSTYLE
  5
1E5
102
{ACAD_REACTORS
330
EF
102
}
330
EF
100
AcDbVisualStyle
  2
OverhangOff
 70
    21
177
     3
291
     1
 70
    58
 90
        2
176
     0
 90
        2
176
     0
 90
        0
176
     0
 90
        0
176
     0
 40
0.6
176
     0
 40
30.0
176
     0
 62
     7
420
 16777215
176
     0
 90
        1
176
     0
 90
        4
176
     0
 62
     7
176
     0
 62
   257
176
     0
 90
        1
176
     0
 90
        1
176
     0
 40
1.0
176
     0
 90
        9
176
     2
 62
     7
176
     0
 40
1.0
176
     0
 90
        1
176
     0
 90
        6
176
     0
 90
        2
176
     0
 62
     7
176
     0
 90
        5
176
     0
 90
        0
176
     0
 90
        0
176
     0
290
     0
176
     0
 90
        1
176
     0
 40
0.0
176
     0
 90
        0
176
     0
290
     0
176
     1
290
     1
176
     1
290
     1
176
     1
290
     0
176
     1
290
     0
176
     1
290
     0
176
     1
290
     0
176
     1
290
     0
176
     1
290
     0
176
     1
 90
       50
176
     1
 40
0.0
176
     1
 40
1.0
176
     1
 90
        0
176
     1
 62
    18
420
        0
176
     1
 90
       50
176
     1
 90
        3
176
     1
 62
     5
420
      255
176
     1
290
     0
176
     1
 90
       50
176
     1
 90
       50
176
     1
 90
       50
176
     1
290
     0
176
     1
 90
       50
176
     1
 62
   256
176
     0
 40
1.0
176
     0
 90
        2
176
     1
  1
strokes_ogs.tif
176
     1
290
     0
176
     1
 40
1.0
176
     1
 40
1.0
176
     1
1001
ACAD
1000
AcDbSavedByObjectVersion
1070
     0
  0
VISUALSTYLE
  5
F9
102
{ACAD_REACTORS
330
EF
102
}
330
EF
100
AcDbVisualStyle
  2
Realistic
 70
     8
177
     3
291
     0
 70
    58
 90
        2
176
     1
 90
        2
176
     1
 90
        0
176
     1
 90
        2
176
     1
 40
0.6
176
     1
 40
30.0
176
     1
 62
     7
420
 16777215
176
     1
 90
        0
176
     1
 90
        0
176
     1
 62
     7
176
     1
 62
   257
176
     1
 90
        1
176
     1
 90
        1
176
     1
 40
1.0
176
     1
 90
        8
176
     1
 62
   257
176
     1
 40
1.0
176
     1
 90
        1
176
     1
 90
        6
176
     1
 90
        2
176
     1
 62
     7
176
     1
 90
        3
176
     1
 90
        0
176
     1
 90
        0
176
     1
290
     0
176
     1
 90
       13
176
     1
 40
0.0
176
     1
 90
        0
176
     1
290
     0
176
     1
290
     1
176
     1
290
     1
176
     1
290
     0
176
     1
290
     0
176
     1
290
     0
176
     1
290
     0
176
     1
290
     0
176
     1
290
     0
176
     1
 90
       50
176
     1
 40
0.0
176
     1
 40
1.0
176
     1
 90
        0
176
     1
 62
    18
420
        0
176
     1
 90
       50
176
     1
 90
        3
176
     1
 62
     5
420
      255
176
     1
290
     0
176
     1
 90
       50
176
     1
 90
       50
176
     1
 90
       50
176
     1
290
     0
176
     1
 90
       50
176
     1
 62
   256
176
     0
 40
1.0
176
     0
 90
        2
176
     1
  1
strokes_ogs.tif
176
     1
290
     0
176
     1
 40
1.0
176
     1
 40
1.0
176
     1
1001
ACAD
1000
AcDbSavedByObjectVersion
1070
     0
  0
VISUALSTYLE
  5
1F3
102
{ACAD_REACTORS
330
EF
102
}
330
EF
100
AcDbVisualStyle
  2
Shaded
 70
    27
177
     3
291
     0
 70
    58
 90
        2
176
     1
 90
        2
176
     1
 90
        1
176
     1
 90
        2
176
     1
 40
0.6
176
     1
 40
30.0
176
     1
 62
     7
420
 16777215
176
     1
 90
        0
176
     1
 90
        4
176
     1
 62
     7
176
     1
 62
   257
176
     1
 90
        1
176
     1
 90
        1
176
     1
 40
1.0
176
     1
 90
        8
176
     1
 62
   257
176
     1
 40
1.0
176
     1
 90
        1
176
     1
 90
        6
176
     1
 90
        2
176
     1
 62
     8
420
  7895160
176
     1
 90
        3
176
     1
 90
        0
176
     1
 90
        0
176
     1
290
     0
176
     1
 90
        5
176
     1
 40
0.0
176
     1
 90
        0
176
     1
290
     0
176
     1
290
     1
176
     1
290
     1
176
     1
290
     0
176
     1
290
     0
176
     1
290
     0
176
     1
290
     0
176
     1
290
     0
176
     1
290
     0
176
     1
 90
       50
176
     1
 40
0.0
176
     1
 40
1.0
176
     1
 90
        0
176
     1
 62
    18
420
        0
176
     1
 90
       50
176
     1
 90
        3
176
     1
 62
     5
420
      255
176
     1
290
     0
176
     1
 90
       50
176
     1
 90
       50
176
     1
 90
       50
176
     1
290
     0
176
     1
 90
       50
176
     1
 62
   256
176
     0
 40
1.0
176
     0
 90
        2
176
     1
  1
strokes_ogs.tif
176
     1
290
     0
176
     1
 40
1.0
176
     1
 40
1.0
176
     1
1001
ACAD
1000
AcDbSavedByObjectVersion
1070
     0
  0
VISUALSTYLE
  5
1F2
102
{ACAD_REACTORS
330
EF
102
}
330
EF
100
AcDbVisualStyle
  2
Shaded with edges
 70
    26
177
     3
291
     0
 70
    58
 90
        2
176
     1
 90
        2
176
     1
 90
        1
176
     1
 90
        2
176
     1
 40
0.6
176
     1
 40
30.0
176
     1
 62
     7
420
 16777215
176
     1
 90
        1
176
     1
 90
        2
176
     1
 62
     7
176
     1
 62
   257
176
     1
 90
        2
176
     1
 90
        1
176
     1
 40
1.0
176
     1
 90
        8
176
     1
 62
   257
176
     1
 40
1.0
176
     1
 90
        1
176
     1
 90
        6
176
     1
 90
        2
176
     1
 62
     7
176
     1
 90
        3
176
     1
 90
        0
176
     1
 90
        0
176
     1
290
     0
176
     1
 90
        5
176
     1
 40
0.0
176
     1
 90
        0
176
     1
290
     0
176
     1
290
     1
176
     1
290
     1
176
     1
290
     0
176
     1
290
     0
176
     1
290
     0
176
     1
290
     0
176
     1
290
     0
176
     1
290
     0
176
     1
 90
       50
176
     1
 40
0.0
176
     1
 40
1.0
176
     1
 90
        0
176
     1
 62
    18
420
        0
176
     1
 90
       50
176
     1
 90
        3
176
     1
 62
     5
420
      255
176
     1
290
     0
176
     1
 90
       50
176
     1
 90
       50
176
     1
 90
       50
176
     1
290
     0
176
     1
 90
       50
176
     1
 62
   256
176
     0
 40
1.0
176
     0
 90
        2
176
     1
  1
strokes_ogs.tif
176
     1
290
     0
176
     1
 40
1.0
176
     1
 40
1.0
176
     1
1001
ACAD
1000
AcDbSavedByObjectVersion
1070
     0
  0
VISUALSTYLE
  5
1EF
102
{ACAD_REACTORS
330
EF
102
}
330
EF
100
AcDbVisualStyle
  2
Shades of Gray
 70
    23
177
     3
291
     0
 70
    58
 90
        2
176
     1
 90
        2
176
     1
 90
        3
176
     1
 90
        0
176
     1
 40
0.6
176
     1
 40
30.0
176
     1
 62
     7
420
 16777215
176
     1
 90
        2
176
     1
 90
        2
176
     1
 62
     7
176
     1
 62
     7
176
     1
 90
        1
176
     1
 90
        1
176
     1
 40
40.0
176
     1
 90
        8
176
     1
 62
     7
176
     1
 40
1.0
176
     1
 90
        1
176
     1
 90
        6
176
     1
 90
        2
176
     1
 62
     7
176
     1
 90
        3
176
     1
 90
        0
176
     1
 90
        0
176
     1
290
     0
176
     1
 90
        1
176
     1
 40
0.0
176
     1
 90
        0
176
     1
290
     0
176
     1
290
     1
176
     1
290
     1
176
     1
290
     0
176
     1
290
     0
176
     1
290
     0
176
     1
290
     0
176
     1
290
     0
176
     1
290
     0
176
     1
 90
       50
176
     1
 40
0.0
176
     1
 40
1.0
176
     1
 90
        0
176
     1
 62
    18
420
        0
176
     1
 90
       50
176
     1
 90
        3
176
     1
 62
     5
420
      255
176
     1
290
     0
176
     1
 90
       50
176
     1
 90
       50
176
     1
 90
       50
176
     1
290
     0
176
     1
 90
       50
176
     1
 62
   256
176
     0
 40
1.0
176
     0
 90
        2
176
     1
  1
strokes_ogs.tif
176
     1
290
     0
176
     1
 40
1.0
176
     1
 40
1.0
176
     1
1001
ACAD
1000
AcDbSavedByObjectVersion
1070
     0
  0
VISUALSTYLE
  5
1F0
102
{ACAD_REACTORS
330
EF
102
}
330
EF
100
AcDbVisualStyle
  2
Sketchy
 70
    24
177
     3
291
     0
 70
    58
 90
        1
176
     1
 90
        2
176
     1
 90
        2
176
     1
 90
        0
176
     1
 40
0.6
176
     1
 40
30.0
176
     1
 62
     7
420
 16777215
176
     1
 90
        2
176
     1
 90
        2
176
     1
 62
     7
176
     1
 62
     7
176
     1
 90
        1
176
     1
 90
        1
176
     1
 40
40.0
176
     1
 90
       11
176
     1
 62
     7
176
     1
 40
1.0
176
     1
 90
        1
176
     1
 90
        6
176
     1
 90
        2
176
     1
 62
     7
176
     1
 90
        6
176
     1
 90
        0
176
     1
 90
        0
176
     1
290
     0
176
     1
 90
        1
176
     1
 40
0.0
176
     1
 90
        0
176
     1
290
     0
176
     1
290
     1
176
     1
290
     1
176
     1
290
     0
176
     1
290
     0
176
     1
290
     0
176
     1
290
     0
176
     1
290
     0
176
     1
290
     0
176
     1
 90
       50
176
     1
 40
0.0
176
     1
 40
1.0
176
     1
 90
        0
176
     1
 62
    18
420
        0
176
     1
 90
       50
176
     1
 90
        3
176
     1
 62
     5
420
      255
176
     1
290
     0
176
     1
 90
       50
176
     1
 90
       50
176
     1
 90
       50
176
     1
290
     0
176
     1
 90
       50
176
     1
 62
   256
176
     0
 40
1.0
176
     0
 90
        2
176
     1
  1
strokes_ogs.tif
176
     1
290
     0
176
     1
 40
1.0
176
     1
 40
1.0
176
     1
1001
ACAD
1000
AcDbSavedByObjectVersion
1070
     0
  0
VISUALSTYLE
  5
FC
102
{ACAD_REACTORS
330
EF
102
}
330
EF
100
AcDbVisualStyle
  2
Thicken
 70
    13
177
     3
291
     1
 70
    58
 90
        2
176
     1
 90
        2
176
     1
 90
        1
176
     1
 90
        0
176
     1
 40
0.6
176
     1
 40
30.0
176
     1
 62
     7
420
 16777215
176
     1
 90
        1
176
     1
 90
        4
176
     1
 62
     7
176
     1
 62
   257
176
     1
 90
        1
176
     1
 90
        1
176
     1
 40
1.0
176
     1
 90
       12
176
     1
 62
     7
176
     1
 40
1.0
176
     1
 90
        1
176
     1
 90
        6
176
     1
 90
        2
176
     1
 62
     7
176
     1
 90
        5
176
     1
 90
        0
176
     1
 90
        0
176
     1
290
     0
176
     1
 90
        1
176
     1
 40
0.0
176
     1
 90
        0
176
     1
290
     0
176
     1
290
     1
176
     1
290
     1
176
     1
290
     0
176
     1
290
     0
176
     1
290
     0
176
     1
290
     0
176
     1
290
     0
176
     1
290
     0
176
     1
 90
       50
176
     1
 40
0.0
176
     1
 40
1.0
176
     1
 90
        0
176
     1
 62
    18
420
        0
176
     1
 90
       50
176
     1
 90
        3
176
     1
 62
     5
420
      255
176
     1
290
     0
176
     1
 90
       50
176
     1
 90
       50
176
     1
 90
       50
176
     1
290
     0
176
     1
 90
       50
176
     1
 62
   256
176
     0
 40
1.0
176
     0
 90
        2
176
     1
  1
strokes_ogs.tif
176
     1
290
     0
176
     1
 40
1.0
176
     1
 40
1.0
176
     1
1001
ACAD
1000
AcDbSavedByObjectVersion
1070
     0
  0
VISUALSTYLE
  5
F6
102
{ACAD_REACTORS
330
EF
102
}
330
EF
100
AcDbVisualStyle
  2
Wireframe
 70
     5
177
     3
291
     0
 70
    58
 90
        0
176
     1
 90
        2
176
     1
 90
        0
176
     1
 90
        0
176
     1
 40
0.6
176
     1
 40
30.0
176
     1
 62
     7
420
 16777215
176
     1
 90
        1
176
     1
 90
        4
176
     1
 62
     7
176
     1
 62
   257
176
     1
 90
        1
176
     1
 90
        1
176
     1
 40
1.0
176
     1
 90
        0
176
     1
 62
   257
176
     1
 40
1.0
176
     1
 90
        1
176
     1
 90
        6
176
     1
 90
        2
176
     1
 62
     7
176
     1
 90
        3
176
     1
 90
        0
176
     1
 90
        0
176
     1
290
     0
176
     1
 90
        1
176
     1
 40
0.0
176
     1
 90
        0
176
     1
290
     0
176
     1
290
     1
176
     1
290
     1
176
     1
290
     0
176
     1
290
     0
176
     1
290
     0
176
     1
290
     0
176
     1
290
     0
176
     1
290
     0
176
     1
 90
       50
176
     1
 40
0.0
176
     1
 40
1.0
176
     1
 90
        0
176
     1
 62
    18
420
        0
176
     1
 90
       50
176
     1
 90
        3
176
     1
 62
     5
420
      255
176
     1
290
     0
176
     1
 90
       50
176
     1
 90
       50
176
     1
 90
       50
176
     1
290
     0
176
     1
 90
       50
176
     1
 62
   256
176
     0
 40
1.0
176
     0
 90
        2
176
     1
  1
strokes_ogs.tif
176
     1
290
     0
176
     1
 40
1.0
176
     1
 40
1.0
176
     1
1001
ACAD
1000
AcDbSavedByObjectVersion
1070
     0
  0
VISUALSTYLE
  5
1F1
102
{ACAD_REACTORS
330
EF
102
}
330
EF
100
AcDbVisualStyle
  2
X-Ray
 70
    25
177
     3
291
     0
 70
    58
 90
        2
176
     1
 90
        2
176
     1
 90
        1
176
     1
 90
        1
176
     1
 40
0.5
176
     1
 40
30.0
176
     1
 62
     7
420
 16777215
176
     1
 90
        1
176
     1
 90
        0
176
     1
 62
     7
176
     1
 62
   257
176
     1
 90
        1
176
     1
 90
        1
176
     1
 40
1.0
176
     1
 90
        8
176
     1
 62
     7
176
     1
 40
1.0
176
     1
 90
        1
176
     1
 90
        6
176
     1
 90
        2
176
     1
 62
     7
176
     1
 90
        3
176
     1
 90
        0
176
     1
 90
        0
176
     1
290
     0
176
     1
 90
       13
176
     1
 40
0.0
176
     1
 90
        0
176
     1
290
     0
176
     1
290
     1
176
     1
290
     1
176
     1
290
     0
176
     1
290
     0
176
     1
290
     0
176
     1
290
     0
176
     1
290
     0
176
     1
290
     0
176
     1
 90
       50
176
     1
 40
0.0
176
     1
 40
1.0
176
     1
 90
        0
176
     1
 62
    18
420
        0
176
     1
 90
       50
176
     1
 90
        3
176
     1
 62
     5
420
      255
176
     1
290
     0
176
     1
 90
       50
176
     1
 90
       50
176
     1
 90
       50
176
     1
290
     0
176
     1
 90
       50
176
     1
 62
   256
176
     0
 40
1.0
176
     0
 90
        2
176
     1
  1
strokes_ogs.tif
176
     1
290
     0
176
     1
 40
1.0
176
     1
 40
1.0
176
     1
1001
ACAD
1000
AcDbSavedByObjectVersion
1070
     0
  0
DICTIONARYVAR
  5
146
102
{ACAD_REACTORS
330
5E
102
}
330
5E
100
DictionaryVariables
280
     0
  1
1:1
  0
DICTIONARYVAR
  5
145
102
{ACAD_REACTORS
330
5E
102
}
330
5E
100
DictionaryVariables
280
     0
  1
STANDARD
  0
DICTIONARYVAR
  5
84
102
{ACAD_REACTORS
330
5E
102
}
330
5E
100
DictionaryVariables
280
     0
  1
STANDARD
  0
DICTIONARYVAR
  5
227
102
{ACAD_REACTORS
330
5E
102
}
330
5E
100
DictionaryVariables
280
     0
  1
Metric50
  0
DICTIONARYVAR
  5
228
102
{ACAD_REACTORS
330
5E
102
}
330
5E
100
DictionaryVariables
280
     0
  1
Metric50
  0
DICTIONARYVAR
  5
5F
102
{ACAD_REACTORS
330
5E
102
}
330
5E
100
DictionaryVariables
280
     0
  1
2
  0
DICTIONARYVAR
  5
63
102
{ACAD_REACTORS
330
5E
102
}
330
5E
100
DictionaryVariables
280
     0
  1
1
  0
DICTIONARYVAR
  5
1AE
102
{ACAD_REACTORS
330
5E
102
}
330
5E
100
DictionaryVariables
280
     0
  1
0
  0
DICTIONARYVAR
  5
1AF
102
{ACAD_REACTORS
330
5E
102
}
330
5E
100
DictionaryVariables
280
     0
  1
0
  0
DICTIONARYVAR
  5
625
102
{ACAD_REACTORS
330
5E
102
}
330
5E
100
DictionaryVariables
280
     0
  1
2
  0
DICTIONARYVAR
  5
624
102
{ACAD_REACTORS
330
5E
102
}
330
5E
100
DictionaryVariables
280
     0
  1
1
  0
DICTIONARY
  5
1D7C
102
{ACAD_REACTORS
330
1D7A
102
}
330
1D7A
100
AcDbDictionary
281
     1
  0
DICTIONARY
  5
1D7B
102
{ACAD_REACTORS
330
1D7A
102
}
330
1D7A
100
AcDbDictionary
281
     1
  3
1374126971600
350
1D75
  3
1374126971616
350
1D76
  3
1374126971632
350
1D77
  3
1374126971648
350
1D78
  3
1374126971664
350
1D79
  0
DICTIONARY
  5
1D7F
330
21C
100
AcDbDictionary
280
     1
281
     1
  3
ACAD_XREC_ROUNDTRIP
360
1D80
  0
DICTIONARY
  5
205
330
22
100
AcDbDictionary
280
     1
281
     1
  0
DICTIONARY
  5
5EB
330
D3
100
AcDbDictionary
280
     1
281
     1
  0
DICTIONARY
  5
1F9
330
ED
100
AcDbDictionary
280
     1
281
     1
  3
FBXASSET
360
1FA
  0
DICTIONARY
  5
1F7
330
EC
100
AcDbDictionary
280
     1
281
     1
  3
FBXASSET
360
1F8
  0
DICTIONARY
  5
173
330
EE
100
AcDbDictionary
280
     1
281
     1
  3
BUMPTILE
360
175
  3
DIFFUSETILE
360
174
  3
FBXASSET
360
1FB
  3
OPACITYTILE
360
176
  3
REFLECTIONTILE
360
177
  0
XRECORD
  5
1CB3
102
{ACAD_REACTORS
330
1CB1
102
}
330
1CB1
100
AcDbXrecord
280
     1
102
ACAD_MENTALRAY_SETTING_RT
330
1C9A
 70
     1
  0
XRECORD
  5
1CB2
102
{ACAD_REACTORS
330
1CB1
102
}
330
1CB1
100
AcDbXrecord
280
     1
 70
     2
 71
     3
 72
     0
  0
DICTIONARY
  5
1D7D
330
21A
100
AcDbDictionary
280
     1
281
     1
  3
ACAD_XREC_ROUNDTRIP
360
1D7E
  0
DICTIONARY
  5
162
330
7F
100
AcDbDictionary
280
     1
281
     1
  3
ACAD_ROUNDTRIP_2008_TABLESTYLE_CELLSTYLEMAP
360
1D73
  0
XRECORD
  5
1D75
102
{ACAD_REACTORS
330
1D7B
102
}
330
1D7B
100
AcDbXrecord
280
     1
  1
AcDb_Thumbnail_Schema
102
{ATTRRECORD
341
1D76
  2
AcDbDs::TreatedAsObjectData
280
     1
291
     1
102
ATTRRECORD}
102
{ATTRRECORD
341
1D77
  2
AcDbDs::Legacy
280
     1
291
     1
102
ATTRRECORD}
  2
AcDbDs::ID
280
    10
 91
        8
102
{ATTRRECORD
341
1D78
  2
AcDs:Indexable
280
     1
291
     1
102
ATTRRECORD}
102
{ATTRRECORD
341
1D79
  2
AcDbDs::HandleAttribute
280
     7
282
     1
102
ATTRRECORD}
  2
Thumbnail_Data
280
    15
 91
        0
  0
XRECORD
  5
1D76
102
{ACAD_REACTORS
330
1D7B
102
}
330
1D7B
100
AcDbXrecord
280
     1
  1
AcDbDs::TreatedAsObjectDataSchema
  2
AcDbDs::TreatedAsObjectData
280
     1
 91
        0
  0
XRECORD
  5
1D77
102
{ACAD_REACTORS
330
1D7B
102
}
330
1D7B
100
AcDbXrecord
280
     1
  1
AcDbDs::LegacySchema
  2
AcDbDs::Legacy
280
     1
 91
        0
  0
XRECORD
  5
1D78
102
{ACAD_REACTORS
330
1D7B
102
}
330
1D7B
100
AcDbXrecord
280
     1
  1
AcDbDs::IndexedPropertySchema
  2
AcDs:Indexable
280
     1
 91
        0
  0
XRECORD
  5
1D79
102
{ACAD_REACTORS
330
1D7B
102
}
330
1D7B
100
AcDbXrecord
280
     1
  1
AcDbDs::HandleAttributeSchema
  2
AcDbDs::HandleAttribute
280
     7
 91
        1
284
     1
  0
XRECORD
  5
1D80
102
{ACAD_REACTORS
330
1D7F
102
}
330
1D7F
100
AcDbXrecord
280
     1
102
DISPLAYNAME
  1
Metric50
102
FLAGS
 90
        0
  0
XRECORD
  5
1FA
102
{ACAD_REACTORS
330
1F9
102
}
330
1F9
100
AcDbXrecord
280
     1
 70
     1
 90
429727718
  1
D62C5603-E3A1-4AEA-B7FB-FE5D8D0755AF
310
504B03040A0000080000CC70623B3DEE336E79000000790000001B0000006175746F6465736B2D64657369676E2D7061636B6167652E786D6C3C3F786D6C2076657273696F6E3D22312E302220656E636F64696E673D227574662D3822203F3E3C666F726D6174733E3C666F726D61743E687474703A2F2F736368656D612E
310
6175746F6465736B2E636F6D2F64657369676E2D7061636B6167652F323030393C2F666F726D61743E3C2F666F726D6174733E504B0304140006080800CC70623BD486FD9CA0000000F4000000130000005B436F6E74656E745F54797065735D2E786D6C7D8EC10E82300C865F65E91D8A1E8C310C0EEA1BF002731658846E
310
D98AC1B77784ABF1D8FE5FBFBF75BBCE937A534CCEB38643598122B6FEE978D0B0485F9C41B54DDD7D022595594E1A469170414C76A4D9A4D207E29CF43ECE46F218070CC6BECC4078ACAA135ACF422C856C0E68EA1BF5669944DDD7BCDE7B1F8E415D77AECB980613C2E4AC91FC167A2B244592486606FC29C8FD7F045B9A
310
EF7053A7E60B504B0304140006080800CC70623B853B8169EB0000007C01000008000000636F72652E786D6C8D90416EC3201045AF62CDB6C206821CC7C244919D9CA01740401C94182C03558F5F9C3852BBEB6A467FFE9B197D7EFC9E1EC5975982F5AE035262288C535E5B377690E21535501C055FBC8FBF6C503839990E
310
5619041F179FE64D52DE45E362569DD7661365082642A11EB9E920A89B99642953CC8E702F67A9EE7234257977194EC9EAE275C4EABCCF5EAD5940D4AC6F0E35A568B8F43562CD7046CD199FD07E60174276A7BE677B5EADB0E0D14EEFFB6A31321A0D82627C4084204C3F096B71DD52F6819B16635EADF63F509AF53FA164
310
5DDCD1EDDD17164090FCC8732078B56691CB33A85CD7DCC40F504B0304140006080800CC70623B55019EA25F0000007C00000007000000636E782E786D6C4DCB3B0E80201045D1AD90E915ED2CF8AC45050C11660C8261F98AB1B07AC9C97D42D718D865D3E909258CFD00CCE24AC6E326A164D74DC0B4128928FF32603847
310
2BA13128B1252AC747C6BAB984FC68F0B87FE8960A5C09FE86CFB69FBA01504B0304140006080800CC70623BDBABAAF470010000D40300000C0000006662782F636F72652E786D6CC553D16E823014FD95A6AF4B694182CC941A83FA05FB810A9511A125A5257EFE2E82712ECEB8A7F100CD39F7F69E734AF9FADC366850B6
310
AF8DCE7018308C942E4C59EB2AC3DE1D498AD15A706B8CFB56869196ADCAF00863C12B6B7C374385D14E6907A836A59A41D9F7CA615434B0C8705F7CAA5606D23BA8E84F41278B93AC54100640439DE0BDB320004D43C63716C7C399D30917DCFBBA9CD9BA8469F5B156168B24CED3F7248AC8769F27244EB73B92EED8862C
310
B7F13E0C179B3C8F979C8ECD82BBBABDAA2BAC924E9558448CBD9330242CFA08E3154B5651FCC6D215639C8EE5774DBE2B5F6CF2B5768B68963BB5F5588420E442FC700B1139D4CB01F450C1E918227C2E09DF070D8140C84E1E9AAB8F1340832A9CB13130A5F1376A908D57309505ECF2A0DF179C4E9D30F5B239B87E3823
310
7A79C6F31DE1A8A5AEC08474B03C7837EAE4938639B44E5932B833D2C6B6B279CDC613877FA26EE21F4A2A4C63EC7F29A2F301D1F9F7A0E37D145F504B0304140006080800CC70623B9C113CC27E0000009D0000000B0000006662782F636E782E786D6C4DCCDF0A83201C86E15B91DFB94BFB330DD428C8FB886521330DA7
310
6397BF1A1DECE883878F57749FCDA1B7892F1BBC047A23808C7F84D9FA55424E0BE6803A256208E9EF06C84F9B91703228B1C690F78B66B34CD9A5439DF5CF0BFBF65E35BCA1B8D6A5C6F540381E886698B5741C695F9503EBA150A2F8958E3DC3EA0B504B0304140006080800CC70623B7DF2F77C2A010000120200003100
310
00006662782F41393633353835312D344632462D344230382D423046372D3739314545314133324237412F636F72652E786D6C8D51DB8EC22014FC15C2939B0D2DB4B45643319AE817EC0F6041255A68B86CFCFC856D4D76DF7CE190393373060EDB3DC707F856CE6B6B7A480A0C81328395DA5C7B18C3057510EC3873D686
310
3F34088C18550F330C39BB3A1BA7051AAC09CA84841A2BD5020AEF55806078A44B0FFD7053A328440C89E1EFC52486BBB8AA8214A99D789CF9E05200300FC927E4FB4D5B375D43103D5527440FB843077C5AA3F5861C8F645F5787F59E95B390B318B55CE45AA638FAA2957BD7248B390B7A7CC51F9C124149C82B8C378810
310
84AB2F42B7B8DD56F413775B8C5999E9FF4471926F8AA236A1AE96B8B3CC434E5839373893369E1FAF30EA395917409EB7F26AF8801C171837A4A6AC9C89E9F9C9B1A58BA30FD6A5EF5DDDCF894B9AD9B6A59C957943A9FCAE2FD5BC4DFE03504B0304140006080800CC70623BAD7543B64E01000033030000300000006662
310
782F41393633353835312D344632462D344230382D423046372D3739314545314133324237412F636E782E786D6CD593CD6EC32010845F0571AD6CE3D48AD20813A9873E410FBD12D82434182C7EAAE6EDBB2424CD25871E7B41D6EC30B3FA84F9E67BB2E40B4234DE8DB46F1925E094D7C6ED479AD3AE5951B2113C789FEE
310
6C943839C1488B4C05DF079FE72A69D8C96C13AAD6B8631503449F83828872B949AC57D26200B826A308D316B4064D6E46FCDA41C05550DC9E483A00797BFD207EFB092A45DE9514C1BBD22178396BD39D891265658C238DEA00936C654E5E433CB65A26D9F6EDB5EBC14EBF49A45CB856E66048291F6939A9A81BB5C89177
310
38143CA680F4AA299D66A042CEB3354A2684DC9D8D178FE0D9B8B41CAAD720F880EE7EF93C0C18769E099ECC04D5A102C8049A8A05632F4DDF376CF1DE0F6BB65C2F8627B65A33C6BB62177CEBBDAD973006829F89F22E814B54F4BC2BE347F8AA8F681390B50FA73F804400B5F542E796F19FF974E7F78DB802FE05E20750
310
4B0304140006080800CC70623BE75B7789680500003C100000340000006662782F41393633353835312D344632462D344230382D423046372D3739314545314133324237412F6F626A656374732E786D6CAD575B8F9B3818FD2B887D06C22499CB8AA1CA655245D5B455A356FB305264C061D8018C6C3393D95FBFC7600890
310
A4CD5EF210B0B1BFEBF98E3F7B1FF6596ABC522E1296DF9BAE3D320D9A872C4AF2F8DE2CE5CEBA358D0FBEC719939D65A691938CDE9B6ADAF4BD98B3B2D05311DD91329583D9D5FC0F438434A7A611A644887B5384CF34233629258BA878B12322891DEFF6B66BD70BFB62634E8AE781D082709A4B588AF91C528CDA28B73F
310
1C998EEF39EABBEFA97FBD6A7C7E9553F9D3D79FE442923C3C523610337627CB87ABE99D359D4CC6D6E4FACAB5E6ABF9D2726FC6A3C5F56271377BB88362213924694B38DD99FE47C48627A1E7D49F5A8BB5E1A74C0A599ED3B0F21F1E56366B89112D681E218F0915D0D6F17AD41FBA2A369DCF6335D62ABBD39779D5DDD1
310
11D4D8DE3CBB96B2E04FB8202E41051754A1AA8E8F76B4C6DFE810B580B1547F4B84911149794252234D024EF8BBE963A95AE27B3D310A9D5C215C7960FAEE415ED75694C6AFB17BCACA5D99A60A9AA65F217B0BFC53292ACB92BF283FAD0D3621576592CB5BED907C2FA8E9DF794E35E97BEA31BED21FEB401ABB94C44839
310
DCACBF0E1C5DA8DA5B2F4DFFD32AD86F543D9E565E7056502E157C00AD2671CD534549AB752FCA9CDA00677A313F04E51B22FF19E57B300579E3C97EB29F682D92935CEC18CF901B7B54FD8C51F362B56FC72FE0B3C1EAE335EDCCBF5AEC39ADB17DC238973F804BA5E6F6BFE7AF1FB32E523BE9F3BD571418E3631DCA4D48
310
5250CF639223210A9446CA30052EDF057BD35F8329C1ECD84552BF0DC8D18BE7BCE23BFE6BD960AB4A7DE79923A103BEBD80F911CBAA2C60DB19B01CF164A5583B772EE6D3FFA56666CBCDA74DC97724A48F9A58967497E489C4D979006FD7A05E227A1EBDD0F737C623387A9C844D3709995625106D157315F8B8392CD4E0
310
A0B9A720C4BE9829CEF37EA1E13111214D53925356365ADA634861B52519DD27A00AEB808EAF0628E6F435519D446F45CF2C9CF5214F0A15B2F6D06B79DA3EE3CBF7F56780D2F4E7EF73A0F5E5B02A38D07DC852C6B7C1FBB6664213E0C39E3EBA7FF4E1AD23EA2829407C85E586727488B751B2DB9502BC7B228A3FD68B6E
310
A65A22397E690AA8D158D7E404EC8CDA235CC3B7D1898680131CEC2CDF2638C65196279577750F15884AEE19F94199155B92B13297978469D4F8D358DF0AEF7631E28DC8F0D9F437D5D39A83B2231A1D52D543813A824EF8D44BCFF2FA6A31BD1E8DAD87F1CCB526B3879935BF59CDADD5C37479BB1CDD4CA7B3556B516589
310
EF352754B706114D9C885EC9131DE6EFEB43D99AFE2391C2F958179413D7CFEF6B1B6DB1E7600F00DE6E5C67454A339A4BA2E0FBA85ED26F045D454F463DBFCE484C2F90F2E5E3666003662ED8F755951A7D1BECD5B30B550B2785C8E7320B7292A4838DDA71BBC863ED7613CAF659337A3354231D4FF4A182A54904C2898C
310
98B28C4AD0CE056CCF332A80986E571EE9DBC305BB5FEB7E509220A58D25CF042D712A806AC0AD0C657FDEF80D2D9CEAA2EE4D1C76F60BFE74219A06527D6F82DF6412526107381E55E353090704D085B52408A8913C4ED159D79BDA71BB4BC506F4831350EB6F975CD22D69BF7AC49B91A2C0A9DDA3D5CA36AD20FC478E37
310
E61844E2352865EBCB61A275A65283CAAA9DD27703B4102F5AF51EF5F573B75CBB5AD38BC845F7A49F82A0966A49C2E3EA5EA0ECD326CD965F1DB402C6FA8B51A4658C5C5E2EC9E214602E55810345408596591009A82E7E7FFACA19EEA299B14A0081A705CB3296EBC14CDF658DCD336EA6D1136881AAEB87B81AB9EE53D5
310
F5EB8BC8362082DA24122F98680A4E7930C01A0079749CEA14382A0783E5EBA5A10F8C098456A03D6A4AEB6BB881E2513747552A5DB22C7EDAF83BD5528081A365F7FF06504B0304140006080000CC70623B000000000000000000000000350000006662782F41393633353835312D344632462D344230382D423046372D37
310
39314545314133324237412F76657274696365732E62696E504B0304140006080800CC70623BF270F1330600000004000000360000006662782F41393633353835312D344632462D344230382D423046372D3739314545314133324237412F747269616E676C65732E62696E636660600000504B0304140006080000CC7062
310
3B000000000000000000000000370000006662782F41393633353835312D344632462D344230382D423046372D3739314545314133324237412F617474726962757465732E62696E504B0304140006080800CC70623B08DA0BD19000000041010000360000006662782F41393633353835312D344632462D344230382D4230
310
46372D3739314545314133324237412F6469726563746F72792E786D6C858F410AC3201045AF22B36F53E9A60B35CBEEBAE80D244E44489C6234F4F835464A48035D0DF398FF9F8AF63D0E6CC63039F212F8F9020C7D47C6792B21C5FE7403D62A1188E2E60C98D7234A5830286103A55745067B9D86B8A3CF9C7F90C11DE6
310
07FB144396D7B6A82D282E9A152AD114D5EF2CB866EEE831B8EEA07A7BB5A8D7D61A2BAAEB7FD5F70921FF497D00504B0304140006080800CC70623BEDD1DC58FD000000A00100003B0000006662782F41393633353835312D344632462D344230382D423046372D3739314545314133324237412F7265736F75726365732F
310
636F72652E786D6C8D504B6E833010BD0A9A6D65B00922041947112427E8052C33A156828DFCA97AFC9A40A576D7CDCCE87D344F8F9FBFE667F689CE6B6B3A6039850C8DB2A336530731DC4903D95970676DF82583CCC8193B5861107C72362E3BA4AC096842428D1D7107A5F7182053CF7474E0D507CE32973124857FE48B
310
540F3961CEF244279DE03EB81420DB9EAC1384436FA353E879B1B182C7A8C75DA3C7F453DF353A1075D537A7BA6464B8F535A99AE14A9A2BBD90E350DD183B5CFABE3AF262350B1EF4FC9351399401471025A527C218A1E53BAB5A5AB765F5469B96525EACF23FA6B88CFF34456DC2A1DCE36E360F82A5202F42F062ED2BAD
310
579969AFDD8A6F504B010214000A0000080000CC70623B3DEE336E79000000790000001B00000000000000000000000000000000006175746F6465736B2D64657369676E2D7061636B6167652E786D6C504B01021400140006080800CC70623BD486FD9CA0000000F40000001300000000000000000000000000B20000005B
310
436F6E74656E745F54797065735D2E786D6C504B01021400140006080800CC70623B853B8169EB0000007C010000080000000000000000000000000083010000636F72652E786D6C504B01021400140006080800CC70623B55019EA25F0000007C000000070000000000000000000000000094020000636E782E786D6C504B
310
01021400140006080800CC70623BDBABAAF470010000D40300000C00000000000000000000000000180300006662782F636F72652E786D6C504B01021400140006080800CC70623B9C113CC27E0000009D0000000B00000000000000000000000000B20400006662782F636E782E786D6C504B01021400140006080800CC70
310
623B7DF2F77C2A010000120200003100000000000000000000000000590500006662782F41393633353835312D344632462D344230382D423046372D3739314545314133324237412F636F72652E786D6C504B01021400140006080800CC70623BAD7543B64E010000330300003000000000000000000000000000D2060000
310
6662782F41393633353835312D344632462D344230382D423046372D3739314545314133324237412F636E782E786D6C504B01021400140006080800CC70623BE75B7789680500003C10000034000000000000000000000000006E0800006662782F41393633353835312D344632462D344230382D423046372D3739314545
310
314133324237412F6F626A656374732E786D6C504B01021400140006080000CC70623B0000000000000000000000003500000000000000000000000000280E00006662782F41393633353835312D344632462D344230382D423046372D3739314545314133324237412F76657274696365732E62696E504B01021400140006
310
080800CC70623BF270F133060000000400000036000000000000000000000000007B0E00006662782F41393633353835312D344632462D344230382D423046372D3739314545314133324237412F747269616E676C65732E62696E504B01021400140006080000CC70623B0000000000000000000000003700000000000000
310
000000000000D50E00006662782F41393633353835312D344632462D344230382D423046372D3739314545314133324237412F617474726962757465732E62696E504B01021400140006080800CC70623B08DA0BD1900000004101000036000000000000000000000000002A0F00006662782F41393633353835312D344632
310
462D344230382D423046372D3739314545314133324237412F6469726563746F72792E786D6C504B01021400140006080800CC70623BEDD1DC58FD000000A00100003B000000000000000000000000000E1000006662782F41393633353835312D344632462D344230382D423046372D3739314545314133324237412F7265
310
736F75726365732F636F72652E786D6C504B0506000000000E000E0080040000641100000000
  0
XRECORD
  5
1F8
102
{ACAD_REACTORS
330
1F7
102
}
330
1F7
100
AcDbXrecord
280
     1
 70
     1
 90
429727718
  1
30362254-06B7-45E0-A893-8CFA70E3D6BC
310
504B03040A0000080000CC70623B3DEE336E79000000790000001B0000006175746F6465736B2D64657369676E2D7061636B6167652E786D6C3C3F786D6C2076657273696F6E3D22312E302220656E636F64696E673D227574662D3822203F3E3C666F726D6174733E3C666F726D61743E687474703A2F2F736368656D612E
310
6175746F6465736B2E636F6D2F64657369676E2D7061636B6167652F323030393C2F666F726D61743E3C2F666F726D6174733E504B0304140006080800CC70623BD486FD9CA0000000F4000000130000005B436F6E74656E745F54797065735D2E786D6C7D8EC10E82300C865F65E91D8A1E8C310C0EEA1BF002731658846E
310
D98AC1B77784ABF1D8FE5FBFBF75BBCE937A534CCEB38643598122B6FEE978D0B0485F9C41B54DDD7D022595594E1A469170414C76A4D9A4D207E29CF43ECE46F218070CC6BECC4078ACAA135ACF422C856C0E68EA1BF5669944DDD7BCDE7B1F8E415D77AECB980613C2E4AC91FC167A2B244592486606FC29C8FD7F045B9A
310
EF7053A7E60B504B0304140006080800CC70623B1EC5D7A3EB0000007C01000008000000636F72652E786D6C8D90416EC3201045AF82665B6103C6756C6122AB4D4ED00B204C5C94182C03558F5F9C3852BBEB6A467FFE9B197D71FC9E6FE8CBACC17AD7032D0820E3B41FAD9B7A48F1820F808E52ACDEC75F36404ECDA687
310
4D0629A6D5A76597B477D1B89855E747B38B2A041301E95B6E7A08FAD3CCAA50296647B8168BD2573599823EBB0CA76447F43862C7BCCF5EAC59410E4DDD9C7973C2755553CCCFA4C603E3040F1565ED3B1FDE4E432BCA0D9622DAF9795FAF464533826484B498524CD807E51D79ED187F21878E10516EF63F505AC67F42C9
310
BA58B1FDDD071640D2FCC87D2045B96591CB3DA85CB7DCE40F504B0304140006080800CC70623B55019EA25F0000007C00000007000000636E782E786D6C4DCB3B0E80201045D1AD90E915ED2CF8AC45050C11660C8261F98AB1B07AC9C97D42D718D865D3E909258CFD00CCE24AC6E326A164D74DC0B4128928FF32603847
310
2BA13128B1252AC747C6BAB984FC68F0B87FE8960A5C09FE86CFB69FBA01504B0304140006080800CC70623B8C9102E971010000D40300000C0000006662782F636F72652E786D6CC5535B6E833010BC8AE5DF0A6C08340F1947A84D4ED00B38C6A128602363A31CBFCB234A53A551FA553EC09AD9F5CE8C31DB9E9B1AF5CA
310
7695D1198E428A91D2D214952E33ECDD315861B4E5CC1AE3BE9561A445A3323CC098B3D21ADFCE9034DA29ED00D5A6503328BA4E398C640D8B0C77F253352214DE4145770A5B214FA2546114020D759C75CE8200340D19DE981F0F6746269C33EFAB6266AB02A655C74A59CCF365BADC27CB5D902ED22848F6340DF238A141
310
BE88E2F57B92BFEDF23523433367AE6A2EEAA455C2A902F398D2751045018D3FA264435F3771F242571B4A1919CA6F9A7C5B3CD9E42BED16F12C776AEB308F40C848FC700B1139D4891EF410CEC810227CC6846F8386402064270EF5C5C709A05E49676C024C61FC95EA45ED154CA5211D1FF4FB8291A913A68E9B83EBBB33
310
E2A7673CDE118E5AE8124C0807CB8377834E366998436B950D7A7746DAD846D4CFD978E0F04FD455FC5D49D2D4C6FE9722321F10997F0F32DC47FE05504B0304140006080800CC70623BFFEA85907E0000009D0000000B0000006662782F636E782E786D6C4DCCD10A83201886E15B91FFDC95D95A811AB6F23E625948A6C3
310
E9D8E5AF46073BFAE0E1E365ED67B3E8ADC3CB78C7815C7240DA3DFC64DCC221C519D7805AC182F7F1EF06C88D9BE6703008B6049F9E274D7A1E938DBB5AE3D6131B2589BA0D3D965551E0B2EA732C9B9A624AAEB41E3A557677029960D9AFB4EF11165F504B0304140006080800CC70623B4FEEA4082C0100001202000031
310
0000006662782F39464131463745442D413632322D343644302D413938332D3331353338454246344243312F636F72652E786D6C8D515B6EC32010BC0AE2AB55850DD871ED0813254D72825EC00192A2C460F1A872FC42ED48ED5F7E00CDCECCCEB26C731F6FE05B39AFADE921293004CA082BB5B9F43086336A21D870E6AC
310
0D7F68109861543DCC30E4ECE26C9C164858139409093556AA051CBC570102714B8F1E7AF1A5C6A11862480C7F2DA6415C878B2A4891CA89C7990F2E050073937C42DE1DB7E4F87ED8A36D4329AA9B3D46DBAEAD504556557BD81DEBDD0761E52CE42C462D17B996298E3E6BE59E35C962CE821E1FF18553435012728A7187
310
0841987E927A8D9B35ADDF70BBC6989599FE4F1427F9A4286A132ABAC49D651EF234CD5CE04CDA78BA3DC2A8FB645D00B9DF8B57E215725C60BCA2A463E54C4CE327C7A65E1C7DB02E7DEFCBF594B864C5CA6CDBD49C957943E9FA5D5FBAF336F90F504B0304140006080800CC70623BAD7543B64E01000033030000300000
310
006662782F39464131463745442D413632322D343644302D413938332D3331353338454246344243312F636E782E786D6CD593CD6EC32010845F0571AD6CE3D48AD20813A9873E410FBD12D82434182C7EAAE6EDBB2424CD25871E7B41D6EC30B3FA84F9E67BB2E40B4234DE8DB46F1925E094D7C6ED479AD3AE5951B2113C
310
789FEE6C943839C1488B4C05DF079FE72A69D8C96C13AAD6B8631503449F83828872B949AC57D26200B826A308D316B4064D6E46FCDA41C05550DC9E483A00797BFD207EFB092A45DE9514C1BBD22178396BD39D891265658C238DEA00936C654E5E433CB65A26D9F6EDB5EBC14EBF49A45CB856E66048291F6939A9A81BB5
310
C8917738143CA680F4AA299D66A042CEB3354A2684DC9D8D178FE0D9B8B41CAAD720F880EE7EF93C0C18769E099ECC04D5A102C8049A8A05632F4DDF376CF1DE0F6BB65C2F8627B65A33C6BB62177CEBBDAD973006829F89F22E814B54F4BC2BE347F8AA8F681390B50FA73F804400B5F542E796F19FF974E7F78DB802FE05
310
E207504B0304140006080800CC70623B16AB87BA640500003C100000340000006662782F39464131463745442D413632322D343644302D413938332D3331353338454246344243312F6F626A656374732E786D6CAD575B6FA33818FD2B887DE6924B3BED8A326A92B68A663B534DD4D13E548A0C38942D60649B369D5FBFC7
310
600890A493BDE42160637FD7F31D7FF63E6FB3D478A55C242CBF3247B66B1A340F5994E4F19559CA8D75611A9F7D8F33263BCB4C232719BD32D5B4E97B316765A1A722BA21652A07B3B7B33F0D11D29C9A46981221AE4C113ED38CD8A4942CA2E2C58E882476BCD9DA23BB5ED8171B73523C0F841684D35CC252CCE79062D4
310
468DFA43D7747CCF51DF7D4FFDEB5593E3AB9CCA9FBEFE241792E4E19EB28198C968BAB8199F5D5A67D3E9C49A9E8F47D6EC76B6B0469F26EEFC7C3EBFBCBEB98462213924694B38DD98FE1D62C393D073EA4FADC5DAF04326852CCF6958F90F0F2B9BB5C48816348F90C7840A68EB78EDF68723159BCEE7891A6B95DDE9D3
310
BCEAEEE8086A6C6F9E5D4B59F0175C10A7A0820BAA5055C7473B5AE3CFDD452D602CD5DF12616444529E90D448938013FE6EFA58AA96F85E4F8C42275708571E98FE6827AF6B2B4AE3D7D83D64E5A64C53054DD3AF90BD06FEA9149565C94FCA0F6B834DC85599E4F2423B24DF0B6AFA979E534DFA9E7A4CC6FA631D486393
310
921829879BF5D781A373557BCB85E97FB90DB62B558F8795179C15944B051F40AB495CF35451D26A4727654E6D8033BD98EF82F21D91FF8AF2DD9982BCF1643BDD4EB516C9492E368C67C88DED563FC36D5EACF66DFF057C3658BDBFA69DF9578B3DA735B64F18C7F20770A9D45CFCF7FCF563D6456A277DBEF78A02637CA2
310
43B90A490AEAB94F72244481D24819A6C0E59B606BFA4B3025981DBB48EAB701D97BF19C577CC77F2D1B6C55A9EF3C732474C0B727303F625995056C3B02963D9EAC146BE78EC5FCEC7FA999EBC5EACBAAE41B12D27B4D2C0BBA49F244E2ECDC81B76B502F113D8F5EE8FB1BE3111CDD4FC2AA9B844CAB1288B68AB90A7CDC
310
1C166AB0D3DC5310625FCC14E779BFD0709F8890A629C9292B1B2DED31A4B0DA928CEE135085754027E3018A397D4D5427D15BD1330B677DC8934285AC3DF45A9EB68FF8F2B8FC0A509AFEECFD0FF2DE25CC6047F7214B195F07EFEB9A094D800F7BFAE8FED187B78EA8A3A400F115961BCAD1215E47C966530AF0EE8128FE
310
58CEBB996A8964FFA529A046635D9353B0336A8F700DDF46271A024E70B0B37C9DE01847591E54DED53D54202AB947E4076556AC49C6CA5C9E1226B7F1A7B1BE15DEED62C41B91E1B3E9AFAAA735036547343A925075041DF0A9979E893B391F8FCFA6967B3EFB644DCF6E5CEBFAE272625DCC6FAF3FB93793C5F90CE1EF57
310
407342756B10D1C489E8953CD1617E5CEECAD6F4EF8914CE5D5D504E5C3F1F9736DA62CFC11E00BCDDB8CC8A9466349744C1F75EBDA4DF09BA8A9E8C7A7E9991989E20E5DBDD6A6003664ED8F7A04A8DBE0DF6EAD9B9AA858342E47399053949D2C146EDB85DE4B176BB0965FBAC19BD19AA918E27FA50C1D22402E144464C
310
59462568E704B6E71915404CB72B8FF4EDE184DDAF753F284990D2C6926782963815403548A70C657FDEF80D2D9CEAA2AE4C1C76F60BFE74219A06527D6582DF6412526107381E55E353090704D085B52408D0933C4ED159D79BDA71BB4BC506F4831350EB6F979CD22D69BF7AC49B91A2C0A9DDA3D5CA36AD20FC478E37E6
310
1844E2352865EBCB6EA275A652E3836BE04EFB400BF1A2556F515F1FBB35B2AB35BD889C744FFA1004B5544B121E57F70215746DD2F5E2C1412B602CBF19455AC6C8E5E9922C4E01E65215385004546899059180EAFCF7A707CE7017CD8CDB0410789AB32C63B91E5CEBBBACB17AC6CD347A022D5075FD106377347AAABA7E
310
7D11590744509B44E205134DC1290F06580320F78E537D3D73540E06CB970B431F185308AD40BBD794D6D77003C5A36E8EAA54BA64597CD8F83BD552A080A365F7FF06504B0304140006080000CC70623B000000000000000000000000350000006662782F39464131463745442D413632322D343644302D413938332D3331
310
353338454246344243312F76657274696365732E62696E504B0304140006080800CC70623BF270F1330600000004000000360000006662782F39464131463745442D413632322D343644302D413938332D3331353338454246344243312F747269616E676C65732E62696E636660600000504B0304140006080000CC70623B
310
000000000000000000000000370000006662782F39464131463745442D413632322D343644302D413938332D3331353338454246344243312F617474726962757465732E62696E504B0304140006080800CC70623B08DA0BD19000000041010000360000006662782F39464131463745442D413632322D343644302D413938
310
332D3331353338454246344243312F6469726563746F72792E786D6C858F410AC3201045AF22B36F53E9A60B35CBEEBAE80D244E44489C6234F4F835464A48035D0DF398FF9F8AF63D0E6CC63039F212F8F9020C7D47C6792B21C5FE7403D62A1188E2E60C98D7234A5830286103A55745067B9D86B8A3CF9C7F90C11DE607
310
FB144396D7B6A82D282E9A152AD114D5EF2CB866EEE831B8EEA07A7BB5A8D7D61A2BAAEB7FD5F70921FF497D00504B0304140006080800CC70623B0D6EF93BFE000000A00100003B0000006662782F39464131463745442D413632322D343644302D413938332D3331353338454246344243312F7265736F75726365732F63
310
6F72652E786D6C8D50596E833010BD0A9ADFCA60B334011947A8694ED00B586642AC041B79A97AFC9A40A5F6AF3F33A3B7689E1E3F7DCD8FEC139DD7D6F4C0720A191A65476DA61E62B892236427C19DB5E1970C322367EC618541F0C9D9B8EC90B226A009093576C41D94DE63804C3DD2D18357379C652E63480A7FCF17A9
310
EE72C29CE5894E3AC17D702940B63D59270887DE46A7D0F36263058F518FBB468FE9A7BE6A7420864373B8D4873369AA8691FA421B3294352543C5CAF65C0F6FEF43CB8BD52C78D0F34F46E550061C419494B6843142CB0F5677F4B52BEB177AEC28E5C52AFF638ACBF84F53D42654E51E77B379102C05791282176B5F693D
310
CB4C7BED567C03504B010214000A0000080000CC70623B3DEE336E79000000790000001B00000000000000000000000000000000006175746F6465736B2D64657369676E2D7061636B6167652E786D6C504B01021400140006080800CC70623BD486FD9CA0000000F40000001300000000000000000000000000B20000005B
310
436F6E74656E745F54797065735D2E786D6C504B01021400140006080800CC70623B1EC5D7A3EB0000007C010000080000000000000000000000000083010000636F72652E786D6C504B01021400140006080800CC70623B55019EA25F0000007C000000070000000000000000000000000094020000636E782E786D6C504B
310
01021400140006080800CC70623B8C9102E971010000D40300000C00000000000000000000000000180300006662782F636F72652E786D6C504B01021400140006080800CC70623BFFEA85907E0000009D0000000B00000000000000000000000000B30400006662782F636E782E786D6C504B01021400140006080800CC70
310
623B4FEEA4082C0100001202000031000000000000000000000000005A0500006662782F39464131463745442D413632322D343644302D413938332D3331353338454246344243312F636F72652E786D6C504B01021400140006080800CC70623BAD7543B64E010000330300003000000000000000000000000000D5060000
310
6662782F39464131463745442D413632322D343644302D413938332D3331353338454246344243312F636E782E786D6C504B01021400140006080800CC70623B16AB87BA640500003C1000003400000000000000000000000000710800006662782F39464131463745442D413632322D343644302D413938332D3331353338
310
454246344243312F6F626A656374732E786D6C504B01021400140006080000CC70623B0000000000000000000000003500000000000000000000000000270E00006662782F39464131463745442D413632322D343644302D413938332D3331353338454246344243312F76657274696365732E62696E504B01021400140006
310
080800CC70623BF270F133060000000400000036000000000000000000000000007A0E00006662782F39464131463745442D413632322D343644302D413938332D3331353338454246344243312F747269616E676C65732E62696E504B01021400140006080000CC70623B0000000000000000000000003700000000000000
310
000000000000D40E00006662782F39464131463745442D413632322D343644302D413938332D3331353338454246344243312F617474726962757465732E62696E504B01021400140006080800CC70623B08DA0BD190000000410100003600000000000000000000000000290F00006662782F39464131463745442D413632
310
322D343644302D413938332D3331353338454246344243312F6469726563746F72792E786D6C504B01021400140006080800CC70623B0D6EF93BFE000000A00100003B000000000000000000000000000D1000006662782F39464131463745442D413632322D343644302D413938332D3331353338454246344243312F7265
310
736F75726365732F636F72652E786D6C504B0506000000000E000E0080040000641100000000
  0
XRECORD
  5
175
102
{ACAD_REACTORS
330
173
102
}
330
173
100
AcDbXrecord
280
     1
270
     1
271
     1
  0
XRECORD
  5
174
102
{ACAD_REACTORS
330
173
102
}
330
173
100
AcDbXrecord
280
     1
270
     1
271
     1
  0
XRECORD
  5
1FB
102
{ACAD_REACTORS
330
173
102
}
330
173
100
AcDbXrecord
280
     1
 70
     0
 90
1673772943
  1
ECE7A1D2-D628-4531-984C-D00F80459256
310
504B03040A0000080000CC70623B3DEE336E79000000790000001B0000006175746F6465736B2D64657369676E2D7061636B6167652E786D6C3C3F786D6C2076657273696F6E3D22312E302220656E636F64696E673D227574662D3822203F3E3C666F726D6174733E3C666F726D61743E687474703A2F2F736368656D612E
310
6175746F6465736B2E636F6D2F64657369676E2D7061636B6167652F323030393C2F666F726D61743E3C2F666F726D6174733E504B0304140006080800CC70623BD486FD9CA0000000F4000000130000005B436F6E74656E745F54797065735D2E786D6C7D8EC10E82300C865F65E91D8A1E8C310C0EEA1BF002731658846E
310
D98AC1B77784ABF1D8FE5FBFBF75BBCE937A534CCEB38643598122B6FEE978D0B0485F9C41B54DDD7D022595594E1A469170414C76A4D9A4D207E29CF43ECE46F218070CC6BECC4078ACAA135ACF422C856C0E68EA1BF5669944DDD7BCDE7B1F8E415D77AECB980613C2E4AC91FC167A2B244592486606FC29C8FD7F045B9A
310
EF7053A7E60B504B0304140006080800CC70623BD9DDAED0EC0000007C01000008000000636F72652E786D6C8D90416EC3201045AF82665B61836D9CD8C2444DD39CA01740405C94182C03558F5F9C3852BBEB6A467FFE9B197D7EF89E6EE8CB2CC17A37002D0820E394D7D68D03A478C17B4007C117EFE32F1B20272733C0
310
2A83E0E3E2D3BC49CABB685CCCAAF3DA6CA20CC14440EA969B0182FA34932C648AD911AEC52CD5558EA6A0CF2EC329598D1E47ACCEFBECC59A050463A7EA5833865FEBDD0E37353BE3EE8DBDE3F6786A48D375FBF6CC78B9C282473B3DEFABC5C86834888A900E538A49F5419B9EB47DD5BC907D4F082F57FB1F28CDFA9F50
310
B22ED6D5F6EE030B20687EE43E10BC5CB3C8E51E54AE6B6EE207504B0304140006080800CC70623B55019EA25F0000007C00000007000000636E782E786D6C4DCB3B0E80201045D1AD90E915ED2CF8AC45050C11660C8261F98AB1B07AC9C97D42D718D865D3E909258CFD00CCE24AC6E326A164D74DC0B4128928FF326038
310
472BA13128B1252AC747C6BAB984FC68F0B87FE8960A5C09FE86CFB69FBA01504B0304140006080800CC70623BA24EB22D72010000D40300000C0000006662782F636F72652E786D6CC5535B6E833010BC8AE5DF0A6C5E49888CA3A6694ED00B38E05014B091B1518EDFE511A5A9D228FD2A1F60CDEC7A67C6986DCE4D8D7A
310
69BA4AAB0C073EC548AA5C17952A33ECECD15B61B4E1CC686DBF9561A44423333CC098B3D268D7CE50AE9595CA02AA74216750749DB418E5352C32DCE59FB211BE70162ABA93DF8AFC244AE9073ED050C759670D0840D390E18DF9F1706664C23973AE2A66B62A605A75ACA4C13C4976E1364A12EF355A2EBD384AF65EFA96
310
BC7B8BED2EA6719AAE16FB8491A199335B351775B991C2CA02F390D2D40B028F861F41BCA68B7518BFD0D59A524686F29B26D7164F36B94AD9289CE54E6D1DE6010819891F6E21228B3AD1831EC219194284CF98F06DD01008846CC5A1BEF83801D4CBDC6A1303536877A57A513B0953A94FC707FDBE6064EA84A9E3E6E0FA
310
EE8CF0E9198F7784A316AA0413C2C2F2E0ECA0934D1AE6D05A69BCDE9E91D2A611F573361E38FC1375157F5752AE6B6DFE4B11990F88CCBF0719EE23FF02504B0304140006080800CC70623B408A7D3B7C0000009D0000000B0000006662782F636E782E786D6C4DCCD10A83201886E15B91FFDC552A92A0064DBC8F581632
310
D3703A76F9ABD1C18E3E78F878E5F0D9027ABBFCF2292AE86E2D20171F69F6715550CB827B40839639A5F2770314A7CD293819B45C73AAFB45B35BA61ACAA1C1C7E7855C58C15BC331339661262CC762340413D68D77DA5B42298546CBE6573AF60CEB2F504B0304140006080800CC70623B449FB9BD290100001202000031
310
0000006662782F36394639363044362D344446342D343946362D394244322D3234314243333846323333332F636F72652E786D6C8D515B6EC32010BC0AE22B55850D98B871848994463E412FE002495162B07854397EA176A4F62F3F2C9A9D991D587EB84F37F0AD7D30CEF6905418026DA553C65E7A98E219ED203808EE9D
310
8B7F6810D871D23D2C3014FCE25D9A57483A1BB58D19B54EE9151C43D0110279CB971E06F9A5A7B11A53CC8C70ADE6515EC78BAE4895DB992778883E0700CB907242D17643D7E2538BD869608875438BBAE38922CAC8F1BDD90DB4691A5E2F42C153326A951B95E398B3D1FE599322163C9AE9115F7A3D46ADA0A018778810
310
84E907617BDCEE297BC5BB3DC6BC2EF47FA234AB2745C9D8D8D035EE220B50105E2F0DC1954B9FB747187D9F9D8FA0CCDB042D5FA0C015C65B42DF78BD10F3F3B363CB56C7109DCFDFBBB97E662ED92EB62D13BC2E1BCAE5777DB9966D8A1F504B0304140006080800CC70623BAD7543B64E01000033030000300000006662
310
782F36394639363044362D344446342D343946362D394244322D3234314243333846323333332F636E782E786D6CD593CD6EC32010845F0571AD6CE3D48AD20813A9873E410FBD12D82434182C7EAAE6EDBB2424CD25871E7B41D6EC30B3FA84F9E67BB2E40B4234DE8DB46F1925E094D7C6ED479AD3AE5951B2113C789FEE
310
6C943839C1488B4C05DF079FE72A69D8C96C13AAD6B8631503449F83828872B949AC57D26200B826A308D316B4064D6E46FCDA41C05550DC9E483A00797BFD207EFB092A45DE9514C1BBD22178396BD39D891265658C238DEA00936C654E5E433CB65A26D9F6EDB5EBC14EBF49A45CB856E66048291F6939A9A81BB5C89177
310
38143CA680F4AA299D66A042CEB3354A2684DC9D8D178FE0D9B8B41CAAD720F880EE7EF93C0C18769E099ECC04D5A102C8049A8A05632F4DDF376CF1DE0F6BB65C2F8627B65A33C6BB62177CEBBDAD973006829F89F22E814B54F4BC2BE347F8AA8F681390B50FA73F804400B5F542E796F19FF974E7F78DB802FE05E20750
310
4B0304140006080800CC70623B8D05915C650500003B100000340000006662782F36394639363044362D344446342D343946362D394244322D3234314243333846323333332F6F626A656374732E786D6CAD575B6FA33814FE2B887D06429276DA1565D4266D158D3A339A6846FB502932E050B66023DB74D2FDF5FB190C01
310
9276B2973C046C8ECFF53B17071F77456EBD502133CEAE6CDF9DD81665314F32965ED995DA3A17B6F5310C04E7AA47665B8C14F4CAD6DB7618A48257A5D94AE89654B91AEDDEDDFC61C998326A5B714EA4BCB265FC440BE2924AF184CA6737218AB8E976E7FA6E4338649B0A523E8D98964450A6A029F619B8588D52FE7039
310
B1BD30F0F4F730D0FF866AF6369557DB33949F31A9088B0F848DD8CCFCF9F2767A76E99CCDE733677E3EF59D9BBB9BA5E37F984D16E78BC5E5F5ED25044B25C0C96822E8D60EEFE11B91C581D77CEA34368A1F5329E68CD1B8B61F16D63A1B8E092D294B10C78C4A48EB593D192E7DED9BDEE7995E1B91FDEDD3ACEA9FE831
310
6A756F9F7D4D79F4274C90A7A04248AA51D5F8C718DAE06FB2F75AC4796EBE65D22A88A22223B995679120E2D50E41AA49C260C046A35368846B0BECD0DFF3EBEB8AD4F835768F69B9ADF25C43D30E6B646F807FAA64AD59F61715C7A54127C4AACA98BA3006A9D792DAE165E0D59B61A01FB3A9F9D838D2DAE62445C86166
310
F37564E842E7DE6A69879FEEA2DD5AE7E371E1A5E025154AC307D06A03D73EB5978C58FFA4C8E9033066E0F3BD53BEC1F39F91BE7B55103791EDE6BBB991A2046172CB4581D8B893FA674DDA17A77B3B7C413D1B511FD2743BFF8A38F03A658705E3ADF8015C3A3417FF3D7E439FF591DA0B5F18BC20C1B8981957AE6392A3
310
F43C640C01D1A0B4728E2DD4F26DB4B3C3152A252A3B4E913CEC1C72F012782FF88EFF8637AA552DBEF76408E8A8DE9E50F9E1CB3A2DA0DB1B6039A893B56063DC5B3E3FFB5F72E67AB9FEB4AEC496C4F4C1149625DD662C53E89D7BF0F6151A046260D1337DFDC94502430F83B0EE07A130A224BCAD7DAE1D9FB6CD422FF6
310
920702629C4BB9AE79C12F243C6432A6794E18E5552BA56B431AAB5D91317302B2B071E86C3A42B1A02F999E24061403B5D0EB639195DA655DD3EBEAB4FB862DDF579F014AD0E73C22F99E28DA57FB98E75C6CA2D74D53086D600F4786E0FE3144B771A8A7B900F03594DB8A633CBC49B2EDB69228BB479CF863B5E807AAAB
310
23872F6DFEB4129B949CA33823F58830E86D65621E10047D9DB34D862E8EAC3C2ABC2F7B2C40D67CDFE01F5545B92105AF983AC54D93D69E56FB8E797F88913F898A9FEC705D3F9D1B54EC8426FB500D40A03BD0119B06E1B95DDC7EB8F6975367793EBD70E66733DFB9BC982F9CE564727731999F5D4ECFCE3B8D6A4DC2A0
310
6D50FD148437D110834A64C6CDDF57FBACB5C307A2A477DFE4939736CFEF2B175371E0E10CF0DD1D5C15654E0BCA14D1E87DD02FF93782A162C0A3D95F1524A52770F972BF1EE9809D13CE7DD599467F8ECE9ADD85CE85A34CD45355448C64F9E8A031DC2D596ACC6E5DD93D9B82DE2EF5CAF81363A8E47996A0DE24564A79
310
4115AACE09C55E14540231FDA13C319787134EBF34E3A022514E5B4D9E0826E25C02D5805B15ABE1BEF51B26383D445DD9E875EE33FE4C22DA16427D65A3BCA92CA6D28DD01DF5DC53330704308475351050232CCD31583787BA75774AFB06E5070DD0C8EF484E19968C5D83BA5B90B244D31E54D55A372320FE4786B7EA58
310
44E135AA5467CB7EA333A61683CC6A8C3257034C10CF46F40EF9F5BE59BE5BD30C3C72D235E95D10345C1D45445A5F0BB47E46A5EBE5570F9380B5FA629579952296A773720405982B9DE04011506178964401AA8BDF1FBF0A8EAB6861DD6580C0E38217056766716DAEB2D6FA0917D3E4116581EADB879C4E7CFFB11EFACD
310
3D641311495D92C8676CB409A72D18610D803CE8A626049E8EC1887CB5B44CC39883690DDA8399B4B9855B481E7D71D4A9D22F96E5BB73BF5793020C02137BF837504B0304140006080000CC70623B000000000000000000000000350000006662782F36394639363044362D344446342D343946362D394244322D32343142
310
43333846323333332F76657274696365732E62696E504B0304140006080800CC70623BF270F1330600000004000000360000006662782F36394639363044362D344446342D343946362D394244322D3234314243333846323333332F747269616E676C65732E62696E636660600000504B0304140006080000CC70623B0000
310
00000000000000000000370000006662782F36394639363044362D344446342D343946362D394244322D3234314243333846323333332F617474726962757465732E62696E504B0304140006080800CC70623B08DA0BD19000000041010000360000006662782F36394639363044362D344446342D343946362D394244322D
310
3234314243333846323333332F6469726563746F72792E786D6C858F410AC3201045AF22B36F53E9A60B35CBEEBAE80D244E44489C6234F4F835464A48035D0DF398FF9F8AF63D0E6CC63039F212F8F9020C7D47C6792B21C5FE7403D62A1188E2E60C98D7234A5830286103A55745067B9D86B8A3CF9C7F90C11DE607FB14
310
4396D7B6A82D282E9A152AD114D5EF2CB866EEE831B8EEA07A7BB5A8D7D61A2BAAEB7FD5F70921FF497D00504B0304140006080800CC70623BCA768048FE000000A00100003B0000006662782F36394639363044362D344446342D343946362D394244322D3234314243333846323333332F7265736F75726365732F636F72
310
652E786D6C8D50596E833010BD0A9ADFCA60D600328E9AA639412F609909B1126CE4A5EAF16B0295DABFFECC8CDEA2797AECF8353F924FB44E193D409E5248504B332A3D0D10FC95B4901C39B3C6F85F3248B49871801506CE266BC2B243D2688FDA47549B11775038871E12F988C7004EDE7016A9083E2ADC3D5D84BC8B09
310
D33C8D74D471E6BC8D0192EDC93A815B742658898E651BCB59086ADC356A8C3FD555A1055ED7E7E254D615792D0F075295F585746FF53B694EE78A565DD736979A65AB9933AFE69F8CD2A2F038022F28ED489E135A7CE4554F9BBEA85E68DB53CAB255FEC71496F19FA6A0B42F8B3DEE6673C0F318E4497096AD7DC5F52C33
310
EEB55BFE0D504B010214000A0000080000CC70623B3DEE336E79000000790000001B00000000000000000000000000000000006175746F6465736B2D64657369676E2D7061636B6167652E786D6C504B01021400140006080800CC70623BD486FD9CA0000000F40000001300000000000000000000000000B20000005B436F
310
6E74656E745F54797065735D2E786D6C504B01021400140006080800CC70623BD9DDAED0EC0000007C010000080000000000000000000000000083010000636F72652E786D6C504B01021400140006080800CC70623B55019EA25F0000007C000000070000000000000000000000000095020000636E782E786D6C504B0102
310
1400140006080800CC70623BA24EB22D72010000D40300000C00000000000000000000000000190300006662782F636F72652E786D6C504B01021400140006080800CC70623B408A7D3B7C0000009D0000000B00000000000000000000000000B50400006662782F636E782E786D6C504B01021400140006080800CC70623B
310
449FB9BD290100001202000031000000000000000000000000005A0500006662782F36394639363044362D344446342D343946362D394244322D3234314243333846323333332F636F72652E786D6C504B01021400140006080800CC70623BAD7543B64E010000330300003000000000000000000000000000D20600006662
310
782F36394639363044362D344446342D343946362D394244322D3234314243333846323333332F636E782E786D6C504B01021400140006080800CC70623B8D05915C650500003B10000034000000000000000000000000006E0800006662782F36394639363044362D344446342D343946362D394244322D32343142433338
310
46323333332F6F626A656374732E786D6C504B01021400140006080000CC70623B0000000000000000000000003500000000000000000000000000250E00006662782F36394639363044362D344446342D343946362D394244322D3234314243333846323333332F76657274696365732E62696E504B010214001400060808
310
00CC70623BF270F13306000000040000003600000000000000000000000000780E00006662782F36394639363044362D344446342D343946362D394244322D3234314243333846323333332F747269616E676C65732E62696E504B01021400140006080000CC70623B00000000000000000000000037000000000000000000
310
00000000D20E00006662782F36394639363044362D344446342D343946362D394244322D3234314243333846323333332F617474726962757465732E62696E504B01021400140006080800CC70623B08DA0BD190000000410100003600000000000000000000000000270F00006662782F36394639363044362D344446342D
310
343946362D394244322D3234314243333846323333332F6469726563746F72792E786D6C504B01021400140006080800CC70623BCA768048FE000000A00100003B000000000000000000000000000B1000006662782F36394639363044362D344446342D343946362D394244322D3234314243333846323333332F7265736F
310
75726365732F636F72652E786D6C504B0506000000000E000E0080040000621100000000
  0
XRECORD
  5
176
102
{ACAD_REACTORS
330
173
102
}
330
173
100
AcDbXrecord
280
     1
270
     1
271
     1
  0
XRECORD
  5
177
102
{ACAD_REACTORS
330
173
102
}
330
173
100
AcDbXrecord
280
     1
270
     1
271
     1
  0
XRECORD
  5
1D7E
102
{ACAD_REACTORS
330
1D7D
102
}
330
1D7D
100
AcDbXrecord
280
     1
102
DISPLAYNAME
  1
Metric50
102
FLAGS
 90
        0
  0
CELLSTYLEMAP
  5
1D73
102
{ACAD_REACTORS
330
162
102
}
330
162
100
AcDbCellStyleMap
 90
        3
300
CELLSTYLE
  1
TABLEFORMAT_BEGIN
 90
        5
170
     1
 91
        0
 92
    32768
 62
   257
 93
        1
300
CONTENTFORMAT
  1
CONTENTFORMAT_BEGIN
 90
        0
 91
        0
 92
      512
 93
        0
300

 40
0.0
140
1.0
 94
        5
 62
     0
340
11
144
6.0
309
CONTENTFORMAT_END
171
     1
301
MARGIN
  1
CELLMARGIN_BEGIN
 40
1.5
 40
1.5
 40
1.5
 40
1.5
 40
4.5
 40
4.5
309
CELLMARGIN_END
 94
        6
 95
        1
302
GRIDFORMAT
  1
GRIDFORMAT_BEGIN
 90
        0
 91
        1
 62
     0
 92
       -2
340
14
 93
        0
 40
1.125
309
GRIDFORMAT_END
 95
        2
302
GRIDFORMAT
  1
GRIDFORMAT_BEGIN
 90
        0
 91
        1
 62
     0
 92
       -2
340
14
 93
        0
 40
1.125
309
GRIDFORMAT_END
 95
        4
302
GRIDFORMAT
  1
GRIDFORMAT_BEGIN
 90
        0
 91
        1
 62
     0
 92
       -2
340
14
 93
        0
 40
1.125
309
GRIDFORMAT_END
 95
        8
302
GRIDFORMAT
  1
GRIDFORMAT_BEGIN
 90
        0
 91
        1
 62
     0
 92
       -2
340
14
 93
        0
 40
1.125
309
GRIDFORMAT_END
 95
       16
302
GRIDFORMAT
  1
GRIDFORMAT_BEGIN
 90
        0
 91
        1
 62
     0
 92
       -2
340
14
 93
        0
 40
1.125
309
GRIDFORMAT_END
 95
       32
302
GRIDFORMAT
  1
GRIDFORMAT_BEGIN
 90
        0
 91
        1
 62
     0
 92
       -2
340
14
 93
        0
 40
1.125
309
GRIDFORMAT_END
309
TABLEFORMAT_END
  1
CELLSTYLE_BEGIN
 90
        1
 91
        1
300
_TITLE
309
CELLSTYLE_END
300
CELLSTYLE
  1
TABLEFORMAT_BEGIN
 90
        5
170
     1
 91
        0
 92
        0
 62
   257
 93
        1
300
CONTENTFORMAT
  1
CONTENTFORMAT_BEGIN
 90
        0
 91
        0
 92
      512
 93
        0
300

 40
0.0
140
1.0
 94
        5
 62
     0
340
11
144
4.5
309
CONTENTFORMAT_END
171
     1
301
MARGIN
  1
CELLMARGIN_BEGIN
 40
1.5
 40
1.5
 40
1.5
 40
1.5
 40
4.5
 40
4.5
309
CELLMARGIN_END
 94
        6
 95
        1
302
GRIDFORMAT
  1
GRIDFORMAT_BEGIN
 90
        0
 91
        1
 62
     0
 92
       -2
340
14
 93
        0
 40
1.125
309
GRIDFORMAT_END
 95
        2
302
GRIDFORMAT
  1
GRIDFORMAT_BEGIN
 90
        0
 91
        1
 62
     0
 92
       -2
340
14
 93
        0
 40
1.125
309
GRIDFORMAT_END
 95
        4
302
GRIDFORMAT
  1
GRIDFORMAT_BEGIN
 90
        0
 91
        1
 62
     0
 92
       -2
340
14
 93
        0
 40
1.125
309
GRIDFORMAT_END
 95
        8
302
GRIDFORMAT
  1
GRIDFORMAT_BEGIN
 90
        0
 91
        1
 62
     0
 92
       -2
340
14
 93
        0
 40
1.125
309
GRIDFORMAT_END
 95
       16
302
GRIDFORMAT
  1
GRIDFORMAT_BEGIN
 90
        0
 91
        1
 62
     0
 92
       -2
340
14
 93
        0
 40
1.125
309
GRIDFORMAT_END
 95
       32
302
GRIDFORMAT
  1
GRIDFORMAT_BEGIN
 90
        0
 91
        1
 62
     0
 92
       -2
340
14
 93
        0
 40
1.125
309
GRIDFORMAT_END
309
TABLEFORMAT_END
  1
CELLSTYLE_BEGIN
 90
        2
 91
        1
300
_HEADER
309
CELLSTYLE_END
300
CELLSTYLE
  1
TABLEFORMAT_BEGIN
 90
        5
170
     1
 91
        0
 92
        0
 62
   257
 93
        1
300
CONTENTFORMAT
  1
CONTENTFORMAT_BEGIN
 90
        0
 91
        0
 92
      512
 93
        0
300

 40
0.0
140
1.0
 94
        2
 62
     0
340
11
144
4.5
309
CONTENTFORMAT_END
171
     1
301
MARGIN
  1
CELLMARGIN_BEGIN
 40
1.5
 40
1.5
 40
1.5
 40
1.5
 40
4.5
 40
4.5
309
CELLMARGIN_END
 94
        6
 95
        1
302
GRIDFORMAT
  1
GRIDFORMAT_BEGIN
 90
        0
 91
        1
 62
     0
 92
       -2
340
14
 93
        0
 40
1.125
309
GRIDFORMAT_END
 95
        2
302
GRIDFORMAT
  1
GRIDFORMAT_BEGIN
 90
        0
 91
        1
 62
     0
 92
       -2
340
14
 93
        0
 40
1.125
309
GRIDFORMAT_END
 95
        4
302
GRIDFORMAT
  1
GRIDFORMAT_BEGIN
 90
        0
 91
        1
 62
     0
 92
       -2
340
14
 93
        0
 40
1.125
309
GRIDFORMAT_END
 95
        8
302
GRIDFORMAT
  1
GRIDFORMAT_BEGIN
 90
        0
 91
        1
 62
     0
 92
       -2
340
14
 93
        0
 40
1.125
309
GRIDFORMAT_END
 95
       16
302
GRIDFORMAT
  1
GRIDFORMAT_BEGIN
 90
        0
 91
        1
 62
     0
 92
       -2
340
14
 93
        0
 40
1.125
309
GRIDFORMAT_END
 95
       32
302
GRIDFORMAT
  1
GRIDFORMAT_BEGIN
 90
        0
 91
        1
 62
     0
 92
       -2
340
14
 93
        0
 40
1.125
309
GRIDFORMAT_END
309
TABLEFORMAT_END
  1
CELLSTYLE_BEGIN
 90
        3
 91
        2
300
_DATA
309
CELLSTYLE_END
  0
ENDSEC
  0
SECTION
  2
ACDSDATA
 70
     2
 71
     8
  0
ACDSSCHEMA
 90
        0
  1
AcDb_Thumbnail_Schema
  2
AcDbDs::ID
280
    10
 91
        8
  2
Thumbnail_Data
280
    15
 91
        0
101
ACDSRECORD
 95
        0
 90
        1
  2
AcDbDs::TreatedAsObjectData
280
     1
291
     1
101
ACDSRECORD
 95
        0
 90
        2
  2
AcDbDs::Legacy
280
     1
291
     1
101
ACDSRECORD
  1
AcDbDs::ID
 90
        3
  2
AcDs:Indexable
280
     1
291
     1
101
ACDSRECORD
  1
AcDbDs::ID
 90
        4
  2
AcDbDs::HandleAttribute
280
     7
282
     1
  0
ACDSSCHEMA
 90
        1
  1
AcDbDs::TreatedAsObjectDataSchema
  2
AcDbDs::TreatedAsObjectData
280
     1
 91
        0
  0
ACDSSCHEMA
 90
        2
  1
AcDbDs::LegacySchema
  2
AcDbDs::Legacy
280
     1
 91
        0
  0
ACDSSCHEMA
 90
        3
  1
AcDbDs::IndexedPropertySchema
  2
AcDs:Indexable
280
     1
 91
        0
  0
ACDSSCHEMA
 90
        4
  1
AcDbDs::HandleAttributeSchema
  2
AcDbDs::HandleAttribute
280
     7
 91
        1
284
     1
  0
ACDSRECORD
 90
        0
  2
AcDbDs::ID
280
    10
320
22
  2
Thumbnail_Data
280
    15
 94
     1638
310
89504E470D0A1A0A0000000D4948445200000100000000670803000000D82A6C0200000300504C5445000000FFFFFF0000000000000000000000000000000000000000000000000000000000330000660000990000CC0000FF0033000033330033660033990033CC0033FF0066000066330066660066990066CC0066FF0099
310
000099330099660099990099CC0099FF00CC0000CC3300CC6600CC9900CCCC00CCFF00FF0000FF3300FF6600FF9900FFCC00FFFF3300003300333300663300993300CC3300FF3333003333333333663333993333CC3333FF3366003366333366663366993366CC3366FF3399003399333399663399993399CC3399FF33CC00
310
33CC3333CC6633CC9933CCCC33CCFF33FF0033FF3333FF6633FF9933FFCC33FFFF6600006600336600666600996600CC6600FF6633006633336633666633996633CC6633FF6666006666336666666666996666CC6666FF6699006699336699666699996699CC6699FF66CC0066CC3366CC6666CC9966CCCC66CCFF66FF0066
310
FF3366FF6666FF9966FFCC66FFFF9900009900339900669900999900CC9900FF9933009933339933669933999933CC9933FF9966009966339966669966999966CC9966FF9999009999339999669999999999CC9999FF99CC0099CC3399CC6699CC9999CCCC99CCFF99FF0099FF3399FF6699FF9999FFCC99FFFFCC0000CC00
310
33CC0066CC0099CC00CCCC00FFCC3300CC3333CC3366CC3399CC33CCCC33FFCC6600CC6633CC6666CC6699CC66CCCC66FFCC9900CC9933CC9966CC9999CC99CCCC99FFCCCC00CCCC33CCCC66CCCC99CCCCCCCCCCFFCCFF00CCFF33CCFF66CCFF99CCFFCCCCFFFFFF0000FF0033FF0066FF0099FF00CCFF00FFFF3300FF3333
310
FF3366FF3399FF33CCFF33FFFF6600FF6633FF6666FF6699FF66CCFF66FFFF9900FF9933FF9966FF9999FF99CCFF99FFFFCC00FFCC33FFCC66FFCC99FFCCCCFFCCFFFFFF00FFFF33FFFF66FFFF99FFFFCCFFFFFF0000000D0D0D1A1A1A2828283535354343435050505D5D5D6B6B6B787878868686939393A1A1A1AEAEAEBB
310
BBBBC9C9C9D6D6D6E4E4E4F1F1F1FFFFFF0000000000000000000000000000000000000000000000000000000000003AE5ACE9000002BD4944415478DAED9C4DB683200C85B31C26EE7FE6A4DB70090E9CDCF953A815109E3F85534392413BA8F590CF9B10022D919A9A9A9A9A9A9A9ADA2DC3CFEDD70048F80014C0C1E73D
310
2A8F5201280005A00014000B00950A172E00AA556E4C00407A0840738002900C00C2018014C076756935300000BF10A2D2A5009B2468FD7E17443201089F06516BC48C2AC12D06A400C007C0644CAD4EF6230178AEBE15608C4B839011029BFF7000CCAA0059497079DC9D030017FD026701F7E00D5C2550A12E7E3C00FB6A
310
A8DA6E9E2A8083021C009995A0AB808CDC96D8301B0603A24A69808102961C9038492106C0E2AAF12F14A6005B0219929B04DD34F89E0DBC1AB9940A9E0E609A1609EC926039028F078009762D10EC0FA25C3DF47400DDBC0EA46531EC5F094139A0B3FEFBB340E1D5C0D3018CC6CD82DBD6803400510060D73441FB002801
310
00AB165A070043941440A08376018CB3F9FE865FCB44C125228F0F81312F002415705112AC00C402F0170CB8191B2C00C4FE53706C642B0EF7C1D1288040000852018239A20100FD6CE8FBCF1BCC4E0081DE1112DA94C11680A7F8C1DA4E00FBDB81FE9B24D802180200A0230038950AD9005825BE540663C19F467101B0BA
310
808EA200407C375CF28C0780ED0906005E2F24FA048D01B0A9DFB3CEDAFAF61A86C643E0C83105A000148002681BC0BADECD147C4B65D8764B2C0980CAFD8C82C7091102517ED1D33C80D4E948080280E465A508B007F0ED06098313229903C28867C94601807267033FED4F120DE05B3FB8548267BF7BB953C4A310CA9CAA
310
A7CCBE50930052A782521B6307F7C53EC7B20090E9EFCA51C0EADBF1FD1A06706AAC4D03A0DB00B2329202408E02AE57C6C215D01E80363B425F4B803100929E03487A08148980FF64F17300E2FF5516279F084067AA1A44051EC2F3034F0410CFCB99319E0680A05300BF6B805C735543404D4D4DED9EFD01A672D866BEF5
310
D95A0000000049454E44AE426082E6BF0490D3C4FC59685F458BEFB7AFC977DC70BF64662C55002C063028C0CCCCAC1EFB078F0270FC3EE5160F0000000049454E44AE426082038D679C255A40B257FF0230C18D01580CF8B10598D4237F695EFAF8469F0E2E0000000049454E44AE426082
  0
ACDSRECORD
 90
        0
  2
AcDbDs::ID
280
    10
320
D3
  2
Thumbnail_Data
280
    15
 94
     2031
310
89504E470D0A1A0A0000000D4948445200000100000000B5080300000087DCD12600000300504C5445FFFFFFFFFFFFFFFFFF0000000000000000000000000000000000000000000000000000330000660000990000CC0000FF0033000033330033660033990033CC0033FF0066000066330066660066990066CC0066FF0099
310
000099330099660099990099CC0099FF00CC0000CC3300CC6600CC9900CCCC00CCFF00FF0000FF3300FF6600FF9900FFCC00FFFF3300003300333300663300993300CC3300FF3333003333333333663333993333CC3333FF3366003366333366663366993366CC3366FF3399003399333399663399993399CC3399FF33CC00
310
33CC3333CC6633CC9933CCCC33CCFF33FF0033FF3333FF6633FF9933FFCC33FFFF6600006600336600666600996600CC6600FF6633006633336633666633996633CC6633FF6666006666336666666666996666CC6666FF6699006699336699666699996699CC6699FF66CC0066CC3366CC6666CC9966CCCC66CCFF66FF0066
310
FF3366FF6666FF9966FFCC66FFFF9900009900339900669900999900CC9900FF9933009933339933669933999933CC9933FF9966009966339966669966999966CC9966FF9999009999339999669999999999CC9999FF99CC0099CC3399CC6699CC9999CCCC99CCFF99FF0099FF3399FF6699FF9999FFCC99FFFFCC0000CC00
310
33CC0066CC0099CC00CCCC00FFCC3300CC3333CC3366CC3399CC33CCCC33FFCC6600CC6633CC6666CC6699CC66CCCC66FFCC9900CC9933CC9966CC9999CC99CCCC99FFCCCC00CCCC33CCCC66CCCC99CCCCCCCCCCFFCCFF00CCFF33CCFF66CCFF99CCFFCCCCFFFFFF0000FF0033FF0066FF0099FF00CCFF00FFFF3300FF3333
310
FF3366FF3399FF33CCFF33FFFF6600FF6633FF6666FF6699FF66CCFF66FFFF9900FF9933FF9966FF9999FF99CCFF99FFFFCC00FFCC33FFCC66FFCC99FFCCCCFFCCFFFFFF00FFFF33FFFF66FFFF99FFFFCCFFFFFF0000000D0D0D1A1A1A2828283535354343435050505D5D5D6B6B6B787878868686939393A1A1A1AEAEAEBB
310
BBBBC9C9C9D6D6D6E4E4E4F1F1F1FFFFFF000000000000000000000000000000000000000000000000000000000000AD4AB4E4000004854944415478DAED9D598EE3300C4479FF63D6E7600E31C02456B459A26C511BE9061AE9A0A1582F5C4AD462C21FD51708A4FA320006C00018000370BDD673DD0050F4B51B00036000
310
0C403F005E588501300006C00018000360000C80013000064033005779890B302A00140A502A0020B100850034C7801DC2A0011004B0451E340026840C8010002807003200AA01800C806A00C8B4F179EFFFB0481B80EF7B4B0E8A6500202A8890EBF8E7B5262114DB01E905A0530A2F9F0A0C802C80F5B5C0C89AA0130250
310
070071895C09809FFEB97E139D24843E5D0ABFD4A02406E474009D0420B1EA0280F382606EDE2B02E08D02CE04E0443EBE31CF2F89E55CE4DC34F8CDFA890E8023A54107200F4091108A4202344AE1B03D244D2FE60CC200C252D08A09411200A205124E141E3E18F282804B8D7E29548B055C06A03508C20F822A0178F561
310
8D003671003100BB38806C16F0E6465289A80200EE86CDEEF7A12E00F74341492C82706C0C706B64BD31615A393837085EFDC31633232200BC59419D3343F0A281EE34A85408212A876494C0B55A627E2A90B080B81E943B92C5454B9CE8024441E790CCA11C6E01AE1474DFD8F952D81F182A4C8381045008205C2697F9CC
310
D3D707E087226D69B199C2EE00A2A140BC4A46C50A91FB08080516702578BA0350D0CE33C0880060F71FF3F7160B6681B499EC02FA40199E9206896900C7EA00BE01847F4CD84D21361AACF73F01302510485A00DF017E83C34AFFFB031AB773B40080B99056E4148661008A06C0BED59D2CA0CD00DA6E7507000D1110B9A2
310
52F245233BA6789D35660140A5672801088B6B6B0278E8009E9FA348AC9B7A9E0400153994762F06F0BDE11501708EF246A5FF944CB14B05C3E100503580AC056C0420D302629D5C3280FA6DE6B4E163671801E0B750269932AFD64BEE69C6BD5F19C0BD07BC3400BCDF8B3600405022445703D8230680E27D4479B5F4C800
310
3600805B6F907F68C61A00409A0100952A582482063B8034008019CE4AC72DEC0B0060C6F3DFB2498CEEBFE872F9868A6178F2ECDE3160A547271900036000060380598001300006403780AC2C2CFEE3DC7378250194A7ADD20F33008701A86D0E5BE3E9867200AA3B660E07C0D833B604819900080703601D28BA82090801
310
606E165980800C006E623B1500DFB7E713580A4058161DB3765A0200887FAA72F981F77B0268DA3B5E2E8E6F0900D402205DEFF03B866F6F00EC5374266F1A103C4AAB2B00B1E2897045887A11D80740BB71E32C1778D0B3894E205D136CD00EB5CD103818006BA91B9EFA0D38AA450840CB6D722CA060100CBAD300B076FA
310
780FA239C805C2E1CDCB681D2D9E66B759FA7879004494CBB8EF05C62E1690E8C3CE16C098235B02400FC16200767681EE00883F353C3D089A05AC7D6D0240AE5E6800367101B1C53406C082E05969703A003200C3BABFA60B1800ED4170B9A180013017780640CFF508409BE9F630FFDB2A46F14318A5D8272ED00EE065CD
310
229D131901A0307E68B0AC1E8FD348CFA98DCEDE437AFE4EAD1B5517E806A0A3057865DEF4197E7900CF2DA06F0CD8D005B46701959701300006C0006807A0FCA2BFCAAF7F732FFA2313F88E2C0000000049454E44AE426082C00018000360003E8A8F2F00D5C7E7F307E649C2ABD2B7FA5B0000000049454E44AE426082
  0
ENDSEC
  0
EOF
