  0
SECTION
  2
HEADER
  9
$ACADVER
  1
AC1024
  9
$ACADMAINTVER
 70
   226
  9
$DWGCODEPAGE
  3
ANSI_932
  9
$LASTSAVEDBY
  1
satoe
  9
$CUSTOMPROPERTYTAG
  1
AmdtFileType
  9
$CUSTOMPROPERTY
  1
84
  9
$INSBASE
 10
0.0
 20
0.0
 30
0.0
  9
$EXTMIN
 10
0.0
 20
-0.0000000000009095
 30
-0.000000000481875
  9
$EXTMAX
 10
840.0
 20
593.999999999999
 30
0.0
  9
$LIMMIN
 10
0.0
 20
0.0
  9
$LIMMAX
 10
420.0
 20
297.0
  9
$ORTHOMODE
 70
     0
  9
$REGENMODE
 70
     1
  9
$FILLMODE
 70
     1
  9
$QTEXTMODE
 70
     0
  9
$MIRRTEXT
 70
     1
  9
$LTSCALE
 40
0.2
  9
$ATTMODE
 70
     1
  9
$TEXTSIZE
 40
2.5
  9
$TRACEWID
 40
1.0
  9
$TEXTSTYLE
  7
STANDARD
  9
$CLAYER
  8
0
  9
$CELTYPE
  6
ByLayer
  9
$CECOLOR
 62
   256
  9
$CELTSCALE
 40
0.2
  9
$DISPSILH
 70
     0
  9
$DIMSCALE
 40
1.0
  9
$DIMASZ
 40
2.5
  9
$DIMEXO
 40
1.0
  9
$DIMDLI
 40
10.0
  9
$DIMRND
 40
0.0
  9
$DIMDLE
 40
0.0
  9
$DIMEXE
 40
1.0
  9
$DIMTP
 40
0.1
  9
$DIMTM
 40
0.1
  9
$DIMTXT
 40
3.5
  9
$DIMCEN
 40
0.0
  9
$DIMTSZ
 40
0.0
  9
$DIMTOL
 70
     0
  9
$DIMLIM
 70
     0
  9
$DIMTIH
 70
     0
  9
$DIMTOH
 70
     0
  9
$DIMSE1
 70
     0
  9
$DIMSE2
 70
     0
  9
$DIMTAD
 70
     1
  9
$DIMZIN
 70
     8
  9
$DIMBLK
  1

  9
$DIMASO
 70
     1
  9
$DIMSHO
 70
     1
  9
$DIMPOST
  1

  9
$DIMAPOST
  1
"
  9
$DIMALT
 70
     0
  9
$DIMALTD
 70
     2
  9
$DIMALTF
 40
0.0393701
  9
$DIMLFAC
 40
1.0
  9
$DIMTOFL
 70
     1
  9
$DIMTVP
 40
0.0
  9
$DIMTIX
 70
     0
  9
$DIMSOXD
 70
     0
  9
$DIMSAH
 70
     0
  9
$DIMBLK1
  1

  9
$DIMBLK2
  1

  9
$DIMSTYLE
  2
AM_ISO
  9
$DIMCLRD
 70
   256
  9
$DIMCLRE
 70
   256
  9
$DIMCLRT
 70
     2
  9
$DIMTFAC
 40
0.71
  9
$DIMGAP
 40
1.5
  9
$DIMJUST
 70
     0
  9
$DIMSD1
 70
     0
  9
$DIMSD2
 70
     0
  9
$DIMTOLJ
 70
     0
  9
$DIMTZIN
 70
     8
  9
$DIMALTZ
 70
     0
  9
$DIMALTTZ
 70
     0
  9
$DIMUPT
 70
     0
  9
$DIMDEC
 70
     2
  9
$DIMTDEC
 70
     3
  9
$DIMALTU
 70
     2
  9
$DIMALTTD
 70
     4
  9
$DIMTXSTY
  7
STANDARD
  9
$DIMAUNIT
 70
     0
  9
$DIMADEC
 70
     0
  9
$DIMALTRND
 40
0.0
  9
$DIMAZIN
 70
     2
  9
$DIMDSEP
 70
    46
  9
$DIMATFIT
 70
     3
  9
$DIMFRAC
 70
     0
  9
$DIMLDRBLK
  1

  9
$DIMLUNIT
 70
     2
  9
$DIMLWD
 70
    -1
  9
$DIMLWE
 70
    -1
  9
$DIMTMOVE
 70
     0
  9
$DIMFXL
 40
1.0
  9
$DIMFXLON
 70
     0
  9
$DIMJOGANG
 40
0.7853981633974483
  9
$DIMTFILL
 70
     0
  9
$DIMTFILLCLR
 70
     0
  9
$DIMARCSYM
 70
     0
  9
$DIMLTYPE
  6

  9
$DIMLTEX1
  6

  9
$DIMLTEX2
  6

  9
$DIMTXTDIRECTION
 70
     0
  9
$LUNITS
 70
     2
  9
$LUPREC
 70
     2
  9
$SKETCHINC
 40
1.0
  9
$FILLETRAD
 40
2.5
  9
$AUNITS
 70
     0
  9
$AUPREC
 70
     0
  9
$MENU
  1
.
  9
$ELEVATION
 40
0.0
  9
$PELEVATION
 40
0.0
  9
$THICKNESS
 40
0.0
  9
$LIMCHECK
 70
     0
  9
$CHAMFERA
 40
2.5
  9
$CHAMFERB
 40
2.5
  9
$CHAMFERC
 40
20.0
  9
$CHAMFERD
 40
0.0
  9
$SKPOLY
 70
     0
  9
$TDCREATE
 40
2456055.381932871
  9
$TDUCREATE
 40
2456055.006940938
  9
$TDUPDATE
 40
2459781.553333333
  9
$TDUUPDATE
 40
2459781.178333333
  9
$TDINDWG
 40
0.1417774769
  9
$TDUSRTIMER
 40
0.1417774769
  9
$USRTIMER
 70
     1
  9
$ANGBASE
 50
0.0
  9
$ANGDIR
 70
     0
  9
$PDMODE
 70
     0
  9
$PDSIZE
 40
0.0
  9
$PLINEWID
 40
0.0
  9
$SPLFRAME
 70
     0
  9
$SPLINETYPE
 70
     6
  9
$SPLINESEGS
 70
     8
  9
$HANDSEED
  5
C79
  9
$SURFTAB1
 70
     6
  9
$SURFTAB2
 70
     6
  9
$SURFTYPE
 70
     6
  9
$SURFU
 70
     6
  9
$SURFV
 70
     6
  9
$UCSBASE
  2

  9
$UCSNAME
  2

  9
$UCSORG
 10
0.0
 20
0.0
 30
0.0
  9
$UCSXDIR
 10
1.0
 20
0.0
 30
0.0
  9
$UCSYDIR
 10
0.0
 20
1.0
 30
0.0
  9
$UCSORTHOREF
  2

  9
$UCSORTHOVIEW
 70
     0
  9
$UCSORGTOP
 10
0.0
 20
0.0
 30
0.0
  9
$UCSORGBOTTOM
 10
0.0
 20
0.0
 30
0.0
  9
$UCSORGLEFT
 10
0.0
 20
0.0
 30
0.0
  9
$UCSORGRIGHT
 10
0.0
 20
0.0
 30
0.0
  9
$UCSORGFRONT
 10
0.0
 20
0.0
 30
0.0
  9
$UCSORGBACK
 10
0.0
 20
0.0
 30
0.0
  9
$PUCSBASE
  2

  9
$PUCSNAME
  2

  9
$PUCSORG
 10
0.0
 20
0.0
 30
0.0
  9
$PUCSXDIR
 10
1.0
 20
0.0
 30
0.0
  9
$PUCSYDIR
 10
0.0
 20
1.0
 30
0.0
  9
$PUCSORTHOREF
  2

  9
$PUCSORTHOVIEW
 70
     0
  9
$PUCSORGTOP
 10
0.0
 20
0.0
 30
0.0
  9
$PUCSORGBOTTOM
 10
0.0
 20
0.0
 30
0.0
  9
$PUCSORGLEFT
 10
0.0
 20
0.0
 30
0.0
  9
$PUCSORGRIGHT
 10
0.0
 20
0.0
 30
0.0
  9
$PUCSORGFRONT
 10
0.0
 20
0.0
 30
0.0
  9
$PUCSORGBACK
 10
0.0
 20
0.0
 30
0.0
  9
$USERI1
 70
     0
  9
$USERI2
 70
     0
  9
$USERI3
 70
     0
  9
$USERI4
 70
     0
  9
$USERI5
 70
     0
  9
$USERR1
 40
0.0
  9
$USERR2
 40
0.0
  9
$USERR3
 40
0.0
  9
$USERR4
 40
0.0
  9
$USERR5
 40
0.0
  9
$WORLDVIEW
 70
     1
  9
$SHADEDGE
 70
     3
  9
$SHADEDIF
 70
    70
  9
$TILEMODE
 70
     1
  9
$MAXACTVP
 70
    64
  9
$PINSBASE
 10
0.0
 20
0.0
 30
0.0
  9
$PLIMCHECK
 70
     0
  9
$PEXTMIN
 10
1.000000000000000E+20
 20
1.000000000000000E+20
 30
1.000000000000000E+20
  9
$PEXTMAX
 10
-1.000000000000000E+20
 20
-1.000000000000000E+20
 30
-1.000000000000000E+20
  9
$PLIMMIN
 10
-6.350006103515625
 20
-6.349999904632568
  9
$PLIMMAX
 10
273.0499877929688
 20
209.5499939918518
  9
$UNITMODE
 70
     0
  9
$VISRETAIN
 70
     1
  9
$PLINEGEN
 70
     0
  9
$PSLTSCALE
 70
     1
  9
$TREEDEPTH
 70
  3020
  9
$CMLSTYLE
  2
Standard
  9
$CMLJUST
 70
     0
  9
$CMLSCALE
 40
20.0
  9
$PROXYGRAPHICS
 70
     1
  9
$MEASUREMENT
 70
     1
  9
$CELWEIGHT
370
    -1
  9
$ENDCAPS
280
     0
  9
$JOINSTYLE
280
     0
  9
$LWDISPLAY
290
     0
  9
$INSUNITS
 70
     4
  9
$HYPERLINKBASE
  1

  9
$STYLESHEET
  1
monochrome.ctb
  9
$XEDIT
290
     1
  9
$CEPSNTYPE
380
     0
  9
$PSTYLEMODE
290
     1
  9
$FINGERPRINTGUID
  2
{FDEAD578-A652-11D2-9A35-0060089B3A3F}
  9
$VERSIONGUID
  2
{FBF2FD94-41CF-0243-B134-654189C0550F}
  9
$EXTNAMES
290
     1
  9
$PSVPSCALE
 40
0.0
  9
$OLESTARTUP
290
     0
  9
$SORTENTS
280
   127
  9
$INDEXCTL
280
     1
  9
$HIDETEXT
280
     0
  9
$XCLIPFRAME
280
     2
  9
$HALOGAP
280
     0
  9
$OBSCOLOR
 70
   257
  9
$OBSLTYPE
280
     0
  9
$INTERSECTIONDISPLAY
280
     0
  9
$INTERSECTIONCOLOR
 70
   257
  9
$DIMASSOC
280
     2
  9
$PROJECTNAME
  1

  9
$CAMERADISPLAY
290
     0
  9
$LENSLENGTH
 40
50.0
  9
$CAMERAHEIGHT
 40
0.0
  9
$STEPSPERSEC
 40
2.0
  9
$STEPSIZE
 40
6.0
  9
$3DDWFPREC
 40
2.0
  9
$PSOLWIDTH
 40
0.25
  9
$PSOLHEIGHT
 40
4.0
  9
$LOFTANG1
 40
1.570796326794896
  9
$LOFTANG2
 40
1.570796326794896
  9
$LOFTMAG1
 40
0.0
  9
$LOFTMAG2
 40
0.0
  9
$LOFTPARAM
 70
     7
  9
$LOFTNORMALS
280
     1
  9
$LATITUDE
 40
37.795
  9
$LONGITUDE
 40
-122.394
  9
$NORTHDIRECTION
 40
0.0
  9
$TIMEZONE
 70
 -8000
  9
$LIGHTGLYPHDISPLAY
280
     1
  9
$TILEMODELIGHTSYNCH
280
     1
  9
$CMATERIAL
347
5F9
  9
$SOLIDHIST
280
     0
  9
$SHOWHIST
280
     1
  9
$DWFFRAME
280
     2
  9
$DGNFRAME
280
     0
  9
$REALWORLDSCALE
290
     1
  9
$INTERFERECOLOR
 62
     1
  9
$INTERFEREOBJVS
345
613
  9
$INTERFEREVPVS
346
610
  9
$CSHADOW
280
     0
  9
$SHADOWPLANELOCATION
 40
0.0
  0
ENDSEC
  0
SECTION
  2
CLASSES
  0
CLASS
  1
ACDBDICTIONARYWDFLT
  2
AcDbDictionaryWithDefault
  3
ObjectDBX Classes
 90
        0
 91
        1
280
     0
281
     0
  0
CLASS
  1
ACDBPLACEHOLDER
  2
AcDbPlaceHolder
  3
ObjectDBX Classes
 90
        0
 91
        2
280
     0
281
     0
  0
CLASS
  1
LAYOUT
  2
AcDbLayout
  3
ObjectDBX Classes
 90
        0
 91
        3
280
     0
281
     0
  0
CLASS
  1
ACME_DOCUMENT
  2
AcMeDbDoc
  3
AcMeServices
 90
        0
 91
        0
280
     0
281
     0
  0
CLASS
  1
AMGSETTINGSOBJ
  2
AmgSettingsObj
  3
"AcadM|Product Description: AutoCAD Mechanical 2000|Company: Autodesk"
 90
        0
 91
        5
280
     0
281
     0
  0
CLASS
  1
ACMESCOPE
  2
AcMeScope
  3
AcMeServices
 90
        0
 91
        2
280
     0
281
     0
  0
CLASS
  1
ACMECOMMANDHISTORY
  2
AcMeCommandHistory
  3
AcMeServices
 90
        0
 91
        2
280
     0
281
     0
  0
CLASS
  1
ACIMSYSVARMAN
  2
AcImSysVarManager
  3
AcMeServices
 90
        0
 91
        6
280
     0
281
     0
  0
CLASS
  1
ACIMREALSYSVAR
  2
AcImRealSysVar
  3
AcMeServices
 90
        0
 91
        4
280
     0
281
     0
  0
CLASS
  1
ACIMINTSYSVAR
  2
AcImIntSysVar
  3
AcMeServices
 90
        0
 91
       27
280
     0
281
     0
  0
CLASS
  1
ACMEDRAWINGMAN
  2
AcMeDrawingMan
  3
AcMeServices
 90
        0
 91
        2
280
     0
281
     0
  0
CLASS
  1
ACMEVIEW
  2
AcMeView
  3
AcMeServices
 90
        0
 91
        2
280
     0
281
     0
  0
CLASS
  1
ACDBENTITYCACHE
  2
AcMeEntityCache
  3
AcMeServices
 90
        0
 91
        0
280
     0
281
     0
  0
CLASS
  1
GSMANAGER
  2
AcMeGSManager
  3
AcMeServices
 90
        0
 91
        0
280
     0
281
     0
  0
CLASS
  1
AMDTINTERNALREACTOR
  2
AmdtInternalReactor
  3
AcMeServices
 90
        0
 91
        0
280
     0
281
     0
  0
CLASS
  1
ACMESTATEMGR
  2
AcMeStateMgr
  3
AcMeServices
 90
        0
 91
        2
280
     0
281
     0
  0
CLASS
  1
ACGREFMASTER
  2
AcGrefMaster
  3
AcAttribServices
 90
        0
 91
        2
280
     0
281
     0
  0
CLASS
  1
ACME_DATABASE
  2
AcMeDbDatabase
  3
AcMeServices
 90
        0
 91
        0
280
     0
281
     0
  0
CLASS
  1
ACRFINSADJUSTERMGR
  2
AcRfInsAdjusterMgr
  3
AcMeServices
 90
        0
 91
        0
280
     0
281
     0
  0
CLASS
  1
ACGREFACADMASTER
  2
AcGrefacadMaster
  3
AcGrefServices
 90
        0
 91
        2
280
     0
281
     0
  0
CLASS
  1
AMIMASTER
  2
AmiMaster
  3
AmiServices
 90
        0
 91
        2
280
     0
281
     0
  0
CLASS
  1
ACMDATADICTIONARY
  2
AcmDataDictionary
  3
"AcmSymBB|Product Description: AutoCAD Mechanical 2004|Company: Autodesk"
 90
        0
 91
        2
280
     0
281
     0
  0
CLASS
  1
ACMDATAENTRYBLOCK
  2
AcmDataEntryBlock
  3
"AcmSymBB|Product Description: AutoCAD Mechanical 2004|Company: Autodesk"
 90
        0
 91
        3
280
     0
281
     0
  0
CLASS
  1
ACIMSTRSYSVAR
  2
AcImStrSysVar
  3
AcMeServices
 90
        0
 91
        6
280
     0
281
     0
  0
CLASS
  1
ACMSTANDARDISO
  2
AcmStandardISO
  3
"Amdt_StdImp|Product Description: AutoCAD Mechanical 2004|Company: Autodesk"
 90
        0
 91
        2
280
     0
281
     0
  0
CLASS
  1
AMGOBJPROPCFG
  2
AmgObjPropCfg
  3
"AmgLay|Product Description: AutoCAD Mechanical 2000|Company: Autodesk"
 90
        1
 91
        2
280
     0
281
     0
  0
CLASS
  1
AMDTEDGESTANDARDISO
  2
AmdtEdgeStdISO
  3
"Amdt_StdImp|Product Description: AutoCAD Mechanical 2004|Company: Autodesk"
 90
        0
 91
        2
280
     0
281
     0
  0
CLASS
  1
ACMSURFSTANDARDISO
  2
AcmSurfTextStdISO
  3
"Amdt_StdImp|Product Description: AutoCAD Mechanical 2004|Company: Autodesk"
 90
        0
 91
        2
280
     0
281
     0
  0
CLASS
  1
ACMFCFSTANDARDISO
  2
AcmFCFStdISO
  3
"Amdt_StdImp|Product Description: AutoCAD Mechanical 2004|Company: Autodesk"
 90
        0
 91
        2
280
     0
281
     0
  0
CLASS
  1
ACMWELDSTANDARDISO
  2
AcmWeldingStdISO
  3
"Amdt_StdImp|Product Description: AutoCAD Mechanical 2004|Company: Autodesk"
 90
        0
 91
        2
280
     0
281
     0
  0
CLASS
  1
ACMIDSTANDARDISO
  2
AcmIdStdISO
  3
"Amdt_StdImp|Product Description: AutoCAD Mechanical 2004|Company: Autodesk"
 90
        0
 91
        2
280
     0
281
     0
  0
CLASS
  1
ACMDATUMSTANDARDISO
  2
AcmDatumStdISO
  3
"Amdt_StdImp|Product Description: AutoCAD Mechanical 2004|Company: Autodesk"
 90
        0
 91
        2
280
     0
281
     0
  0
CLASS
  1
ACMBOMSTANDARDISO
  2
AcmBOMStdISO
  3
"Amdt_StdImp|Product Description: AutoCAD Mechanical 2004|Company: Autodesk"
 90
        0
 91
        2
280
     0
281
     0
  0
CLASS
  1
ACMDETAILSTANDARDISO
  2
AmdtDetailSymStdISO
  3
"Amdt_StdImp|Product Description: AutoCAD Mechanical 2004|Company: Autodesk"
 90
        0
 91
        2
280
     0
281
     0
  0
CLASS
  1
ACMSECTIONSTANDARDISO
  2
AmdtSectionSymStdISO
  3
"Amdt_StdImp|Product Description: AutoCAD Mechanical 2004|Company: Autodesk"
 90
        0
 91
        2
280
     0
281
     0
  0
CLASS
  1
ACMCENTERLINESTANDARDISO
  2
AmdtCenterLineStdISO
  3
"Amdt_StdImp|Product Description: AutoCAD Mechanical 2004|Company: Autodesk"
 90
        0
 91
        2
280
     0
281
     0
  0
CLASS
  1
ACMNOTESTANDARDISO
  2
AmdtNoteStdISO
  3
"Amdt_StdImp|Product Description: AutoCAD Mechanical 2004|Company: Autodesk"
 90
        0
 91
        2
280
     0
281
     0
  0
CLASS
  1
ACAMGLAYSTD
  2
AcAmgLayStd
  3
"AcAmgLayStd|Product Description: AutoCAD Mechanical 2000|Company: Autodesk"
 90
        0
 91
        2
280
     0
281
     0
  0
CLASS
  1
ACAMGDIMSTD
  2
AcAmgDimStd
  3
"AcAmgDimStd|Product Description: AutoCAD Mechanical 2000|Company: Autodesk"
 90
        0
 91
        2
280
     0
281
     0
  0
CLASS
  1
ACAMGHOLECHARTSTDISO
  2
AcAmgHoleChartStdISO
  3
ACMSYMBB_MODULE_NAME
 90
        0
 91
        2
280
     0
281
     0
  0
CLASS
  1
ACAMGTITLESTD
  2
AcAmgTitleStd
  3
"TITLEAPP"
 90
        0
 91
        2
280
     0
281
     0
  0
CLASS
  1
LAYER_INDEX
  2
AcDbLayerIndex
  3
ObjectDBX Classes
 90
        0
 91
        1
280
     0
281
     0
  0
CLASS
  1
IDBUFFER
  2
AcDbIdBuffer
  3
ObjectDBX Classes
 90
        0
 91
       14
280
     0
281
     0
  0
CLASS
  1
DICTIONARYVAR
  2
AcDbDictionaryVar
  3
ObjectDBX Classes
 90
        0
 91
       12
280
     0
281
     0
  0
CLASS
  1
AM_DRAWING_MGR
  2
AcDmDwgMgr
  3
AcMechDwgViewMgmt
 90
        0
 91
        2
280
     0
281
     0
  0
CLASS
  1
AM_DWG_DOCUMENT
  2
AcDmDwgDocument
  3
AcMechDwgViewMgmt
 90
        0
 91
        2
280
     0
281
     0
  0
CLASS
  1
AM_DWG_SHEET
  2
AcDmSheet
  3
AcMechDwgViewMgmt
 90
        0
 91
        3
280
     0
281
     0
  0
CLASS
  1
AM_VIEWDIMPARMAP
  2
AcDmViewDimParMap
  3
AcMechDwgViewMgmt
 90
        0
 91
        3
280
     0
281
     0
  0
CLASS
  1
AM_DWGMGR_NAME
  2
AcDmDwgMgrName
  3
AcMechDwgViewMgmt
 90
        0
 91
        2
280
     0
281
     0
  0
CLASS
  1
AMDTMENUSTATEMGR
  2
AmdtMenuStateMgr
  3
McadcomServices
 90
        0
 91
        0
280
     0
281
     0
  0
CLASS
  1
AMDTMCOMMENUSTATE
  2
AmdtMcomMenuState
  3
McadcomServices
 90
        0
 91
        0
280
     0
281
     0
  0
CLASS
  1
MAPIAMMOUDLE
  2
MApiAmModule
  3
MApiAmServices
 90
        0
 91
        2
280
     0
281
     0
  0
CLASS
  1
AMDTADMENUSTATE
  2
AmdtAdMenuState
  3
DesignerServices
 90
        0
 91
        0
280
     0
281
     0
  0
CLASS
  1
ADAPPL
  2
AcAdAppl
  3
DesignerServices
 90
        0
 91
        2
280
     0
281
     0
  0
CLASS
  1
DEPMGR
  2
AcAdDepMgr
  3
DesignerServices
 90
        0
 91
        2
280
     0
281
     0
  0
CLASS
  1
PARAMMGR
  2
AcAdParamMgr
  3
DesignerServices
 90
        0
 91
        2
280
     0
281
     0
  0
CLASS
  1
PARAMSCOPE
  2
AcAdParamScope
  3
DesignerServices
 90
        0
 91
        2
280
     0
281
     0
  0
CLASS
  1
NAMEDAPPL
  2
AcAdNamedAppl
  3
DesignerServices
 90
        0
 91
        2
280
     0
281
     0
  0
CLASS
  1
AMDTDMMENUSTATE
  2
AmdtDmMenuState
  3
AcMechDwgViewMgmt
 90
        0
 91
        0
280
     0
281
     0
  0
CLASS
  1
AMDTAMMENUSTATE
  2
AmdtAmMenuState
  3
DesignerAssemblies
 90
        0
 91
        0
280
     0
281
     0
  0
CLASS
  1
ACAMPROJECT
  2
AcAmProject
  3
DesignerAssemblies
 90
        0
 91
        2
280
     0
281
     0
  0
CLASS
  1
ACAMGRCOMPDEF
  2
AcAmGrCompDef
  3
DesignerAssemblies
 90
        0
 91
        2
280
     0
281
     0
  0
CLASS
  1
ACCMCONTEXT
  2
AcCmContext
  3
DesignerAssemblies
 90
        0
 91
        2
280
     0
281
     0
  0
CLASS
  1
ACAMCOMPDEF
  2
AcAmCompDef
  3
DesignerAssemblies
 90
        0
 91
        2
280
     0
281
     0
  0
CLASS
  1
ACAMCOMPDEFMGR
  2
AcAmCompDefMgr
  3
DesignerAssemblies
 90
        0
 91
        2
280
     0
281
     0
  0
CLASS
  1
AMCONTEXTMGR
  2
AcAmContextMgr
  3
DesignerAssemblies
 90
        0
 91
        2
280
     0
281
     0
  0
CLASS
  1
ACAMCONTEXTMODELER
  2
AcAmContextModeler
  3
DesignerAssemblies
 90
        0
 91
        2
280
     0
281
     0
  0
CLASS
  1
ACMTHREADLINESTANDARDISO
  2
AmdtThreadLineStdISO
  3
"Amdt_StdImp|Product Description: AutoCAD Mechanical 2004|Company: Autodesk"
 90
        0
 91
        2
280
     0
281
     0
  0
CLASS
  1
CATALOGSTATE
  2
AcAmCatalogState
  3
DesignerAssemblies
 90
        0
 91
        2
280
     0
281
     0
  0
CLASS
  1
ACAMGRCOMPDEFSET
  2
AcAmGrCompDefSet
  3
DesignerAssemblies
 90
        0
 91
        0
280
     0
281
     0
  0
CLASS
  1
AMDTBROWSERDBTAB
  2
AmdtBrowserDbTab
  3
McadcomServices
 90
        0
 91
        0
280
     0
281
     0
  0
CLASS
  1
CBROWSERAPPOBJECT
  2
CBrowserAppObject
  3
McadcomServices
 90
        0
 91
        0
280
     0
281
     0
  0
CLASS
  1
DM_PLACEHOLDER
  2
AcDmSelsetPlaceholder
  3
AcMechDwgViewMgmt
 90
        0
 91
        0
280
     0
281
     0
  0
CLASS
  1
AMDTNOTETEMPLATEDB
  2
AmdtNoteTemplateDB
  3
AMDT_STDIMP_MODULE_NAME
 90
        0
 91
        5
280
     0
281
     0
  0
CLASS
  1
SORTENTSTABLE
  2
AcDbSortentsTable
  3
ObjectDBX Classes
 90
        0
 91
        4
280
     0
281
     0
  0
CLASS
  1
MATERIAL
  2
AcDbMaterial
  3
ObjectDBX Classes
 90
     1153
 91
        3
280
     0
281
     0
  0
CLASS
  1
ACAMGFILTERDAT
  2
AcAmgFilterDat
  3
"AcadM|Product Description: AutoCAD Mechanical 2000|Company: Autodesk"
 90
        0
 91
        7
280
     0
281
     0
  0
CLASS
  1
AMDTFORMULAUPDATEDISPATCHER
  2
AmdtFormulaUpdateDispatcher
  3
AcMeServices
 90
        0
 91
        2
280
     0
281
     0
  0
CLASS
  1
VISUALSTYLE
  2
AcDbVisualStyle
  3
ObjectDBX Classes
 90
     4095
 91
       24
280
     0
281
     0
  0
CLASS
  1
TABLESTYLE
  2
AcDbTableStyle
  3
ObjectDBX Classes
 90
     4095
 91
        1
280
     0
281
     0
  0
CLASS
  1
SCALE
  2
AcDbScale
  3
ObjectDBX Classes
 90
     1153
 91
       17
280
     0
281
     0
  0
CLASS
  1
MLEADERSTYLE
  2
AcDbMLeaderStyle
  3
ACDB_MLEADERSTYLE_CLASS
 90
     4095
 91
        1
280
     0
281
     0
  0
CLASS
  1
ACDBSECTIONVIEWSTYLE
  2
AcDbSectionViewStyle
  3
ObjectDBX Classes
 90
     1025
 91
        1
280
     0
281
     0
  0
CLASS
  1
ACDBDETAILVIEWSTYLE
  2
AcDbDetailViewStyle
  3
ObjectDBX Classes
 90
     1025
 91
        1
280
     0
281
     0
  0
CLASS
  1
CELLSTYLEMAP
  2
AcDbCellStyleMap
  3
ObjectDBX Classes
 90
     1152
 91
        1
280
     0
281
     0
  0
CLASS
  1
LAYER_FILTER
  2
AcDbLayerFilter
  3
ObjectDBX Classes
 90
        0
 91
        0
280
     0
281
     0
  0
ENDSEC
  0
SECTION
  2
TABLES
  0
TABLE
  2
VPORT
  5
8
102
{ACAD_XDICTIONARY
360
6D1
102
}
330
0
100
AcDbSymbolTable
 70
     1
  0
VPORT
  5
5F7
330
8
100
AcDbSymbolTableRecord
100
AcDbViewportTableRecord
  2
*Active
 70
     0
 10
0.0
 20
0.0
 11
1.0
 21
1.0
 12
595.8960717945339
 22
297.0000027661116
 13
0.0
 23
0.0
 14
2.5
 24
2.5
 15
10.0
 25
10.0
 16
0.0
 26
0.0
 36
1.0
 17
0.0
 27
0.0
 37
0.0
 40
575.270651850505
 41
2.098066298342541
 42
50.0
 43
0.0
 44
0.0
 50
0.0
 51
0.0
 71
     0
 72
   100
 73
     1
 74
     3
 75
     0
 76
     0
 77
     0
 78
     0
281
     0
 65
     1
110
0.0
120
0.0
130
0.0
111
1.0
121
0.0
131
0.0
112
0.0
122
1.0
132
0.0
 79
     0
146
0.0
348
60F
 60
     3
 61
     5
292
     1
282
     1
141
0.0
142
0.0
 63
   250
421
  3355443
1001
ACAD_NAV_VCDISPLAY
1070
     3
  0
ENDTAB
  0
TABLE
  2
LTYPE
  5
5
330
0
100
AcDbSymbolTable
 70
    13
  0
LTYPE
  5
14
330
5
100
AcDbSymbolTableRecord
100
AcDbLinetypeTableRecord
  2
ByBlock
 70
     0
  3

 72
    65
 73
     0
 40
0.0
  0
LTYPE
  5
15
330
5
100
AcDbSymbolTableRecord
100
AcDbLinetypeTableRecord
  2
ByLayer
 70
     0
  3

 72
    65
 73
     0
 40
0.0
  0
LTYPE
  5
16
330
5
100
AcDbSymbolTableRecord
100
AcDbLinetypeTableRecord
  2
Continuous
 70
     0
  3
Solid line
 72
    65
 73
     0
 40
0.0
  0
LTYPE
  5
64
330
5
100
AcDbSymbolTableRecord
100
AcDbLinetypeTableRecord
  2
AM_ISO02W050
 70
     0
  3
__ __ __ __ __ __ __ __ __ __ __ __ __ __ __
 72
    65
 73
     2
 40
7.5
 49
6.0
 74
     0
 49
-1.5
 74
     0
  0
LTYPE
  5
65
330
5
100
AcDbSymbolTableRecord
100
AcDbLinetypeTableRecord
  2
AM_ISO08W050
 70
     0
  3
____ . ____ . ____ . ____ . ____ . ____ . ____
 72
    65
 73
     4
 40
18.0
 49
12.0
 74
     0
 49
-1.5
 74
     0
 49
3.0
 74
     0
 49
-1.5
 74
     0
  0
LTYPE
  5
66
330
5
100
AcDbSymbolTableRecord
100
AcDbLinetypeTableRecord
  2
AM_ISO09W050
 70
     0
  3
_____ . . _____ . . _____ . . ____ .. ____
 72
    65
 73
     6
 40
22.5
 49
12.0
 74
     0
 49
-1.5
 74
     0
 49
3.0
 74
     0
 49
-1.5
 74
     0
 49
3.0
 74
     0
 49
-1.5
 74
     0
  0
LTYPE
  5
67
330
5
100
AcDbSymbolTableRecord
100
AcDbLinetypeTableRecord
  2
Amconstr
 70
     0
  3
_______________________
 72
    65
 73
     2
 40
9999.0
 49
9999.0
 74
     0
 49
0.0
 74
     0
  0
LTYPE
  5
68
330
5
100
AcDbSymbolTableRecord
100
AcDbLinetypeTableRecord
  2
AM_ISO08W050x2
 70
     0
  3
__ . __ . __ . __ . __ . __
 72
    65
 73
     4
 40
9.0
 49
6.0
 74
     0
 49
-0.75
 74
     0
 49
1.5
 74
     0
 49
-0.75
 74
     0
  0
LTYPE
  5
69
330
5
100
AcDbSymbolTableRecord
100
AcDbLinetypeTableRecord
  2
AM_ISO02W050x2
 70
     0
  3
 _ _ _ _ _ _ _ _ _ _ _ _
 72
    65
 73
     2
 40
3.75
 49
3.0
 74
     0
 49
-0.75
 74
     0
  0
LTYPE
  5
6C
330
5
100
AcDbSymbolTableRecord
100
AcDbLinetypeTableRecord
  2
Amzigzag
 70
     0
  3
/\/-/\/-/\/-/\/-/\/-/\/
 72
    65
 73
     2
 40
11.0001
 49
0.0001
 74
     4
 75
   135
340
6B
 46
0.04
 50
0.0
 44
0.0
 45
0.0
 49
-11.0
 74
     0
  0
LTYPE
  5
7A
330
5
100
AcDbSymbolTableRecord
100
AcDbLinetypeTableRecord
  2
ACISOWELD
 70
     0
  3
_ _ _ _ _
 72
    65
 73
     2
 40
2.0
 49
2.0
 74
     0
 49
-1.0
 74
     0
  0
LTYPE
  5
7B
330
5
100
AcDbSymbolTableRecord
100
AcDbLinetypeTableRecord
  2
ACISOTGB
 70
     0
  3
__ . . __ . .
 72
    65
 73
     6
 40
9.0
 49
4.0
 74
     0
 49
-1.0
 74
     0
 49
1.0
 74
     0
 49
-1.0
 74
     0
 49
1.0
 74
     0
 49
-1.0
 74
     0
  0
LTYPE
  5
7C
330
5
100
AcDbSymbolTableRecord
100
AcDbLinetypeTableRecord
  2
ACISOTGL
 70
     0
  3
_ _ _ _ _
 72
    65
 73
     2
 40
3.0
 49
2.0
 74
     0
 49
-1.0
 74
     0
  0
LTYPE
  5
7E
330
5
100
AcDbSymbolTableRecord
100
AcDbLinetypeTableRecord
  2
CENTER
 70
     0
  3
__ . __
 72
    65
 73
     4
 40
7.0
 49
4.0
 74
     0
 49
-1.0
 74
     0
 49
1.0
 74
     0
 49
-1.0
 74
     0
  0
LTYPE
  5
2BC
330
5
100
AcDbSymbolTableRecord
100
AcDbLinetypeTableRecord
  2
DASHED2
 70
     0
  3
Dashed (.5x) _ _ _ _ _ _ _ _ _ _ _ _ _ _ _ _ _
 72
    65
 73
     2
 40
9.524999999999996
 49
6.349999999999997
 74
     0
 49
-3.174999999999998
 74
     0
  0
ENDTAB
  0
TABLE
  2
LAYER
  5
2
102
{ACAD_XDICTIONARY
360
2EB
102
}
330
0
100
AcDbSymbolTable
 70
    14
  0
LAYER
  5
10
102
{ACAD_XDICTIONARY
360
64A
102
}
330
2
100
AcDbSymbolTableRecord
100
AcDbLayerTableRecord
  2
0
 70
     0
 62
     7
  6
Continuous
370
    -3
390
F
347
2E8
  0
LAYER
  5
2BE
330
2
100
AcDbSymbolTableRecord
100
AcDbLayerTableRecord
  2
DEFPOINTS
 70
     0
 62
     7
  6
Continuous
290
     0
370
    -3
390
2E7
347
2E8
  0
LAYER
  5
2C1
102
{ACAD_XDICTIONARY
360
64C
102
}
330
2
100
AcDbSymbolTableRecord
100
AcDbLayerTableRecord
  2
AM_CL
 70
     0
 62
    -1
  6
Amconstr
290
     0
370
    25
390
F
347
2E8
  0
LAYER
  5
2C2
102
{ACAD_XDICTIONARY
360
64E
102
}
330
2
100
AcDbSymbolTableRecord
100
AcDbLayerTableRecord
  2
MOJI
 70
     0
 62
     7
  6
Continuous
370
    -3
390
F
347
2E8
  0
LAYER
  5
2C8
102
{ACAD_XDICTIONARY
360
650
102
}
330
2
100
AcDbSymbolTableRecord
100
AcDbLayerTableRecord
  2
WAKU
 70
     0
 62
     7
  6
Continuous
370
    -3
390
F
347
2E8
  0
LAYER
  5
2CB
102
{ACAD_XDICTIONARY
360
652
102
}
330
2
100
AcDbSymbolTableRecord
100
AcDbLayerTableRecord
  2
SUNPO
 70
     0
 62
     2
  6
Continuous
370
    -3
390
F
347
2E8
  0
LAYER
  5
2CE
102
{ACAD_XDICTIONARY
360
654
102
}
330
2
100
AcDbSymbolTableRecord
100
AcDbLayerTableRecord
  2
YAKUMONO
 70
     0
 62
     3
  6
Continuous
370
    -3
390
F
347
2E8
  0
LAYER
  5
2D1
102
{ACAD_XDICTIONARY
360
656
102
}
330
2
100
AcDbSymbolTableRecord
100
AcDbLayerTableRecord
  2
SEIHIN
 70
     0
 62
     4
  6
Continuous
370
    -3
390
F
347
2E8
  0
LAYER
  5
2D4
102
{ACAD_XDICTIONARY
360
658
102
}
330
2
100
AcDbSymbolTableRecord
100
AcDbLayerTableRecord
  2
BISUKUGI
 70
     0
 62
     6
  6
Continuous
370
    -3
390
F
347
2E8
  0
LAYER
  5
2D7
102
{ACAD_XDICTIONARY
360
65A
102
}
330
2
100
AcDbSymbolTableRecord
100
AcDbLayerTableRecord
  2
KUTAI
 70
     0
 62
     2
  6
Continuous
370
    -3
390
2E7
347
2E8
  0
LAYER
  5
2DA
102
{ACAD_XDICTIONARY
360
65C
102
}
330
2
100
AcDbSymbolTableRecord
100
AcDbLayerTableRecord
  2
BOUSUISI
 70
     0
 62
     1
  6
Continuous
370
    -3
390
2E7
347
2E8
  0
LAYER
  5
2DD
102
{ACAD_XDICTIONARY
360
65E
102
}
330
2
100
AcDbSymbolTableRecord
100
AcDbLayerTableRecord
  2
YAKUMONO2
 70
     0
 62
    32
  6
Continuous
370
    -3
390
2E7
347
2E8
  0
LAYER
  5
2E0
102
{ACAD_XDICTIONARY
360
660
102
}
330
2
100
AcDbSymbolTableRecord
100
AcDbLayerTableRecord
  2
DOUBUTI
 70
     0
 62
     7
  6
Continuous
370
    -3
390
2E7
347
2E8
  0
LAYER
  5
AC3
102
{ACAD_XDICTIONARY
360
AC4
102
}
330
2
100
AcDbSymbolTableRecord
100
AcDbLayerTableRecord
  2
SONOTABUZAI
 70
     0
 62
     5
  6
Continuous
370
    -3
390
2E7
347
2E8
  0
ENDTAB
  0
TABLE
  2
STYLE
  5
3
330
0
100
AcDbSymbolTable
 70
     6
  0
STYLE
  5
11
330
3
100
AcDbSymbolTableRecord
100
AcDbTextStyleTableRecord
  2
STANDARD
 70
     0
 40
0.0
 41
1.0
 50
0.0
 71
     0
 42
2.5
  3

  4

1001
ACAD
1000
MS Gothic
1071
    32817
  0
STYLE
  5
6B
330
3
100
AcDbSymbolTableRecord
100
AcDbTextStyleTableRecord
  2

 70
     1
 40
0.0
 41
1.0
 50
0.0
 71
     0
 42
2.5
  3
ltypeshp.shx
  4

  0
STYLE
  5
6D
330
3
100
AcDbSymbolTableRecord
100
AcDbTextStyleTableRecord
  2
ACISOTS
 70
     0
 40
1.0
 41
1.0
 50
0.0
 71
     0
 42
2.5
  3

  4

1001
ACAD
1000
MS Gothic
1071
    32817
  0
STYLE
  5
79
330
3
100
AcDbSymbolTableRecord
100
AcDbTextStyleTableRecord
  2
ACISOGDT
 70
     0
 40
0.0
 41
1.0
 50
0.0
 71
     0
 42
2.5
  3

  4

1001
ACAD
1000
MS Gothic
1071
    32817
  0
STYLE
  5
2E4
330
3
100
AcDbSymbolTableRecord
100
AcDbTextStyleTableRecord
  2
CAD-DL
 70
     0
 40
5.0
 41
1.0
 50
0.0
 71
     0
 42
2.5
  3

  4

1001
ACAD
1000
MS Gothic
1071
    32817
  0
STYLE
  5
2E5
330
3
100
AcDbSymbolTableRecord
100
AcDbTextStyleTableRecord
  2
WAKU
 70
     0
 40
5.0
 41
1.0
 50
0.0
 71
     0
 42
5.0
  3

  4

1001
ACAD
1000
MS Gothic
1071
    32817
  0
ENDTAB
  0
TABLE
  2
VIEW
  5
6
330
0
100
AcDbSymbolTable
 70
     0
  0
ENDTAB
  0
TABLE
  2
UCS
  5
7
330
0
100
AcDbSymbolTable
 70
     0
  0
ENDTAB
  0
TABLE
  2
APPID
  5
9
330
0
100
AcDbSymbolTable
 70
    16
  0
APPID
  5
12
330
9
100
AcDbSymbolTableRecord
100
AcDbRegAppTableRecord
  2
ACAD
 70
     0
  0
APPID
  5
46
330
9
100
AcDbSymbolTableRecord
100
AcDbRegAppTableRecord
  2
MCAD_NO_VIS
 70
     0
  0
APPID
  5
47
330
9
100
AcDbSymbolTableRecord
100
AcDbRegAppTableRecord
  2
ACAD_TEMP_GRAPHIC
 70
     0
  0
APPID
  5
58
330
9
100
AcDbSymbolTableRecord
100
AcDbRegAppTableRecord
  2
ACATTRIBSERVICES
 70
     0
  0
APPID
  5
EE
330
9
100
AcDbSymbolTableRecord
100
AcDbRegAppTableRecord
  2
AD_DRAW
 70
     0
  0
APPID
  5
10C
330
9
100
AcDbSymbolTableRecord
100
AcDbRegAppTableRecord
  2
DESIGNERASSEMBLIES
 70
     0
  0
APPID
  5
111
330
9
100
AcDbSymbolTableRecord
100
AcDbRegAppTableRecord
  2
ACADM_DIM_EDIT
 70
     0
  0
APPID
  5
112
330
9
100
AcDbSymbolTableRecord
100
AcDbRegAppTableRecord
  2
AMDT_DM_ADJ
 70
     0
  0
APPID
  5
47D
330
9
100
AcDbSymbolTableRecord
100
AcDbRegAppTableRecord
  2
DCO15
 70
     0
  0
APPID
  5
648
330
9
100
AcDbSymbolTableRecord
100
AcDbRegAppTableRecord
  2
ACAD_EXEMPT_FROM_CAD_STANDARDS
 70
     0
  0
APPID
  5
66B
330
9
100
AcDbSymbolTableRecord
100
AcDbRegAppTableRecord
  2
ACAD_NAV_VCDISPLAY
 70
     0
  0
APPID
  5
6A9
330
9
100
AcDbSymbolTableRecord
100
AcDbRegAppTableRecord
  2
ACAD_MLEADERVER
 70
     0
  0
APPID
  5
6CD
330
9
100
AcDbSymbolTableRecord
100
AcDbRegAppTableRecord
  2
ACAD_PSEXT
 70
     0
  0
APPID
  5
A52
330
9
100
AcDbSymbolTableRecord
100
AcDbRegAppTableRecord
  2
AcadCodePageInfo
 70
     0
  0
APPID
  5
B33
330
9
100
AcDbSymbolTableRecord
100
AcDbRegAppTableRecord
  2
Acad_TC
 70
     0
  0
APPID
  5
BB9
330
9
100
AcDbSymbolTableRecord
100
AcDbRegAppTableRecord
  2
AcadAnnoPO
 70
     0
  0
ENDTAB
  0
TABLE
  2
DIMSTYLE
  5
A
330
0
100
AcDbSymbolTable
 70
     8
100
AcDbDimStyleTable
 71
     1
340
81
  0
DIMSTYLE
105
81
330
A
100
AcDbSymbolTableRecord
100
AcDbDimStyleTableRecord
  2
AM_ISO
 70
     0
  4
"
 41
2.5
 42
1.0
 43
10.0
 44
1.0
 47
0.1
 48
0.1
 73
     0
 74
     0
 77
     1
 78
     8
 79
     2
140
3.5
141
0.0
143
0.0393701
146
0.71
147
1.5
172
     1
176
   256
177
   256
178
     2
271
     2
272
     3
274
     4
283
     0
284
     8
340
11
371
    -1
372
    -1
  0
DIMSTYLE
105
82
330
A
100
AcDbSymbolTableRecord
100
AcDbDimStyleTableRecord
  2
AM_ISO$3
 70
     0
  4
"
 41
2.5
 42
1.0
 43
10.0
 44
1.0
 47
0.1
 48
0.1
 73
     0
 77
     1
 78
     8
 79
     2
140
3.5
141
0.0
143
0.0393701
146
0.71
147
1.5
176
   256
177
   256
178
     2
271
     2
272
     3
274
     4
283
     0
284
     8
288
     1
289
     0
340
11
371
    -1
372
    -1
  0
DIMSTYLE
105
83
330
A
100
AcDbSymbolTableRecord
100
AcDbDimStyleTableRecord
  2
AM_ISO$4
 70
     0
  4
"
 41
2.5
 42
1.0
 43
10.0
 44
1.0
 47
0.1
 48
0.1
 73
     0
 77
     1
 78
     8
 79
     2
140
3.5
141
0.0
143
0.0393701
146
0.71
147
1.5
176
   256
177
   256
178
     2
271
     2
272
     3
274
     4
283
     0
284
     8
288
     1
289
     0
340
11
371
    -1
372
    -1
  0
DIMSTYLE
105
84
330
A
100
AcDbSymbolTableRecord
100
AcDbDimStyleTableRecord
  2
AM_ISO$6
 70
     0
  4
"
 41
2.5
 42
1.0
 43
10.0
 44
1.0
 47
0.1
 48
0.1
 73
     0
 74
     0
 78
     8
 79
     2
140
3.5
141
0.0
143
0.0393701
146
0.71
147
1.5
172
     1
176
   256
177
   256
178
     2
271
     2
272
     3
274
     4
283
     0
284
     8
340
11
371
    -1
372
    -1
  0
DIMSTYLE
105
85
330
A
100
AcDbSymbolTableRecord
100
AcDbDimStyleTableRecord
  2
AM_ISO$7
 70
     0
  4
"
 41
2.5
 42
1.0
 43
10.0
 44
1.0
 47
0.1
 48
0.1
 73
     0
 74
     0
 77
     1
 78
     8
 79
     2
140
5.0
141
0.0
143
0.0393701
146
0.71
147
1.5
172
     1
176
   256
177
   256
178
     2
271
     2
272
     3
274
     4
283
     0
284
     8
340
11
371
    -1
372
    -1
  0
DIMSTYLE
105
86
330
A
100
AcDbSymbolTableRecord
100
AcDbDimStyleTableRecord
  2
AM_ISO$SF
 70
     0
  4
"
 41
2.5
 42
1.0
 43
10.0
 44
1.0
 47
0.1
 48
0.1
 73
     0
 74
     0
 75
     1
 76
     1
 77
     1
 78
     8
 79
     2
140
3.5
141
0.0
143
0.0393701
146
0.71
147
1.5
172
     1
176
   256
177
   256
178
     2
271
     2
272
     3
274
     4
283
     0
284
     8
340
11
371
    -1
372
    -1
  0
DIMSTYLE
105
8B
330
A
100
AcDbSymbolTableRecord
100
AcDbDimStyleTableRecord
  2
AM_ISO$SH
 70
     0
  4
"
 41
2.5
 42
1.0
 43
10.0
 44
1.0
 47
0.1
 48
0.1
 73
     0
 74
     0
 75
     1
 76
     1
 77
     1
 78
     8
 79
     2
140
3.5
141
0.0
143
0.0393701
144
2.0
146
0.71
147
1.5
172
     1
173
     1
176
   256
177
   256
178
     2
271
     2
272
     3
274
     4
283
     0
284
     8
340
11
343
87
371
    -1
372
    -1
  0
DIMSTYLE
105
2E6
102
{ACAD_REACTORS
330
368
102
}
330
A
100
AcDbSymbolTableRecord
100
AcDbDimStyleTableRecord
  2
CAD-DL
 70
     0
 41
2.0
 42
2.0
 43
10.0
 44
2.0
 73
     0
 74
     0
 77
     3
 78
     8
140
5.0
141
0.0
143
0.0394
145
1.0
147
2.0
176
   256
178
   256
271
     0
272
     0
279
     1
284
     8
285
     8
286
     8
340
2E4
342
202
371
    -1
  0
ENDTAB
  0
TABLE
  2
BLOCK_RECORD
  5
1
330
0
100
AcDbSymbolTable
 70
    10
  0
BLOCK_RECORD
  5
1F
102
{ACAD_XDICTIONARY
360
8F
102
}
330
1
100
AcDbSymbolTableRecord
100
AcDbBlockTableRecord
  2
*Model_Space
340
22
 70
     0
280
     1
281
     0
  0
BLOCK_RECORD
  5
23
330
1
100
AcDbSymbolTableRecord
100
AcDbBlockTableRecord
  2
*Paper_Space
340
26
 70
     0
280
     1
281
     0
  0
BLOCK_RECORD
  5
1B
330
1
100
AcDbSymbolTableRecord
100
AcDbBlockTableRecord
  2
*Paper_Space0
340
1E
 70
     0
280
     1
281
     0
  0
BLOCK_RECORD
  5
87
330
1
100
AcDbSymbolTableRecord
100
AcDbBlockTableRecord
  2
GENAXEH
340
0
 70
     0
280
     1
281
     0
  0
BLOCK_RECORD
  5
103
330
1
100
AcDbSymbolTableRecord
100
AcDbBlockTableRecord
  2
*U2
340
0
 70
     0
280
     1
281
     0
  0
BLOCK_RECORD
  5
202
330
1
100
AcDbSymbolTableRecord
100
AcDbBlockTableRecord
  2
_DOT
340
0
310
2800000020000000200000000100080000000000000400000000000000000000000000000000000000000000000080000080000000808000800000008000800080800000C0C0C000C0DCC000F0CAA6000020400000206000002080000020A0000020C0000020E00000400000004020000040400000406000004080000040A0
310
000040C0000040E00000600000006020000060400000606000006080000060A0000060C0000060E00000800000008020000080400000806000008080000080A0000080C0000080E00000A0000000A0200000A0400000A0600000A0800000A0A00000A0C00000A0E00000C0000000C0200000C0400000C0600000C0800000C0
310
A00000C0C00000C0E00000E0000000E0200000E0400000E0600000E0800000E0A00000E0C00000E0E00040000000400020004000400040006000400080004000A0004000C0004000E00040200000402020004020400040206000402080004020A0004020C0004020E000404000004040200040404000404060004040800040
310
40A0004040C0004040E00040600000406020004060400040606000406080004060A0004060C0004060E00040800000408020004080400040806000408080004080A0004080C0004080E00040A0000040A0200040A0400040A0600040A0800040A0A00040A0C00040A0E00040C0000040C0200040C0400040C0600040C08000
310
40C0A00040C0C00040C0E00040E0000040E0200040E0400040E0600040E0800040E0A00040E0C00040E0E00080000000800020008000400080006000800080008000A0008000C0008000E00080200000802020008020400080206000802080008020A0008020C0008020E00080400000804020008040400080406000804080
310
008040A0008040C0008040E00080600000806020008060400080606000806080008060A0008060C0008060E00080800000808020008080400080806000808080008080A0008080C0008080E00080A0000080A0200080A0400080A0600080A0800080A0A00080A0C00080A0E00080C0000080C0200080C0400080C0600080C0
310
800080C0A00080C0C00080C0E00080E0000080E0200080E0400080E0600080E0800080E0A00080E0C00080E0E000C0000000C0002000C0004000C0006000C0008000C000A000C000C000C000E000C0200000C0202000C0204000C0206000C0208000C020A000C020C000C020E000C0400000C0402000C0404000C0406000C0
310
408000C040A000C040C000C040E000C0600000C0602000C0604000C0606000C0608000C060A000C060C000C060E000C0800000C0802000C0804000C0806000C0808000C080A000C080C000C080E000C0A00000C0A02000C0A04000C0A06000C0A08000C0A0A000C0A0C000C0A0E000C0C00000C0C02000C0C04000C0C06000
310
C0C08000C0C0A000F0FBFF00A4A0A000808080000000FF0000FF000000FFFF00FF000000FF00FF00FFFF0000FFFFFF0000000000000000000000000000000000000000000000000000000000000000000000000000000000000000000000000000000000000000000000000000000000000000000000000000000000000000
310
000000000000000000000000000000000000000000000000000000000000000000000000000000000000000000000000000000000000000000000000000000000000000000000000000000000000000000000000000000000000000000000000000000FFFFFFFFFFFFFFFFFFFFFFFFFF000000000000000000000000000000
310
000000FF00FF000000000000000000FF00FF0000000000000000000000000000000000FF00FF000000000000000000FF00FF00000000000000000000000000000000FF000000FF00000000000000FF00000000000000000000000000000000000000FF000000FF00000000000000FF00000000000000000000000000000000
310
0000FF0000000000FF0000000000FF00000000000000000000000000000000000000FF0000000000FF0000000000FF000000000000000000000000000000000000FF00000000000000FF000000FF00000000000000000000000000000000000000FF00000000000000FF000000FF0000000000000000000000000000000000
310
00FF000000000000000000FF00FF00000000000000000000000000000000000000FF000000000000000000FFFFFF00000000FFFF00FFFFFFFFFFFFFFFFFFFFFFFFFFFFFFFFFFFFFFFFFFFFFFFFFFFFFFFFFF000000000000000000000000000000FF000000000000000000FF00FF0000000000000000000000000000000000
310
0000FF0000000000000000FF000000FF00000000000000000000000000000000000000FF00000000000000FF000000FF00000000000000000000000000000000000000FF000000000000FF0000000000FF00000000000000000000000000000000000000FF0000000000FF0000000000FF0000000000000000000000000000
310
000000000000FF000000FF00000000000000FF00000000000000000000000000000000000000FF000000FF00000000000000FF0000000000000000000000000000000000000000FF00FF000000000000000000FF00FF0000000000000000000000000000000000FF00FF000000000000000000FF00FF000000000000000000
310
000000000000000000FFFFFFFFFFFFFFFFFFFFFFFFFF000000000000000000000000000000000000000000000000000000000000000000000000000000000000000000000000000000000000000000000000000000000000000000000000000000000000000000000000000000000000000000000000000000000000000000
310
0000000000000000000000000000000000000000000000000000000000000000000000000000000000000000000000000000000000000000
102
{BLKREFS
331
9A6
331
9A7
102
}
 70
     0
280
     1
281
     0
  0
BLOCK_RECORD
  5
207
102
{ACAD_XDICTIONARY
360
208
102
}
330
1
100
AcDbSymbolTableRecord
100
AcDbBlockTableRecord
  2
00ビス19
340
0
310
2800000020000000200000000100080000000000000400000000000000000000000000000000000000000000000080000080000000808000800000008000800080800000C0C0C000C0DCC000F0CAA6000020400000206000002080000020A0000020C0000020E00000400000004020000040400000406000004080000040A0
310
000040C0000040E00000600000006020000060400000606000006080000060A0000060C0000060E00000800000008020000080400000806000008080000080A0000080C0000080E00000A0000000A0200000A0400000A0600000A0800000A0A00000A0C00000A0E00000C0000000C0200000C0400000C0600000C0800000C0
310
A00000C0C00000C0E00000E0000000E0200000E0400000E0600000E0800000E0A00000E0C00000E0E00040000000400020004000400040006000400080004000A0004000C0004000E00040200000402020004020400040206000402080004020A0004020C0004020E000404000004040200040404000404060004040800040
310
40A0004040C0004040E00040600000406020004060400040606000406080004060A0004060C0004060E00040800000408020004080400040806000408080004080A0004080C0004080E00040A0000040A0200040A0400040A0600040A0800040A0A00040A0C00040A0E00040C0000040C0200040C0400040C0600040C08000
310
40C0A00040C0C00040C0E00040E0000040E0200040E0400040E0600040E0800040E0A00040E0C00040E0E00080000000800020008000400080006000800080008000A0008000C0008000E00080200000802020008020400080206000802080008020A0008020C0008020E00080400000804020008040400080406000804080
310
008040A0008040C0008040E00080600000806020008060400080606000806080008060A0008060C0008060E00080800000808020008080400080806000808080008080A0008080C0008080E00080A0000080A0200080A0400080A0600080A0800080A0A00080A0C00080A0E00080C0000080C0200080C0400080C0600080C0
310
800080C0A00080C0C00080C0E00080E0000080E0200080E0400080E0600080E0800080E0A00080E0C00080E0E000C0000000C0002000C0004000C0006000C0008000C000A000C000C000C000E000C0200000C0202000C0204000C0206000C0208000C020A000C020C000C020E000C0400000C0402000C0404000C0406000C0
310
408000C040A000C040C000C040E000C0600000C0602000C0604000C0606000C0608000C060A000C060C000C060E000C0800000C0802000C0804000C0806000C0808000C080A000C080C000C080E000C0A00000C0A02000C0A04000C0A06000C0A08000C0A0A000C0A0C000C0A0E000C0C00000C0C02000C0C04000C0C06000
310
C0C08000C0C0A000F0FBFF00A4A0A000808080000000FF0000FF000000FFFF00FF000000FF00FF00FFFF0000FFFFFF0000000000000000000000000000000000000000000000000000000000000000000000000000000000000000000000000000000000000000000000000000000000000000000000000000000000000000
310
00000000000000000000000000000000000000000000000000000000000000000000000000000000000000000000000000000000000000000000000000000000000000000000000000000000000000000000000000000000000000000000000000000000000000000000000000000000000000000000000000000000000000
310
00000000000000000000000000000000000000000000000000000000000000000000000000000000000000000000000000000000000000000000000000000000000000000000000000000000000000000000000000000000000000000000000000000000000000000000000000000000000000000000000000000000000000
310
000000000000000000000000000000000000000000000000000000000000000000000000000000000000000000000000FAFA0000000000000000000000000000000000000000000000000000000000FAFAFA00000000000000FA0000FA0000FA0000FA0000FA0000FA00000000FAFA00FAFA000000000000FAFAFAFAFAFAFA
310
FAFAFAFAFAFAFAFAFAFAFAFAFAFA000000FAFA0000FAFAFAFA00FAFA00FAFAFAFA00FAFA00FAFA00FAFA00FA0000000000FAFA000000FAFA00FAFA00FAFAFAFA00FAFA00FAFA00FAFA00FAFA0000000000FAFA0000000000FAFAFAFAFAFAFAFAFAFAFAFAFAFAFAFAFAFAFAFAFAFA000000FAFA000000000000FA0000FA0000
310
FA0000FA0000FA0000FA0000000000FA0000FAFA00000000000000000000000000000000000000000000000000000000FAFAFAFA000000000000000000000000000000000000000000000000000000000000FAFA00000000000000000000000000000000000000000000000000000000000000000000000000000000000000
310
00000000000000000000000000000000000000000000000000000000000000000000000000000000000000000000000000000000000000000000000000000000000000000000000000000000000000000000000000000000000000000000000000000000000000000000000000000000000000000000000000000000000000
310
00000000000000000000000000000000000000000000000000000000000000000000000000000000000000000000000000000000000000000000000000000000000000000000000000000000000000000000000000000000000000000000000000000000000000000000000000000000000000000000000000000000000000
310
0000000000000000000000000000000000000000000000000000000000000000000000000000000000000000000000000000000000000000
 70
     4
280
     1
281
     0
  0
BLOCK_RECORD
  5
270
102
{ACAD_XDICTIONARY
360
271
102
}
330
1
100
AcDbSymbolTableRecord
100
AcDbBlockTableRecord
  2
02スターター15S
340
0
310
2800000020000000200000000100080000000000000400000000000000000000000000000000000000000000000080000080000000808000800000008000800080800000C0C0C000C0DCC000F0CAA6000020400000206000002080000020A0000020C0000020E00000400000004020000040400000406000004080000040A0
310
000040C0000040E00000600000006020000060400000606000006080000060A0000060C0000060E00000800000008020000080400000806000008080000080A0000080C0000080E00000A0000000A0200000A0400000A0600000A0800000A0A00000A0C00000A0E00000C0000000C0200000C0400000C0600000C0800000C0
310
A00000C0C00000C0E00000E0000000E0200000E0400000E0600000E0800000E0A00000E0C00000E0E00040000000400020004000400040006000400080004000A0004000C0004000E00040200000402020004020400040206000402080004020A0004020C0004020E000404000004040200040404000404060004040800040
310
40A0004040C0004040E00040600000406020004060400040606000406080004060A0004060C0004060E00040800000408020004080400040806000408080004080A0004080C0004080E00040A0000040A0200040A0400040A0600040A0800040A0A00040A0C00040A0E00040C0000040C0200040C0400040C0600040C08000
310
40C0A00040C0C00040C0E00040E0000040E0200040E0400040E0600040E0800040E0A00040E0C00040E0E00080000000800020008000400080006000800080008000A0008000C0008000E00080200000802020008020400080206000802080008020A0008020C0008020E00080400000804020008040400080406000804080
310
008040A0008040C0008040E00080600000806020008060400080606000806080008060A0008060C0008060E00080800000808020008080400080806000808080008080A0008080C0008080E00080A0000080A0200080A0400080A0600080A0800080A0A00080A0C00080A0E00080C0000080C0200080C0400080C0600080C0
310
800080C0A00080C0C00080C0E00080E0000080E0200080E0400080E0600080E0800080E0A00080E0C00080E0E000C0000000C0002000C0004000C0006000C0008000C000A000C000C000C000E000C0200000C0202000C0204000C0206000C0208000C020A000C020C000C020E000C0400000C0402000C0404000C0406000C0
310
408000C040A000C040C000C040E000C0600000C0602000C0604000C0606000C0608000C060A000C060C000C060E000C0800000C0802000C0804000C0806000C0808000C080A000C080C000C080E000C0A00000C0A02000C0A04000C0A06000C0A08000C0A0A000C0A0C000C0A0E000C0C00000C0C02000C0C04000C0C06000
310
C0C08000C0C0A000F0FBFF00A4A0A000808080000000FF0000FF000000FFFF00FF000000FF00FF00FFFF0000FFFFFF0000000000000000000000000000000000000000000000000000000000000000000000000000000000000000000027272727000000000000000000000000000000000000000000000000000000002727
310
27272700000000000000000000000000000000000000000000000000002700000000272700000000000000000000000000000000000000000000000000270000000027270000000000000000000000000000000000000000000000000027000000002727000000000000000000000000000000000000000000000000002700
310
00000027272700000000000000000000000000000000000000000000000027000000002727270000000000000000000000000000000000000000000000002700000000272727000000000000000000000000000000000000000000000000270000000027272700000000000000000000000000000000000000000000000027
310
00000000000000000000000000000000000000000000000000000000000000270000000000000000000000000000000000000000000000000000000000000027000000000000000000000000000000000000000000000000000000000000002700000000000000000000000000000000000000000000000000000000000000
310
27000000000000000000000000000000000000000000000000000000000000002700000000000000000000000000000000000000000000000000000000000000270000000000000000000000000000000000000000000000000000000000000027000000000000000000000000000000000000000000000000000000000000
310
00270000000000000000000000000000000000000000000000000000000000000027000000000000000000000000000000000000000000000000000000000000002700000000000000000000000000000000000000000000000000000000000000270000000000000000000000000000000000000000000000000000000000
310
00002700000000000000000000000000000000000000000000000000000000000000270000000000000000000000000000000000000000000000000000000000000027000000000000000000000000000000000000000000000000000000000000002727270000000000000000000000000000000000000000000000000000
310
00000027272700000000000000000000000000000000000000000000000000000000002727270000000000000000000000000000000000000000000000000000000000272727000000000000000000000000000000000000000000000000000000000027272700000000000000000000000000000000000000000000000000
310
0000000000000000000000000000000000000000000000000000000000000000000000000000000000000000000000000000000000000000
102
{BLKREFS
331
BBB
331
382
102
}
 70
     4
280
     1
281
     0
  0
BLOCK_RECORD
  5
481
330
1
100
AcDbSymbolTableRecord
100
AcDbBlockTableRecord
  2
02_通気水切15
340
0
310
2800000020000000200000000100080000000000000400000000000000000000000000000000000000000000000080000080000000808000800000008000800080800000C0C0C000C0DCC000F0CAA6000020400000206000002080000020A0000020C0000020E00000400000004020000040400000406000004080000040A0
310
000040C0000040E00000600000006020000060400000606000006080000060A0000060C0000060E00000800000008020000080400000806000008080000080A0000080C0000080E00000A0000000A0200000A0400000A0600000A0800000A0A00000A0C00000A0E00000C0000000C0200000C0400000C0600000C0800000C0
310
A00000C0C00000C0E00000E0000000E0200000E0400000E0600000E0800000E0A00000E0C00000E0E00040000000400020004000400040006000400080004000A0004000C0004000E00040200000402020004020400040206000402080004020A0004020C0004020E000404000004040200040404000404060004040800040
310
40A0004040C0004040E00040600000406020004060400040606000406080004060A0004060C0004060E00040800000408020004080400040806000408080004080A0004080C0004080E00040A0000040A0200040A0400040A0600040A0800040A0A00040A0C00040A0E00040C0000040C0200040C0400040C0600040C08000
310
40C0A00040C0C00040C0E00040E0000040E0200040E0400040E0600040E0800040E0A00040E0C00040E0E00080000000800020008000400080006000800080008000A0008000C0008000E00080200000802020008020400080206000802080008020A0008020C0008020E00080400000804020008040400080406000804080
310
008040A0008040C0008040E00080600000806020008060400080606000806080008060A0008060C0008060E00080800000808020008080400080806000808080008080A0008080C0008080E00080A0000080A0200080A0400080A0600080A0800080A0A00080A0C00080A0E00080C0000080C0200080C0400080C0600080C0
310
800080C0A00080C0C00080C0E00080E0000080E0200080E0400080E0600080E0800080E0A00080E0C00080E0E000C0000000C0002000C0004000C0006000C0008000C000A000C000C000C000E000C0200000C0202000C0204000C0206000C0208000C020A000C020C000C020E000C0400000C0402000C0404000C0406000C0
310
408000C040A000C040C000C040E000C0600000C0602000C0604000C0606000C0608000C060A000C060C000C060E000C0800000C0802000C0804000C0806000C0808000C080A000C080C000C080E000C0A00000C0A02000C0A04000C0A06000C0A08000C0A0A000C0A0C000C0A0E000C0C00000C0C02000C0C04000C0C06000
310
C0C08000C0C0A000F0FBFF00A4A0A000808080000000FF0000FF000000FFFF00FF000000FF00FF00FFFF0000FFFFFF0000000000000000000000000000000000000000000000000000000000000000000000000000000000000000000000000000000000000000000000000000000000000000000000000000000000000000
310
00000000000000FAFA000000000000000000000000000000000000000000000000000000000000FAFA00000000000000000000000000000000000000000000000000000000000000FA00000000000000000000000000000000000000000000000000000000000000FA00000000000000000000000000000000000000000000
310
000000000000000000FA00000000000000000000000000000000000000000000000000000000000000FA00000000000000000000000000000000000000000000000000000000000000FA00000000000000000000000000000000000000000000000000000000000000FA000000000000000000000000000000000000000000
310
00000000000000FAFAFAFA000000000000000000000000000000000000000000FAFAFAFAFAFAFA0000000000000000000000000000000000000000FAFAFAFAFA000000000000000000000000000000000000000000000000000000FA00000000000000000000000000000000000000000000000000000000000000FA000000
310
00000000000000000000000000000000000000000000000000000000FA00000000000000000000000000000000000000000000000000000000000000FA00000000000000000000000000000000000000000000000000000000000000FA00000000000000000000000000000000000000000000000000000000000000FA0000
310
0000000000000000000000000000000000000000000000000000000000FA00000000000000000000000000000000000000000000000000000000000000FA00000000000000000000000000000000000000000000000000000000000000FA00000000000000000000000000000000000000000000000000000000000000FA00
310
000000000000000000000000000000000000000000000000000000000000FA00000000000000000000000000000000000000000000000000000000000000FA00000000000000000000000000000000000000000000000000000000000000FA00000000000000000000000000000000000000000000000000000000000000FA
310
00000000000000000000000000000000000000000000000000000000000000FA00000000000000000000000000000000000000000000000000000000000000FAFA000000000000000000000000000000000000000000000000000000000000FAFA000000000000000000000000000000000000000000000000000000000000
310
0000000000000000000000000000000000000000000000000000000000000000000000000000000000000000000000000000000000000000
102
{BLKREFS
331
49E
102
}
 70
     4
280
     1
281
     0
  0
BLOCK_RECORD
  5
9A0
330
1
100
AcDbSymbolTableRecord
100
AcDbBlockTableRecord
  2
*D7
340
0
 70
     0
280
     1
281
     0
  0
BLOCK_RECORD
  5
A54
102
{ACAD_XDICTIONARY
360
A55
102
}
330
1
100
AcDbSymbolTableRecord
100
AcDbBlockTableRecord
  2
02水切15S
340
0
310
2800000020000000200000000100080000000000000400000000000000000000000000000000000000000000000080000080000000808000800000008000800080800000C0C0C000C0DCC000F0CAA6000020400000206000002080000020A0000020C0000020E00000400000004020000040400000406000004080000040A0
310
000040C0000040E00000600000006020000060400000606000006080000060A0000060C0000060E00000800000008020000080400000806000008080000080A0000080C0000080E00000A0000000A0200000A0400000A0600000A0800000A0A00000A0C00000A0E00000C0000000C0200000C0400000C0600000C0800000C0
310
A00000C0C00000C0E00000E0000000E0200000E0400000E0600000E0800000E0A00000E0C00000E0E00040000000400020004000400040006000400080004000A0004000C0004000E00040200000402020004020400040206000402080004020A0004020C0004020E000404000004040200040404000404060004040800040
310
40A0004040C0004040E00040600000406020004060400040606000406080004060A0004060C0004060E00040800000408020004080400040806000408080004080A0004080C0004080E00040A0000040A0200040A0400040A0600040A0800040A0A00040A0C00040A0E00040C0000040C0200040C0400040C0600040C08000
310
40C0A00040C0C00040C0E00040E0000040E0200040E0400040E0600040E0800040E0A00040E0C00040E0E00080000000800020008000400080006000800080008000A0008000C0008000E00080200000802020008020400080206000802080008020A0008020C0008020E00080400000804020008040400080406000804080
310
008040A0008040C0008040E00080600000806020008060400080606000806080008060A0008060C0008060E00080800000808020008080400080806000808080008080A0008080C0008080E00080A0000080A0200080A0400080A0600080A0800080A0A00080A0C00080A0E00080C0000080C0200080C0400080C0600080C0
310
800080C0A00080C0C00080C0E00080E0000080E0200080E0400080E0600080E0800080E0A00080E0C00080E0E000C0000000C0002000C0004000C0006000C0008000C000A000C000C000C000E000C0200000C0202000C0204000C0206000C0208000C020A000C020C000C020E000C0400000C0402000C0404000C0406000C0
310
408000C040A000C040C000C040E000C0600000C0602000C0604000C0606000C0608000C060A000C060C000C060E000C0800000C0802000C0804000C0806000C0808000C080A000C080C000C080E000C0A00000C0A02000C0A04000C0A06000C0A08000C0A0A000C0A0C000C0A0E000C0C00000C0C02000C0C04000C0C06000
310
C0C08000C0C0A000F0FBFF00A4A0A000808080000000FF0000FF000000FFFF00FF000000FF00FF00FFFF0000FFFFFF00000000000000000000000000000000000000000000000000000000000000000000000000000000000000000000000000000000FA000000000000000000000000000000000000000000000000000000
310
0000FAFAFA00000000000000000000000000000000000000000000000000000000FAFA00FA0000000000000000000000000000000000000000000000000000000000FA00FA00000000000000000000000000000000000000000000000000000000000000FA0000000000000000000000000000000000000000000000000000
310
0000000000FA00000000000000000000000000000000000000000000000000000000000000FA00000000000000000000000000000000000000000000000000000000000000FA00000000000000000000000000000000000000000000000000000000000000FA00000000000000000000000000000000000000000000000000
310
000000000000FA00000000000000000000000000000000000000000000000000000000FAFAFAFA000000000000000000000000000000000000000000000000FAFAFAFA00000000000000000000000000000000000000000000000000000000FA00000000000000000000000000000000000000000000000000000000000000
310
FA00000000000000000000000000000000000000000000000000000000000000FA00000000000000000000000000000000000000000000000000000000000000FA00000000000000000000000000000000000000000000000000000000000000FA000000000000000000000000000000000000000000000000000000000000
310
00FA00000000000000000000000000000000000000000000000000000000000000FA00000000000000000000000000000000000000000000000000000000000000FA00000000000000000000000000000000000000000000000000000000000000FA0000000000000000000000000000000000000000000000000000000000
310
0000FA00000000000000000000000000000000000000000000000000000000000000FA00000000000000000000000000000000000000000000000000000000000000FA00000000000000000000000000000000000000000000000000000000000000FA00000000000000000000000000000000000000000000000000000000
310
000000FA00000000000000000000000000000000000000000000000000000000000000FA00000000000000000000000000000000000000000000000000000000000000FA00000000000000000000000000000000000000000000000000000000000000FA000000000000000000000000000000000000000000000000000000
310
0000000000000000000000000000000000000000000000000000000000000000000000000000000000000000000000000000000000000000
 70
     4
280
     1
281
     0
  0
BLOCK_RECORD
  5
A7D
330
1
100
AcDbSymbolTableRecord
100
AcDbBlockTableRecord
  2
平頭L25
340
0
102
{BLKREFS
331
BB3
331
BB4
102
}
 70
     4
280
     1
281
     0
  0
ENDTAB
  0
ENDSEC
  0
SECTION
  2
BLOCKS
  0
BLOCK
  5
20
330
1F
100
AcDbEntity
  8
0
100
AcDbBlockBegin
  2
*Model_Space
 70
     0
 10
0.0
 20
0.0
 30
0.0
  3
*Model_Space
  1

  0
ENDBLK
  5
21
330
1F
100
AcDbEntity
  8
0
100
AcDbBlockEnd
  0
BLOCK
  5
24
330
23
100
AcDbEntity
 67
     1
  8
0
100
AcDbBlockBegin
  2
*Paper_Space
 70
     0
 10
0.0
 20
0.0
 30
0.0
  3
*Paper_Space
  1

  0
ENDBLK
  5
25
330
23
100
AcDbEntity
 67
     1
  8
0
100
AcDbBlockEnd
  0
BLOCK
  5
1C
330
1B
100
AcDbEntity
 67
     1
  8
0
100
AcDbBlockBegin
  2
*Paper_Space0
 70
     0
 10
0.0
 20
0.0
 30
0.0
  3
*Paper_Space0
  1

  0
VIEWPORT
  5
178
330
1B
100
AcDbEntity
 67
     1
  8
0
100
AcDbViewport
 10
133.3499908447265
 20
101.5999970436096
 30
0.0
 40
370.2266912936524
 41
228.4221935424805
 68
     0
 69
     0
 12
133.3499908447265
 22
101.5999970436096
 13
0.0
 23
0.0
 14
10.0
 24
10.0
 15
10.0
 25
10.0
 16
0.0
 26
0.0
 36
1.0
 17
0.0
 27
0.0
 37
0.0
 42
50.0
 43
0.0
 44
0.0
 45
228.4221935424805
 50
0.0
 51
0.0
 72
   100
 90
    32800
  1

281
     0
 71
     1
 74
     0
110
0.0
120
0.0
130
0.0
111
1.0
121
0.0
131
0.0
112
0.0
122
1.0
132
0.0
 79
     0
146
0.0
170
     0
 61
     5
348
60F
292
     1
282
     1
141
0.0
142
0.0
 63
   250
421
  3355443
  0
ENDBLK
  5
1D
330
1B
100
AcDbEntity
 67
     1
  8
0
100
AcDbBlockEnd
  0
BLOCK
  5
89
330
87
100
AcDbEntity
  8
0
100
AcDbBlockBegin
  2
GENAXEH
 70
     0
 10
0.0
 20
0.0
 30
0.0
  3
GENAXEH
  1

  0
LINE
  5
88
330
87
100
AcDbEntity
  8
0
100
AcDbLine
 10
-1.0
 20
0.0
 30
0.0
 11
1.0
 21
0.0
 31
0.0
  0
ENDBLK
  5
8A
330
87
100
AcDbEntity
  8
0
100
AcDbBlockEnd
  0
BLOCK
  5
104
330
103
100
AcDbEntity
  8
0
100
AcDbBlockBegin
  2
*U2
 70
     1
 10
0.0
 20
0.0
 30
0.0
  3
*U2
  1

  0
ENDBLK
  5
105
330
103
100
AcDbEntity
  8
0
100
AcDbBlockEnd
  0
BLOCK
  5
203
330
202
100
AcDbEntity
  8
0
100
AcDbBlockBegin
  2
_DOT
 70
     0
 10
0.0
 20
0.0
 30
0.0
  3
_DOT
  1

  0
LWPOLYLINE
  5
204
330
202
100
AcDbEntity
  8
0
  6
ByBlock
 62
     0
100
AcDbPolyline
 90
        2
 70
     1
 43
0.5
 10
-0.25
 20
0.0
 42
1.0
 10
0.25
 20
0.0
 42
1.0
  0
LINE
  5
205
330
202
100
AcDbEntity
  8
0
  6
ByBlock
 62
     0
100
AcDbLine
 10
-0.5
 20
0.0
 30
0.0
 11
-1.0
 21
0.0
 31
0.0
  0
ENDBLK
  5
206
330
202
100
AcDbEntity
  8
0
100
AcDbBlockEnd
  0
BLOCK
  5
20A
330
207
100
AcDbEntity
  8
0
100
AcDbBlockBegin
  2
00ビス19
 70
     0
 10
0.0
 20
0.0
 30
0.0
  3
00ビス19
  1

  0
LINE
  5
20B
330
207
100
AcDbEntity
  8
BISUKUGI
100
AcDbLine
 10
0.0
 20
-3.950000000002546
 30
0.0
 11
0.0
 21
3.950000000002546
 31
0.0
  0
LINE
  5
20C
330
207
100
AcDbEntity
  8
BISUKUGI
100
AcDbLine
 10
-4.809999999990395
 20
-1.340000000001964
 30
0.0
 11
-5.16956486213894
 21
1.124999999994543
 31
0.0
  0
LINE
  5
20D
330
207
100
AcDbEntity
  8
BISUKUGI
100
AcDbLine
 10
-22.91789334766145
 20
-0.3738209372768324
 30
0.0
 11
-24.12999999999738
 21
-0.000000000005457
 31
0.0
  0
ARC
  5
20E
330
207
100
AcDbEntity
  8
BISUKUGI
100
AcDbCircle
 10
-3.595673597556015
 20
5.120736437942468
 30
0.0
 40
3.781466967631426
100
AcDbArc
 50
268.8737536362359
 51
341.964965094516
  0
ARC
  5
20F
330
207
100
AcDbEntity
  8
BISUKUGI
100
AcDbCircle
 10
-3.595673597556015
 20
-5.120736437942468
 30
0.0
 40
3.781466967631426
100
AcDbArc
 50
18.03503490548401
 51
91.12624636376411
  0
LINE
  5
210
330
207
100
AcDbEntity
  8
BISUKUGI
100
AcDbLine
 10
-11.8201005467672
 20
-1.125000000005456
 30
0.0
 11
-10.09021078354271
 21
-1.125000000005456
 31
0.0
  0
LINE
  5
211
330
207
100
AcDbEntity
  8
BISUKUGI
100
AcDbLine
 10
-12.70378921645169
 20
1.124999999994543
 30
0.0
 11
-10.97389945323812
 21
1.124999999994543
 31
0.0
  0
LINE
  5
212
330
207
100
AcDbEntity
  8
BISUKUGI
100
AcDbLine
 10
-15.30178921645711
 20
1.124999999994543
 30
0.0
 11
-13.57189945323625
 21
1.124999999994543
 31
0.0
  0
LINE
  5
213
330
207
100
AcDbEntity
  8
BISUKUGI
100
AcDbLine
 10
-17.89978921645525
 20
1.124999999994543
 30
0.0
 11
-16.16989945324531
 21
1.124999999994543
 31
0.0
  0
LINE
  5
214
330
207
100
AcDbEntity
  8
BISUKUGI
100
AcDbLine
 10
-14.41810054676534
 20
-1.125000000005456
 30
0.0
 11
-12.68821078354813
 21
-1.125000000005456
 31
0.0
  0
LINE
  5
215
330
207
100
AcDbEntity
  8
BISUKUGI
100
AcDbLine
 10
-20.48221078354254
 20
-1.125000000005456
 30
0.0
 11
-22.54637855490728
 21
-0.488398320192573
 31
0.0
  0
LINE
  5
216
330
207
100
AcDbEntity
  8
BISUKUGI
100
AcDbLine
 10
-7.507789216455421
 20
1.124999999994543
 30
0.0
 11
-5.652487113064125
 21
1.124999999994543
 31
0.0
  0
LINE
  5
217
330
207
100
AcDbEntity
  8
BISUKUGI
100
AcDbLine
 10
-5.652487113064125
 20
-1.125000000005456
 30
0.0
 11
-6.624100546760018
 21
-1.125000000005456
 31
0.0
  0
LINE
  5
218
330
207
100
AcDbEntity
  8
BISUKUGI
100
AcDbLine
 10
-4.810000000008585
 20
-1.340000000001964
 30
0.0
 11
-5.652487113064125
 21
-1.125000000005456
 31
0.0
  0
LINE
  5
219
330
207
100
AcDbEntity
  8
BISUKUGI
100
AcDbLine
 10
-20.49778921645339
 20
1.124999999994543
 30
0.0
 11
-18.76789945324344
 21
1.124999999994543
 31
0.0
  0
LINE
  5
21A
330
207
100
AcDbEntity
  8
BISUKUGI
100
AcDbLine
 10
-17.01610054676348
 20
-1.125000000005456
 30
0.0
 11
-15.28621078354627
 21
-1.125000000005456
 31
0.0
  0
LINE
  5
21B
330
207
100
AcDbEntity
  8
BISUKUGI
100
AcDbLine
 10
-19.61410054676526
 20
-1.125000000005456
 30
0.0
 11
-17.8842107835444
 21
-1.125000000005456
 31
0.0
  0
LINE
  5
21C
330
207
100
AcDbEntity
  8
BISUKUGI
100
AcDbLine
 10
-24.12999999999738
 20
-0.000000000005457
 30
0.0
 11
-21.34418813534285
 21
1.124999999994543
 31
0.0
  0
LINE
  5
21D
330
207
100
AcDbEntity
  8
BISUKUGI
100
AcDbLine
 10
-3.669999999998253
 20
1.340000000001964
 30
0.0
 11
-5.292644754139473
 21
1.340000000001964
 31
0.0
  0
LINE
  5
21E
330
207
100
AcDbEntity
  8
BISUKUGI
100
AcDbLine
 10
-3.669999999998253
 20
-1.340000000001964
 30
0.0
 11
-4.809999999997671
 21
-1.340000000001964
 31
0.0
  0
LINE
  5
21F
330
207
100
AcDbEntity
  8
BISUKUGI
100
AcDbLine
 10
-7.059999999997671
 20
-1.879999999999199
 30
0.0
 11
-7.940000000002328
 21
1.879999999999199
 31
0.0
  0
LINE
  5
220
330
207
100
AcDbEntity
  8
BISUKUGI
100
AcDbLine
 10
-7.492210783544578
 20
-1.125000000005456
 30
0.0
 11
-7.059999999997671
 21
-1.879999999999199
 31
0.0
  0
LINE
  5
221
330
207
100
AcDbEntity
  8
BISUKUGI
100
AcDbLine
 10
-7.507789216455421
 20
1.124999999994543
 30
0.0
 11
-7.940000000002328
 21
1.879999999999199
 31
0.0
  0
LINE
  5
222
330
207
100
AcDbEntity
  8
BISUKUGI
100
AcDbLine
 10
-6.624100546760018
 20
-1.125000000005456
 30
0.0
 11
-7.507789216455421
 21
1.124999999994543
 31
0.0
  0
LINE
  5
223
330
207
100
AcDbEntity
  8
BISUKUGI
100
AcDbLine
 10
-7.059999999997671
 20
-1.879999999999199
 30
0.0
 11
-6.624100546760018
 21
-1.125000000005456
 31
0.0
  0
LINE
  5
224
330
207
100
AcDbEntity
  8
BISUKUGI
100
AcDbLine
 10
-9.658000000006722
 20
-1.879999999999199
 30
0.0
 11
-10.53800000000046
 21
1.879999999999199
 31
0.0
  0
LINE
  5
225
330
207
100
AcDbEntity
  8
BISUKUGI
100
AcDbLine
 10
-10.09021078354271
 20
-1.125000000005456
 30
0.0
 11
-9.658000000006722
 21
-1.879999999999199
 31
0.0
  0
LINE
  5
226
330
207
100
AcDbEntity
  8
BISUKUGI
100
AcDbLine
 10
-10.97389945323812
 20
1.124999999994543
 30
0.0
 11
-10.09021078354271
 21
-1.125000000005456
 31
0.0
  0
LINE
  5
227
330
207
100
AcDbEntity
  8
BISUKUGI
100
AcDbLine
 10
-10.53800000000046
 20
1.879999999999199
 30
0.0
 11
-10.97389945323812
 21
1.124999999994543
 31
0.0
  0
LINE
  5
228
330
207
100
AcDbEntity
  8
BISUKUGI
100
AcDbLine
 10
-10.10578921645356
 20
1.124999999994543
 30
0.0
 11
-10.53800000000046
 21
1.879999999999199
 31
0.0
  0
LINE
  5
229
330
207
100
AcDbEntity
  8
BISUKUGI
100
AcDbLine
 10
-9.22210054676907
 20
-1.125000000005456
 30
0.0
 11
-10.10578921645356
 21
1.124999999994543
 31
0.0
  0
LINE
  5
22A
330
207
100
AcDbEntity
  8
BISUKUGI
100
AcDbLine
 10
-9.658000000006722
 20
-1.879999999999199
 30
0.0
 11
-9.22210054676907
 21
-1.125000000005456
 31
0.0
  0
LINE
  5
22B
330
207
100
AcDbEntity
  8
BISUKUGI
100
AcDbLine
 10
-12.25600000000486
 20
-1.879999999999199
 30
0.0
 11
-13.1359999999986
 21
1.879999999999199
 31
0.0
  0
LINE
  5
22C
330
207
100
AcDbEntity
  8
BISUKUGI
100
AcDbLine
 10
-12.68821078354813
 20
-1.125000000005456
 30
0.0
 11
-12.25600000000486
 21
-1.879999999999199
 31
0.0
  0
LINE
  5
22D
330
207
100
AcDbEntity
  8
BISUKUGI
100
AcDbLine
 10
-13.57189945323625
 20
1.124999999994543
 30
0.0
 11
-12.68821078354813
 21
-1.125000000005456
 31
0.0
  0
LINE
  5
22E
330
207
100
AcDbEntity
  8
BISUKUGI
100
AcDbLine
 10
-13.1359999999986
 20
1.879999999999199
 30
0.0
 11
-13.57189945323625
 21
1.124999999994543
 31
0.0
  0
LINE
  5
22F
330
207
100
AcDbEntity
  8
BISUKUGI
100
AcDbLine
 10
-12.70378921645169
 20
1.124999999994543
 30
0.0
 11
-13.1359999999986
 21
1.879999999999199
 31
0.0
  0
LINE
  5
230
330
207
100
AcDbEntity
  8
BISUKUGI
100
AcDbLine
 10
-11.8201005467672
 20
-1.125000000005456
 30
0.0
 11
-12.70378921645169
 21
1.124999999994543
 31
0.0
  0
LINE
  5
231
330
207
100
AcDbEntity
  8
BISUKUGI
100
AcDbLine
 10
-12.25600000000486
 20
-1.879999999999199
 30
0.0
 11
-11.8201005467672
 21
-1.125000000005456
 31
0.0
  0
LINE
  5
232
330
207
100
AcDbEntity
  8
BISUKUGI
100
AcDbLine
 10
-14.854000000003
 20
-1.879999999999199
 30
0.0
 11
-15.73399999999674
 21
1.879999999999199
 31
0.0
  0
LINE
  5
233
330
207
100
AcDbEntity
  8
BISUKUGI
100
AcDbLine
 10
-15.28621078354627
 20
-1.125000000005456
 30
0.0
 11
-14.854000000003
 21
-1.879999999999199
 31
0.0
  0
LINE
  5
234
330
207
100
AcDbEntity
  8
BISUKUGI
100
AcDbLine
 10
-16.16989945324531
 20
1.124999999994543
 30
0.0
 11
-15.28621078354627
 21
-1.125000000005456
 31
0.0
  0
LINE
  5
235
330
207
100
AcDbEntity
  8
BISUKUGI
100
AcDbLine
 10
-15.73399999999674
 20
1.879999999999199
 30
0.0
 11
-16.16989945324531
 21
1.124999999994543
 31
0.0
  0
LINE
  5
236
330
207
100
AcDbEntity
  8
BISUKUGI
100
AcDbLine
 10
-15.30178921645711
 20
1.124999999994543
 30
0.0
 11
-15.73399999999674
 21
1.879999999999199
 31
0.0
  0
LINE
  5
237
330
207
100
AcDbEntity
  8
BISUKUGI
100
AcDbLine
 10
-14.41810054676534
 20
-1.125000000005456
 30
0.0
 11
-15.30178921645711
 21
1.124999999994543
 31
0.0
  0
LINE
  5
238
330
207
100
AcDbEntity
  8
BISUKUGI
100
AcDbLine
 10
-14.854000000003
 20
-1.879999999999199
 30
0.0
 11
-14.41810054676534
 21
-1.125000000005456
 31
0.0
  0
ARC
  5
239
330
207
100
AcDbEntity
  8
BISUKUGI
100
AcDbCircle
 10
0.2493975903635146
 20
-3.689006024093032
 30
0.0
 40
0.3609944785397377
100
AcDbArc
 50
226.3015686346777
 51
346.218840782047
  0
LINE
  5
23A
330
207
100
AcDbEntity
  8
BISUKUGI
100
AcDbLine
 10
0.5999999999949069
 20
-3.774999999999636
 30
0.0
 11
0.5999999999949069
 21
3.774999999999636
 31
0.0
  0
LINE
  5
23B
330
207
100
AcDbEntity
  8
BISUKUGI
100
AcDbLine
 10
-5.652487113064125
 20
1.124999999994543
 30
0.0
 11
-5.410000000003492
 21
1.54500000000371
 31
0.0
  0
LINE
  5
23C
330
207
100
AcDbEntity
  8
BISUKUGI
100
AcDbLine
 10
-5.410000000003492
 20
1.54500000000371
 30
0.0
 11
-5.16956486213894
 21
1.124999999994543
 31
0.0
  0
LINE
  5
23D
330
207
100
AcDbEntity
  8
BISUKUGI
100
AcDbLine
 10
-4.809999999997671
 20
-1.340000000001964
 30
0.0
 11
-4.93307989200548
 21
-1.125000000005456
 31
0.0
  0
LINE
  5
23E
330
207
100
AcDbEntity
  8
BISUKUGI
100
AcDbLine
 10
-4.93307989200548
 20
-1.125000000005456
 30
0.0
 11
-5.652487113064125
 21
1.124999999994543
 31
0.0
  0
LINE
  5
23F
330
207
100
AcDbEntity
  8
BISUKUGI
100
AcDbLine
 10
-4.810000000008585
 20
-1.340000000001964
 30
0.0
 11
-5.410000000003492
 21
1.54500000000371
 31
0.0
  0
LINE
  5
240
330
207
100
AcDbEntity
  8
BISUKUGI
100
AcDbLine
 10
-17.45200000000113
 20
-1.879999999999199
 30
0.0
 11
-17.01610054676348
 21
-1.125000000005456
 31
0.0
  0
LINE
  5
241
330
207
100
AcDbEntity
  8
BISUKUGI
100
AcDbLine
 10
-17.01610054676348
 20
-1.125000000005456
 30
0.0
 11
-17.89978921645525
 21
1.124999999994543
 31
0.0
  0
LINE
  5
242
330
207
100
AcDbEntity
  8
BISUKUGI
100
AcDbLine
 10
-17.89978921645525
 20
1.124999999994543
 30
0.0
 11
-18.33200000000579
 21
1.879999999999199
 31
0.0
  0
LINE
  5
243
330
207
100
AcDbEntity
  8
BISUKUGI
100
AcDbLine
 10
-18.33200000000579
 20
1.879999999999199
 30
0.0
 11
-18.76789945324344
 21
1.124999999994543
 31
0.0
  0
LINE
  5
244
330
207
100
AcDbEntity
  8
BISUKUGI
100
AcDbLine
 10
-18.76789945324344
 20
1.124999999994543
 30
0.0
 11
-17.8842107835444
 21
-1.125000000005456
 31
0.0
  0
LINE
  5
245
330
207
100
AcDbEntity
  8
BISUKUGI
100
AcDbLine
 10
-17.8842107835444
 20
-1.125000000005456
 30
0.0
 11
-17.45200000000113
 21
-1.879999999999199
 31
0.0
  0
LINE
  5
246
330
207
100
AcDbEntity
  8
BISUKUGI
100
AcDbLine
 10
-17.45200000000113
 20
-1.879999999999199
 30
0.0
 11
-18.33200000000579
 21
1.879999999999199
 31
0.0
  0
LINE
  5
247
330
207
100
AcDbEntity
  8
BISUKUGI
100
AcDbLine
 10
-20.05000000000291
 20
-1.879999999999199
 30
0.0
 11
-20.93000000000393
 21
1.879999999999199
 31
0.0
  0
LINE
  5
248
330
207
100
AcDbEntity
  8
BISUKUGI
100
AcDbLine
 10
-20.48221078354254
 20
-1.125000000005456
 30
0.0
 11
-20.05000000000291
 21
-1.879999999999199
 31
0.0
  0
LINE
  5
249
330
207
100
AcDbEntity
  8
BISUKUGI
100
AcDbLine
 10
-21.36589945324158
 20
1.124999999994543
 30
0.0
 11
-20.48221078354254
 21
-1.125000000005456
 31
0.0
  0
LINE
  5
24A
330
207
100
AcDbEntity
  8
BISUKUGI
100
AcDbLine
 10
-20.93000000000393
 20
1.879999999999199
 30
0.0
 11
-21.36589945324158
 21
1.124999999994543
 31
0.0
  0
LINE
  5
24B
330
207
100
AcDbEntity
  8
BISUKUGI
100
AcDbLine
 10
-20.49778921645339
 20
1.124999999994543
 30
0.0
 11
-20.93000000000393
 21
1.879999999999199
 31
0.0
  0
LINE
  5
24C
330
207
100
AcDbEntity
  8
BISUKUGI
100
AcDbLine
 10
-19.61410054676526
 20
-1.125000000005456
 30
0.0
 11
-20.49778921645339
 21
1.124999999994543
 31
0.0
  0
LINE
  5
24D
330
207
100
AcDbEntity
  8
BISUKUGI
100
AcDbLine
 10
-20.05000000000291
 20
-1.879999999999199
 30
0.0
 11
-19.61410054676526
 21
-1.125000000005456
 31
0.0
  0
LINE
  5
24E
330
207
100
AcDbEntity
  8
BISUKUGI
100
AcDbLine
 10
-22.70000000001164
 20
-0.7544784682340833
 30
0.0
 11
-22.54637855490728
 21
-0.488398320192573
 31
0.0
  0
LINE
  5
24F
330
207
100
AcDbEntity
  8
BISUKUGI
100
AcDbLine
 10
-22.54637855490728
 20
-0.488398320192573
 30
0.0
 11
-23.30000000001019
 21
0.2937156186326319
 31
0.0
  0
LINE
  5
250
330
207
100
AcDbEntity
  8
BISUKUGI
100
AcDbLine
 10
-23.30000000001019
 20
0.2937156186326319
 30
0.0
 11
-22.70000000001164
 21
-0.7544784682340833
 31
0.0
  0
LINE
  5
251
330
207
100
AcDbEntity
  8
BISUKUGI
100
AcDbLine
 10
-7.940000000002328
 20
1.879999999999199
 30
0.0
 11
-8.375899453239981
 21
1.124999999994543
 31
0.0
  0
LINE
  5
252
330
207
100
AcDbEntity
  8
BISUKUGI
100
AcDbLine
 10
-8.375899453239981
 20
1.124999999994543
 30
0.0
 11
-7.492210783544578
 21
-1.125000000005456
 31
0.0
  0
LINE
  5
253
330
207
100
AcDbEntity
  8
BISUKUGI
100
AcDbLine
 10
-9.22210054676907
 20
-1.125000000005456
 30
0.0
 11
-7.492210783544578
 21
-1.125000000005456
 31
0.0
  0
LINE
  5
254
330
207
100
AcDbEntity
  8
BISUKUGI
100
AcDbLine
 10
-10.10578921645356
 20
1.124999999994543
 30
0.0
 11
-8.375899453239981
 21
1.124999999994543
 31
0.0
  0
ARC
  5
255
330
207
100
AcDbEntity
  8
BISUKUGI
100
AcDbCircle
 10
0.2493975903635146
 20
3.689006024089394
 30
0.0
 40
0.3609944785397377
100
AcDbArc
 50
13.78115921795303
 51
133.6984313653223
  0
ENDBLK
  5
256
330
207
100
AcDbEntity
  8
0
100
AcDbBlockEnd
  0
BLOCK
  5
273
330
270
100
AcDbEntity
  8
0
 62
     6
100
AcDbBlockBegin
  2
02スターター15S
 70
     0
 10
0.0
 20
0.0
 30
0.0
  3
02スターター15S
  1

  0
LINE
  5
274
330
270
100
AcDbEntity
  8
YAKUMONO2
100
AcDbLine
 10
2.0
 20
11.57499999999981
 30
0.0
 11
1.649999999999636
 21
11.57499999999981
 31
0.0
  0
LINE
  5
275
330
270
100
AcDbEntity
  8
YAKUMONO2
100
AcDbLine
 10
2.0
 20
16.57499999999982
 30
0.0
 11
2.0
 21
11.57499999999981
 31
0.0
  0
ARC
  5
276
330
270
100
AcDbEntity
  8
YAKUMONO2
100
AcDbCircle
 10
1.0
 20
16.57499999999982
 30
0.0
 40
1.0
100
AcDbArc
 50
0.0
 51
180.0
  0
LINE
  5
277
330
270
100
AcDbEntity
  8
YAKUMONO2
100
AcDbLine
 10
0.0
 20
-16.92500000000018
 30
0.0
 11
0.0
 21
16.57499999999982
 31
0.0
  0
ARC
  5
278
330
270
100
AcDbEntity
  8
YAKUMONO2
100
AcDbCircle
 10
1.5
 20
-16.92500000000018
 30
0.0
 40
1.5
100
AcDbArc
 50
180.0
 51
270.0
  0
LINE
  5
279
330
270
100
AcDbEntity
  8
YAKUMONO2
100
AcDbLine
 10
5.5
 20
-18.42500000000018
 30
0.0
 11
1.5
 21
-18.42500000000018
 31
0.0
  0
ARC
  5
27A
330
270
100
AcDbEntity
  8
YAKUMONO2
100
AcDbCircle
 10
5.5
 20
-16.92500000000018
 30
0.0
 40
1.5
100
AcDbArc
 50
270.0
 51
0.0000000000260551
  0
LINE
  5
27B
330
270
100
AcDbEntity
  8
YAKUMONO2
100
AcDbLine
 10
6.999999999998181
 20
-9.293481719612827
 30
0.0
 11
7.0
 21
-16.92499999999973
 31
0.0
  0
ARC
  5
27C
330
270
100
AcDbEntity
  8
YAKUMONO2
100
AcDbCircle
 10
7.573538406166335
 20
-9.351461593825206
 30
0.0
 40
0.5764615938326366
100
AcDbArc
 50
358.6857560019595
 51
174.2274928013292
  0
LINE
  5
27D
330
270
100
AcDbEntity
  8
YAKUMONO2
100
AcDbLine
 10
7.164431012917702
 20
-16.37628936629971
 30
0.0
 11
8.149848355003996
 21
-9.364683244044954
 31
0.0
  0
LINE
  5
27E
330
270
100
AcDbEntity
  8
YAKUMONO2
100
AcDbLine
 10
7.511025052706827
 20
-16.42500000000018
 30
0.0
 11
7.164431012917702
 21
-16.37628936629971
 31
0.0
  0
LINE
  5
27F
330
270
100
AcDbEntity
  8
YAKUMONO2
100
AcDbLine
 10
8.498951051189578
 20
-9.395535636981549
 30
0.0
 11
7.511025052706827
 21
-16.42500000000018
 31
0.0
  0
ARC
  5
280
330
270
100
AcDbEntity
  8
YAKUMONO2
100
AcDbCircle
 10
7.573538406166335
 20
-9.351461593828844
 30
0.0
 40
0.9264615938332395
100
AcDbArc
 50
357.2732705301587
 51
175.44732628483
  0
LINE
  5
281
330
270
100
AcDbEntity
  8
YAKUMONO2
100
AcDbLine
 10
6.649999999999636
 20
-16.92500000000018
 30
0.0
 11
6.649999999999636
 21
-9.277923187652959
 31
0.0
  0
ARC
  5
282
330
270
100
AcDbEntity
  8
YAKUMONO2
100
AcDbCircle
 10
5.5
 20
-16.92500000000064
 30
0.0
 40
1.149999999999607
100
AcDbArc
 50
270.0
 51
0.0000000000260551
  0
LINE
  5
283
330
270
100
AcDbEntity
  8
YAKUMONO2
100
AcDbLine
 10
1.5
 20
-18.07499999999982
 30
0.0
 11
5.5
 21
-18.07500000000027
 31
0.0
  0
ARC
  5
284
330
270
100
AcDbEntity
  8
YAKUMONO2
100
AcDbCircle
 10
1.5
 20
-16.92499999999973
 30
0.0
 40
1.149999999999806
100
AcDbArc
 50
180.0
 51
270.0
  0
LINE
  5
285
330
270
100
AcDbEntity
  8
YAKUMONO2
100
AcDbLine
 10
0.3500000000003638
 20
16.57499999999982
 30
0.0
 11
0.3500000000003638
 21
-16.92500000000018
 31
0.0
  0
ARC
  5
286
330
270
100
AcDbEntity
  8
YAKUMONO2
100
AcDbCircle
 10
1.0
 20
16.57499999999982
 30
0.0
 40
0.6499999999998068
100
AcDbArc
 50
0.0
 51
180.0
  0
LINE
  5
287
330
270
100
AcDbEntity
  8
YAKUMONO2
100
AcDbLine
 10
1.649999999999636
 20
11.57499999999981
 30
0.0
 11
1.649999999999636
 21
16.57499999999982
 31
0.0
  0
ENDBLK
  5
288
330
270
100
AcDbEntity
  8
0
 62
     6
100
AcDbBlockEnd
  0
BLOCK
  5
482
330
481
100
AcDbEntity
  8
0
100
AcDbBlockBegin
  2
02_通気水切15
 70
     0
 10
0.0
 20
0.0
 30
0.0
  3
02_通気水切15
  1

  0
LINE
  5
483
330
481
100
AcDbEntity
  8
YAKUMONO
 48
0.2
100
AcDbLine
 10
50.0
 20
-7.865703999999823
 30
0.0
 11
50.0
 21
-35.98097899999994
 31
0.0
  0
LINE
  5
484
330
481
100
AcDbEntity
  8
YAKUMONO
 48
0.2
100
AcDbLine
 10
48.0
 20
-31.98097899999993
 30
0.0
 11
48.34999999999991
 21
-31.98097899999993
 31
0.0
  0
LINE
  5
485
330
481
100
AcDbEntity
  8
YAKUMONO
 48
0.2
100
AcDbLine
 10
49.65000000000009
 20
-7.865703999999823
 30
0.0
 11
49.65000000000009
 21
-35.98097899999994
 31
0.0
  0
ARC
  5
486
330
481
100
AcDbEntity
  8
YAKUMONO
 48
0.2
100
AcDbCircle
 10
49.0
 20
-35.98097899999994
 30
0.0
 40
1.0
100
AcDbArc
 50
180.0
 51
0.0
  0
LINE
  5
487
330
481
100
AcDbEntity
  8
YAKUMONO
 48
0.2
100
AcDbLine
 10
48.0
 20
-31.98097899999993
 30
0.0
 11
48.0
 21
-35.98097899999994
 31
0.0
  0
LINE
  5
488
330
481
100
AcDbEntity
  8
YAKUMONO
 48
0.2
100
AcDbLine
 10
48.34999999999991
 20
-31.98097899999993
 30
0.0
 11
48.34999999999991
 21
-35.98097899999994
 31
0.0
  0
ARC
  5
489
330
481
100
AcDbEntity
  8
YAKUMONO
 48
0.2
100
AcDbCircle
 10
49.0
 20
-35.98097899999994
 30
0.0
 40
0.65
100
AcDbArc
 50
180.0
 51
0.0
  0
LINE
  5
48A
330
481
100
AcDbEntity
  8
YAKUMONO
 48
0.2
100
AcDbLine
 10
49.1218700000004
 20
-6.873157999999421
 30
0.0
 11
1.228131000000303
 21
-0.9925459999994927
 31
0.0
  0
ARC
  5
48B
330
481
100
AcDbEntity
  8
YAKUMONO
 48
0.2
100
AcDbCircle
 10
49.0
 20
-7.865703999999823
 30
0.0
 40
1.0
100
AcDbArc
 50
0.0
 51
83.00000000000734
  0
ARC
  5
48C
330
481
100
AcDbEntity
  8
YAKUMONO
 48
0.2
100
AcDbCircle
 10
49.0
 20
-7.865703999999823
 30
0.0
 40
0.65
100
AcDbArc
 50
0.0
 51
83.00000000000734
  0
LINE
  5
48D
330
481
100
AcDbEntity
  8
YAKUMONO
 48
0.2
100
AcDbLine
 10
2.000000000000454
 20
54.11527500000011
 30
0.0
 11
1.65000000000009
 21
54.11527500000011
 31
0.0
  0
ARC
  5
48E
330
481
100
AcDbEntity
  8
YAKUMONO
 48
0.2
100
AcDbCircle
 10
1.000000000000454
 20
58.11527500000011
 30
0.0
 40
1.0
100
AcDbArc
 50
0.0
 51
180.0
  0
LINE
  5
48F
330
481
100
AcDbEntity
  8
YAKUMONO
 48
0.2
100
AcDbLine
 10
2.000000000000454
 20
54.11527500000011
 30
0.0
 11
2.000000000000454
 21
58.11527500000011
 31
0.0
  0
LINE
  5
490
330
481
100
AcDbEntity
  8
YAKUMONO
 48
0.2
100
AcDbLine
 10
1.65000000000009
 20
54.11527500000011
 30
0.0
 11
1.65000000000009
 21
58.11527500000011
 31
0.0
  0
ARC
  5
491
330
481
100
AcDbEntity
  8
YAKUMONO
 48
0.2
100
AcDbCircle
 10
1.000000000000454
 20
58.11527500000011
 30
0.0
 40
0.65
100
AcDbArc
 50
0.0
 51
180.0
  0
ARC
  5
492
330
481
100
AcDbEntity
  8
YAKUMONO
 48
0.2
100
AcDbCircle
 10
1.349999999999909
 20
0.0
 30
0.0
 40
1.35
100
AcDbArc
 50
180.0
 51
263.0000000000073
  0
ARC
  5
493
330
481
100
AcDbEntity
  8
YAKUMONO
 48
0.2
100
AcDbCircle
 10
1.349999999999909
 20
0.0
 30
0.0
 40
1.0
100
AcDbArc
 50
180.0
 51
263.0000000000073
  0
LINE
  5
494
330
481
100
AcDbEntity
  8
YAKUMONO
 48
0.2
100
AcDbLine
 10
0.0000000000004547
 20
58.11527500000011
 30
0.0
 11
0.0000000000004547
 21
0.0
 31
0.0
  0
LINE
  5
495
330
481
100
AcDbEntity
  8
YAKUMONO
 48
0.2
100
AcDbLine
 10
0.349999999999909
 20
58.11527500000011
 30
0.0
 11
0.349999999999909
 21
0.0
 31
0.0
  0
LINE
  5
496
330
481
100
AcDbEntity
  8
YAKUMONO
 48
0.2
100
AcDbLine
 10
49.07921600000008
 20
-7.220548999999664
 30
0.0
 11
1.185476999999991
 21
-1.339936999998826
 31
0.0
  0
ENDBLK
  5
497
330
481
100
AcDbEntity
  8
0
100
AcDbBlockEnd
  0
BLOCK
  5
9A1
330
9A0
100
AcDbEntity
  8
0
 48
0.2
100
AcDbBlockBegin
  2
*D7
 70
     1
 10
0.0
 20
0.0
 30
0.0
  3
*D7
  1

  0
LINE
  5
9A3
330
9A0
100
AcDbEntity
  8
SUNPO
440
 16777216
 48
0.1
370
    -2
100
AcDbLine
 10
444.8687881404648
 20
264.4567167790865
 30
0.0
 11
463.4481777625296
 21
264.4567167790865
 31
0.0
  0
LINE
  5
9A4
330
9A0
100
AcDbEntity
  8
SUNPO
440
 16777216
 48
0.1
370
    -2
100
AcDbLine
 10
444.8687881404648
 20
254.4567167790856
 30
0.0
 11
463.4481777625296
 21
254.4567167790856
 31
0.0
  0
LINE
  5
9A5
330
9A0
100
AcDbEntity
  8
SUNPO
440
 16777216
 48
0.1
100
AcDbLine
 10
461.4481777625297
 20
262.4567167790865
 30
0.0
 11
461.4481777625297
 21
256.4567167790856
 31
0.0
  0
INSERT
  5
9A6
330
9A0
100
AcDbEntity
  8
SUNPO
440
 16777216
 48
0.1
100
AcDbBlockReference
  2
_DOT
 10
461.4481777625297
 20
264.4567167790865
 30
0.0
 41
2.0
 42
2.0
 43
2.0
 50
90.0
  0
INSERT
  5
9A7
330
9A0
100
AcDbEntity
  8
SUNPO
440
 16777216
 48
0.1
100
AcDbBlockReference
  2
_DOT
 10
461.4481777625297
 20
254.4567167790856
 30
0.0
 41
2.0
 42
2.0
 43
2.0
 50
270.0
  0
MTEXT
  5
9A8
330
9A0
100
AcDbEntity
  8
SUNPO
440
 16777216
 48
0.1
100
AcDbMText
 10
456.9481777625296
 20
259.4567167790862
 30
0.0
 40
5.0
 41
0.0
 46
0.0
 71
     5
 72
     1
  1
\A1;10
  7
CAD-DL
 11
0.0000000000000001
 21
1.0
 31
0.0
 73
     1
 44
1.0
  0
POINT
  5
9A9
330
9A0
100
AcDbEntity
  8
DEFPOINTS
 62
     0
440
 16777216
 48
0.1
100
AcDbPoint
 10
442.8687881404648
 20
264.4567167790865
 30
-0.000000000481875
  0
POINT
  5
9AA
330
9A0
100
AcDbEntity
  8
DEFPOINTS
 62
     0
440
 16777216
 48
0.1
100
AcDbPoint
 10
442.8687881404648
 20
254.4567167790856
 30
-0.000000000481875
  0
POINT
  5
9AB
330
9A0
100
AcDbEntity
  8
DEFPOINTS
 62
     0
440
 16777216
 48
0.1
100
AcDbPoint
 10
461.4481777625297
 20
254.4567167790856
 30
0.0
  0
ENDBLK
  5
9A2
330
9A0
100
AcDbEntity
  8
0
 48
0.2
100
AcDbBlockEnd
  0
BLOCK
  5
A57
330
A54
100
AcDbEntity
  8
0
 62
     6
100
AcDbBlockBegin
  2
02水切15S
 70
     0
 10
0.0
 20
0.0
 30
0.0
  3
02水切15S
  1

  0
LINE
  5
A58
330
A54
100
AcDbEntity
  8
YAKUMONO
100
AcDbLine
 10
0.3499999999985448
 20
-26.27299445020799
 30
0.0
 11
0.3499999999985448
 21
26.51232950000031
 31
0.0
  0
LINE
  5
A59
330
A54
100
AcDbEntity
  8
YAKUMONO
100
AcDbLine
 10
0.0
 20
26.51232950000031
 30
0.0
 11
0.0
 21
-26.27299445020799
 31
0.0
  0
ARC
  5
A5A
330
A54
100
AcDbEntity
  8
YAKUMONO
100
AcDbCircle
 10
1.0
 20
26.51232950000031
 30
0.0
 40
1.0
100
AcDbArc
 50
0.0
 51
180.0
  0
LINE
  5
A5B
330
A54
100
AcDbEntity
  8
YAKUMONO
100
AcDbLine
 10
1.0
 20
20.51232950000031
 30
0.0
 11
2.0
 21
26.51232950000031
 31
0.0
  0
LINE
  5
A5C
330
A54
100
AcDbEntity
  8
YAKUMONO
100
AcDbLine
 10
0.659459459458958
 20
20.56908625675624
 30
0.0
 11
1.0
 21
20.51232950000031
 31
0.0
  0
LINE
  5
A5D
330
A54
100
AcDbEntity
  8
YAKUMONO
100
AcDbLine
 10
1.649999999999636
 20
26.51232950000031
 30
0.0
 11
0.659459459458958
 21
20.56908625675624
 31
0.0
  0
ARC
  5
A5E
330
A54
100
AcDbEntity
  8
YAKUMONO
100
AcDbCircle
 10
1.0
 20
26.51232950000031
 30
0.0
 40
0.6500000000000341
100
AcDbArc
 50
0.0
 51
180.0
  0
ARC
  5
A5F
330
A54
100
AcDbEntity
  8
YAKUMONO
100
AcDbCircle
 10
1.849999999998544
 20
-26.27299445020799
 30
0.0
 40
1.500000000000024
100
AcDbArc
 50
180.0
 51
258.0000000000334
  0
LINE
  5
A60
330
A54
100
AcDbEntity
  8
YAKUMONO
100
AcDbLine
 10
24.16186753622606
 20
-32.54903919044227
 30
0.0
 11
1.538132463772853
 21
-27.74021585130868
 31
0.0
  0
LINE
  5
A61
330
A54
100
AcDbEntity
  8
YAKUMONO
100
AcDbLine
 10
1.465363371986313
 20
-28.08256751156477
 30
0.0
 11
24.08909844443952
 21
-32.89139085069928
 31
0.0
  0
ARC
  5
A62
330
A54
100
AcDbEntity
  8
YAKUMONO
100
AcDbCircle
 10
1.849999999998544
 20
-26.27299445020799
 30
0.0
 40
1.850000000000051
100
AcDbArc
 50
180.0
 51
258.0000000000334
  0
ARC
  5
A63
330
A54
100
AcDbEntity
  8
YAKUMONO
100
AcDbCircle
 10
23.84999999999855
 20
-34.01626059154296
 30
0.0
 40
1.500000000000014
100
AcDbArc
 50
0.0
 51
78.00000000003342
  0
LINE
  5
A64
330
A54
100
AcDbEntity
  8
YAKUMONO
100
AcDbLine
 10
25.35000000000037
 20
-60.84674648248892
 30
0.0
 11
25.34999999999854
 21
-34.01626059154296
 31
0.0
  0
LINE
  5
A65
330
A54
100
AcDbEntity
  8
YAKUMONO
100
AcDbLine
 10
25.0
 20
-34.01626059154296
 30
0.0
 11
25.0
 21
-60.84674648248892
 31
0.0
  0
ARC
  5
A66
330
A54
100
AcDbEntity
  8
YAKUMONO
100
AcDbCircle
 10
23.85000000000037
 20
-34.01626059154296
 30
0.0
 40
1.149999999999996
100
AcDbArc
 50
0.0
 51
78.00000000003342
  0
ARC
  5
A67
330
A54
100
AcDbEntity
  8
YAKUMONO
100
AcDbCircle
 10
23.85000000000037
 20
-60.84674648248892
 30
0.0
 40
1.50000000000001
100
AcDbArc
 50
255.0000000000056
 51
0.0
  0
LINE
  5
A68
330
A54
100
AcDbEntity
  8
YAKUMONO
100
AcDbLine
 10
16.67766191962437
 20
-60.4778385566251
 30
0.0
 11
23.46177143234672
 21
-62.29563522192257
 31
0.0
  0
ARC
  5
A69
330
A54
100
AcDbEntity
  8
YAKUMONO
100
AcDbCircle
 10
17.06589048727983
 20
-59.02894981719146
 30
0.0
 40
1.500000000000027
100
AcDbArc
 50
169.9999999999949
 51
255.0000000000056
  0
LINE
  5
A6A
330
A54
100
AcDbEntity
  8
YAKUMONO
100
AcDbLine
 10
16.58428886495858
 20
-53.1220926174392
 30
0.0
 11
15.5886788577609
 21
-58.76847755069047
 31
0.0
  0
LINE
  5
A6B
330
A54
100
AcDbEntity
  8
YAKUMONO
100
AcDbLine
 10
16.92897157851257
 20
-53.18286947962315
 30
0.0
 11
16.58428886495858
 21
-53.1220926174392
 31
0.0
  0
LINE
  5
A6C
330
A54
100
AcDbEntity
  8
YAKUMONO
100
AcDbLine
 10
15.93336157131489
 20
-58.82925441287444
 30
0.0
 11
16.92897157851257
 21
-53.18286947962315
 31
0.0
  0
ARC
  5
A6D
330
A54
100
AcDbEntity
  8
YAKUMONO
100
AcDbCircle
 10
17.06589048727983
 20
-59.02894981719146
 30
0.0
 40
1.149999999999997
100
AcDbArc
 50
169.9999999999949
 51
255.0000000000056
  0
LINE
  5
A6E
330
A54
100
AcDbEntity
  8
YAKUMONO
100
AcDbLine
 10
23.55235809813166
 20
-61.95756118272129
 30
0.0
 11
16.76824858541113
 21
-60.13976451742383
 31
0.0
  0
ARC
  5
A6F
330
A54
100
AcDbEntity
  8
YAKUMONO
100
AcDbCircle
 10
23.85000000000037
 20
-60.84674648248892
 30
0.0
 40
1.149999999999991
100
AcDbArc
 50
255.0000000000056
 51
0.0
  0
ENDBLK
  5
A70
330
A54
100
AcDbEntity
  8
0
 62
     6
100
AcDbBlockEnd
  0
BLOCK
  5
A7E
330
A7D
100
AcDbEntity
  8
0
100
AcDbBlockBegin
  2
平頭L25
 70
     0
 10
0.0
 20
0.0
 30
0.0
  3
平頭L25
  1

  0
LINE
  5
A7F
330
A7D
100
AcDbEntity
  8
BISUKUGI
100
AcDbLine
 10
0.9632929476676963
 20
-23.17446808511795
 30
0.0
 11
0.6236161629306026
 21
-22.97835560201111
 31
0.0
  0
LINE
  5
A80
330
A7D
100
AcDbEntity
  8
BISUKUGI
100
AcDbLine
 10
2.400128945663936
 20
-19.79148936170441
 30
0.0
 11
1.436299158430529
 21
-19.2350219745922
 31
0.0
  0
LINE
  5
A81
330
A7D
100
AcDbEntity
  8
BISUKUGI
100
AcDbLine
 10
1.436299158430529
 20
-19.2350219745922
 30
0.0
 11
-1.436041267098289
 21
-20.36313516994324
 31
0.0
  0
LINE
  5
A82
330
A7D
100
AcDbEntity
  8
BISUKUGI
100
AcDbLine
 10
-1.436041267098289
 20
-20.36313516994324
 30
0.0
 11
-2.399871054335335
 21
-20.91489361701588
 31
0.0
  0
LINE
  5
A83
330
A7D
100
AcDbEntity
  8
BISUKUGI
100
AcDbLine
 10
-2.399871054335335
 20
-20.91489361701588
 30
0.0
 11
-1.436041267098289
 21
-21.47136100413536
 31
0.0
  0
LINE
  5
A84
330
A7D
100
AcDbEntity
  8
BISUKUGI
100
AcDbLine
 10
-1.436041267098289
 20
-21.47136100413536
 30
0.0
 11
1.436299158430529
 21
-20.34324780877705
 31
0.0
  0
LINE
  5
A85
330
A7D
100
AcDbEntity
  8
BISUKUGI
100
AcDbLine
 10
1.436299158430529
 20
-20.34324780877705
 30
0.0
 11
2.400128945663936
 21
-19.79148936170441
 31
0.0
  0
LINE
  5
A86
330
A7D
100
AcDbEntity
  8
BISUKUGI
100
AcDbLine
 10
2.400128945663936
 20
-19.79148936170441
 30
0.0
 11
-2.399871054335335
 21
-20.91489361701588
 31
0.0
  0
LINE
  5
A87
330
A7D
100
AcDbEntity
  8
BISUKUGI
100
AcDbLine
 10
2.400128945663936
 20
-16.47489361702082
 30
0.0
 11
-2.399871054335335
 21
-17.59829787233957
 31
0.0
  0
LINE
  5
A88
330
A7D
100
AcDbEntity
  8
BISUKUGI
100
AcDbLine
 10
1.436299158430529
 20
-17.02665206410074
 30
0.0
 11
2.400128945663936
 21
-16.47489361702082
 31
0.0
  0
LINE
  5
A89
330
A7D
100
AcDbEntity
  8
BISUKUGI
100
AcDbLine
 10
-1.436041267098289
 20
-18.15476525945178
 30
0.0
 11
1.436299158430529
 21
-17.02665206410074
 31
0.0
  0
LINE
  5
A8A
330
A7D
100
AcDbEntity
  8
BISUKUGI
100
AcDbLine
 10
-2.399871054335335
 20
-17.59829787233957
 30
0.0
 11
-1.436041267098289
 21
-18.15476525945178
 31
0.0
  0
LINE
  5
A8B
330
A7D
100
AcDbEntity
  8
BISUKUGI
100
AcDbLine
 10
-1.436041267098289
 20
-17.04653942525965
 30
0.0
 11
-2.399871054335335
 21
-17.59829787233957
 31
0.0
  0
LINE
  5
A8C
330
A7D
100
AcDbEntity
  8
BISUKUGI
100
AcDbLine
 10
1.436299158430529
 20
-15.91842622990862
 30
0.0
 11
-1.436041267098289
 21
-17.04653942525965
 31
0.0
  0
LINE
  5
A8D
330
A7D
100
AcDbEntity
  8
BISUKUGI
100
AcDbLine
 10
2.400128945663936
 20
-16.47489361702082
 30
0.0
 11
1.436299158430529
 21
-15.91842622990862
 31
0.0
  0
LINE
  5
A8E
330
A7D
100
AcDbEntity
  8
BISUKUGI
100
AcDbLine
 10
1.436299158430529
 20
-19.2350219745922
 30
0.0
 11
1.436299158430529
 21
-17.02665206410074
 31
0.0
  0
LINE
  5
A8F
330
A7D
100
AcDbEntity
  8
BISUKUGI
100
AcDbLine
 10
-1.436041267098289
 20
-20.36313516994324
 30
0.0
 11
-1.436041267098289
 21
-18.15476525945178
 31
0.0
  0
LINE
  5
A90
330
A7D
100
AcDbEntity
  8
BISUKUGI
100
AcDbLine
 10
1.436299158430529
 20
-20.34324780877705
 30
0.0
 11
0.6236161629306026
 21
-22.97835560201111
 31
0.0
  0
LINE
  5
A91
330
A7D
100
AcDbEntity
  8
BISUKUGI
100
AcDbLine
 10
-1.710509352237295
 20
-0.5799999999944703
 30
0.0
 11
-1.710509352248209
 21
-4.369333728718629
 31
0.0
  0
LINE
  5
A92
330
A7D
100
AcDbEntity
  8
BISUKUGI
100
AcDbLine
 10
1.710767243504506
 20
-3.753191489377059
 30
0.0
 11
-1.436041267130804
 21
-4.212210462334041
 31
0.0
  0
LINE
  5
A93
330
A7D
100
AcDbEntity
  8
BISUKUGI
100
AcDbLine
 10
1.436299158398014
 20
-4.828706952874199
 30
0.0
 11
1.436299158398014
 21
-5.968638995894252
 31
0.0
  0
LINE
  5
A94
330
A7D
100
AcDbEntity
  8
BISUKUGI
100
AcDbLine
 10
1.710767243500868
 20
-3.75319148939161
 30
0.0
 11
1.436299158398014
 21
-4.828706952874199
 31
0.0
  0
LINE
  5
A95
330
A7D
100
AcDbEntity
  8
BISUKUGI
100
AcDbLine
 10
2.400128945631422
 20
-6.52510638300464
 30
0.0
 11
-2.399871054367849
 21
-7.64851063831611
 31
0.0
  0
LINE
  5
A96
330
A7D
100
AcDbEntity
  8
BISUKUGI
100
AcDbLine
 10
1.436299158398014
 20
-7.076864830077283
 30
0.0
 11
2.400128945631422
 21
-6.52510638300464
 31
0.0
  0
LINE
  5
A97
330
A7D
100
AcDbEntity
  8
BISUKUGI
100
AcDbLine
 10
-1.436041267130804
 20
-8.204978025435593
 30
0.0
 11
1.436299158398014
 21
-7.076864830077283
 31
0.0
  0
LINE
  5
A98
330
A7D
100
AcDbEntity
  8
BISUKUGI
100
AcDbLine
 10
-2.399871054367849
 20
-7.64851063831611
 30
0.0
 11
-1.436041267130804
 21
-8.204978025435593
 31
0.0
  0
LINE
  5
A99
330
A7D
100
AcDbEntity
  8
BISUKUGI
100
AcDbLine
 10
-1.436041267130804
 20
-7.096752191243467
 30
0.0
 11
-2.399871054367849
 21
-7.64851063831611
 31
0.0
  0
LINE
  5
A9A
330
A7D
100
AcDbEntity
  8
BISUKUGI
100
AcDbLine
 10
1.436299158398014
 20
-5.968638995892433
 30
0.0
 11
-1.436041267130804
 21
-7.096752191243467
 31
0.0
  0
LINE
  5
A9B
330
A7D
100
AcDbEntity
  8
BISUKUGI
100
AcDbLine
 10
2.400128945631422
 20
-6.52510638300464
 30
0.0
 11
1.436299158398014
 21
-5.968638995892433
 31
0.0
  0
LINE
  5
A9C
330
A7D
100
AcDbEntity
  8
BISUKUGI
100
AcDbLine
 10
-1.436041267130804
 20
-4.828706952874199
 30
0.0
 11
-1.972211479901034
 21
-4.51914893619687
 31
0.0
  0
LINE
  5
A9D
330
A7D
100
AcDbEntity
  8
BISUKUGI
100
AcDbLine
 10
-1.972211479901034
 20
-4.51914893619687
 30
0.0
 11
-1.436041267130804
 21
-4.212210462334041
 31
0.0
  0
LINE
  5
A9E
330
A7D
100
AcDbEntity
  8
BISUKUGI
100
AcDbLine
 10
1.710767243504506
 20
-3.75319148939161
 30
0.0
 11
1.436299158398014
 21
-3.910314755776198
 31
0.0
  0
LINE
  5
A9F
330
A7D
100
AcDbEntity
  8
BISUKUGI
100
AcDbLine
 10
1.436299158398014
 20
-3.910314755776198
 30
0.0
 11
-1.436041267130804
 21
-4.828706952874199
 31
0.0
  0
LINE
  5
AA0
330
A7D
100
AcDbEntity
  8
BISUKUGI
100
AcDbLine
 10
1.710767243500868
 20
-3.75319148939161
 30
0.0
 11
-1.972211479901034
 21
-4.51914893619687
 31
0.0
  0
LINE
  5
AA1
330
A7D
100
AcDbEntity
  8
BISUKUGI
100
AcDbLine
 10
-1.436041267130804
 20
-7.096752191243467
 30
0.0
 11
-1.436041267130804
 21
-4.828706952874199
 31
0.0
  0
LINE
  5
AA2
330
A7D
100
AcDbEntity
  8
BISUKUGI
100
AcDbLine
 10
1.710767243504506
 20
-0.5799999999944703
 30
0.0
 11
1.710767243489954
 21
-3.753191489377059
 31
0.0
  0
LINE
  5
AA3
330
A7D
100
AcDbEntity
  8
BISUKUGI
100
AcDbLine
 10
-1.710509352237295
 20
-0.5799999999944703
 30
0.0
 11
1.710767243504506
 21
-0.5799999999944703
 31
0.0
  0
LINE
  5
AA4
330
A7D
100
AcDbEntity
  8
BISUKUGI
100
AcDbLine
 10
-0.3748271632291562
 20
-23.94042553192321
 30
0.0
 11
0.9632929476676963
 21
-23.17446808511795
 31
0.0
  0
LINE
  5
AA5
330
A7D
100
AcDbEntity
  8
BISUKUGI
100
AcDbLine
 10
0.6236161629306026
 20
-22.97835560201111
 30
0.0
 11
-0.3748271632291562
 21
-23.94042553192321
 31
0.0
  0
LINE
  5
AA6
330
A7D
100
AcDbEntity
  8
BISUKUGI
100
AcDbLine
 10
0.0001289456661198
 20
-24.99999999999909
 30
0.0
 11
-1.436041267098289
 21
-21.44364442809365
 31
0.0
  0
LINE
  5
AA7
330
A7D
100
AcDbEntity
  8
BISUKUGI
100
AcDbLine
 10
0.4773471634682665
 20
-23.45262980551979
 30
0.0
 11
0.0001289456661198
 21
-24.99999999999909
 31
0.0
  0
LINE
  5
AA8
330
A7D
100
AcDbEntity
  8
BISUKUGI
100
AcDbLine
 10
1.436299158430529
 20
-9.285234740556006
 30
0.0
 11
1.436299158430529
 21
-7.07686483006455
 31
0.0
  0
LINE
  5
AA9
330
A7D
100
AcDbEntity
  8
BISUKUGI
100
AcDbLine
 10
2.400128945663936
 20
-13.15829787234452
 30
0.0
 11
1.436299158430529
 21
-12.60183048523231
 31
0.0
  0
LINE
  5
AAA
330
A7D
100
AcDbEntity
  8
BISUKUGI
100
AcDbLine
 10
1.436299158430529
 20
-12.60183048523231
 30
0.0
 11
-1.436041267098289
 21
-13.72994368058334
 31
0.0
  0
LINE
  5
AAB
330
A7D
100
AcDbEntity
  8
BISUKUGI
100
AcDbLine
 10
-1.436041267098289
 20
-13.72994368058334
 30
0.0
 11
-2.399871054335335
 21
-14.28170212766326
 31
0.0
  0
LINE
  5
AAC
330
A7D
100
AcDbEntity
  8
BISUKUGI
100
AcDbLine
 10
-2.399871054335335
 20
-14.28170212766326
 30
0.0
 11
-1.436041267098289
 21
-14.83816951477547
 31
0.0
  0
LINE
  5
AAD
330
A7D
100
AcDbEntity
  8
BISUKUGI
100
AcDbLine
 10
1.436299158430529
 20
-13.71005631942444
 30
0.0
 11
2.400128945663936
 21
-13.15829787234452
 31
0.0
  0
LINE
  5
AAE
330
A7D
100
AcDbEntity
  8
BISUKUGI
100
AcDbLine
 10
2.400128945663936
 20
-13.15829787234452
 30
0.0
 11
-2.399871054335335
 21
-14.28170212766326
 31
0.0
  0
LINE
  5
AAF
330
A7D
100
AcDbEntity
  8
BISUKUGI
100
AcDbLine
 10
2.400128945663936
 20
-9.841702127668213
 30
0.0
 11
1.436299158430529
 21
-9.285234740556006
 31
0.0
  0
LINE
  5
AB0
330
A7D
100
AcDbEntity
  8
BISUKUGI
100
AcDbLine
 10
1.436299158430529
 20
-9.285234740556006
 30
0.0
 11
-1.436041267098289
 21
-10.41334793590704
 31
0.0
  0
LINE
  5
AB1
330
A7D
100
AcDbEntity
  8
BISUKUGI
100
AcDbLine
 10
-1.436041267098289
 20
-10.41334793590704
 30
0.0
 11
-2.399871054335335
 21
-10.96510638298696
 31
0.0
  0
LINE
  5
AB2
330
A7D
100
AcDbEntity
  8
BISUKUGI
100
AcDbLine
 10
-2.399871054335335
 20
-10.96510638298696
 30
0.0
 11
-1.436041267098289
 21
-11.52157377009916
 31
0.0
  0
LINE
  5
AB3
330
A7D
100
AcDbEntity
  8
BISUKUGI
100
AcDbLine
 10
-1.436041267098289
 20
-11.52157377009916
 30
0.0
 11
1.436299158430529
 21
-10.39346057474813
 31
0.0
  0
LINE
  5
AB4
330
A7D
100
AcDbEntity
  8
BISUKUGI
100
AcDbLine
 10
1.436299158430529
 20
-10.39346057474813
 30
0.0
 11
2.400128945663936
 21
-9.841702127668213
 31
0.0
  0
LINE
  5
AB5
330
A7D
100
AcDbEntity
  8
BISUKUGI
100
AcDbLine
 10
2.400128945663936
 20
-9.841702127668213
 30
0.0
 11
-2.399871054335335
 21
-10.96510638298696
 31
0.0
  0
LINE
  5
AB6
330
A7D
100
AcDbEntity
  8
BISUKUGI
100
AcDbLine
 10
1.436299158430529
 20
-15.91842622990862
 30
0.0
 11
1.436299158430529
 21
-13.71005631942444
 31
0.0
  0
LINE
  5
AB7
330
A7D
100
AcDbEntity
  8
BISUKUGI
100
AcDbLine
 10
1.436299158430529
 20
-12.60183048523231
 30
0.0
 11
1.436299158430529
 21
-10.39346057474813
 31
0.0
  0
LINE
  5
AB8
330
A7D
100
AcDbEntity
  8
BISUKUGI
100
AcDbLine
 10
-1.436041267098289
 20
-17.04653942526693
 30
0.0
 11
-1.436041267098289
 21
-14.83816951477547
 31
0.0
  0
LINE
  5
AB9
330
A7D
100
AcDbEntity
  8
BISUKUGI
100
AcDbLine
 10
-1.436041267098289
 20
-13.72994368058334
 30
0.0
 11
-1.436041267098289
 21
-11.52157377009916
 31
0.0
  0
LINE
  5
ABA
330
A7D
100
AcDbEntity
  8
BISUKUGI
100
AcDbLine
 10
-1.436041267098289
 20
-10.41334793590704
 30
0.0
 11
-1.436041267098289
 21
-8.20497802542286
 31
0.0
  0
LINE
  5
ABB
330
A7D
100
AcDbEntity
  8
BISUKUGI
100
AcDbLine
 10
-1.436041267098289
 20
-14.83816951477547
 30
0.0
 11
1.436299158430529
 21
-13.71005631942444
 31
0.0
  0
LINE
  5
ABC
330
A7D
100
AcDbEntity
  8
BISUKUGI
100
AcDbLine
 10
3.750930610636828
 20
1.0
 30
0.0
 11
-3.717969113518165
 21
1.000000000000909
 31
0.0
  0
LINE
  5
ABD
330
A7D
100
AcDbEntity
  8
BISUKUGI
100
AcDbLine
 10
3.750128945633605
 20
0.0
 30
0.0
 11
-3.750128945633605
 21
0.0
 31
0.0
  0
LINE
  5
ABE
330
A7D
100
AcDbEntity
  8
BISUKUGI
100
AcDbLine
 10
-1.710509352237295
 20
-0.5799999999944703
 30
0.0
 11
-2.580509352236276
 21
0.0
 31
0.0
  0
LINE
  5
ABF
330
A7D
100
AcDbEntity
  8
BISUKUGI
100
AcDbLine
 10
1.710767243504506
 20
-0.5799999999944703
 30
0.0
 11
2.580767243503487
 21
0.0
 31
0.0
  0
ARC
  5
AC0
330
A7D
100
AcDbEntity
  8
BISUKUGI
100
AcDbCircle
 10
-3.750128945633605
 20
0.5
 30
0.0
 40
0.5
100
AcDbArc
 50
86.31939162205268
 51
270.0
  0
ARC
  5
AC1
330
A7D
100
AcDbEntity
  8
BISUKUGI
100
AcDbCircle
 10
3.750128945633605
 20
0.5
 30
0.0
 40
0.5
100
AcDbArc
 50
270.0
 51
90.0
  0
ENDBLK
  5
AC2
330
A7D
100
AcDbEntity
  8
0
100
AcDbBlockEnd
  0
ENDSEC
  0
SECTION
  2
ENTITIES
  0
LINE
  5
365
330
1F
100
AcDbEntity
  8
KUTAI
100
AcDbLine
 10
415.0000000000009
 20
62.0
 30
-0.000000000481875
 11
415.0000000000009
 21
244.4999999999991
 31
-0.000000000481875
  0
LINE
  5
366
330
1F
100
AcDbEntity
  8
KUTAI
100
AcDbLine
 10
285.0000000000009
 20
244.5
 30
-0.000000000481875
 11
415.0000000000009
 21
244.4999999999991
 31
-0.000000000481875
  0
DIMENSION
  5
368
330
1F
100
AcDbEntity
  8
SUNPO
 48
0.1
100
AcDbDimension
280
     0
  2
*D7
 10
461.4481777625297
 20
254.4567167790856
 30
0.0
 11
456.9481777625296
 21
259.4567167790862
 31
0.0
 70
    32
 71
     5
 42
10.00000000000094
 73
     0
 74
     0
 75
     0
  3
CAD-DL
100
AcDbAlignedDimension
 13
442.8687881404648
 23
264.4567167790865
 33
-0.000000000481875
 14
442.8687881404648
 24
254.4567167790856
 34
-0.000000000481875
 50
90.0
100
AcDbRotatedDimension
1001
ACAD
1000
DSTYLE
1002
{
1070
   176
1070
   256
1070
   177
1070
   256
1002
}
  0
MTEXT
  5
36A
330
1F
100
AcDbEntity
  8
WAKU
100
AcDbMText
 10
600.0000000000004
 20
32.30107474199576
 30
0.0
 40
5.0
 41
39.99999999999909
 46
0.0
 71
     5
 72
     5
  1
wy034-01-02
  7
WAKU
 73
     1
 44
1.0
  0
LINE
  5
36B
330
1F
100
AcDbEntity
  8
MOJI
100
AcDbLine
 10
450.4262128622804
 20
316.9306215455326
 30
-0.000000000481875
 11
429.0000000000045
 21
279.819332254292
 31
-0.000000000481875
  0
TEXT
  5
36C
330
1F
100
AcDbEntity
  8
MOJI
100
AcDbText
 10
460.4637208880094
 20
314.2300270837441
 30
-0.000000000481875
 40
5.0
  1
スターター15S
  7
CAD-DL
100
AcDbText
  0
LINE
  5
36D
330
1F
100
AcDbEntity
  8
MOJI
100
AcDbLine
 10
450.4262128622804
 20
316.9306215455326
 30
-0.000000000481875
 11
460.4262128622804
 21
316.9306215455326
 31
-0.000000000481875
  0
INSERT
  5
382
330
1F
100
AcDbEntity
  8
YAKUMONO2
 48
0.2
100
AcDbBlockReference
  2
02スターター15S
 10
428.6500000000041
 20
288.5317167790891
 30
-0.000000000481875
  0
LINE
  5
39B
330
1F
100
AcDbEntity
  8
DOUBUTI
100
AcDbLine
 10
410.2000000000052
 20
268.5538887787752
 30
-0.000000000481875
 11
410.2000000000052
 21
552.0
 31
-0.000000000481875
  0
LINE
  5
39C
330
1F
100
AcDbEntity
  8
DOUBUTI
100
AcDbLine
 10
428.2000000000052
 20
268.5538887787752
 30
-0.000000000481875
 11
410.2000000000052
 21
268.5538887787752
 31
-0.000000000481875
  0
LINE
  5
39D
330
1F
100
AcDbEntity
  8
DOUBUTI
100
AcDbLine
 10
428.2000000000043
 20
552.0
 30
-0.000000000481875
 11
428.2000000000052
 21
268.5538887787752
 31
-0.000000000481875
  0
LINE
  5
39E
330
1F
100
AcDbEntity
  8
KUTAI
100
AcDbLine
 10
302.5000000000009
 20
359.5
 30
-0.000000000481875
 11
302.5000000000009
 21
552.0
 31
-0.000000000481875
  0
LINE
  5
39F
330
1F
100
AcDbEntity
  8
BOUSUISI
  6
DASHED2
 62
     1
100
AcDbLine
 10
407.7500000000045
 20
327.98183317122
 30
-0.000000000481875
 11
407.7500000000045
 21
552.0
 31
-0.000000000481875
  0
TEXT
  5
3A0
330
1F
100
AcDbEntity
  8
MOJI
100
AcDbText
 10
465.3837278333203
 20
437.2653186971292
 30
-0.000000000481875
 40
5.0
  1
SF-ガルステージシャイン
  7
CAD-DL
100
AcDbText
  0
LINE
  5
3A1
330
1F
100
AcDbEntity
  8
MOJI
100
AcDbLine
 10
454.1781516141336
 20
439.9241492274759
 30
-0.000000000481875
 11
464.1781516141336
 21
439.9241492274759
 31
-0.000000000481875
  0
LINE
  5
3A2
330
1F
100
AcDbEntity
  8
MOJI
100
AcDbLine
 10
462.1781516141336
 20
493.1661059907155
 30
-0.000000000481875
 11
452.1781516141336
 21
493.1661059907155
 31
-0.000000000481875
  0
LINE
  5
3A3
330
1F
100
AcDbEntity
  8
MOJI
100
AcDbLine
 10
452.1781516141336
 20
493.1661059907155
 30
-0.000000000481875
 11
407.7500000000045
 21
415.9995612979027
 31
-0.000000000481875
  0
TEXT
  5
3A4
330
1F
100
AcDbEntity
  8
MOJI
100
AcDbText
 10
463.6878309103604
 20
490.4793826129016
 30
-0.000000000481875
 40
5.0
  1
透湿防水シート
  7
CAD-DL
100
AcDbText
  0
LINE
  5
3A5
330
1F
100
AcDbEntity
  8
KUTAI
100
AcDbLine
 10
407.5000000000009
 20
359.5
 30
-0.000000000481875
 11
407.5000000000009
 21
552.0
 31
-0.000000000481875
  0
LINE
  5
3A6
330
1F
100
AcDbEntity
  8
MOJI
100
AcDbLine
 10
454.1781516141336
 20
439.9241492274759
 30
-0.000000000481875
 11
437.7950981234362
 21
411.5478681984695
 31
-0.000000000481875
  0
LINE
  5
3A7
330
1F
100
AcDbEntity
  8
BOUSUISI
  6
DASHED2
 62
     1
100
AcDbLine
 10
409.7500000000045
 20
317.077371550844
 30
-0.000000000481875
 11
407.7500000000045
 21
327.9818331712195
 31
-0.000000000481875
  0
LINE
  5
3A9
330
1F
100
AcDbEntity
  8
BOUSUISI
  6
DASHED2
 62
     1
100
AcDbLine
 10
409.7500000000045
 20
288.4036262501595
 30
-0.000000000481875
 11
409.7500000000045
 21
317.0773715508458
 31
-0.000000000481875
  0
LINE
  5
3AB
330
1F
100
AcDbEntity
  8
MOJI
100
AcDbLine
 10
453.0444832299935
 20
392.2255343032775
 30
-0.000000000481875
 11
420.1333994588221
 21
335.2218650794521
 31
-0.000000000481875
  0
LINE
  5
3AE
330
1F
100
AcDbEntity
  8
MOJI
100
AcDbLine
 10
453.0444832299935
 20
392.2255343032775
 30
-0.000000000481875
 11
463.0444832299936
 21
392.2255343032775
 31
-0.000000000481875
  0
TEXT
  5
3AF
330
1F
100
AcDbEntity
  8
MOJI
100
AcDbText
 10
463.5526928853514
 20
389.6151100052776
 30
-0.000000000481875
 40
5.0
  1
胴縁
  7
CAD-DL
100
AcDbText
  0
LINE
  5
3B1
330
1F
100
AcDbEntity
  8
MOJI
100
AcDbLine
 10
294.3801601685091
 20
352.8223025940333
 30
-0.000000000481875
 11
319.1111413390036
 21
309.9869866857134
 31
-0.000000000481875
  0
LINE
  5
3B2
330
1F
100
AcDbEntity
  8
MOJI
100
AcDbLine
 10
284.3801601685091
 20
352.8223025940333
 30
-0.000000000481875
 11
294.3801601685091
 21
352.8223025940333
 31
-0.000000000481875
  0
TEXT
  5
3B3
330
1F
100
AcDbEntity
  8
MOJI
100
AcDbText
 10
271.1286229638727
 20
350.4963731644257
 30
-0.000000000481875
 40
5.0
  1
土台
  7
CAD-DL
100
AcDbText
  0
TEXT
  5
3B6
330
1F
100
AcDbEntity
  8
MOJI
100
AcDbText
 10
246.5227024814494
 20
239.3472278139816
 30
-0.000000000481875
 40
5.0
  1
基礎
  7
CAD-DL
100
AcDbText
  0
LINE
  5
3B7
330
1F
100
AcDbEntity
  8
MOJI
100
AcDbLine
 10
268.373085190201
 20
242.3215332550026
 30
-0.000000000481875
 11
301.8066163974336
 21
184.4129585276423
 31
-0.000000000481875
  0
LINE
  5
3B8
330
1F
100
AcDbEntity
  8
MOJI
100
AcDbLine
 10
258.373085190201
 20
242.3215332550026
 30
-0.000000000481875
 11
268.373085190201
 21
242.3215332550026
 31
-0.000000000481875
  0
LINE
  5
3B9
330
1F
100
AcDbEntity
  8
MOJI
100
AcDbLine
 10
471.9163900751291
 20
217.9421256087353
 30
-0.000000000481875
 11
457.5000000000027
 21
242.9120456805813
 31
-0.000000000481875
  0
LINE
  5
3BA
330
1F
100
AcDbEntity
  8
MOJI
100
AcDbLine
 10
471.9163900751291
 20
217.9421256087353
 30
-0.000000000481875
 11
481.916390075129
 21
217.9421256087353
 31
-0.000000000481875
  0
TEXT
  5
3BB
330
1F
100
AcDbEntity
  8
MOJI
100
AcDbText
 10
482.4495181473548
 20
215.85048908313
 30
-0.000000000481875
 40
5.0
  1
通気水切15
  7
CAD-DL
100
AcDbText
  0
LINE
  5
3BC
330
1F
100
AcDbEntity
  8
BOUSUISI
  6
DASHED2
 62
     1
100
AcDbLine
 10
408.1000000000067
 20
268.5538887787752
 30
-0.000000000481875
 11
408.1000000000067
 21
274.096358449071
 31
-0.000000000481875
  0
LWPOLYLINE
  5
3BF
330
1F
100
AcDbEntity
  8
KUTAI
100
AcDbPolyline
 90
        4
 70
     1
 43
0.0
 38
-0.000000000481875
 10
407.5000000000045
 20
254.5
 10
302.5000000000046
 20
254.5
 10
302.5000000000046
 20
359.5
 10
407.5000000000045
 20
359.5
  0
LINE
  5
3C0
330
1F
100
AcDbEntity
  8
KUTAI
100
AcDbLine
 10
302.5000000000009
 20
359.5
 30
-0.000000000481875
 11
407.5000000000009
 21
254.5
 31
-0.000000000481875
  0
LINE
  5
3C1
330
1F
100
AcDbEntity
  8
KUTAI
100
AcDbLine
 10
407.5000000000009
 20
359.5
 30
-0.000000000481875
 11
302.5000000000009
 21
254.5
 31
-0.000000000481875
  0
LINE
  5
3C2
330
1F
100
AcDbEntity
  8
KUTAI
100
AcDbLine
 10
285.0000000000009
 20
254.5
 30
-0.000000000481875
 11
425.0000000000008
 21
254.5
 31
-0.000000000481875
  0
LINE
  5
3C3
330
1F
100
AcDbEntity
  8
KUTAI
100
AcDbLine
 10
340.3164752422897
 20
244.5
 30
-0.000000000481875
 11
285.0000000000009
 21
189.183524757711
 31
-0.000000000481875
  0
LINE
  5
3C4
330
1F
100
AcDbEntity
  8
KUTAI
100
AcDbLine
 10
333.2454074304226
 20
244.5000000000009
 30
-0.000000000481875
 11
285.0000000000009
 21
196.2545925695758
 31
-0.000000000481875
  0
LINE
  5
3C5
330
1F
100
AcDbEntity
  8
KUTAI
100
AcDbLine
 10
347.3875430541464
 20
244.5000000000009
 30
-0.000000000481875
 11
285.0000000000009
 21
182.1124569458497
 31
-0.000000000481875
  0
LINE
  5
3C6
330
1F
100
AcDbEntity
  8
KUTAI
100
AcDbLine
 10
285.0000000000009
 20
62.0
 30
-0.000000000481875
 11
285.0000000000009
 21
254.5
 31
-0.000000000481875
  0
LINE
  5
3C7
330
1F
100
AcDbEntity
  8
KUTAI
100
AcDbLine
 10
415.0000000000009
 20
170.6911007085327
 30
-0.000000000481875
 11
306.3088992914682
 21
62.0
 31
-0.000000000481875
  0
LINE
  5
3C8
330
1F
100
AcDbEntity
  8
KUTAI
100
AcDbLine
 10
415.0000000000009
 20
184.8332363322679
 30
-0.000000000481875
 11
292.1667636677166
 21
62.0
 31
-0.000000000481875
  0
LINE
  5
3C9
330
1F
100
AcDbEntity
  8
KUTAI
100
AcDbLine
 10
415.0000000000009
 20
177.7621685203912
 30
-0.000000000481875
 11
299.2378314795687
 21
62.0
 31
-0.000000000481875
  0
LINE
  5
3CA
330
1F
100
AcDbEntity
  8
KUTAI
100
AcDbLine
 10
425.0000000000008
 20
62.0
 30
-0.000000000481875
 11
425.0000000000008
 21
254.5
 31
-0.000000000481875
  0
MTEXT
  5
3CC
330
1F
100
AcDbEntity
  8
WAKU
100
AcDbMText
 10
391.073034850192
 20
31.98977854202894
 30
0.0
 40
5.0
 41
190.5002997985425
 46
0.0
 71
     5
 72
     5
  1
SF-ガルステージシャイン　新築\P土台02（通気水切15・スターター15S）
  7
WAKU
 73
     1
 44
1.0
  0
LINE
  5
3EC
330
1F
100
AcDbEntity
  8
WAKU
100
AcDbLine
 10
30.0
 20
41.99999999999909
 30
0.0
 11
810.0
 21
41.99999999999909
 31
0.0
  0
LINE
  5
3ED
330
1F
100
AcDbEntity
  8
WAKU
100
AcDbLine
 10
30.0
 20
21.99999999999909
 30
0.0
 11
810.0
 21
21.99999999999909
 31
0.0
  0
LINE
  5
3EE
330
1F
100
AcDbEntity
  8
WAKU
100
AcDbLine
 10
30.0
 20
571.999999999999
 30
0.0
 11
30.0
 21
21.99999999999909
 31
0.0
  0
LWPOLYLINE
  5
3F1
330
1F
100
AcDbEntity
  8
AM_CL
100
AcDbPolyline
 90
        4
 70
     1
 43
0.0
 10
50.0
 20
551.999999999999
 10
790.0
 20
551.999999999999
 10
790.0
 20
61.99999999999909
 10
50.0
 20
61.99999999999909
  0
LINE
  5
3F2
330
1F
100
AcDbEntity
  8
WAKU
100
AcDbLine
 10
810.0
 20
571.999999999999
 30
0.0
 11
30.0
 21
571.999999999999
 31
0.0
  0
LINE
  5
3F3
330
1F
100
AcDbEntity
  8
WAKU
100
AcDbLine
 10
810.0
 20
21.99999999999909
 30
0.0
 11
810.0
 21
571.999999999999
 31
0.0
  0
LWPOLYLINE
  5
3F4
330
1F
100
AcDbEntity
  8
AM_CL
100
AcDbPolyline
 90
        4
 70
     1
 43
0.0
 10
0.0
 20
-0.0000000000009095
 10
840.0
 20
-0.0000000000009095
 10
840.0
 20
593.999999999999
 10
0.0
 20
593.999999999999
  0
MTEXT
  5
3F5
330
1F
100
AcDbEntity
  8
WAKU
100
AcDbMText
 10
205.0
 20
31.99999999999909
 30
0.0
 40
5.0
 41
128.4454167023495
 46
0.0
 71
     5
 72
     5
  1
アイジーサイディング参考ディテール
  7
WAKU
 73
     1
 44
1.0
  0
LINE
  5
3F6
330
1F
100
AcDbEntity
  8
WAKU
100
AcDbLine
 10
128.0
 20
39.99999999999909
 30
0.0
 11
128.0
 21
23.99999999999909
 31
0.0
  0
LINE
  5
3F7
330
1F
100
AcDbEntity
  8
WAKU
100
AcDbLine
 10
32.0
 20
23.99999999999909
 30
0.0
 11
128.0
 21
23.99999999999909
 31
0.0
  0
LINE
  5
3F8
330
1F
100
AcDbEntity
  8
WAKU
100
AcDbLine
 10
32.0
 20
39.99999999999909
 30
0.0
 11
128.0
 21
39.99999999999909
 31
0.0
  0
LINE
  5
3F9
330
1F
100
AcDbEntity
  8
WAKU
100
AcDbLine
 10
130.0
 20
41.99999999999909
 30
0.0
 11
130.0
 21
21.99999999999909
 31
0.0
  0
MTEXT
  5
3FA
330
1F
100
AcDbEntity
  8
WAKU
100
AcDbMText
 10
80.0
 20
31.99999999999909
 30
0.0
 40
6.0
 41
87.09146927549227
 46
0.0
 71
     5
 72
     5
  1
アイジー工業株式会社
  7
WAKU
 73
     1
 44
1.0
  0
LINE
  5
3FB
330
1F
100
AcDbEntity
  8
WAKU
100
AcDbLine
 10
32.0
 20
39.99999999999909
 30
0.0
 11
32.0
 21
23.99999999999909
 31
0.0
  0
MTEXT
  5
3FC
330
1F
100
AcDbEntity
  8
WAKU
100
AcDbMText
 10
285.0
 20
31.99999999999909
 30
0.0
 40
5.0
 41
6.550809590298342
 46
0.0
 71
     5
 72
     5
  1
名称
  7
WAKU
 73
     1
 44
1.0
  0
LINE
  5
3FD
330
1F
100
AcDbEntity
  8
WAKU
100
AcDbLine
 10
290.0
 20
41.99999999999909
 30
0.0
 11
290.0
 21
21.99999999999909
 31
0.0
  0
LINE
  5
3FE
330
1F
100
AcDbEntity
  8
WAKU
100
AcDbLine
 10
280.0
 20
41.99999999999909
 30
0.0
 11
280.0
 21
21.99999999999909
 31
0.0
  0
LINE
  5
3FF
330
1F
100
AcDbEntity
  8
WAKU
100
AcDbLine
 10
500.0
 20
41.99999999999909
 30
0.0
 11
500.0
 21
21.99999999999909
 31
0.0
  0
LINE
  5
400
330
1F
100
AcDbEntity
  8
WAKU
100
AcDbLine
 10
490.0
 20
21.99999999999909
 30
0.0
 11
490.0
 21
41.99999999999909
 31
0.0
  0
MTEXT
  5
401
330
1F
100
AcDbEntity
  8
WAKU
100
AcDbMText
 10
510.0
 20
31.99999999999909
 30
0.0
 40
5.0
 41
23.63255308467524
 46
0.0
 71
     5
 72
     5
  1
mm
  7
WAKU
 73
     1
 44
1.0
  0
MTEXT
  5
402
330
1F
100
AcDbEntity
  8
WAKU
100
AcDbMText
 10
550.0
 20
31.99999999999909
 30
0.0
 40
5.0
 41
39.84429663475305
 46
0.0
 71
     5
 72
     5
  1
1/2（A3）
  7
WAKU
 73
     1
 44
1.0
  0
LINE
  5
403
330
1F
100
AcDbEntity
  8
WAKU
100
AcDbLine
 10
530.0
 20
41.99999999999909
 30
0.0
 11
530.0
 21
21.99999999999909
 31
0.0
  0
LINE
  5
404
330
1F
100
AcDbEntity
  8
WAKU
100
AcDbLine
 10
520.0
 20
41.99999999999909
 30
0.0
 11
520.0
 21
21.99999999999909
 31
0.0
  0
LINE
  5
405
330
1F
100
AcDbEntity
  8
WAKU
100
AcDbLine
 10
570.0
 20
41.99999999999909
 30
0.0
 11
570.0
 21
21.99999999999909
 31
0.0
  0
LINE
  5
406
330
1F
100
AcDbEntity
  8
WAKU
100
AcDbLine
 10
580.0
 20
41.99999999999909
 30
0.0
 11
580.0
 21
21.99999999999909
 31
0.0
  0
LINE
  5
407
330
1F
100
AcDbEntity
  8
WAKU
  6
DASHED2
 48
0.5
100
AcDbLine
 10
630.0
 20
31.99999999999909
 30
0.0
 11
810.0
 21
31.99999999999909
 31
0.0
  0
LINE
  5
408
330
1F
100
AcDbEntity
  8
WAKU
100
AcDbLine
 10
630.0
 20
41.99999999999909
 30
0.0
 11
630.0
 21
21.99999999999909
 31
0.0
  0
LINE
  5
409
330
1F
100
AcDbEntity
  8
WAKU
100
AcDbLine
 10
620.0
 20
41.99999999999909
 30
0.0
 11
620.0
 21
21.99999999999909
 31
0.0
  0
MTEXT
  5
40A
330
1F
100
AcDbEntity
  8
WAKU
100
AcDbMText
 10
495.0
 20
31.99999999999909
 30
0.0
 40
5.0
 41
6.550809590298342
 46
0.0
 71
     5
 72
     5
  1
単位
  7
WAKU
 73
     1
 44
1.0
  0
MTEXT
  5
40B
330
1F
100
AcDbEntity
  8
WAKU
100
AcDbMText
 10
525.0
 20
31.99999999999909
 30
0.0
 40
5.0
 41
6.550809590298342
 46
0.0
 71
     5
 72
     5
  1
縮尺
  7
WAKU
 73
     1
 44
1.0
  0
MTEXT
  5
40C
330
1F
100
AcDbEntity
  8
WAKU
100
AcDbMText
 10
571.7245952048508
 20
31.99999999999909
 30
0.0
 40
5.0
 41
6.550809590298342
 46
0.0
 71
     4
 72
     5
  1
図番
  7
WAKU
 73
     1
 44
1.0
  0
MTEXT
  5
40D
330
1F
100
AcDbEntity
  8
WAKU
100
AcDbMText
 10
625.0
 20
31.99999999999909
 30
0.0
 40
5.0
 41
6.550809590298342
 46
0.0
 71
     5
 72
     5
  1
特記
  7
WAKU
 73
     1
 44
1.0
  0
INSERT
  5
49E
330
1F
100
AcDbEntity
  8
YAKUMONO
100
AcDbBlockReference
  2
02_通気水切15
 10
407.5000000000045
 20
259.641208590878
 30
-0.000000000481875
  0
INSERT
  5
BB3
330
1F
100
AcDbEntity
  8
0
100
AcDbBlockReference
  2
平頭L25
 10
407.8500000000044
 20
288.6988460908781
 30
-0.000000000481875
 50
270.0
  0
INSERT
  5
BB4
330
1F
100
AcDbEntity
  8
0
100
AcDbBlockReference
  2
平頭L25
 10
429.0000000000095
 20
290.3561559618221
 30
-0.000000000481875
 50
270.0
  0
LINE
  5
BB5
330
1F
100
AcDbEntity
  8
BOUSUISI
  6
DASHED2
 62
     1
100
AcDbLine
 10
409.7500000000045
 20
288.4036262501595
 30
-0.000000000481875
 11
408.1000000000067
 21
274.096358449071
 31
-0.000000000481875
  0
INSERT
  5
BBB
102
{ACAD_REACTORS
330
BE3
102
}
330
1F
100
AcDbEntity
  8
YAKUMONO2
 48
0.2
100
AcDbBlockReference
  2
02スターター15S
 10
428.6500000000041
 20
288.4702725287324
 30
-0.000000000481875
  0
LINE
  5
BBC
102
{ACAD_REACTORS
330
BE3
102
}
330
1F
100
AcDbEntity
  8
SEIHIN
100
AcDbLine
 10
429.4724475931734
 20
552.0000000000001
 30
-0.000000000481875
 11
429.4724475931734
 21
314.5600398026368
 31
-0.000000000481875
  0
LINE
  5
BBD
102
{ACAD_REACTORS
330
BE3
102
}
330
1F
100
AcDbEntity
  8
SEIHIN
100
AcDbLine
 10
429.9754835387716
 20
313.2337296504366
 30
-0.000000000481875
 11
431.9694116475761
 21
310.9832464576562
 31
-0.000000000481875
  0
ARC
  5
BBE
102
{ACAD_REACTORS
330
BE3
102
}
330
1F
100
AcDbEntity
  8
SEIHIN
100
AcDbCircle
 10
431.4724475931736
 20
314.5600398026368
 30
-0.000000000481875
 40
2.000000000000101
100
AcDbArc
 50
180.0
 51
221.5409430554873
  0
LINE
  5
BBF
102
{ACAD_REACTORS
330
BE3
102
}
330
1F
100
AcDbEntity
  8
SEIHIN
100
AcDbLine
 10
433.9024475931737
 20
280.3399663367136
 30
-0.000000000481875
 11
433.9024475931728
 21
271.0952725287326
 31
-0.000000000481875
  0
LINE
  5
BC0
102
{ACAD_REACTORS
330
BE3
102
}
330
1F
100
AcDbEntity
  8
SEIHIN
100
AcDbLine
 10
433.0424475931727
 20
278.3914903113806
 30
-0.000000000481875
 11
433.0424475931727
 21
271.0952725287326
 31
-0.000000000481875
  0
LINE
  5
BC1
102
{ACAD_REACTORS
330
BE3
102
}
330
1F
100
AcDbEntity
  8
SEIHIN
100
AcDbLine
 10
433.0424475931727
 20
278.3914903113806
 30
-0.000000000481875
 11
432.7724475931717
 21
278.3914903113806
 31
-0.000000000481875
  0
LINE
  5
BC2
102
{ACAD_REACTORS
330
BE3
102
}
330
1F
100
AcDbEntity
  8
SEIHIN
100
AcDbLine
 10
432.4724475931743
 20
309.6569363054555
 30
-0.000000000481875
 11
432.4724475931743
 21
279.9146637497343
 31
-0.000000000481875
  0
ARC
  5
BC3
102
{ACAD_REACTORS
330
BE3
102
}
330
1F
100
AcDbEntity
  8
SEIHIN
100
AcDbCircle
 10
430.4724475931741
 20
309.6569363054555
 30
-0.000000000481875
 40
2.000000000000101
100
AcDbArc
 50
0.0
 51
41.54094305548734
  0
ARC
  5
BC4
102
{ACAD_REACTORS
330
BE3
102
}
330
1F
100
AcDbEntity
  8
SEIHIN
100
AcDbCircle
 10
435.7224475931745
 20
280.3399663367135
 30
-0.000000000481875
 40
1.819999999999915
100
AcDbArc
 50
0.0
 51
180.0
  0
LINE
  5
BC5
102
{ACAD_REACTORS
330
BE3
102
}
330
1F
100
AcDbEntity
  8
SEIHIN
100
AcDbLine
 10
437.542447593174
 20
280.3399663367135
 30
-0.000000000481875
 11
437.542447593174
 21
276.3544347412544
 31
-0.000000000481875
  0
LINE
  5
BC6
102
{ACAD_REACTORS
330
BE3
102
}
330
1F
100
AcDbEntity
  8
SEIHIN
100
AcDbLine
 10
434.1724475931727
 20
279.7499663367138
 30
-0.000000000481875
 11
434.1724475931727
 21
279.7499663367138
 31
-0.000000000481875
  0
LINE
  5
BC7
102
{ACAD_REACTORS
330
BE3
102
}
330
1F
100
AcDbEntity
  8
SEIHIN
100
AcDbLine
 10
442.0423943869004
 20
265.6205008078623
 30
-0.000000000481875
 11
442.0423943869004
 21
271.1401200395311
 31
-0.000000000481875
  0
ARC
  5
BC8
102
{ACAD_REACTORS
330
BE3
102
}
330
1F
100
AcDbEntity
  8
SEIHIN
100
AcDbCircle
 10
440.7923943869004
 20
271.1401200395311
 30
-0.000000000481875
 40
1.250000000000063
100
AcDbArc
 50
0.0
 51
38.41552663137594
  0
ARC
  5
BC9
102
{ACAD_REACTORS
330
BE3
102
}
330
1F
100
AcDbEntity
  8
SEIHIN
100
AcDbCircle
 10
442.7923943869009
 20
265.6205008078623
 30
-0.000000000481875
 40
0.7500000000000381
100
AcDbArc
 50
180.0
 51
343.8278409842011
  0
LINE
  5
BCA
102
{ACAD_REACTORS
330
BE3
102
}
330
1F
100
AcDbEntity
  8
SEIHIN
100
AcDbLine
 10
444.2024475931734
 20
552.0
 30
-0.000000000481875
 11
444.2024475931734
 21
267.7899914432446
 31
-0.000000000481875
  0
LINE
  5
BCB
102
{ACAD_REACTORS
330
BE3
102
}
330
1F
100
AcDbEntity
  8
SEIHIN
100
AcDbLine
 10
444.4724475931733
 20
552.0
 30
-0.000000000481875
 11
444.4724475931734
 21
267.740265821611
 31
-0.000000000481875
  0
LINE
  5
BCC
102
{ACAD_REACTORS
330
BE3
102
}
330
1F
100
AcDbEntity
  8
SEIHIN
100
AcDbLine
 10
444.4724475931734
 20
267.740265821611
 30
-0.000000000481875
 11
443.7328767319522
 21
265.1900214725728
 31
-0.000000000481875
  0
ARC
  5
BCD
102
{ACAD_REACTORS
330
BE3
102
}
330
1F
100
AcDbEntity
  8
SEIHIN
100
AcDbCircle
 10
442.7724475931727
 20
265.4685459228194
 30
-0.000000000481875
 40
1.000000000000031
100
AcDbArc
 50
180.0
 51
343.8278409842011
  0
LINE
  5
BCE
102
{ACAD_REACTORS
330
BE3
102
}
330
1F
100
AcDbEntity
  8
SEIHIN
100
AcDbLine
 10
441.7724475931732
 20
265.4685459228194
 30
-0.000000000481875
 11
441.7724475931732
 21
271.1339050328287
 31
-0.000000000481875
  0
ARC
  5
BCF
102
{ACAD_REACTORS
330
BE3
102
}
330
1F
100
AcDbEntity
  8
SEIHIN
100
AcDbCircle
 10
440.7724475931736
 20
271.1339050328292
 30
-0.000000000481875
 40
1.00000000000005
100
AcDbArc
 50
0.0
 51
38.41552663137594
  0
LINE
  5
BD0
102
{ACAD_REACTORS
330
BE3
102
}
330
1F
100
AcDbEntity
  8
SEIHIN
100
AcDbLine
 10
441.5559726963675
 20
271.7552651640453
 30
-0.000000000481875
 11
437.5745530097801
 21
275.6349207200096
 31
-0.000000000481875
  0
ARC
  5
BD1
102
{ACAD_REACTORS
330
BE3
102
}
330
1F
100
AcDbEntity
  8
SEIHIN
100
AcDbCircle
 10
438.272447593175
 20
276.3511212160087
 30
-0.000000000481875
 40
1.00000000000005
100
AcDbArc
 50
180.0
 51
225.7416707435653
  0
LINE
  5
BD2
102
{ACAD_REACTORS
330
BE3
102
}
330
1F
100
AcDbEntity
  8
SEIHIN
100
AcDbLine
 10
437.272447593174
 20
276.3511212160087
 30
-0.000000000481875
 11
437.272447593174
 21
280.3399663367135
 31
-0.000000000481875
  0
ARC
  5
BD3
102
{ACAD_REACTORS
330
BE3
102
}
330
1F
100
AcDbEntity
  8
SEIHIN
100
AcDbCircle
 10
435.7224475931745
 20
280.3399663367135
 30
-0.000000000481875
 40
1.550000000000033
100
AcDbArc
 50
0.0
 51
180.0
  0
LINE
  5
BD4
102
{ACAD_REACTORS
330
BE3
102
}
330
1F
100
AcDbEntity
  8
SEIHIN
100
AcDbLine
 10
434.1724475931737
 20
280.3399663367135
 30
-0.000000000481875
 11
434.1724475931727
 21
278.7999663367136
 31
-0.000000000481875
  0
LINE
  5
BD5
102
{ACAD_REACTORS
330
BE3
102
}
330
1F
100
AcDbEntity
  8
SEIHIN
100
AcDbLine
 10
434.1724475931727
 20
278.7999663367136
 30
-0.000000000481875
 11
434.1724475931727
 21
271.0952725287324
 31
-0.000000000481875
  0
ARC
  5
BD6
102
{ACAD_REACTORS
330
BE3
102
}
330
1F
100
AcDbEntity
  8
SEIHIN
100
AcDbCircle
 10
433.4724475931725
 20
271.0952725287326
 30
-0.000000000481875
 40
0.7000000000003083
100
AcDbArc
 50
180.0
 51
0.0
  0
LINE
  5
BD7
102
{ACAD_REACTORS
330
BE3
102
}
330
1F
100
AcDbEntity
  8
SEIHIN
100
AcDbLine
 10
432.7724475931717
 20
271.0952725287326
 30
-0.000000000481875
 11
432.7724475931717
 21
278.3914903113806
 31
-0.000000000481875
  0
LINE
  5
BD8
102
{ACAD_REACTORS
330
BE3
102
}
330
1F
100
AcDbEntity
  8
SEIHIN
100
AcDbLine
 10
444.2024475931734
 20
267.7899914432446
 30
-0.000000000481875
 11
443.5127162409848
 21
265.4116074701778
 31
-0.000000000481875
  0
LINE
  5
BD9
102
{ACAD_REACTORS
330
BE3
102
}
330
1F
100
AcDbEntity
  8
SEIHIN
100
AcDbLine
 10
433.4724475931725
 20
271.0952725287326
 30
-0.000000000481875
 11
433.4724475931725
 21
277.3914903113805
 31
-0.000000000481875
  0
LINE
  5
BDA
102
{ACAD_REACTORS
330
BE3
102
}
330
1F
100
AcDbEntity
  8
SEIHIN
100
AcDbLine
 10
432.4724475931743
 20
279.9146637497343
 30
-0.000000000481875
 11
433.4724475931725
 21
277.3914903113805
 31
-0.000000000481875
  0
ARC
  5
BDB
102
{ACAD_REACTORS
330
BE3
102
}
330
1F
100
AcDbEntity
  8
SEIHIN
100
AcDbCircle
 10
433.4724475931725
 20
271.0952725287326
 30
-0.000000000481875
 40
0.4299999999998581
100
AcDbArc
 50
180.0
 51
0.0
  0
LINE
  5
BDC
102
{ACAD_REACTORS
330
BE3
102
}
330
1F
100
AcDbEntity
  8
SEIHIN
100
AcDbLine
 10
441.7718007658931
 20
271.9168202035516
 30
-0.000000000481875
 11
437.7690266556287
 21
275.817284369255
 31
-0.000000000481875
  0
ARC
  5
BDD
102
{ACAD_REACTORS
330
BE3
102
}
330
1F
100
AcDbEntity
  8
SEIHIN
100
AcDbCircle
 10
438.2924475931745
 20
276.3544347412544
 30
-0.000000000481875
 40
0.7500000000000381
100
AcDbArc
 50
180.0
 51
225.7416707435653
  0
ARC
  5
BDE
102
{ACAD_REACTORS
330
BE3
102
}
330
1F
100
AcDbEntity
  8
SEIHIN
100
AcDbCircle
 10
435.7224475931734
 20
280.3399663367135
 30
-0.000000000481875
 40
1.549999999999919
100
AcDbArc
 50
0.0
 51
179.9999999999479
  0
ARC
  5
BDF
102
{ACAD_REACTORS
330
BE3
102
}
330
1F
100
AcDbEntity
  8
SEIHIN
100
AcDbCircle
 10
435.7224475931732
 20
279.3899663367138
 30
-0.000000000481875
 40
1.549999999999727
100
AcDbArc
 50
180.0000000000569
 51
254.1841252979117
  0
ARC
  5
BE0
102
{ACAD_REACTORS
330
BE3
102
}
330
1F
100
AcDbEntity
  8
SEIHIN
100
AcDbCircle
 10
435.7224475931732
 20
279.3899663367138
 30
-0.000000000481875
 40
1.549999999999727
100
AcDbArc
 50
331.9966247145312
 51
359.9999999999625
  0
LINE
  5
BE1
102
{ACAD_REACTORS
330
BE3
102
}
330
1F
100
AcDbEntity
  8
SEIHIN
100
AcDbLine
 10
437.2724475931732
 20
280.339966336714
 30
-0.000000000481875
 11
437.2724475931732
 21
279.3899663367128
 31
-0.000000000481875
  0
LINE
  5
BE2
102
{ACAD_REACTORS
330
BE3
102
}
330
1F
100
AcDbEntity
  8
SEIHIN
100
AcDbLine
 10
434.1724475931737
 20
280.3399663367135
 30
-0.000000000481875
 11
434.1724475931737
 21
279.3899663367119
 31
-0.000000000481875
  0
VIEWPORT
  5
17C
330
23
100
AcDbEntity
 67
     1
  8
0
100
AcDbViewport
 10
133.3499908447265
 20
101.5999970436096
 30
0.0
 40
370.2266912936524
 41
228.4221935424805
 68
     1
 69
     1
 12
133.3499908447265
 22
101.5999970436096
 13
0.0
 23
0.0
 14
10.0
 24
10.0
 15
10.0
 25
10.0
 16
0.0
 26
0.0
 36
1.0
 17
0.0
 27
0.0
 37
0.0
 42
50.0
 43
0.0
 44
0.0
 45
228.4221935424805
 50
0.0
 51
0.0
 72
   100
 90
    32800
  1

281
     0
 71
     1
 74
     0
110
0.0
120
0.0
130
0.0
111
1.0
121
0.0
131
0.0
112
0.0
122
1.0
132
0.0
 79
     0
146
0.0
170
     0
 61
     5
348
60F
292
     1
282
     1
141
0.0
142
0.0
 63
   250
421
  3355443
  0
ENDSEC
  0
SECTION
  2
OBJECTS
  0
DICTIONARY
  5
C
330
0
100
AcDbDictionary
281
     1
  3
ACAD_CIP_PREVIOUS_PRODUCT_INFO
350
646
  3
ACAD_COLOR
350
BE
  3
ACAD_DETAILVIEWSTYLE
350
63A
  3
ACAD_GROUP
350
D
  3
ACAD_LAYOUT
350
1A
  3
ACAD_MATERIAL
350
BD
  3
ACAD_MLEADERSTYLE
350
636
  3
ACAD_MLINESTYLE
350
17
  3
ACAD_PLOTSETTINGS
350
19
  3
ACAD_PLOTSTYLENAME
350
E
  3
ACAD_SCALELIST
350
624
  3
ACAD_SECTIONVIEWSTYLE
350
638
  3
ACAD_TABLESTYLE
350
622
  3
ACAD_VISUALSTYLE
350
609
  3
AcAmCatalogState
350
10E
  3
ACDB_RECOMPOSE_DATA
350
C3A
  3
AcDbVariableDictionary
350
94
  3
ACDMSYSVARMGR
350
D0
  3
AcDsDecomposeData
350
C40
  3
ACGREF_MASTER
350
55
  3
ACGREFACAD_MASTER
350
59
  3
AcmDictionary
350
5B
  3
ACME_BOM_MANAGER_NAME
350
4E
  3
ACME_COMMAND_HISTORY
350
49
  3
ACME_SCOPE_NAME
350
48
  3
ACMESTATEMGR
350
53
  3
AcmeSysVarManager
350
4A
  3
AcmSystemVariableManager
350
5F
  3
AD_APPL
350
FA
  3
ADSYSVARMGR
350
F9
  3
AmdtNamedDwgMgr
350
ED
  3
AMG
350
41
  3
AMGSNAPSETTINGS
350
35D
  3
AMI_MASTER
350
5A
  3
ASE_INDEX_DICTIONARY
350
47C
  3
AUTOCAD_ASSEMBLIES_PROJECT
350
102
  3
Designer_Assemblies_SysVars
350
FD
  3
GREFAM_MODULE
350
F3
  0
DICTIONARY
  5
6D1
330
8
100
AcDbDictionary
280
     1
281
     1
  0
DICTIONARY
  5
2EB
330
2
100
AcDbDictionary
280
     1
281
     1
  3
ACAD_LAYERSTATES
360
2EC
  0
DICTIONARY
  5
64A
330
10
100
AcDbDictionary
280
     1
281
     1
  3
ADSK_XREC_LAYER_RECONCILED
360
64B
  0
DICTIONARY
  5
64C
330
2C1
100
AcDbDictionary
280
     1
281
     1
  3
ADSK_XREC_LAYER_RECONCILED
360
64D
  0
DICTIONARY
  5
64E
330
2C2
100
AcDbDictionary
280
     1
281
     1
  3
ADSK_XREC_LAYER_RECONCILED
360
64F
  0
DICTIONARY
  5
650
330
2C8
100
AcDbDictionary
280
     1
281
     1
  3
ADSK_XREC_LAYER_RECONCILED
360
651
  0
DICTIONARY
  5
652
330
2CB
100
AcDbDictionary
280
     1
281
     1
  3
ADSK_XREC_LAYER_RECONCILED
360
653
  0
DICTIONARY
  5
654
330
2CE
100
AcDbDictionary
280
     1
281
     1
  3
ADSK_XREC_LAYER_RECONCILED
360
655
  0
DICTIONARY
  5
656
330
2D1
100
AcDbDictionary
280
     1
281
     1
  3
ADSK_XREC_LAYER_RECONCILED
360
657
  0
DICTIONARY
  5
658
330
2D4
100
AcDbDictionary
280
     1
281
     1
  3
ADSK_XREC_LAYER_RECONCILED
360
659
  0
DICTIONARY
  5
65A
330
2D7
100
AcDbDictionary
280
     1
281
     1
  3
ADSK_XREC_LAYER_RECONCILED
360
65B
  0
DICTIONARY
  5
65C
330
2DA
100
AcDbDictionary
280
     1
281
     1
  3
ADSK_XREC_LAYER_RECONCILED
360
65D
  0
DICTIONARY
  5
65E
330
2DD
100
AcDbDictionary
280
     1
281
     1
  3
ADSK_XREC_LAYER_RECONCILED
360
65F
  0
DICTIONARY
  5
660
330
2E0
100
AcDbDictionary
280
     1
281
     1
  3
ADSK_XREC_LAYER_RECONCILED
360
661
  0
DICTIONARY
  5
AC4
330
AC3
100
AcDbDictionary
280
     1
281
     1
  0
DICTIONARY
  5
8F
330
1F
100
AcDbDictionary
280
     1
281
     1
  3
ACAD_INDEX
360
90
  3
ACAD_SORTENTS
360
9B5
  0
DICTIONARY
  5
208
330
207
100
AcDbDictionary
280
     1
281
     1
  3
ACAD_SORTENTS
360
566
  0
DICTIONARY
  5
271
330
270
100
AcDbDictionary
280
     1
281
     1
  3
ACAD_SORTENTS
360
5AF
  0
DICTIONARY
  5
A55
330
A54
100
AcDbDictionary
280
     1
281
     1
  3
ACAD_SORTENTS
360
A56
  0
XRECORD
  5
646
102
{ACAD_REACTORS
330
C
102
}
330
C
100
AcDbXrecord
280
     1
300
ACD
300
2022
300

  0
DICTIONARY
  5
BE
102
{ACAD_REACTORS
330
C
102
}
330
C
100
AcDbDictionary
281
     1
  0
DICTIONARY
  5
63A
102
{ACAD_REACTORS
330
C
102
}
330
C
100
AcDbDictionary
281
     1
  3
Metric50
350
63B
  0
DICTIONARY
  5
D
102
{ACAD_REACTORS
330
C
102
}
330
C
100
AcDbDictionary
281
     1
  3
*A1
350
BE3
  0
DICTIONARY
  5
1A
102
{ACAD_REACTORS
330
C
102
}
330
C
100
AcDbDictionary
281
     1
  3
Model
350
22
  3
レイアウト1
350
1E
  3
レイアウト2
350
26
  0
DICTIONARY
  5
BD
102
{ACAD_REACTORS
330
C
102
}
330
C
100
AcDbDictionary
281
     1
  3
ByBlock
350
601
  3
ByLayer
350
5F9
  3
Global
350
2E8
  0
DICTIONARY
  5
636
102
{ACAD_REACTORS
330
C
102
}
330
C
100
AcDbDictionary
281
     1
  3
Standard
350
637
  0
DICTIONARY
  5
17
102
{ACAD_REACTORS
330
C
102
}
330
C
100
AcDbDictionary
281
     1
  3
Standard
350
18
  0
DICTIONARY
  5
19
102
{ACAD_REACTORS
330
C
102
}
330
C
100
AcDbDictionary
281
     1
  0
ACDBDICTIONARYWDFLT
  5
E
102
{ACAD_REACTORS
330
C
102
}
330
C
100
AcDbDictionary
281
     1
  3
Normal
350
F
  3
スタイル 1
350
2E7
100
AcDbDictionaryWithDefault
340
F
  0
DICTIONARY
  5
624
102
{ACAD_REACTORS
330
C
102
}
330
C
100
AcDbDictionary
281
     1
  3
A0
350
625
  3
A1
350
626
  3
A2
350
627
  3
A3
350
628
  3
A4
350
629
  3
A5
350
62A
  3
A6
350
62B
  3
A7
350
62C
  3
A8
350
62D
  3
A9
350
62E
  3
B0
350
62F
  3
B1
350
630
  3
B2
350
631
  3
B3
350
632
  3
B4
350
633
  3
B5
350
634
  3
B6
350
635
  0
DICTIONARY
  5
638
102
{ACAD_REACTORS
330
C
102
}
330
C
100
AcDbDictionary
281
     1
  3
Metric50
350
639
  0
DICTIONARY
  5
622
102
{ACAD_REACTORS
330
C
102
}
330
C
100
AcDbDictionary
281
     1
  3
Standard
350
623
  0
DICTIONARY
  5
609
102
{ACAD_REACTORS
330
C
102
}
330
C
100
AcDbDictionary
281
     1
  3
2dWireframe
350
60F
  3
Basic
350
60E
  3
Brighten
350
615
  3
ColorChange
350
619
  3
Conceptual
350
612
  3
Dim
350
614
  3
EdgeColorOff
350
621
  3
Facepattern
350
618
  3
Flat
350
60A
  3
FlatWithEdges
350
60B
  3
Gouraud
350
60C
  3
GouraudWithEdges
350
60D
  3
Hidden
350
611
  3
JitterOff
350
61F
  3
Linepattern
350
617
  3
OverhangOff
350
620
  3
Realistic
350
613
  3
Shaded
350
61E
  3
Shaded with edges
350
61D
  3
Shades of Gray
350
61A
  3
Sketchy
350
61B
  3
Thicken
350
616
  3
Wireframe
350
610
  3
X-Ray
350
61C
  0
ACAD_PROXY_OBJECT
  5
10E
102
{ACAD_REACTORS
330
C
102
}
330
C
100
AcDbProxyObject
 90
      499
 91
      568
 95
  6815769
 70
     0
161
               632
310
3FFFFFFFE00A02814029B219D2E283937B3B930B6902334B632B9AE20BABA37B232B9B5AE20B1B0B2369B971817199C971C2E20B1B0B236AE2A32B6B83630BA32C0081014020800BEC04A408FEFD083E
 94
        0
1001
ACAD
1000
AcRTDxfName
1000
CATALOGSTATE
1000
AcRTDxfName
1000
CATALOGSTATE
  0
XRECORD
  5
C3A
102
{ACAD_REACTORS
330
C
102
}
330
C
100
AcDbXrecord
280
     1
 90
        1
330
623
  0
DICTIONARY
  5
94
102
{ACAD_REACTORS
330
C
102
}
330
C
100
AcDbDictionary
281
     1
  3
CANNOSCALE
350
6B5
  3
CMLEADERSTYLE
350
6B1
  3
CTABLESTYLE
350
6B0
  3
CVIEWDETAILSTYLE
350
6B2
  3
CVIEWSECTIONSTYLE
350
6B3
  3
DIMASSOC
350
96
  3
INDEXCTL
350
95
  3
LAYEREVAL
350
6B7
  3
LAYERNOTIFY
350
6B8
  3
LIGHTINGUNITS
350
6B6
  3
MSLTSCALE
350
6B4
  3
SORTENTS
350
717
  0
ACAD_PROXY_OBJECT
  5
D0
102
{ACAD_REACTORS
330
C
102
}
330
C
100
AcDbProxyObject
 90
      499
 91
      507
 95
  6815769
 70
     0
161
               240
310
4C51A47A000000000000000000000000000000000000000000000000000000
330
D1
330
D2
330
D3
330
D4
330
D5
330
D6
330
D7
330
DA
330
DB
330
DC
330
DD
330
DE
330
DF
330
E0
330
E1
330
E2
330
E3
330
E4
330
E5
330
E6
330
E7
330
E8
330
E9
330
EA
330
EB
330
EC
 94
        0
1001
ACAD
1000
AcRTDxfName
1000
ACIMSYSVARMAN
1000
AcRTDxfName
1000
ACIMSYSVARMAN
1001
AcadCodePageInfo
1000
CodePage
1070
    38
  0
DICTIONARY
  5
C40
102
{ACAD_REACTORS
330
C
102
}
330
C
100
AcDbDictionary
281
     1
  3
AcDsRecords
350
C42
  3
AcDsSchemas
350
C41
1001
ACAD
1070
     2
  0
ACAD_PROXY_OBJECT
  5
55
102
{ACAD_REACTORS
330
C
102
}
330
C
100
AcDbProxyObject
 90
      499
 91
      516
 95
  6815769
 70
     0
161
                34
310
040000428C
 94
        0
1001
ACAD
1000
AcRTDxfName
1000
ACGREFMASTER
1000
AcRTDxfName
1000
ACGREFMASTER
  0
ACAD_PROXY_OBJECT
  5
59
102
{ACAD_REACTORS
330
C
102
}
330
C
100
AcDbProxyObject
 90
      499
 91
      519
 95
  6815769
 70
     0
161
               114
310
04000041C08000000000000000000C
 94
        0
1001
ACAD
1000
AcRTDxfName
1000
ACGREFACADMASTER
1000
AcRTDxfName
1000
ACGREFACADMASTER
  0
DICTIONARY
  5
5B
102
{ACAD_REACTORS
330
C
102
}
330
C
100
AcDbDictionary
281
     1
  3
AcmBOMDATA
350
5C
  3
AcmStdDictionary
350
61
  0
ACAD_PROXY_OBJECT
  5
4E
102
{ACAD_REACTORS
330
C
102
}
330
C
100
AcDbProxyObject
 90
      499
 91
      510
 95
  6815769
 70
     0
161
                50
310
0001004040000C
330
0
330
0
330
4F
 94
        0
1001
ACAD
1000
AcRTDxfName
1000
ACMEDRAWINGMAN
1000
AcRTDxfName
1000
ACMEDRAWINGMAN
  0
ACAD_PROXY_OBJECT
  5
49
102
{ACAD_REACTORS
330
C
102
}
330
C
100
AcDbProxyObject
 90
      499
 91
      506
 95
  6815769
 70
     0
161
              3666
310
4780504554E444F805075245464544495480508524546434C4F5345805045A4F4F4D404052E4D5347202D205050413A2020206465736B746F702E6172782046696C6556657273696F6E3A20372E302E34332E35014390535115149154D15511109353D1102014213880B4815539113C05084E202D20554E444F01411553911
310
3E014115539113E014115539113E014115539113E014151549054D160142505497D310565053D3A014151549054D1601415310565154A01411353D5916014055501014B9354D1C80B481414104E88080819195CDADD1BDC0B985C9E08119A5B1955995C9CDA5BDB8E880DCB8C0B8D0CCB8D4050E414D445452455345544442
310
4D4F4440805084E202D20554E444F014213880B4815539113C0504554E444F80504554E444F80504554E444F80504554E444F805045A4F4F4D8050653454C4543548050545524153458050653454C4543548050545524153458050653454C4543548050545524153458050653454C45435440405184D5347202D20436F6D6D
310
616E642043414E43454C4C45442E01411693D3D3601415454D05591501014B9354D1C80B481414104E88080819195CDADD1BDC0B985C9E08119A5B1955995C9CDA5BDB8E880DCB8C0B8D0CCB8D4C
 94
        0
1001
ACAD
1000
AcRTDxfName
1000
ACMECOMMANDHISTORY
1000
AcRTDxfName
1000
ACMECOMMANDHISTORY
  0
ACAD_PROXY_OBJECT
  5
48
102
{ACAD_REACTORS
330
C
102
}
330
C
100
AcDbProxyObject
 90
      499
 91
      505
 95
  6815769
 70
     0
161
               586
310
07000045008000000000000000001344E200000000000000000000000000000000000000000000000000000000000000000000000000000000000000000000000000000000AAA406AA8C
360
4B
360
4C
360
4D
360
4F
360
60
360
C9
360
CA
360
CB
360
CC
360
CD
360
CE
360
D1
360
D2
360
D3
360
D4
360
D5
360
D6
360
D7
360
DA
360
DB
360
DC
360
DD
360
DE
360
DF
360
E0
360
E1
360
E2
360
E3
360
E4
360
E5
360
E6
360
E7
360
E8
360
E9
360
EA
360
EB
360
EC
360
F5
360
F6
360
F7
360
F8
360
FE
360
FF
360
100
360
101
360
106
360
107
360
108
360
109
360
10A
360
10B
360
3EB
 94
        0
1001
ACAD
1000
AcRTDxfName
1000
ACMESCOPE
1000
AcRTDxfName
1000
ACMESCOPE
  0
ACAD_PROXY_OBJECT
  5
53
102
{ACAD_REACTORS
330
C
102
}
330
C
100
AcDbProxyObject
 90
      499
 91
      515
 95
  6815769
 70
     0
161
                50
310
07000041A4128C
 94
        0
1001
ACAD
1000
AcRTDxfName
1000
ACMESTATEMGR
1000
AcRTDxfName
1000
ACMESTATEMGR
  0
ACAD_PROXY_OBJECT
  5
4A
102
{ACAD_REACTORS
330
C
102
}
330
C
100
AcDbProxyObject
 90
      499
 91
      507
 95
  6815769
 70
     0
161
                48
310
90341200000000
330
4B
330
4C
330
4D
 94
        0
1001
ACAD
1000
AcRTDxfName
1000
ACIMSYSVARMAN
1000
AcRTDxfName
1000
ACIMSYSVARMAN
  0
ACAD_PROXY_OBJECT
  5
5F
102
{ACAD_REACTORS
330
C
102
}
330
C
100
AcDbProxyObject
 90
      499
 91
      507
 95
  6815769
 70
     0
161
                32
310
90140A0000
330
60
 94
        0
1001
ACAD
1000
AcRTDxfName
1000
ACIMSYSVARMAN
1000
AcRTDxfName
1000
ACIMSYSVARMAN
1001
AcadCodePageInfo
1000
CodePage
1070
    38
  0
ACAD_PROXY_OBJECT
  5
FA
102
{ACAD_REACTORS
330
C
102
}
330
C
100
AcDbProxyObject
 90
      499
 91
      557
 95
  6815769
 70
     0
161
                42
310
00070000414C
330
F5
 94
        0
1001
ACAD
1000
AcRTDxfName
1000
NAMEDAPPL
1000
AcRTDxfName
1000
NAMEDAPPL
  0
ACAD_PROXY_OBJECT
  5
F9
102
{ACAD_REACTORS
330
C
102
}
330
C
100
AcDbProxyObject
 90
      499
 91
      507
 95
  6815769
 70
     0
161
                 8
310
AA00
 94
        0
1001
ACAD
1000
AcRTDxfName
1000
ACIMSYSVARMAN
1000
AcRTDxfName
1000
ACIMSYSVARMAN
1001
AcadCodePageInfo
1000
CodePage
1070
    38
  0
ACAD_PROXY_OBJECT
  5
ED
102
{ACAD_REACTORS
330
C
102
}
330
C
100
AcDbProxyObject
 90
      499
 91
      548
 95
  6815769
 70
     0
161
                42
310
000100005E8C
330
C9
 94
        0
1001
ACAD
1000
AcRTDxfName
1000
AM_DWGMGR_NAME
1000
AcRTDxfName
1000
AM_DWGMGR_NAME
  0
DICTIONARY
  5
41
102
{ACAD_REACTORS
330
C
102
}
330
C
100
AcDbDictionary
281
     1
  3
AcMgSettings
350
42
  3
AMGLAYCFG
350
63
  0
DICTIONARY
  5
35D
102
{ACAD_REACTORS
330
C
102
}
330
C
100
AcDbDictionary
281
     1
  3
DIMENSION
350
362
  3
FEA
350
361
  3
HATCH (1)
350
35E
  3
HATCH (2)
350
35F
  3
SIMPLE WELD
350
363
  3
SYMBOLS
350
360
  0
ACAD_PROXY_OBJECT
  5
5A
102
{ACAD_REACTORS
330
C
102
}
330
C
100
AcDbProxyObject
 90
      499
 91
      520
 95
  6815769
 70
     0
161
                34
310
050000428C
 94
        0
1001
ACAD
1000
AcRTDxfName
1000
AMIMASTER
1000
AcRTDxfName
1000
AMIMASTER
  0
DICTIONARY
  5
47C
102
{ACAD_REACTORS
330
C
102
}
330
C
100
AcDbDictionary
281
     1
  3
ASEBlockHierarchyIndexRecord
350
47E
1001
DCO15
1040
1752843460.401
  0
ACAD_PROXY_OBJECT
  5
102
102
{ACAD_REACTORS
330
C
102
}
330
C
100
AcDbProxyObject
 90
      499
 91
      560
 95
  6815769
 70
     0
161
                82
310
0700004B8000000000000C
330
109
330
0
330
10A
330
0
330
0
330
0
 94
        0
1001
ACAD
1000
AcRTDxfName
1000
ACAMPROJECT
1000
AcRTDxfName
1000
ACAMPROJECT
  0
ACAD_PROXY_OBJECT
  5
FD
102
{ACAD_REACTORS
330
C
102
}
330
C
100
AcDbProxyObject
 90
      499
 91
      507
 95
  6815769
 70
     0
161
                56
310
9044160000000000
330
FE
330
FF
330
100
330
101
 94
        0
1001
ACAD
1000
AcRTDxfName
1000
ACIMSYSVARMAN
1000
AcRTDxfName
1000
ACIMSYSVARMAN
1001
AcadCodePageInfo
1000
CodePage
1070
    38
  0
ACAD_PROXY_OBJECT
  5
F3
102
{ACAD_REACTORS
330
C
102
}
330
C
100
AcDbProxyObject
 90
      499
 91
      551
 95
  6815769
 70
     0
161
                 8
310
0501
 94
        0
1001
ACAD
1000
AcRTDxfName
1000
MAPIAMMOUDLE
1000
AcRTDxfName
1000
MAPIAMMOUDLE
  0
DICTIONARY
  5
2EC
102
{ACAD_REACTORS
330
2EB
102
}
330
2EB
100
AcDbDictionary
281
     1
  0
XRECORD
  5
64B
102
{ACAD_REACTORS
330
64A
102
}
330
64A
100
AcDbXrecord
280
     1
290
     1
  0
XRECORD
  5
64D
102
{ACAD_REACTORS
330
64C
102
}
330
64C
100
AcDbXrecord
280
     1
290
     1
  0
XRECORD
  5
64F
102
{ACAD_REACTORS
330
64E
102
}
330
64E
100
AcDbXrecord
280
     1
290
     1
  0
XRECORD
  5
651
102
{ACAD_REACTORS
330
650
102
}
330
650
100
AcDbXrecord
280
     1
290
     1
  0
XRECORD
  5
653
102
{ACAD_REACTORS
330
652
102
}
330
652
100
AcDbXrecord
280
     1
290
     1
  0
XRECORD
  5
655
102
{ACAD_REACTORS
330
654
102
}
330
654
100
AcDbXrecord
280
     1
290
     1
  0
XRECORD
  5
657
102
{ACAD_REACTORS
330
656
102
}
330
656
100
AcDbXrecord
280
     1
290
     1
  0
XRECORD
  5
659
102
{ACAD_REACTORS
330
658
102
}
330
658
100
AcDbXrecord
280
     1
290
     1
  0
XRECORD
  5
65B
102
{ACAD_REACTORS
330
65A
102
}
330
65A
100
AcDbXrecord
280
     1
290
     1
  0
XRECORD
  5
65D
102
{ACAD_REACTORS
330
65C
102
}
330
65C
100
AcDbXrecord
280
     1
290
     1
  0
XRECORD
  5
65F
102
{ACAD_REACTORS
330
65E
102
}
330
65E
100
AcDbXrecord
280
     1
290
     1
  0
XRECORD
  5
661
102
{ACAD_REACTORS
330
660
102
}
330
660
100
AcDbXrecord
280
     1
290
     1
  0
DICTIONARY
  5
90
102
{ACAD_REACTORS
330
8F
102
}
330
8F
100
AcDbDictionary
281
     1
  3
*A1
350
91
  0
SORTENTSTABLE
  5
9B5
102
{ACAD_REACTORS
330
8F
102
}
330
8F
100
AcDbSortentsTable
330
1F
  0
SORTENTSTABLE
  5
566
102
{ACAD_REACTORS
330
208
102
}
330
208
100
AcDbSortentsTable
330
207
  0
SORTENTSTABLE
  5
5AF
102
{ACAD_REACTORS
330
271
102
}
330
271
100
AcDbSortentsTable
330
270
  0
SORTENTSTABLE
  5
A56
102
{ACAD_REACTORS
330
A55
102
}
330
A55
100
AcDbSortentsTable
330
A54
  0
ACDBDETAILVIEWSTYLE
  5
63B
102
{ACAD_XDICTIONARY
360
C77
102
}
102
{ACAD_REACTORS
330
63A
102
}
330
63A
100
AcDbModelDocViewStyle
 70
     0
  3
Metric50
290
     0
100
AcDbDetailViewStyle
 70
     0
 71
     0
 90
        3
 71
     1
340
11
 62
   256
 40
5.0
340
0
 62
   256
 40
5.0
300

 40
0.0
280
     1
 71
     2
340
16
 90
       25
 62
   256
 71
     3
340
11
 62
   256
 40
5.0
 90
        0
 40
15.0
 90
        1
300
%<\AcVar ViewDetailId>% (%<\AcVar ViewScale \f "%sn">%)
 71
     4
340
16
 90
       25
 62
   256
340
16
 90
       25
 62
   256
280
     0
  0
GROUP
  5
BE3
102
{ACAD_REACTORS
330
D
102
}
330
D
100
AcDbGroup
300

 70
     1
 71
     1
340
BCB
340
BCA
340
BDD
340
BDC
340
BDB
340
BDA
340
BD9
340
BD8
340
BD7
340
BD6
340
BD5
340
BD2
340
BD1
340
BD0
340
BCF
340
BCE
340
BCD
340
BCC
340
BC9
340
BC8
340
BC7
340
BC5
340
BC0
340
BBF
340
BBB
340
BE2
340
BE1
340
BE0
340
BDF
340
BDE
340
BD4
340
BD3
340
BC6
340
BC4
340
BC1
340
BC2
340
BBE
340
BBC
340
BC3
340
BBD
  0
LAYOUT
  5
22
102
{ACAD_XDICTIONARY
360
677
102
}
102
{ACAD_REACTORS
330
1A
102
}
330
1A
100
AcDbPlotSettings
  1

  2
none_device
  4
A3
  6

 40
3.174999952316284
 41
3.174999952316284
 42
3.17498779296875
 43
3.17498779296875
 44
420.1583251953125
 45
297.0318298339844
 46
-3.102238401706472
 47
-3.163609709545255
 48
0.0
 49
0.0
140
0.0
141
0.0
142
1.0
143
2.0
 70
 11956
 72
     1
 73
     0
 74
     1
  7
monochrome.ctb
 75
    17
147
0.5
 76
     0
 77
     2
 78
   300
148
0.0128083857496222
149
0.0090573584952836
100
AcDbLayout
  1
Model
 70
     1
 71
     0
 10
0.0
 20
0.0
 11
12.0
 21
9.0
 12
0.0
 22
0.0
 32
0.0
 14
0.0
 24
0.0
 34
0.0
 15
0.0
 25
0.0
 35
0.0
146
0.0
 13
0.0
 23
0.0
 33
0.0
 16
1.0
 26
0.0
 36
0.0
 17
0.0
 27
1.0
 37
0.0
 76
     0
330
1F
331
5F7
1001
ACAD_PSEXT
1000
Adobe PDF.pc3
1000
Adobe PDF Converter
1000
Documents\*.pdf
1000

1070
     0
  0
LAYOUT
  5
1E
102
{ACAD_REACTORS
330
1A
102
}
330
1A
100
AcDbPlotSettings
  1

  2
none_device
  4
Letter_(8.50_x_11.00_Inches)
  6

 40
6.349999904632568
 41
6.349999904632568
 42
6.350006103515625
 43
6.350006103515625
 44
215.8999938964844
 45
279.3999938964844
 46
0.0
 47
0.0
 48
0.0
 49
0.0
140
0.0
141
0.0
142
1.0
143
1.0
 70
   688
 72
     1
 73
     1
 74
     5
  7
施工マニュアル.ctb
 75
    16
147
1.0
 76
     1
 77
     2
 78
   300
148
0.0
149
0.0
100
AcDbLayout
  1
レイアウト1
 70
     1
 71
     1
 10
-6.350006103515625
 20
-6.349999904632568
 11
273.0499877929688
 21
209.5499939918518
 12
0.0
 22
0.0
 32
0.0
 14
1.000000000000000E+20
 24
1.000000000000000E+20
 34
1.000000000000000E+20
 15
-1.000000000000000E+20
 25
-1.000000000000000E+20
 35
-1.000000000000000E+20
146
0.0
 13
0.0
 23
0.0
 33
0.0
 16
1.0
 26
0.0
 36
0.0
 17
0.0
 27
1.0
 37
0.0
 76
     0
330
1B
331
178
  0
LAYOUT
  5
26
102
{ACAD_REACTORS
330
1A
102
}
330
1A
100
AcDbPlotSettings
  1

  2
none_device
  4
Letter_(8.50_x_11.00_Inches)
  6

 40
6.349999904632568
 41
6.349999904632568
 42
6.350006103515625
 43
6.350006103515625
 44
215.8999938964844
 45
279.3999938964844
 46
0.0
 47
0.0
 48
0.0
 49
0.0
140
0.0
141
0.0
142
1.0
143
1.0
 70
   688
 72
     1
 73
     1
 74
     5
  7
施工マニュアル.ctb
 75
    16
147
1.0
 76
     1
 77
     2
 78
   300
148
0.0
149
0.0
100
AcDbLayout
  1
レイアウト2
 70
     1
 71
     2
 10
-6.350006103515625
 20
-6.349999904632568
 11
273.0499877929688
 21
209.5499939918518
 12
0.0
 22
0.0
 32
0.0
 14
1.000000000000000E+20
 24
1.000000000000000E+20
 34
1.000000000000000E+20
 15
-1.000000000000000E+20
 25
-1.000000000000000E+20
 35
-1.000000000000000E+20
146
0.0
 13
0.0
 23
0.0
 33
0.0
 16
1.0
 26
0.0
 36
0.0
 17
0.0
 27
1.0
 37
0.0
 76
     0
330
23
331
17C
  0
MATERIAL
  5
601
102
{ACAD_XDICTIONARY
360
602
102
}
102
{ACAD_REACTORS
330
BD
102
}
330
BD
100
AcDbMaterial
  1
ByBlock
 72
     0
 43
0.0008202099737533
 43
0.0
 43
0.0
 43
0.0
 43
0.0
 43
0.0008202099737533
 43
0.0
 43
0.0
 43
0.0
 43
0.0
 43
1.0
 43
0.0
 43
0.0
 43
0.0
 43
0.0
 43
1.0
 77
     0
 47
0.0008202099737533
 47
0.0
 47
0.0
 47
0.0
 47
0.0
 47
0.0008202099737533
 47
0.0
 47
0.0
 47
0.0
 47
0.0
 47
1.0
 47
0.0
 47
0.0
 47
0.0
 47
0.0
 47
1.0
171
     0
 49
0.0008202099737533
 49
0.0
 49
0.0
 49
0.0
 49
0.0
 49
0.0008202099737533
 49
0.0
 49
0.0
 49
0.0
 49
0.0
 49
1.0
 49
0.0
 49
0.0
 49
0.0
 49
0.0
 49
1.0
175
     0
142
0.0008202099737533
142
0.0
142
0.0
142
0.0
142
0.0
142
0.0008202099737533
142
0.0
142
0.0
142
0.0
142
0.0
142
1.0
142
0.0
142
0.0
142
0.0
142
0.0
142
1.0
179
     0
144
0.0008202099737533
144
0.0
144
0.0
144
0.0
144
0.0
144
0.0008202099737533
144
0.0
144
0.0
144
0.0
144
0.0
144
1.0
144
0.0
144
0.0
144
0.0
144
0.0
144
1.0
147
0.0008202099737533
147
0.0
147
0.0
147
0.0
147
0.0
147
0.0008202099737533
147
0.0
147
0.0
147
0.0
147
0.0
147
1.0
147
0.0
147
0.0
147
0.0
147
0.0
147
1.0
  0
MATERIAL
  5
5F9
102
{ACAD_XDICTIONARY
360
5FA
102
}
102
{ACAD_REACTORS
330
BD
102
}
330
BD
100
AcDbMaterial
  1
ByLayer
 72
     0
 43
0.0008202099737533
 43
0.0
 43
0.0
 43
0.0
 43
0.0
 43
0.0008202099737533
 43
0.0
 43
0.0
 43
0.0
 43
0.0
 43
1.0
 43
0.0
 43
0.0
 43
0.0
 43
0.0
 43
1.0
 77
     0
 47
0.0008202099737533
 47
0.0
 47
0.0
 47
0.0
 47
0.0
 47
0.0008202099737533
 47
0.0
 47
0.0
 47
0.0
 47
0.0
 47
1.0
 47
0.0
 47
0.0
 47
0.0
 47
0.0
 47
1.0
171
     0
 49
0.0008202099737533
 49
0.0
 49
0.0
 49
0.0
 49
0.0
 49
0.0008202099737533
 49
0.0
 49
0.0
 49
0.0
 49
0.0
 49
1.0
 49
0.0
 49
0.0
 49
0.0
 49
0.0
 49
1.0
175
     0
142
0.0008202099737533
142
0.0
142
0.0
142
0.0
142
0.0
142
0.0008202099737533
142
0.0
142
0.0
142
0.0
142
0.0
142
1.0
142
0.0
142
0.0
142
0.0
142
0.0
142
1.0
179
     0
144
0.0008202099737533
144
0.0
144
0.0
144
0.0
144
0.0
144
0.0008202099737533
144
0.0
144
0.0
144
0.0
144
0.0
144
1.0
144
0.0
144
0.0
144
0.0
144
0.0
144
1.0
147
0.0008202099737533
147
0.0
147
0.0
147
0.0
147
0.0
147
0.0008202099737533
147
0.0
147
0.0
147
0.0
147
0.0
147
1.0
147
0.0
147
0.0
147
0.0
147
0.0
147
1.0
  0
MATERIAL
  5
2E8
102
{ACAD_REACTORS
330
BD
102
}
330
BD
100
AcDbMaterial
  1
Global
 73
     1
 78
     1
172
     1
176
     1
270
     1
274
     1
 94
       63
  0
MLEADERSTYLE
  5
637
102
{ACAD_XDICTIONARY
360
C73
102
}
102
{ACAD_REACTORS
330
636
102
}
330
636
100
AcDbMLeaderStyle
179
     2
170
     2
171
     1
172
     0
 90
        2
 40
0.0
 41
0.0
173
     1
 91
-1056964608
340
14
 92
       -2
290
     1
 42
2.0
291
     1
 43
0.36
  3
Standard
 44
4.0
300

342
11
174
     1
178
     6
175
     1
176
     0
 93
-1056964608
 45
4.0
292
     0
297
     0
 46
4.0
 94
-1056964608
 47
1.0
 49
1.0
140
1.0
293
     1
141
0.0
294
     1
177
     0
142
1.0
295
     0
296
     0
143
0.125
271
     0
272
     9
273
     9
  0
MLINESTYLE
  5
18
102
{ACAD_REACTORS
330
17
102
}
330
17
100
AcDbMlineStyle
  2
STANDARD
 70
     0
  3

 62
   256
 51
90.0
 52
90.0
 71
     2
 49
0.5
 62
   256
  6
BYLAYER
 49
-0.5
 62
   256
  6
BYLAYER
  0
ACDBPLACEHOLDER
  5
F
102
{ACAD_REACTORS
330
E
102
}
330
E
  0
ACDBPLACEHOLDER
  5
2E7
102
{ACAD_REACTORS
330
E
102
}
330
E
  0
SCALE
  5
625
102
{ACAD_REACTORS
330
624
102
}
330
624
100
AcDbScale
 70
     0
300
1:1
140
1.0
141
1.0
290
     1
  0
SCALE
  5
626
102
{ACAD_REACTORS
330
624
102
}
330
624
100
AcDbScale
 70
     0
300
1:2
140
1.0
141
2.0
290
     0
  0
SCALE
  5
627
102
{ACAD_REACTORS
330
624
102
}
330
624
100
AcDbScale
 70
     0
300
1:4
140
1.0
141
4.0
290
     0
  0
SCALE
  5
628
102
{ACAD_REACTORS
330
624
102
}
330
624
100
AcDbScale
 70
     0
300
1:5
140
1.0
141
5.0
290
     0
  0
SCALE
  5
629
102
{ACAD_REACTORS
330
624
102
}
330
624
100
AcDbScale
 70
     0
300
1:8
140
1.0
141
8.0
290
     0
  0
SCALE
  5
62A
102
{ACAD_REACTORS
330
624
102
}
330
624
100
AcDbScale
 70
     0
300
1:10
140
1.0
141
10.0
290
     0
  0
SCALE
  5
62B
102
{ACAD_REACTORS
330
624
102
}
330
624
100
AcDbScale
 70
     0
300
1:16
140
1.0
141
16.0
290
     0
  0
SCALE
  5
62C
102
{ACAD_REACTORS
330
624
102
}
330
624
100
AcDbScale
 70
     0
300
1:20
140
1.0
141
20.0
290
     0
  0
SCALE
  5
62D
102
{ACAD_REACTORS
330
624
102
}
330
624
100
AcDbScale
 70
     0
300
1:30
140
1.0
141
30.0
290
     0
  0
SCALE
  5
62E
102
{ACAD_REACTORS
330
624
102
}
330
624
100
AcDbScale
 70
     0
300
1:40
140
1.0
141
40.0
290
     0
  0
SCALE
  5
62F
102
{ACAD_REACTORS
330
624
102
}
330
624
100
AcDbScale
 70
     0
300
1:50
140
1.0
141
50.0
290
     0
  0
SCALE
  5
630
102
{ACAD_REACTORS
330
624
102
}
330
624
100
AcDbScale
 70
     0
300
1:100
140
1.0
141
100.0
290
     0
  0
SCALE
  5
631
102
{ACAD_REACTORS
330
624
102
}
330
624
100
AcDbScale
 70
     0
300
2:1
140
2.0
141
1.0
290
     0
  0
SCALE
  5
632
102
{ACAD_REACTORS
330
624
102
}
330
624
100
AcDbScale
 70
     0
300
4:1
140
4.0
141
1.0
290
     0
  0
SCALE
  5
633
102
{ACAD_REACTORS
330
624
102
}
330
624
100
AcDbScale
 70
     0
300
8:1
140
8.0
141
1.0
290
     0
  0
SCALE
  5
634
102
{ACAD_REACTORS
330
624
102
}
330
624
100
AcDbScale
 70
     0
300
10:1
140
10.0
141
1.0
290
     0
  0
SCALE
  5
635
102
{ACAD_REACTORS
330
624
102
}
330
624
100
AcDbScale
 70
     0
300
100:1
140
100.0
141
1.0
290
     0
  0
ACDBSECTIONVIEWSTYLE
  5
639
102
{ACAD_XDICTIONARY
360
C75
102
}
102
{ACAD_REACTORS
330
638
102
}
330
638
100
AcDbModelDocViewStyle
 70
     0
  3
Metric50
290
     0
100
AcDbSectionViewStyle
 70
     0
 71
     0
 90
      102
 71
     1
340
11
 62
   256
 40
5.0
340
0
340
0
 62
   256
 40
5.0
300
I, O, Q, S, X, Z
 40
10.0
 90
        0
 40
2.5
 90
        0
 71
     2
340
16
 90
       25
 62
   256
340
16
 90
       50
 62
   256
 40
5.0
 40
2.5
 40
5.0
 71
     3
340
11
 62
   256
 40
5.0
 90
        0
 40
15.0
 90
        1
300
%<\AcVar ViewSectionStartId>%-%<\AcVar ViewSectionEndId>% (%<\AcVar ViewScale \f "%sn">%)
 71
     4
 62
   256
 62
   257
300
ANSI31
 40
1.0
 90
        0
290
     0
290
     0
 90
        6
 40
0.0
 40
1.570796326794896
 40
0.2617993877991494
 40
1.308996938995747
 40
-0.2617993877991494
 40
1.832595714594046
  0
TABLESTYLE
  5
623
102
{ACAD_XDICTIONARY
360
66C
102
}
102
{ACAD_REACTORS
330
622
102
}
330
622
100
AcDbTableStyle
280
     0
  3
Standard
 70
     0
 71
     0
 40
1.5
 41
1.5
280
     0
281
     0
  7
STANDARD
140
4.5
170
     2
 62
     0
 63
     7
283
     0
 90
      512
 91
        0
  1

274
    -2
284
     1
 64
     0
275
    -2
285
     1
 65
     0
276
    -2
286
     1
 66
     0
277
    -2
287
     1
 67
     0
278
    -2
288
     1
 68
     0
279
    -2
289
     1
 69
     0
  7
STANDARD
140
6.0
170
     5
 62
     0
 63
     7
283
     0
 90
      512
 91
        0
  1

274
    -2
284
     1
 64
     0
275
    -2
285
     1
 65
     0
276
    -2
286
     1
 66
     0
277
    -2
287
     1
 67
     0
278
    -2
288
     1
 68
     0
279
    -2
289
     1
 69
     0
  7
STANDARD
140
4.5
170
     5
 62
     0
 63
     7
283
     0
 90
      512
 91
        0
  1

274
    -2
284
     1
 64
     0
275
    -2
285
     1
 65
     0
276
    -2
286
     1
 66
     0
277
    -2
287
     1
 67
     0
278
    -2
288
     1
 68
     0
279
    -2
289
     1
 69
     0
  0
VISUALSTYLE
  5
60F
102
{ACAD_XDICTIONARY
360
C4D
102
}
102
{ACAD_REACTORS
330
609
102
}
330
609
100
AcDbVisualStyle
  2
2dWireframe
 70
     4
177
     2
291
     0
 71
     0
176
     1
 72
     2
176
     1
 73
     0
176
     1
 90
        0
176
     1
 40
0.6
176
     1
 41
30.0
176
     1
 63
     7
176
     1
 74
     1
176
     1
 91
        4
176
     1
 64
     7
176
     1
 65
   257
176
     1
 75
     1
176
     1
175
     1
176
     1
 42
1.0
176
     1
 92
        0
176
     1
 66
   257
176
     1
 43
1.0
176
     1
 76
     1
176
     1
 77
     6
176
     1
 78
     2
176
     1
 67
     7
176
     1
 79
     5
176
     1
170
     0
176
     1
171
     0
176
     1
290
     0
176
     1
 93
        1
176
     1
 44
0.0
176
     1
173
     0
176
     1
1001
ACAD
1000
AcDbSavedByObjectVersion
1070
     0
  0
VISUALSTYLE
  5
60E
102
{ACAD_XDICTIONARY
360
C4B
102
}
102
{ACAD_REACTORS
330
609
102
}
330
609
100
AcDbVisualStyle
  2
Basic
 70
     7
177
     2
291
     1
 71
     1
176
     1
 72
     0
176
     1
 73
     1
176
     1
 90
        0
176
     1
 40
0.6
176
     1
 41
30.0
176
     1
 63
     7
176
     1
 74
     0
176
     1
 91
        4
176
     1
 64
     7
176
     1
 65
   257
176
     1
 75
     1
176
     1
175
     1
176
     1
 42
1.0
176
     1
 92
        8
176
     1
 66
     7
176
     1
 43
1.0
176
     1
 76
     1
176
     1
 77
     6
176
     1
 78
     2
176
     1
 67
     7
176
     1
 79
     5
176
     1
170
     0
176
     1
171
     0
176
     1
290
     0
176
     1
 93
        1
176
     1
 44
0.0
176
     1
173
     0
176
     1
1001
ACAD
1000
AcDbSavedByObjectVersion
1070
     0
  0
VISUALSTYLE
  5
615
102
{ACAD_XDICTIONARY
360
C59
102
}
102
{ACAD_REACTORS
330
609
102
}
330
609
100
AcDbVisualStyle
  2
Brighten
 70
    12
177
     2
291
     1
 71
     2
176
     1
 72
     2
176
     1
 73
     0
176
     1
 90
        0
176
     1
 40
0.6
176
     1
 41
30.0
176
     1
 63
     7
176
     1
 74
     1
176
     1
 91
        4
176
     1
 64
     7
176
     1
 65
   257
176
     1
 75
     1
176
     1
175
     1
176
     1
 42
1.0
176
     1
 92
        8
176
     1
 66
     7
176
     1
 43
1.0
176
     1
 76
     1
176
     1
 77
     6
176
     1
 78
     2
176
     1
 67
     7
176
     1
 79
     5
176
     1
170
     0
176
     1
171
     0
176
     1
290
     0
176
     1
 93
        1
176
     1
 44
50.0
176
     1
173
     0
176
     1
1001
ACAD
1000
AcDbSavedByObjectVersion
1070
     0
  0
VISUALSTYLE
  5
619
102
{ACAD_XDICTIONARY
360
C61
102
}
102
{ACAD_REACTORS
330
609
102
}
330
609
100
AcDbVisualStyle
  2
ColorChange
 70
    16
177
     2
291
     1
 71
     2
176
     1
 72
     2
176
     1
 73
     3
176
     1
 90
        0
176
     1
 40
0.6
176
     1
 41
30.0
176
     1
 63
     8
176
     1
 74
     1
176
     1
 91
        4
176
     1
 64
     7
176
     1
 65
   257
176
     1
 75
     1
176
     1
175
     1
176
     1
 42
1.0
176
     1
 92
        8
176
     1
 66
     8
176
     1
 43
1.0
176
     1
 76
     1
176
     1
 77
     6
176
     1
 78
     2
176
     1
 67
     7
176
     1
 79
     5
176
     1
170
     0
176
     1
171
     0
176
     1
290
     0
176
     1
 93
        1
176
     1
 44
0.0
176
     1
173
     0
176
     1
1001
ACAD
1000
AcDbSavedByObjectVersion
1070
     0
  0
VISUALSTYLE
  5
612
102
{ACAD_XDICTIONARY
360
C53
102
}
102
{ACAD_REACTORS
330
609
102
}
330
609
100
AcDbVisualStyle
  2
Conceptual
 70
     9
177
     2
291
     0
 71
     3
176
     1
 72
     2
176
     1
 73
     0
176
     1
 90
        0
176
     1
 40
0.6
176
     1
 41
30.0
176
     1
 63
     7
176
     1
 74
     2
176
     1
 91
        2
176
     1
 64
     7
176
     1
 65
   257
176
     1
 75
     1
176
     1
175
     1
176
     1
 42
179.0
176
     1
 92
        8
176
     1
 66
     7
176
     1
 43
1.0
176
     1
 76
     1
176
     1
 77
     6
176
     1
 78
     2
176
     1
 67
     7
176
     1
 79
     3
176
     1
170
     0
176
     1
171
     0
176
     1
290
     0
176
     1
 93
        1
176
     1
 44
0.0
176
     1
173
     0
176
     1
1001
ACAD
1000
AcDbSavedByObjectVersion
1070
     0
  0
VISUALSTYLE
  5
614
102
{ACAD_XDICTIONARY
360
C57
102
}
102
{ACAD_REACTORS
330
609
102
}
330
609
100
AcDbVisualStyle
  2
Dim
 70
    11
177
     2
291
     1
 71
     2
176
     1
 72
     2
176
     1
 73
     0
176
     1
 90
        0
176
     1
 40
0.6
176
     1
 41
30.0
176
     1
 63
     7
176
     1
 74
     1
176
     1
 91
        4
176
     1
 64
     7
176
     1
 65
   257
176
     1
 75
     1
176
     1
175
     1
176
     1
 42
1.0
176
     1
 92
        8
176
     1
 66
     7
176
     1
 43
1.0
176
     1
 76
     1
176
     1
 77
     6
176
     1
 78
     2
176
     1
 67
     7
176
     1
 79
     5
176
     1
170
     0
176
     1
171
     0
176
     1
290
     0
176
     1
 93
        1
176
     1
 44
-50.0
176
     1
173
     0
176
     1
1001
ACAD
1000
AcDbSavedByObjectVersion
1070
     0
  0
VISUALSTYLE
  5
621
102
{ACAD_XDICTIONARY
360
C71
102
}
102
{ACAD_REACTORS
330
609
102
}
330
609
100
AcDbVisualStyle
  2
EdgeColorOff
 70
    22
177
     2
291
     1
 71
     2
176
     0
 72
     2
176
     0
 73
     0
176
     0
 90
        0
176
     0
 40
0.6
176
     0
 41
30.0
176
     0
 63
     7
176
     0
 74
     1
176
     0
 91
        4
176
     0
 64
     7
176
     0
 65
   257
176
     0
 75
     1
176
     0
175
     1
176
     0
 42
1.0
176
     0
 92
        8
176
     2
 66
     7
176
     0
 43
1.0
176
     0
 76
     1
176
     0
 77
     6
176
     0
 78
     2
176
     0
 67
     7
176
     0
 79
     5
176
     0
170
     0
176
     0
171
     0
176
     0
290
     0
176
     0
 93
        1
176
     0
 44
0.0
176
     0
173
     0
176
     0
1001
ACAD
1000
AcDbSavedByObjectVersion
1070
     0
  0
VISUALSTYLE
  5
618
102
{ACAD_XDICTIONARY
360
C5F
102
}
102
{ACAD_REACTORS
330
609
102
}
330
609
100
AcDbVisualStyle
  2
Facepattern
 70
    15
177
     2
291
     1
 71
     2
176
     1
 72
     2
176
     1
 73
     0
176
     1
 90
        0
176
     1
 40
0.6
176
     1
 41
30.0
176
     1
 63
     7
176
     1
 74
     1
176
     1
 91
        4
176
     1
 64
     7
176
     1
 65
   257
176
     1
 75
     1
176
     1
175
     1
176
     1
 42
1.0
176
     1
 92
        8
176
     1
 66
     7
176
     1
 43
1.0
176
     1
 76
     1
176
     1
 77
     6
176
     1
 78
     2
176
     1
 67
     7
176
     1
 79
     5
176
     1
170
     0
176
     1
171
     0
176
     1
290
     0
176
     1
 93
        1
176
     1
 44
0.0
176
     1
173
     0
176
     1
1001
ACAD
1000
AcDbSavedByObjectVersion
1070
     0
  0
VISUALSTYLE
  5
60A
102
{ACAD_XDICTIONARY
360
C43
102
}
102
{ACAD_REACTORS
330
609
102
}
330
609
100
AcDbVisualStyle
  2
Flat
 70
     0
177
     2
291
     1
 71
     2
176
     1
 72
     1
176
     1
 73
     1
176
     1
 90
        2
176
     1
 40
0.6
176
     1
 41
30.0
176
     1
 63
     7
176
     1
 74
     0
176
     1
 91
        0
176
     1
 64
     7
176
     1
 65
   257
176
     1
 75
     1
176
     1
175
     1
176
     1
 42
1.0
176
     1
 92
        8
176
     1
 66
     7
176
     1
 43
1.0
176
     1
 76
     1
176
     1
 77
     6
176
     1
 78
     2
176
     1
 67
     7
176
     1
 79
     5
176
     1
170
     0
176
     1
171
     0
176
     1
290
     0
176
     1
 93
       13
176
     1
 44
0.0
176
     1
173
     0
176
     1
1001
ACAD
1000
AcDbSavedByObjectVersion
1070
     0
  0
VISUALSTYLE
  5
60B
102
{ACAD_XDICTIONARY
360
C45
102
}
102
{ACAD_REACTORS
330
609
102
}
330
609
100
AcDbVisualStyle
  2
FlatWithEdges
 70
     1
177
     2
291
     1
 71
     2
176
     1
 72
     1
176
     1
 73
     1
176
     1
 90
        2
176
     1
 40
0.6
176
     1
 41
30.0
176
     1
 63
     7
176
     1
 74
     1
176
     1
 91
        0
176
     1
 64
     7
176
     1
 65
   257
176
     1
 75
     1
176
     1
175
     1
176
     1
 42
1.0
176
     1
 92
        0
176
     1
 66
   257
176
     1
 43
1.0
176
     1
 76
     1
176
     1
 77
     6
176
     1
 78
     2
176
     1
 67
     7
176
     1
 79
     5
176
     1
170
     0
176
     1
171
     0
176
     1
290
     0
176
     1
 93
       13
176
     1
 44
0.0
176
     1
173
     0
176
     1
1001
ACAD
1000
AcDbSavedByObjectVersion
1070
     0
  0
VISUALSTYLE
  5
60C
102
{ACAD_XDICTIONARY
360
C47
102
}
102
{ACAD_REACTORS
330
609
102
}
330
609
100
AcDbVisualStyle
  2
Gouraud
 70
     2
177
     2
291
     1
 71
     2
176
     1
 72
     2
176
     1
 73
     1
176
     1
 90
        2
176
     1
 40
0.6
176
     1
 41
30.0
176
     1
 63
     7
176
     1
 74
     0
176
     1
 91
        0
176
     1
 64
     7
176
     1
 65
   257
176
     1
 75
     1
176
     1
175
     1
176
     1
 42
1.0
176
     1
 92
        0
176
     1
 66
     7
176
     1
 43
1.0
176
     1
 76
     1
176
     1
 77
     6
176
     1
 78
     2
176
     1
 67
     7
176
     1
 79
     5
176
     1
170
     0
176
     1
171
     0
176
     1
290
     0
176
     1
 93
       13
176
     1
 44
0.0
176
     1
173
     0
176
     1
1001
ACAD
1000
AcDbSavedByObjectVersion
1070
     0
  0
VISUALSTYLE
  5
60D
102
{ACAD_XDICTIONARY
360
C49
102
}
102
{ACAD_REACTORS
330
609
102
}
330
609
100
AcDbVisualStyle
  2
GouraudWithEdges
 70
     3
177
     2
291
     1
 71
     2
176
     1
 72
     2
176
     1
 73
     1
176
     1
 90
        2
176
     1
 40
0.6
176
     1
 41
30.0
176
     1
 63
     7
176
     1
 74
     1
176
     1
 91
        0
176
     1
 64
     7
176
     1
 65
   257
176
     1
 75
     1
176
     1
175
     1
176
     1
 42
1.0
176
     1
 92
        0
176
     1
 66
   257
176
     1
 43
1.0
176
     1
 76
     1
176
     1
 77
     6
176
     1
 78
     2
176
     1
 67
     7
176
     1
 79
     5
176
     1
170
     0
176
     1
171
     0
176
     1
290
     0
176
     1
 93
       13
176
     1
 44
0.0
176
     1
173
     0
176
     1
1001
ACAD
1000
AcDbSavedByObjectVersion
1070
     0
  0
VISUALSTYLE
  5
611
102
{ACAD_XDICTIONARY
360
C51
102
}
102
{ACAD_REACTORS
330
609
102
}
330
609
100
AcDbVisualStyle
  2
Hidden
 70
     6
177
     2
291
     0
 71
     1
176
     1
 72
     2
176
     1
 73
     2
176
     1
 90
        0
176
     1
 40
0.6
176
     1
 41
30.0
176
     1
 63
     7
176
     1
 74
     2
176
     1
 91
        2
176
     1
 64
     7
176
     1
 65
   257
176
     1
 75
     2
176
     1
175
     1
176
     1
 42
40.0
176
     1
 92
        0
176
     1
 66
   257
176
     1
 43
1.0
176
     1
 76
     1
176
     1
 77
     6
176
     1
 78
     2
176
     1
 67
     7
176
     1
 79
     3
176
     1
170
     0
176
     1
171
     0
176
     1
290
     0
176
     1
 93
        1
176
     1
 44
0.0
176
     1
173
     0
176
     1
1001
ACAD
1000
AcDbSavedByObjectVersion
1070
     0
  0
VISUALSTYLE
  5
61F
102
{ACAD_XDICTIONARY
360
C6D
102
}
102
{ACAD_REACTORS
330
609
102
}
330
609
100
AcDbVisualStyle
  2
JitterOff
 70
    20
177
     2
291
     1
 71
     2
176
     0
 72
     2
176
     0
 73
     0
176
     0
 90
        0
176
     0
 40
0.6
176
     0
 41
30.0
176
     0
 63
     7
176
     0
 74
     1
176
     0
 91
        4
176
     0
 64
     7
176
     0
 65
   257
176
     0
 75
     1
176
     0
175
     1
176
     0
 42
1.0
176
     0
 92
       10
176
     2
 66
     7
176
     0
 43
1.0
176
     0
 76
     1
176
     0
 77
     6
176
     0
 78
     2
176
     0
 67
     7
176
     0
 79
     5
176
     0
170
     0
176
     0
171
     0
176
     0
290
     0
176
     0
 93
        1
176
     0
 44
0.0
176
     0
173
     0
176
     0
1001
ACAD
1000
AcDbSavedByObjectVersion
1070
     0
  0
VISUALSTYLE
  5
617
102
{ACAD_XDICTIONARY
360
C5D
102
}
102
{ACAD_REACTORS
330
609
102
}
330
609
100
AcDbVisualStyle
  2
Linepattern
 70
    14
177
     2
291
     1
 71
     2
176
     1
 72
     2
176
     1
 73
     0
176
     1
 90
        0
176
     1
 40
0.6
176
     1
 41
30.0
176
     1
 63
     7
176
     1
 74
     1
176
     1
 91
        4
176
     1
 64
     7
176
     1
 65
   257
176
     1
 75
     7
176
     1
175
     7
176
     1
 42
1.0
176
     1
 92
        8
176
     1
 66
     7
176
     1
 43
1.0
176
     1
 76
     1
176
     1
 77
     6
176
     1
 78
     2
176
     1
 67
     7
176
     1
 79
     5
176
     1
170
     0
176
     1
171
     0
176
     1
290
     0
176
     1
 93
        1
176
     1
 44
0.0
176
     1
173
     0
176
     1
1001
ACAD
1000
AcDbSavedByObjectVersion
1070
     0
  0
VISUALSTYLE
  5
620
102
{ACAD_XDICTIONARY
360
C6F
102
}
102
{ACAD_REACTORS
330
609
102
}
330
609
100
AcDbVisualStyle
  2
OverhangOff
 70
    21
177
     2
291
     1
 71
     2
176
     0
 72
     2
176
     0
 73
     0
176
     0
 90
        0
176
     0
 40
0.6
176
     0
 41
30.0
176
     0
 63
     7
176
     0
 74
     1
176
     0
 91
        4
176
     0
 64
     7
176
     0
 65
   257
176
     0
 75
     1
176
     0
175
     1
176
     0
 42
1.0
176
     0
 92
        9
176
     2
 66
     7
176
     0
 43
1.0
176
     0
 76
     1
176
     0
 77
     6
176
     0
 78
     2
176
     0
 67
     7
176
     0
 79
     5
176
     0
170
     0
176
     0
171
     0
176
     0
290
     0
176
     0
 93
        1
176
     0
 44
0.0
176
     0
173
     0
176
     0
1001
ACAD
1000
AcDbSavedByObjectVersion
1070
     0
  0
VISUALSTYLE
  5
613
102
{ACAD_XDICTIONARY
360
C55
102
}
102
{ACAD_REACTORS
330
609
102
}
330
609
100
AcDbVisualStyle
  2
Realistic
 70
     8
177
     2
291
     0
 71
     2
176
     1
 72
     2
176
     1
 73
     0
176
     1
 90
        2
176
     1
 40
0.6
176
     1
 41
30.0
176
     1
 63
     7
176
     1
 74
     0
176
     1
 91
        0
176
     1
 64
     7
176
     1
 65
   257
176
     1
 75
     1
176
     1
175
     1
176
     1
 42
1.0
176
     1
 92
        8
176
     1
 66
   257
176
     1
 43
1.0
176
     1
 76
     1
176
     1
 77
     6
176
     1
 78
     2
176
     1
 67
     7
176
     1
 79
     3
176
     1
170
     0
176
     1
171
     0
176
     1
290
     0
176
     1
 93
       13
176
     1
 44
0.0
176
     1
173
     0
176
     1
1001
ACAD
1000
AcDbSavedByObjectVersion
1070
     0
  0
VISUALSTYLE
  5
61E
102
{ACAD_XDICTIONARY
360
C6B
102
}
102
{ACAD_REACTORS
330
609
102
}
330
609
100
AcDbVisualStyle
  2
Shaded
 70
    27
177
     2
291
     0
 71
     2
176
     1
 72
     2
176
     1
 73
     1
176
     1
 90
        2
176
     1
 40
0.6
176
     1
 41
30.0
176
     1
 63
     7
176
     1
 74
     0
176
     1
 91
        4
176
     1
 64
     7
176
     1
 65
   257
176
     1
 75
     1
176
     1
175
     1
176
     1
 42
1.0
176
     1
 92
        8
176
     1
 66
   257
176
     1
 43
1.0
176
     1
 76
     1
176
     1
 77
     6
176
     1
 78
     2
176
     1
 67
     8
176
     1
 79
     3
176
     1
170
     0
176
     1
171
     0
176
     1
290
     0
176
     1
 93
        5
176
     1
 44
0.0
176
     1
173
     0
176
     1
1001
ACAD
1000
AcDbSavedByObjectVersion
1070
     0
  0
VISUALSTYLE
  5
61D
102
{ACAD_XDICTIONARY
360
C69
102
}
102
{ACAD_REACTORS
330
609
102
}
330
609
100
AcDbVisualStyle
  2
Shaded with edges
 70
    26
177
     2
291
     0
 71
     2
176
     1
 72
     2
176
     1
 73
     1
176
     1
 90
        2
176
     1
 40
0.6
176
     1
 41
30.0
176
     1
 63
     7
176
     1
 74
     1
176
     1
 91
        2
176
     1
 64
     7
176
     1
 65
   257
176
     1
 75
     2
176
     1
175
     1
176
     1
 42
1.0
176
     1
 92
        8
176
     1
 66
   257
176
     1
 43
1.0
176
     1
 76
     1
176
     1
 77
     6
176
     1
 78
     2
176
     1
 67
     7
176
     1
 79
     3
176
     1
170
     0
176
     1
171
     0
176
     1
290
     0
176
     1
 93
        5
176
     1
 44
0.0
176
     1
173
     0
176
     1
1001
ACAD
1000
AcDbSavedByObjectVersion
1070
     0
  0
VISUALSTYLE
  5
61A
102
{ACAD_XDICTIONARY
360
C63
102
}
102
{ACAD_REACTORS
330
609
102
}
330
609
100
AcDbVisualStyle
  2
Shades of Gray
 70
    23
177
     2
291
     0
 71
     2
176
     1
 72
     2
176
     1
 73
     3
176
     1
 90
        0
176
     1
 40
0.6
176
     1
 41
30.0
176
     1
 63
     7
176
     1
 74
     2
176
     1
 91
        2
176
     1
 64
     7
176
     1
 65
     7
176
     1
 75
     1
176
     1
175
     1
176
     1
 42
40.0
176
     1
 92
        8
176
     1
 66
     7
176
     1
 43
1.0
176
     1
 76
     1
176
     1
 77
     6
176
     1
 78
     2
176
     1
 67
     7
176
     1
 79
     3
176
     1
170
     0
176
     1
171
     0
176
     1
290
     0
176
     1
 93
        1
176
     1
 44
0.0
176
     1
173
     0
176
     1
1001
ACAD
1000
AcDbSavedByObjectVersion
1070
     0
  0
VISUALSTYLE
  5
61B
102
{ACAD_XDICTIONARY
360
C65
102
}
102
{ACAD_REACTORS
330
609
102
}
330
609
100
AcDbVisualStyle
  2
Sketchy
 70
    24
177
     2
291
     0
 71
     1
176
     1
 72
     2
176
     1
 73
     2
176
     1
 90
        0
176
     1
 40
0.6
176
     1
 41
30.0
176
     1
 63
     7
176
     1
 74
     2
176
     1
 91
        2
176
     1
 64
     7
176
     1
 65
     7
176
     1
 75
     1
176
     1
175
     1
176
     1
 42
40.0
176
     1
 92
       11
176
     1
 66
     7
176
     1
 43
1.0
176
     1
 76
     1
176
     1
 77
     6
176
     1
 78
     2
176
     1
 67
     7
176
     1
 79
     6
176
     1
170
     0
176
     1
171
     0
176
     1
290
     0
176
     1
 93
        1
176
     1
 44
0.0
176
     1
173
     0
176
     1
1001
ACAD
1000
AcDbSavedByObjectVersion
1070
     0
  0
VISUALSTYLE
  5
616
102
{ACAD_XDICTIONARY
360
C5B
102
}
102
{ACAD_REACTORS
330
609
102
}
330
609
100
AcDbVisualStyle
  2
Thicken
 70
    13
177
     2
291
     1
 71
     2
176
     1
 72
     2
176
     1
 73
     0
176
     1
 90
        0
176
     1
 40
0.6
176
     1
 41
30.0
176
     1
 63
     7
176
     1
 74
     1
176
     1
 91
        4
176
     1
 64
     7
176
     1
 65
   257
176
     1
 75
     1
176
     1
175
     1
176
     1
 42
1.0
176
     1
 92
       12
176
     1
 66
     7
176
     1
 43
1.0
176
     1
 76
     1
176
     1
 77
     6
176
     1
 78
     2
176
     1
 67
     7
176
     1
 79
     5
176
     1
170
     0
176
     1
171
     0
176
     1
290
     0
176
     1
 93
        1
176
     1
 44
0.0
176
     1
173
     0
176
     1
1001
ACAD
1000
AcDbSavedByObjectVersion
1070
     0
  0
VISUALSTYLE
  5
610
102
{ACAD_XDICTIONARY
360
C4F
102
}
102
{ACAD_REACTORS
330
609
102
}
330
609
100
AcDbVisualStyle
  2
Wireframe
 70
     5
177
     2
291
     0
 71
     0
176
     1
 72
     2
176
     1
 73
     0
176
     1
 90
        0
176
     1
 40
0.6
176
     1
 41
30.0
176
     1
 63
     7
176
     1
 74
     1
176
     1
 91
        4
176
     1
 64
     7
176
     1
 65
   257
176
     1
 75
     1
176
     1
175
     1
176
     1
 42
1.0
176
     1
 92
        0
176
     1
 66
   257
176
     1
 43
1.0
176
     1
 76
     1
176
     1
 77
     6
176
     1
 78
     2
176
     1
 67
     7
176
     1
 79
     3
176
     1
170
     0
176
     1
171
     0
176
     1
290
     0
176
     1
 93
        1
176
     1
 44
0.0
176
     1
173
     0
176
     1
1001
ACAD
1000
AcDbSavedByObjectVersion
1070
     0
  0
VISUALSTYLE
  5
61C
102
{ACAD_XDICTIONARY
360
C67
102
}
102
{ACAD_REACTORS
330
609
102
}
330
609
100
AcDbVisualStyle
  2
X-Ray
 70
    25
177
     2
291
     0
 71
     2
176
     1
 72
     2
176
     1
 73
     1
176
     1
 90
        1
176
     1
 40
0.5
176
     1
 41
30.0
176
     1
 63
     7
176
     1
 74
     1
176
     1
 91
        0
176
     1
 64
     7
176
     1
 65
   257
176
     1
 75
     1
176
     1
175
     1
176
     1
 42
1.0
176
     1
 92
        8
176
     1
 66
     7
176
     1
 43
1.0
176
     1
 76
     1
176
     1
 77
     6
176
     1
 78
     2
176
     1
 67
     7
176
     1
 79
     3
176
     1
170
     0
176
     1
171
     0
176
     1
290
     0
176
     1
 93
       13
176
     1
 44
0.0
176
     1
173
     0
176
     1
1001
ACAD
1000
AcDbSavedByObjectVersion
1070
     0
  0
DICTIONARYVAR
  5
6B5
102
{ACAD_REACTORS
330
94
102
}
330
94
100
DictionaryVariables
280
     0
  1
1:1
  0
DICTIONARYVAR
  5
6B1
102
{ACAD_REACTORS
330
94
102
}
330
94
100
DictionaryVariables
280
     0
  1
STANDARD
  0
DICTIONARYVAR
  5
6B0
102
{ACAD_REACTORS
330
94
102
}
330
94
100
DictionaryVariables
280
     0
  1
STANDARD
  0
DICTIONARYVAR
  5
6B2
102
{ACAD_REACTORS
330
94
102
}
330
94
100
DictionaryVariables
280
     0
  1
Metric50
  0
DICTIONARYVAR
  5
6B3
102
{ACAD_REACTORS
330
94
102
}
330
94
100
DictionaryVariables
280
     0
  1
Metric50
  0
DICTIONARYVAR
  5
96
102
{ACAD_REACTORS
330
94
102
}
330
94
100
DictionaryVariables
280
     0
  1
2
  0
DICTIONARYVAR
  5
95
102
{ACAD_REACTORS
330
94
102
}
330
94
100
DictionaryVariables
280
     0
  1
1
  0
DICTIONARYVAR
  5
6B7
102
{ACAD_REACTORS
330
94
102
}
330
94
100
DictionaryVariables
280
     0
  1
1
  0
DICTIONARYVAR
  5
6B8
102
{ACAD_REACTORS
330
94
102
}
330
94
100
DictionaryVariables
280
     0
  1
15
  0
DICTIONARYVAR
  5
6B6
102
{ACAD_REACTORS
330
94
102
}
330
94
100
DictionaryVariables
280
     0
  1
0
  0
DICTIONARYVAR
  5
6B4
102
{ACAD_REACTORS
330
94
102
}
330
94
100
DictionaryVariables
280
     0
  1
0
  0
DICTIONARYVAR
  5
717
102
{ACAD_REACTORS
330
94
102
}
330
94
100
DictionaryVariables
280
     0
  1
127
  0
DICTIONARY
  5
C42
102
{ACAD_REACTORS
330
C40
102
}
330
C40
100
AcDbDictionary
281
     1
  0
DICTIONARY
  5
C41
102
{ACAD_REACTORS
330
C40
102
}
330
C40
100
AcDbDictionary
281
     1
  3
1795663162800
350
C3B
  3
1795663162816
350
C3C
  3
1795663162832
350
C3D
  3
1795663162848
350
C3E
  3
1795663162864
350
C3F
  0
ACAD_PROXY_OBJECT
  5
5C
102
{ACAD_REACTORS
330
5B
102
}
330
5B
100
AcDbProxyObject
 90
      499
 91
      521
 95
  6815769
 70
     0
161
               160
310
409010040CA904C5032A4132057356C1D704110100
350
5D
350
35A
330
0
 94
        0
1001
ACAD
1000
AcRTDxfName
1000
ACMDATADICTIONARY
1000
AcRTDxfName
1000
ACMDATADICTIONARY
  0
DICTIONARY
  5
61
102
{ACAD_REACTORS
330
5B
102
}
330
5B
100
AcDbDictionary
281
     1
  3
ISO
350
62
  0
ACAD_PROXY_OBJECT
  5
4B
330
0
100
AcDbProxyObject
 90
      499
 91
      508
 95
  6815769
 70
     0
161
               156
310
00010143D050D351505391D5531054925390D49C
330
48
 94
        0
1001
ACAD
1000
AcRTDxfName
1000
ACIMREALSYSVAR
1000
AcRTDxfName
1000
ACIMREALSYSVAR
  0
ACAD_PROXY_OBJECT
  5
4C
330
0
100
AcDbProxyObject
 90
      499
 91
      508
 95
  6815769
 70
     0
161
               148
310
000101439050D351531253915054925390D49C
330
48
 94
        0
1001
ACAD
1000
AcRTDxfName
1000
ACIMREALSYSVAR
1000
AcRTDxfName
1000
ACIMREALSYSVAR
1001
AcadCodePageInfo
1000
CodePage
1070
    38
  0
ACAD_PROXY_OBJECT
  5
4D
330
0
100
AcDbProxyObject
 90
      499
 91
      509
 95
  6815769
 70
     0
161
               156
310
000101439050D35154D6535093D314D25691508C
330
48
 94
        0
1001
ACAD
1000
AcRTDxfName
1000
ACIMINTSYSVAR
1000
AcRTDxfName
1000
ACIMINTSYSVAR
  0
ACAD_PROXY_OBJECT
  5
4F
330
0
100
AcDbProxyObject
 90
      499
 91
      511
 95
  6815769
 70
     0
161
                88
310
000101411093D34C402B0000
330
48
330
0
330
0
 94
        0
1001
ACAD
1000
AcRTDxfName
1000
ACMEVIEW
1000
AcRTDxfName
1000
ACMEVIEW
  0
ACAD_PROXY_OBJECT
  5
60
330
0
100
AcDbProxyObject
 90
      499
 91
      523
 95
  6815769
 70
     0
161
               140
310
00010142105350D55494D5110050349534FC
330
48
 94
        0
1001
ACAD
1000
AcRTDxfName
1000
ACIMSTRSYSVAR
1000
AcRTDxfName
1000
ACIMSTRSYSVAR
  0
ACAD_PROXY_OBJECT
  5
C9
330
0
100
AcDbProxyObject
 90
      499
 91
      544
 95
  6815769
 70
     0
161
               374
310
0001014119185D1940508372E302E33392E38014124FEA55D00508372E302E34332E3040501000041505391D311658
330
48
330
CA
330
D0
 94
        0
1001
ACAD
1000
AcRTDxfName
1000
AM_DRAWING_MGR
1000
AcRTDxfName
1000
AM_DRAWING_MGR
  0
ACAD_PROXY_OBJECT
  5
CA
330
0
100
AcDbProxyObject
 90
      499
 91
      545
 95
  6815769
 70
     0
161
                56
310
000190240E000000
330
48
330
CB
330
CD
 94
        0
1001
ACAD
1000
AcRTDxfName
1000
AM_DWG_DOCUMENT
1000
AcRTDxfName
1000
AM_DWG_DOCUMENT
  0
ACAD_PROXY_OBJECT
  5
CB
330
0
100
AcDbProxyObject
 90
      499
 91
      546
 95
  6815769
 70
     0
161
                48
310
0001AA000000D4
330
48
330
1E
330
CC
330
0
 94
        0
1001
ACAD
1000
AcRTDxfName
1000
AM_DWG_SHEET
1000
AcRTDxfName
1000
AM_DWG_SHEET
  0
ACAD_PROXY_OBJECT
  5
CC
330
0
100
AcDbProxyObject
 90
      499
 91
      547
 95
  6815769
 70
     0
161
                28
310
0001AAAC
330
48
 94
        0
1001
ACAD
1000
AcRTDxfName
1000
AM_VIEWDIMPARMAP
1000
AcRTDxfName
1000
AM_VIEWDIMPARMAP
  0
ACAD_PROXY_OBJECT
  5
CD
330
0
100
AcDbProxyObject
 90
      499
 91
      546
 95
  6815769
 70
     0
161
                48
310
0001AA000000A9
330
48
330
26
330
CE
330
0
 94
        0
1001
ACAD
1000
AcRTDxfName
1000
AM_DWG_SHEET
1000
AcRTDxfName
1000
AM_DWG_SHEET
1001
AcadCodePageInfo
1000
CodePage
1070
    38
  0
ACAD_PROXY_OBJECT
  5
CE
330
0
100
AcDbProxyObject
 90
      499
 91
      547
 95
  6815769
 70
     0
161
                28
310
0001AAAC
330
48
 94
        0
1001
ACAD
1000
AcRTDxfName
1000
AM_VIEWDIMPARMAP
1000
AcRTDxfName
1000
AM_VIEWDIMPARMAP
1001
AcadCodePageInfo
1000
CodePage
1070
    38
  0
ACAD_PROXY_OBJECT
  5
D1
330
0
100
AcDbProxyObject
 90
      499
 91
      509
 95
  6815769
 70
     0
161
               108
310
000101421053521310D05310D01C
330
48
 94
        0
1001
ACAD
1000
AcRTDxfName
1000
ACIMINTSYSVAR
1000
AcRTDxfName
1000
ACIMINTSYSVAR
1001
AcadCodePageInfo
1000
CodePage
1070
    38
  0
ACAD_PROXY_OBJECT
  5
D2
330
0
100
AcDbProxyObject
 90
      499
 91
      509
 95
  6815769
 70
     0
161
               124
310
00010142905354915554D1511253501C
330
48
 94
        0
1001
ACAD
1000
AcRTDxfName
1000
ACIMINTSYSVAR
1000
AcRTDxfName
1000
ACIMINTSYSVAR
1001
AcadCodePageInfo
1000
CodePage
1070
    38
  0
ACAD_PROXY_OBJECT
  5
D3
330
0
100
AcDbProxyObject
 90
      499
 91
      509
 95
  6815769
 70
     0
161
               132
310
00010143105354D150D51253D39112536C
330
48
 94
        0
1001
ACAD
1000
AcRTDxfName
1000
ACIMINTSYSVAR
1000
AcRTDxfName
1000
ACIMINTSYSVAR
1001
AcadCodePageInfo
1000
CodePage
1070
    38
  0
ACAD_PROXY_OBJECT
  5
D4
330
0
100
AcDbProxyObject
 90
      499
 91
      509
 95
  6815769
 70
     0
161
               124
310
00010142905355941093D4911154901C
330
48
 94
        0
1001
ACAD
1000
AcRTDxfName
1000
ACIMINTSYSVAR
1000
AcRTDxfName
1000
ACIMINTSYSVAR
1001
AcadCodePageInfo
1000
CodePage
1070
    38
  0
ACAD_PROXY_OBJECT
  5
D5
330
0
100
AcDbProxyObject
 90
      499
 91
      509
 95
  6815769
 70
     0
161
               116
310
0001014290535115D1D0D3D313D4AC
330
48
 94
        0
1001
ACAD
1000
AcRTDxfName
1000
ACIMINTSYSVAR
1000
AcRTDxfName
1000
ACIMINTSYSVAR
1001
AcadCodePageInfo
1000
CodePage
1070
    38
  0
ACAD_PROXY_OBJECT
  5
D6
330
0
100
AcDbProxyObject
 90
      499
 91
      509
 95
  6815769
 70
     0
161
               148
310
00010143505355925155D49151949154D2101C
330
48
 94
        0
1001
ACAD
1000
AcRTDxfName
1000
ACIMINTSYSVAR
1000
AcRTDxfName
1000
ACIMINTSYSVAR
1001
AcadCodePageInfo
1000
CodePage
1070
    38
  0
ACAD_PROXY_OBJECT
  5
D7
330
0
100
AcDbProxyObject
 90
      499
 91
      509
 95
  6815769
 70
     0
161
               172
310
00010144105350539393D51154149154D1549591501C
330
48
 94
        0
1001
ACAD
1000
AcRTDxfName
1000
ACIMINTSYSVAR
1000
AcRTDxfName
1000
ACIMINTSYSVAR
1001
AcadCodePageInfo
1000
CodePage
1070
    38
  0
ACAD_PROXY_OBJECT
  5
DA
330
0
100
AcDbProxyObject
 90
      499
 91
      509
 95
  6815769
 70
     0
161
               172
310
00010144105350555513D11253505494905391D1501C
330
48
 94
        0
1001
ACAD
1000
AcRTDxfName
1000
ACIMINTSYSVAR
1000
AcRTDxfName
1000
ACIMINTSYSVAR
1001
AcadCodePageInfo
1000
CodePage
1070
    38
  0
ACAD_PROXY_OBJECT
  5
DB
330
0
100
AcDbProxyObject
 90
      499
 91
      509
 95
  6815769
 70
     0
161
               124
310
00010142D0535156151491519112536C
330
48
 94
        0
1001
ACAD
1000
AcRTDxfName
1000
ACIMINTSYSVAR
1000
AcRTDxfName
1000
ACIMINTSYSVAR
1001
AcadCodePageInfo
1000
CodePage
1070
    38
  0
ACAD_PROXY_OBJECT
  5
DC
330
0
100
AcDbProxyObject
 90
      499
 91
      509
 95
  6815769
 70
     0
161
               132
310
00010142D05355105410539393D511501C
330
48
 94
        0
1001
ACAD
1000
AcRTDxfName
1000
ACIMINTSYSVAR
1000
AcRTDxfName
1000
ACIMINTSYSVAR
1001
AcadCodePageInfo
1000
CodePage
1070
    38
  0
ACAD_PROXY_OBJECT
  5
DD
330
0
100
AcDbProxyObject
 90
      499
 91
      509
 95
  6815769
 70
     0
161
               108
310
00010142105350555513D0D3101C
330
48
 94
        0
1001
ACAD
1000
AcRTDxfName
1000
ACIMINTSYSVAR
1000
AcRTDxfName
1000
ACIMINTSYSVAR
1001
AcadCodePageInfo
1000
CodePage
1070
    38
  0
ACAD_PROXY_OBJECT
  5
DE
330
0
100
AcDbProxyObject
 90
      499
 91
      509
 95
  6815769
 70
     0
161
               108
310
00010142105350D311915055105C
330
48
 94
        0
1001
ACAD
1000
AcRTDxfName
1000
ACIMINTSYSVAR
1000
AcRTDxfName
1000
ACIMINTSYSVAR
1001
AcadCodePageInfo
1000
CodePage
1070
    38
  0
ACAD_PROXY_OBJECT
  5
DF
330
0
100
AcDbProxyObject
 90
      499
 91
      509
 95
  6815769
 70
     0
161
               108
310
00010142105350D315925155D3FC
330
48
 94
        0
1001
ACAD
1000
AcRTDxfName
1000
ACIMINTSYSVAR
1000
AcRTDxfName
1000
ACIMINTSYSVAR
1001
AcadCodePageInfo
1000
CodePage
1070
    38
  0
ACAD_PROXY_OBJECT
  5
E0
330
0
100
AcDbProxyObject
 90
      499
 91
      509
 95
  6815769
 70
     0
161
               148
310
0001014350535212511156915493D11253501C
330
48
 94
        0
1001
ACAD
1000
AcRTDxfName
1000
ACIMINTSYSVAR
1000
AcRTDxfName
1000
ACIMINTSYSVAR
1001
AcadCodePageInfo
1000
CodePage
1070
    38
  0
ACAD_PROXY_OBJECT
  5
E1
330
0
100
AcDbProxyObject
 90
      499
 91
      509
 95
  6815769
 70
     0
161
               124
310
00010142905352105510D21254D3D01C
330
48
 94
        0
1001
ACAD
1000
AcRTDxfName
1000
ACIMINTSYSVAR
1000
AcRTDxfName
1000
ACIMINTSYSVAR
1001
AcadCodePageInfo
1000
CodePage
1070
    38
  0
ACAD_PROXY_OBJECT
  5
E2
330
0
100
AcDbProxyObject
 90
      499
 91
      509
 95
  6815769
 70
     0
161
               148
310
00010143905354D25391D3115210551310566C
330
48
 94
        0
1001
ACAD
1000
AcRTDxfName
1000
ACIMINTSYSVAR
1000
AcRTDxfName
1000
ACIMINTSYSVAR
1001
AcadCodePageInfo
1000
CodePage
1070
    38
  0
ACAD_PROXY_OBJECT
  5
E3
330
0
100
AcDbProxyObject
 90
      499
 91
      509
 95
  6815769
 70
     0
161
               124
310
00010142D0535115D1D193111254D42C
330
48
 94
        0
1001
ACAD
1000
AcRTDxfName
1000
ACIMINTSYSVAR
1000
AcRTDxfName
1000
ACIMINTSYSVAR
1001
AcadCodePageInfo
1000
CodePage
1070
    38
  0
ACAD_PROXY_OBJECT
  5
E4
330
0
100
AcDbProxyObject
 90
      499
 91
      509
 95
  6815769
 70
     0
161
               100
310
00010142105350555513D213AC
330
48
 94
        0
1001
ACAD
1000
AcRTDxfName
1000
ACIMINTSYSVAR
1000
AcRTDxfName
1000
ACIMINTSYSVAR
1001
AcadCodePageInfo
1000
CodePage
1070
    38
  0
ACAD_PROXY_OBJECT
  5
E5
330
0
100
AcDbProxyObject
 90
      499
 91
      509
 95
  6815769
 70
     0
161
               116
310
000101425053521390D3D55395101C
330
48
 94
        0
1001
ACAD
1000
AcRTDxfName
1000
ACIMINTSYSVAR
1000
AcRTDxfName
1000
ACIMINTSYSVAR
1001
AcadCodePageInfo
1000
CodePage
1070
    38
  0
ACAD_PROXY_OBJECT
  5
E6
330
0
100
AcDbProxyObject
 90
      499
 91
      509
 95
  6815769
 70
     0
161
               108
310
0001014210535213941493D2901C
330
48
 94
        0
1001
ACAD
1000
AcRTDxfName
1000
ACIMINTSYSVAR
1000
AcRTDxfName
1000
ACIMINTSYSVAR
1001
AcadCodePageInfo
1000
CodePage
1070
    38
  0
ACAD_PROXY_OBJECT
  5
E7
330
0
100
AcDbProxyObject
 90
      499
 91
      509
 95
  6815769
 70
     0
161
               108
310
000101421053521395165411507C
330
48
 94
        0
1001
ACAD
1000
AcRTDxfName
1000
ACIMINTSYSVAR
1000
AcRTDxfName
1000
ACIMINTSYSVAR
1001
AcadCodePageInfo
1000
CodePage
1070
    38
  0
ACAD_PROXY_OBJECT
  5
E8
330
0
100
AcDbProxyObject
 90
      499
 91
      509
 95
  6815769
 70
     0
161
               108
310
000101421053521395925155D0FC
330
48
 94
        0
1001
ACAD
1000
AcRTDxfName
1000
ACIMINTSYSVAR
1000
AcRTDxfName
1000
ACIMINTSYSVAR
1001
AcadCodePageInfo
1000
CodePage
1070
    38
  0
ACAD_PROXY_OBJECT
  5
E9
330
0
100
AcDbProxyObject
 90
      499
 91
      509
 95
  6815769
 70
     0
161
               140
310
00010143505354D150D51253D390D3D4166C
330
48
 94
        0
1001
ACAD
1000
AcRTDxfName
1000
ACIMINTSYSVAR
1000
AcRTDxfName
1000
ACIMINTSYSVAR
1001
AcadCodePageInfo
1000
CodePage
1070
    38
  0
ACAD_PROXY_OBJECT
  5
EA
330
0
100
AcDbProxyObject
 90
      499
 91
      509
 95
  6815769
 70
     0
161
               108
310
00010142105350D3141493D2903C
330
48
 94
        0
1001
ACAD
1000
AcRTDxfName
1000
ACIMINTSYSVAR
1000
AcRTDxfName
1000
ACIMINTSYSVAR
1001
AcadCodePageInfo
1000
CodePage
1070
    38
  0
ACAD_PROXY_OBJECT
  5
EB
330
0
100
AcDbProxyObject
 90
      499
 91
      508
 95
  6815769
 70
     0
161
               212
310
00010143905350555513D2105510D21493D500000000000002E40C
330
48
 94
        0
1001
ACAD
1000
AcRTDxfName
1000
ACIMREALSYSVAR
1000
AcRTDxfName
1000
ACIMREALSYSVAR
1001
AcadCodePageInfo
1000
CodePage
1070
    38
  0
ACAD_PROXY_OBJECT
  5
EC
330
0
100
AcDbProxyObject
 90
      499
 91
      509
 95
  6815769
 70
     0
161
               156
310
00010143905350555513D2105510D2111155101C
330
48
 94
        0
1001
ACAD
1000
AcRTDxfName
1000
ACIMINTSYSVAR
1000
AcRTDxfName
1000
ACIMINTSYSVAR
1001
AcadCodePageInfo
1000
CodePage
1070
    38
  0
ACAD_PROXY_OBJECT
  5
F5
330
0
100
AcDbProxyObject
 90
      499
 91
      553
 95
  6815769
 70
     0
161
               714
310
0001000000009AA6A9AA4051E4D6F6E204D61792030372030303A30393A3539203230313220285554432901420DCB8C0B8D0CCB8C00518576564204175672032392031313A30333A3334203230313201420DCB8C0B8D0CCB8C0C
330
48
330
F6
330
F7
330
F9
330
0
 94
        0
1001
ACAD
1000
AcRTDxfName
1000
ADAPPL
1000
AcRTDxfName
1000
ADAPPL
  0
ACAD_PROXY_OBJECT
  5
F6
330
0
100
AcDbProxyObject
 90
      499
 91
      554
 95
  6815769
 70
     0
161
                70
310
0001AAA80820000000
330
48
330
F6
330
F6
 94
        0
1001
ACAD
1000
AcRTDxfName
1000
DEPMGR
1000
AcRTDxfName
1000
DEPMGR
  0
ACAD_PROXY_OBJECT
  5
F7
330
0
100
AcDbProxyObject
 90
      499
 91
      555
 95
  6815769
 70
     0
161
                48
310
00010000000093
330
48
330
0
330
F8
330
0
330
0
 94
        0
1001
ACAD
1000
AcRTDxfName
1000
PARAMMGR
1000
AcRTDxfName
1000
PARAMMGR
  0
ACAD_PROXY_OBJECT
  5
F8
330
0
100
AcDbProxyObject
 90
      499
 91
      556
 95
  6815769
 70
     0
161
                40
310
000100AAAA00
330
48
330
0
 94
        0
1001
ACAD
1000
AcRTDxfName
1000
PARAMSCOPE
1000
AcRTDxfName
1000
PARAMSCOPE
  0
ACAD_PROXY_OBJECT
  5
FE
330
0
100
AcDbProxyObject
 90
      499
 91
      523
 95
  6815769
 70
     0
161
               180
310
00010143105050D3D35411119390535140504434F4D50C
330
48
 94
        0
1001
ACAD
1000
AcRTDxfName
1000
ACIMSTRSYSVAR
1000
AcRTDxfName
1000
ACIMSTRSYSVAR
1001
AcadCodePageInfo
1000
CodePage
1070
    38
  0
ACAD_PROXY_OBJECT
  5
FF
330
0
100
AcDbProxyObject
 90
      499
 91
      523
 95
  6815769
 70
     0
161
               212
310
0001014390505193D311115491119390535140506466F6C646572C
330
48
 94
        0
1001
ACAD
1000
AcRTDxfName
1000
ACIMSTRSYSVAR
1000
AcRTDxfName
1000
ACIMSTRSYSVAR
1001
AcadCodePageInfo
1000
CodePage
1070
    38
  0
ACAD_PROXY_OBJECT
  5
100
330
0
100
AcDbProxyObject
 90
      499
 91
      523
 95
  6815769
 70
     0
161
               180
310
00010143105050539393D111939053514050428415629C
330
48
 94
        0
1001
ACAD
1000
AcRTDxfName
1000
ACIMSTRSYSVAR
1000
AcRTDxfName
1000
ACIMSTRSYSVAR
1001
AcadCodePageInfo
1000
CodePage
1070
    38
  0
ACAD_PROXY_OBJECT
  5
101
330
0
100
AcDbProxyObject
 90
      499
 91
      523
 95
  6815769
 70
     0
161
               420
310
00010143905050D3D35415925155D31254D500520546F700A46726F6E740A52696768740A4C6566740A426F74746F6D0A41757831C
330
48
 94
        0
1001
ACAD
1000
AcRTDxfName
1000
ACIMSTRSYSVAR
1000
AcRTDxfName
1000
ACIMSTRSYSVAR
1001
AcadCodePageInfo
1000
CodePage
1070
    38
  0
ACAD_PROXY_OBJECT
  5
106
330
0
100
AcDbProxyObject
 90
      499
 91
      561
 95
  6815769
 70
     0
161
                32
310
0001000000
330
48
340
103
330
108
330
103
 94
        0
1001
ACAD
1000
AcRTDxfName
1000
ACAMGRCOMPDEF
1000
AcRTDxfName
1000
ACAMGRCOMPDEF
  0
ACAD_PROXY_OBJECT
  5
107
330
0
100
AcDbProxyObject
 90
      499
 91
      562
 95
  6815769
 70
     0
161
                18
310
00018C
330
48
 94
        0
1001
ACAD
1000
AcRTDxfName
1000
ACCMCONTEXT
1000
AcRTDxfName
1000
ACCMCONTEXT
  0
ACAD_PROXY_OBJECT
  5
108
330
0
100
AcDbProxyObject
 90
      499
 91
      563
 95
  6815769
 70
     0
161
               202
310
00010143D5D64C0CCD0B4C0C4B64DE64790C0C9050055401550C
330
48
330
106
330
107
 94
        0
1001
ACAD
1000
AcRTDxfName
1000
ACAMCOMPDEF
1000
AcRTDxfName
1000
ACAMCOMPDEF
  0
ACAD_PROXY_OBJECT
  5
109
330
0
100
AcDbProxyObject
 90
      499
 91
      564
 95
  6815769
 70
     0
161
                50
310
000100AAAAAA8C
330
48
330
108
 94
        0
1001
ACAD
1000
AcRTDxfName
1000
ACAMCOMPDEFMGR
1000
AcRTDxfName
1000
ACAMCOMPDEFMGR
  0
ACAD_PROXY_OBJECT
  5
10A
330
0
100
AcDbProxyObject
 90
      499
 91
      565
 95
  6815769
 70
     0
161
               108
310
000190140A000000000000AAAAAC
330
48
330
10B
330
10B
330
10B
330
10B
330
10B
330
0
 94
        0
1001
ACAD
1000
AcRTDxfName
1000
AMCONTEXTMGR
1000
AcRTDxfName
1000
AMCONTEXTMGR
  0
ACAD_PROXY_OBJECT
  5
10B
330
0
100
AcDbProxyObject
 90
      499
 91
      566
 95
  6815769
 70
     0
161
                51
310
00010000AAAA8C
330
48
330
10A
330
108
 94
        0
1001
ACAD
1000
AcRTDxfName
1000
ACAMCONTEXTMODELER
1000
AcRTDxfName
1000
ACAMCONTEXTMODELER
  0
ACAD_PROXY_OBJECT
  5
3EB
330
0
100
AcDbProxyObject
 90
      499
 91
      577
 95
  6815769
 70
     0
161
                28
310
0001406C
330
48
 94
        0
1001
ACAD
1000
AcRTDxfName
1000
AMDTFORMULAUPDATEDISPATCHER
1000
AcRTDxfName
1000
AMDTFORMULAUPDATEDISPATCHER
  0
DICTIONARY
  5
42
102
{ACAD_REACTORS
330
41
102
}
330
41
100
AcDbDictionary
281
     1
  3
DWGSETTINGS
350
43
  3
FEM
350
AA
  3
Shaft
350
A7
  3
TRANSSETTINGS
350
44
  0
ACAD_PROXY_OBJECT
  5
63
102
{ACAD_REACTORS
330
41
102
}
330
41
100
AcDbProxyObject
 90
      499
 91
      525
 95
  6815769
 70
     0
161
             17944
310
41502491013041105357CC201C00030C0132441013141105357CC603800030C0132441013241105357CCA01400030C0132441013341105357CCE01800030C01199013441105357CD200C00030C01199013541105357CD600C00030C01199013641105357CDA00800030C01239013741105357CDE01000030C0119901384110
310
5357CE200400030C01199013941105357CE63F400030C0241102324141505357CC4C201C00030C0132902344141505357CC4C600C00030C0119902495041505357CC4CA01C00030C013240902304E41505357CC13A01C00030C0132902314E41505357CC53A03800030C0132902324E41505357CC93A01400030C013290233
310
4E41505357CCD3A01800030C0119902344E41505357CD13A00C00030C0119902354E41505357CD53A00C00030C0119902364E41505357CD93A00800030C0123902374E41505357CDD3A01000030C0119902384E41505357CE13A00400030C0119902394E41505357CE53A3F400030C024110332414E41905357CC4C13A01C0
310
0030C013290334414E41905357CC4C53A00C00030C011990349504E41905357CC4C93A01C00030C0132409044B4C494E41505357D0D3200400030C011942504494E464F42105357D410549151A01000030C011942D055241484D3541905357D093D4A01C00030C0132425045649455742105357D5925155D4E00400030C011
310
942D06424548494E4441905357D25395A3F400030C0243505545241494C41505357D514A00C00030C01194250348494441905357D21251201C00030C01194250356495341905357D59254E01C00030C01324250650415244494D42505357D41054911253600C00030C01194250652454644494D42505357D49151911253601
310
000030C0119425534110921395901398000000C0003FFFFFFFE415092139594D06424548494E448000000C0003FFFFFFFE411093D48C9055241484D358010000C300466411093D48CD055241484D358020000C30048E411093D48D5055241484D358000000C0003FFFFFFFE4110D0530C901348000000C0003FFFFFFFE4110
310
D0530CD01348020000C30048E4110D0530D501348070000C3004CA4110D0530DD013481E0000C30051A4110D15393901378000000C0003FFFFFFFE4110D15395D01378000000C0003FFFFFFFE4110D312539044B4C494E8000000C0003FFFFFFFE4110D3D38C501308000000C0003FFFFFFFD034110D3D38C901318000000C
310
0003FFFFFFFD034110D3D38CD01328000000C0003FFFFFFFD034110D3D38D101328000000C0003FFFFFFFD034111115510501348000000C0003FFFFFFFE4111125051D01358000000C0003FFFFFFFE4111125312501358000000C0003FFFFFFFE411112535410650415244494D8000000C0003FFFFFFFE4111125354906524
310
54644494D8000000C0003FFFFFFFE4111915353901388000000C0003FFFFFFFE415191535413901388030000C3003FFFFFFFE4151915354D410234418000000C0003FFFFFFFE4151915354D510234418030000C300466415191535593901328000000C0003FFFFFFFE415191535595101328030000C3004664112105510D01
310
388000000C0003FFFFFFFD014112125113901338000000C0003FFFFFFFD034112125115D01338000000C0003FFFFFFFD034112131253901348000000C0003FFFFFFFD01411213D0D3901378000000C0003FFFFFFFE411213D0D5D01378000000C0003FFFFFFFE4112539193D04494E464F8000000C0003FFFFFFFE41131150
310
51101358000000C0003FFFFFFFE419397D0921395902394E8000000C0003FFFFFFFE419397D0D3D38C502304E8000000C0003FFFFFFFD03419397D0D3D38C902314E8000000C0003FFFFFFFD03419397D0D3D38CD02324E8000000C0003FFFFFFFD03419397D0D3D38D102324E8000000C0003FFFFFFFD03419397D0D15393
310
902374E8000000C0003FFFFFFFE419397D0D15395D02374E8000000C0003FFFFFFFE419397D1125312502354E8000000C0003FFFFFFFE419397D2105510D02384E8000000C0003FFFFFFFD01419397D2125113902334E8000000C0003FFFFFFFD03419397D2125115D02334E8000000C0003FFFFFFFD03419397D311505110
310
2354E8000000C0003FFFFFFFE419397D391D25410349504E8000000C0003FFFFFFFE419397D412105390334414E8000000C0003FFFFFFFE419397D510D3D3902304E8000000C0003FFFFFFFD03419397D5121312502344E8000000C0003FFFFFFFD01419397D5131153902304E8000000C0003FFFFFFFD03419397D5941312
310
50332414E8000000C0003FFFFFFFE411391D25410249508000000C0003FFFFFFFE411410530C9055241484D358010000C300466411410530CD055241484D358020000C30048E411410530D5055241484D358000000C0003FFFFFFFE411412105390234418000000C0003FFFFFFFE411413D4D3901358000000C0003FFFFFFF
310
E411490D1D3901378000000C0003FFFFFFFE411490D1D5D01378000000C0003FFFFFFFE4114D09492D01348000000C0003FFFFFFFD014114D150D5101348000000C0003FFFFFFFD014114D6508CD01358020000C30048E411354D653501358020000C30048E411510D3D3901308000000C0003FFFFFFFD0341151213125013
310
48000000C0003FFFFFFFD01411512550C9055241484D358010000C300466411512550CD055241484D358020000C30048E411512550D5055241484D358000000C0003FFFFFFFE4115131153901308000000C0003FFFFFFFD03415514905253105545241494C8000000C0003FFFFFFFE4115149312501348000000C0003FFFFF
310
FFD01411516150C501368030000C300466411516150C901368030000C300466411516150CD01368000000C0003FFFFFFFE411516150D501368070000C3004CA411516150DD013681E0000C30051A4115925155D04564945578000000C0003FFFFFFFE41159151121034849448000000C0003FFFFFFFD024115915115903564
310
9538000000C0003FFFFFFFD02411594131250232418000000C0003FFFFFFFE4116925690501348000000C0003FFFFFFFD01AAA3F400030C01013F90A405194092340D1941119415324191941D3243932479467F6CC
340
16
340
16
340
16
340
64
340
16
340
16
340
16
340
65
340
16
340
16
340
65
340
66
340
16
340
16
340
16
340
16
340
64
340
16
340
16
340
16
340
65
340
16
340
16
340
65
340
66
340
16
340
67
340
16
340
16
340
16
340
16
340
16
340
64
340
16
340
16
340
16
340
15
340
15
340
15
340
15
340
15
340
15
340
15
340
15
340
15
340
68
340
15
340
15
340
15
340
15
340
15
340
15
340
15
340
15
340
15
340
15
340
15
340
15
340
15
340
16
340
15
340
15
340
15
340
15
340
69
340
15
340
15
340
68
340
15
340
15
340
15
340
15
340
15
340
15
340
15
340
15
340
68
340
15
340
15
340
15
340
69
340
15
340
15
340
15
340
15
340
15
340
15
340
15
340
15
340
15
340
15
340
15
340
15
340
15
340
15
340
68
340
15
340
15
340
15
340
15
340
15
340
15
340
15
340
15
340
15
340
15
340
15
340
15
340
15
340
15
340
15
340
15
340
15
340
15
340
15
340
15
340
15
340
15
340
6C
 94
        0
1001
ACAD
1000
AcRTDxfName
1000
AMGOBJPROPCFG
1000
AcRTDxfName
1000
AMGOBJPROPCFG
  0
ACAD_PROXY_OBJECT
  5
362
102
{ACAD_REACTORS
330
35D
102
}
330
35D
100
AcDbProxyObject
 90
      499
 91
      576
 95
  6815769
 70
     0
161
               253
310
43D1444494D454E53494F4E2C414D44545F2A5F44494D404A9012A404A9012AC
 94
        0
1001
ACAD
1000
AcRTDxfName
1000
ACAMGFILTERDAT
1000
AcRTDxfName
1000
ACAMGFILTERDAT
1001
AcadCodePageInfo
1000
CodePage
1070
    38
  0
ACAD_PROXY_OBJECT
  5
361
102
{ACAD_REACTORS
330
35D
102
}
330
35D
100
AcDbProxyObject
 90
      499
 91
      576
 95
  6815769
 70
     0
161
               181
310
43D012A42D05357D191504B505357CA9012A404A9012AC
 94
        0
1001
ACAD
1000
AcRTDxfName
1000
ACAMGFILTERDAT
1000
AcRTDxfName
1000
ACAMGFILTERDAT
1001
AcadCodePageInfo
1000
CodePage
1070
    38
  0
ACAD_PROXY_OBJECT
  5
35E
102
{ACAD_REACTORS
330
35D
102
}
330
35D
100
AcDbProxyObject
 90
      499
 91
      576
 95
  6815769
 70
     0
161
               133
310
43D054841544348404A9012A404A9012AC
 94
        0
1001
ACAD
1000
AcRTDxfName
1000
ACAMGFILTERDAT
1000
AcRTDxfName
1000
ACAMGFILTERDAT
  0
ACAD_PROXY_OBJECT
  5
35F
102
{ACAD_REACTORS
330
35D
102
}
330
35D
100
AcDbProxyObject
 90
      499
 91
      576
 95
  6815769
 70
     0
161
               549
310
43D044C494E4549CE0B0E138B0A8B4E0B0A8B4E138B105357CE0B105357CE138B0A8B505357CE0B0A8B505357CE139012A404A910494E534552542C535444504152543244C
 94
        0
1001
ACAD
1000
AcRTDxfName
1000
ACAMGFILTERDAT
1000
AcRTDxfName
1000
ACAMGFILTERDAT
1001
AcadCodePageInfo
1000
CodePage
1070
    38
  0
ACAD_PROXY_OBJECT
  5
363
102
{ACAD_REACTORS
330
35D
102
}
330
35D
100
AcDbProxyObject
 90
      499
 91
      576
 95
  6815769
 70
     0
161
               181
310
43D0341524341105357CD5012A404C906494E534552544
 94
        0
1001
ACAD
1000
AcRTDxfName
1000
ACAMGFILTERDAT
1000
AcRTDxfName
1000
ACAMGFILTERDAT
1001
AcadCodePageInfo
1000
CodePage
1070
    38
  0
ACAD_PROXY_OBJECT
  5
360
102
{ACAD_REACTORS
330
35D
102
}
330
35D
100
AcDbProxyObject
 90
      499
 91
      576
 95
  6815769
 70
     0
161
              1053
310
43D7841434D46434652414D452C41434D444154554D5441524745542C41434D444154554D49442C41434D57454C4453594D2C41434D5355524653594D2C41434D4645415449442C41434D504152545245462C41434D42414C4C4F4F4E2C414D44544544474553594D2C414D47534352455743414C435441424C45404A9012A
310
404A9012AC
 94
        0
1001
ACAD
1000
AcRTDxfName
1000
ACAMGFILTERDAT
1000
AcRTDxfName
1000
ACAMGFILTERDAT
1001
AcadCodePageInfo
1000
CodePage
1070
    38
  0
XRECORD
  5
47E
102
{ACAD_REACTORS
330
47C
102
}
330
47C
100
AcDbXrecord
280
     1
330
49E
330
0
330
382
330
0
330
0
330
0
  0
LAYER_INDEX
  5
91
102
{ACAD_REACTORS
330
90
102
}
330
90
100
AcDbIndex
 40
2459781.553333333
100
AcDbLayerIndex
  8
0
360
92
 90
        2
  8
DEFPOINTS
360
40E
 90
        0
  8
AM_CL
360
40F
 90
        2
  8
MOJI
360
410
 90
       21
  8
WAKU
360
412
 90
       32
  8
SUNPO
360
413
 90
        1
  8
YAKUMONO
360
414
 90
        1
  8
SEIHIN
360
415
 90
       39
  8
BISUKUGI
360
416
 90
        0
  8
KUTAI
360
417
 90
       16
  8
BOUSUISI
360
418
 90
        5
  8
YAKUMONO2
360
419
 90
        2
  8
DOUBUTI
360
41A
 90
        3
  8
SONOTABUZAI
360
BEF
 90
        0
  0
DICTIONARY
  5
C77
330
63B
100
AcDbDictionary
280
     1
281
     1
  3
ACAD_XREC_ROUNDTRIP
360
C78
  0
DICTIONARY
  5
677
330
22
100
AcDbDictionary
280
     1
281
     1
  0
DICTIONARY
  5
602
330
601
100
AcDbDictionary
280
     1
281
     1
  3
BUMPTILE
360
604
  3
DIFFUSETILE
360
603
  3
OPACITYTILE
360
607
  3
REFLECTIONTILE
360
606
  3
REFRACTIONTILE
360
608
  3
SPECULARTILE
360
605
  0
DICTIONARY
  5
5FA
330
5F9
100
AcDbDictionary
280
     1
281
     1
  3
BUMPTILE
360
5FC
  3
DIFFUSETILE
360
5FB
  3
OPACITYTILE
360
5FF
  3
REFLECTIONTILE
360
5FE
  3
REFRACTIONTILE
360
600
  3
SPECULARTILE
360
5FD
  0
DICTIONARY
  5
C73
330
637
100
AcDbDictionary
280
     1
281
     1
  3
ACAD_XREC_ROUNDTRIP
360
C74
  0
DICTIONARY
  5
C75
330
639
100
AcDbDictionary
280
     1
281
     1
  3
ACAD_XREC_ROUNDTRIP
360
C76
  0
DICTIONARY
  5
66C
330
623
100
AcDbDictionary
280
     1
281
     1
  3
ACAD_ROUNDTRIP_2008_TABLESTYLE_CELLSTYLEMAP
360
C39
  0
DICTIONARY
  5
C4D
330
60F
100
AcDbDictionary
280
     1
281
     1
  3
ACAD_XREC_ROUNDTRIP
360
C4E
  0
DICTIONARY
  5
C4B
330
60E
100
AcDbDictionary
280
     1
281
     1
  3
ACAD_XREC_ROUNDTRIP
360
C4C
  0
DICTIONARY
  5
C59
330
615
100
AcDbDictionary
280
     1
281
     1
  3
ACAD_XREC_ROUNDTRIP
360
C5A
  0
DICTIONARY
  5
C61
330
619
100
AcDbDictionary
280
     1
281
     1
  3
ACAD_XREC_ROUNDTRIP
360
C62
  0
DICTIONARY
  5
C53
330
612
100
AcDbDictionary
280
     1
281
     1
  3
ACAD_XREC_ROUNDTRIP
360
C54
  0
DICTIONARY
  5
C57
330
614
100
AcDbDictionary
280
     1
281
     1
  3
ACAD_XREC_ROUNDTRIP
360
C58
  0
DICTIONARY
  5
C71
330
621
100
AcDbDictionary
280
     1
281
     1
  3
ACAD_XREC_ROUNDTRIP
360
C72
  0
DICTIONARY
  5
C5F
330
618
100
AcDbDictionary
280
     1
281
     1
  3
ACAD_XREC_ROUNDTRIP
360
C60
  0
DICTIONARY
  5
C43
330
60A
100
AcDbDictionary
280
     1
281
     1
  3
ACAD_XREC_ROUNDTRIP
360
C44
  0
DICTIONARY
  5
C45
330
60B
100
AcDbDictionary
280
     1
281
     1
  3
ACAD_XREC_ROUNDTRIP
360
C46
  0
DICTIONARY
  5
C47
330
60C
100
AcDbDictionary
280
     1
281
     1
  3
ACAD_XREC_ROUNDTRIP
360
C48
  0
DICTIONARY
  5
C49
330
60D
100
AcDbDictionary
280
     1
281
     1
  3
ACAD_XREC_ROUNDTRIP
360
C4A
  0
DICTIONARY
  5
C51
330
611
100
AcDbDictionary
280
     1
281
     1
  3
ACAD_XREC_ROUNDTRIP
360
C52
  0
DICTIONARY
  5
C6D
330
61F
100
AcDbDictionary
280
     1
281
     1
  3
ACAD_XREC_ROUNDTRIP
360
C6E
  0
DICTIONARY
  5
C5D
330
617
100
AcDbDictionary
280
     1
281
     1
  3
ACAD_XREC_ROUNDTRIP
360
C5E
  0
DICTIONARY
  5
C6F
330
620
100
AcDbDictionary
280
     1
281
     1
  3
ACAD_XREC_ROUNDTRIP
360
C70
  0
DICTIONARY
  5
C55
330
613
100
AcDbDictionary
280
     1
281
     1
  3
ACAD_XREC_ROUNDTRIP
360
C56
  0
DICTIONARY
  5
C6B
330
61E
100
AcDbDictionary
280
     1
281
     1
  3
ACAD_XREC_ROUNDTRIP
360
C6C
  0
DICTIONARY
  5
C69
330
61D
100
AcDbDictionary
280
     1
281
     1
  3
ACAD_XREC_ROUNDTRIP
360
C6A
  0
DICTIONARY
  5
C63
330
61A
100
AcDbDictionary
280
     1
281
     1
  3
ACAD_XREC_ROUNDTRIP
360
C64
  0
DICTIONARY
  5
C65
330
61B
100
AcDbDictionary
280
     1
281
     1
  3
ACAD_XREC_ROUNDTRIP
360
C66
  0
DICTIONARY
  5
C5B
330
616
100
AcDbDictionary
280
     1
281
     1
  3
ACAD_XREC_ROUNDTRIP
360
C5C
  0
DICTIONARY
  5
C4F
330
610
100
AcDbDictionary
280
     1
281
     1
  3
ACAD_XREC_ROUNDTRIP
360
C50
  0
DICTIONARY
  5
C67
330
61C
100
AcDbDictionary
280
     1
281
     1
  3
ACAD_XREC_ROUNDTRIP
360
C68
  0
XRECORD
  5
C3B
102
{ACAD_REACTORS
330
C41
102
}
330
C41
100
AcDbXrecord
280
     1
  1
AcDb_Thumbnail_Schema
102
{ATTRRECORD
341
C3C
  2
AcDbDs::TreatedAsObjectData
280
     1
291
     1
102
ATTRRECORD}
102
{ATTRRECORD
341
C3D
  2
AcDbDs::Legacy
280
     1
291
     1
102
ATTRRECORD}
  2
AcDbDs::ID
280
    10
 91
        8
102
{ATTRRECORD
341
C3E
  2
AcDs:Indexable
280
     1
291
     1
102
ATTRRECORD}
102
{ATTRRECORD
341
C3F
  2
AcDbDs::HandleAttribute
280
     7
282
     1
102
ATTRRECORD}
  2
Thumbnail_Data
280
    15
 91
        0
  0
XRECORD
  5
C3C
102
{ACAD_REACTORS
330
C41
102
}
330
C41
100
AcDbXrecord
280
     1
  1
AcDbDs::TreatedAsObjectDataSchema
  2
AcDbDs::TreatedAsObjectData
280
     1
 91
        0
  0
XRECORD
  5
C3D
102
{ACAD_REACTORS
330
C41
102
}
330
C41
100
AcDbXrecord
280
     1
  1
AcDbDs::LegacySchema
  2
AcDbDs::Legacy
280
     1
 91
        0
  0
XRECORD
  5
C3E
102
{ACAD_REACTORS
330
C41
102
}
330
C41
100
AcDbXrecord
280
     1
  1
AcDbDs::IndexedPropertySchema
  2
AcDs:Indexable
280
     1
 91
        0
  0
XRECORD
  5
C3F
102
{ACAD_REACTORS
330
C41
102
}
330
C41
100
AcDbXrecord
280
     1
  1
AcDbDs::HandleAttributeSchema
  2
AcDbDs::HandleAttribute
280
     7
 91
        1
284
     1
  0
ACAD_PROXY_OBJECT
  5
5D
102
{ACAD_REACTORS
330
5C
102
}
330
5C
100
AcDbProxyObject
 90
      499
 91
      522
 95
  6815769
 70
     0
161
               149
310
057356C1D70406406AA8FFFFFFFF05C1019014
330
1F
330
0
330
108
 94
        0
1001
ACAD
1000
AcRTDxfName
1000
ACMDATAENTRYBLOCK
1000
AcRTDxfName
1000
ACMDATAENTRYBLOCK
  0
ACAD_PROXY_OBJECT
  5
35A
102
{ACAD_REACTORS
330
5C
102
}
330
5C
100
AcDbProxyObject
 90
      499
 91
      522
 95
  6815769
 70
     0
161
               177
310
057356C1D7040A406A90240901404FFFFFFFF05C29014C
330
207
330
0
330
0
330
0
330
0
 94
        0
1001
ACAD
1000
AcRTDxfName
1000
ACMDATAENTRYBLOCK
1000
AcRTDxfName
1000
ACMDATAENTRYBLOCK
1000
AcRTDxfName
1000
ACMDATAENTRYBLOCK
1000
AcRTDxfName
1000
ACMDATAENTRYBLOCK
1000
AcRTDxfName
1000
ACMDATAENTRYBLOCK
1000
AcRTDxfName
1000
ACMDATAENTRYBLOCK
1001
AcadCodePageInfo
1000
CodePage
1070
    38
  0
ACAD_PROXY_OBJECT
  5
62
102
{ACAD_REACTORS
330
61
102
}
330
61
100
AcDbProxyObject
 90
      499
 91
      524
 95
  6815769
 70
     0
161
              2497
310
5C00000000000000C408000000C00040D254D3D01640600800030C0200800030C000000000000000C40C88A2085A0B6B23A22B233B2A9BA3220480A1C82C6DAA6EAE4CCA8CAF0E8A6E8C88120284A0B1B6A321A329BA3220480A1A82C6DAAECAD8C8D2DCCEA6E8C8812028420B1B6A4B229BA3220480A1682C6DA88C2E8EAD
310
AA6E8C88120284A0B1B6A127A6A9BA3220480A2082DAC8E888CAE8C2D2D8A6F2DAA6E8C88120288A0B6B23A29B2B1BA34B7B729BCB6A9BA3220480A2282DAC8E886CADCE8CAE498D2DCCAA6E8C88120285A0B6B23A2737BA32A9BA3220480A1682C682DACE98C2F2A6E8C88120285A0B1A0B6B3A234B6A9BA3220480A2282C
310
682DACE90DED8CA86D0C2E4E8A6E8C88120286A0B1A0B6B3AA34BA3632A9BA3220480A2282DAC8E8A8D0E4CAC2C898D2DCCAA6E8C88120320480CC
340
6D
360
6E
360
6F
360
70
360
71
360
72
360
73
360
74
360
75
360
76
360
77
360
78
360
7F
360
80
360
8C
360
8D
360
10D
340
0
340
0
 94
        0
1001
ACAD
1000
AcRTDxfName
1000
ACMSTANDARDISO
1000
AcRTDxfName
1000
ACMSTANDARDISO
  0
ACAD_PROXY_OBJECT
  5
43
102
{ACAD_REACTORS
330
42
102
}
330
42
100
AcDbProxyObject
 90
      499
 91
      504
 95
  6815769
 70
     0
161
              2396
310
4050B44574753455454494E4753A1286829C8E82A4A482B282A106660F8686AF86C608321A2A720A723A0A849A1ABE1C983E18999AA0C868A9C889282940000000000000488083A1A2A72224A0A9A0A8418983E19183E199820E868A9C8892A6A894000000000000010808321A2A72622A7250000000000000122020C868A9
310
C9E8C8C940000000000000488084A1A624A720A92920ACA0A8418983E19183E19982108698929C8AA8B2A082A0AB098929C8A84A22BA3AAA9A1A0A622A50A0E9882A6A89E849482A02608426A0A5A2AB24A2ABA7E8120CA0A68682988A0C00800010652455649534941501304154D0D0531150540CC4E8C50954494D455354
310
414D504A0E909C3D14F30734141D5915494D253D3905414C4D4B8C0C1107B44574753455454494E4753454E447DC
 94
        0
1001
ACAD
1000
AcRTDxfName
1000
AMGSETTINGSOBJ
1000
AcRTDxfName
1000
AMGSETTINGSOBJ
  0
ACAD_PROXY_OBJECT
  5
AA
102
{ACAD_REACTORS
330
42
102
}
330
42
100
AcDbProxyObject
 90
      499
 91
      504
 95
  6815769
 70
     0
161
               411
310
4050346454D21092DCC6E486DECACC942842630BCA3B937BAB820A8320A6AFA322A0A20F688AE8EA68AA8A8929C8EA68A9C88FAC
 94
        0
1001
ACAD
1000
AcRTDxfName
1000
AMGSETTINGSOBJ
1000
AcRTDxfName
1000
AMGSETTINGSOBJ
1001
AcadCodePageInfo
1000
CodePage
1070
    38
  0
ACAD_PROXY_OBJECT
  5
A7
102
{ACAD_REACTORS
330
42
102
}
330
42
100
AcDbProxyObject
 90
      499
 91
      504
 95
  6815769
 70
     0
161
               513
310
40505536861667421292DCE8CAE4E4EAE0E89FC84A634B3B43A2634B732A7F21A98D2CED0E898D2DCCAACD2CAEE9FC883DA22BA3A9A2AA2A24A723A9A2A7223ECC
 94
        0
1001
ACAD
1000
AcRTDxfName
1000
AMGSETTINGSOBJ
1000
AcRTDxfName
1000
AMGSETTINGSOBJ
1001
AcadCodePageInfo
1000
CodePage
1070
    38
  0
ACAD_PROXY_OBJECT
  5
44
102
{ACAD_REACTORS
330
42
102
}
330
42
100
AcDbProxyObject
 90
      499
 91
      504
 95
  6815769
 70
     0
161
               852
310
4050D5452414E5353455454494E4753A2488A482AE929C8EA8A4829CA69882A8929E9C0C00800050D4F524947494E414C4C595F4F4E0600400008529A7AAA921A2A620A723A0A81A2A72AA12AAA0A48AA68AA4AC8A0C0080001107B44574753455454494E4753454E447DC
 94
        0
1001
ACAD
1000
AcRTDxfName
1000
AMGSETTINGSOBJ
1000
AcRTDxfName
1000
AMGSETTINGSOBJ
1001
AcadCodePageInfo
1000
CodePage
1070
    38
  0
IDBUFFER
  5
92
330
0
100
AcDbIdBuffer
330
BB3
330
BB4
  0
IDBUFFER
  5
40E
330
0
100
AcDbIdBuffer
  0
IDBUFFER
  5
40F
330
0
100
AcDbIdBuffer
330
3F1
330
3F4
  0
IDBUFFER
  5
410
330
0
100
AcDbIdBuffer
330
36B
330
36C
330
36D
330
3A0
330
3A1
330
3A2
330
3A3
330
3A4
330
3A6
330
3AB
330
3AE
330
3AF
330
3B1
330
3B2
330
3B3
330
3B6
330
3B7
330
3B8
330
3B9
330
3BA
330
3BB
  0
IDBUFFER
  5
412
330
0
100
AcDbIdBuffer
330
36A
330
3CC
330
3EC
330
3ED
330
3EE
330
3F2
330
3F3
330
3F5
330
3F6
330
3F7
330
3F8
330
3F9
330
3FA
330
3FB
330
3FC
330
3FD
330
3FE
330
3FF
330
400
330
401
330
402
330
403
330
404
330
405
330
406
330
407
330
408
330
409
330
40A
330
40B
330
40C
330
40D
  0
IDBUFFER
  5
413
330
0
100
AcDbIdBuffer
330
368
  0
IDBUFFER
  5
414
330
0
100
AcDbIdBuffer
330
49E
  0
IDBUFFER
  5
415
330
0
100
AcDbIdBuffer
330
BBC
330
BBD
330
BBE
330
BBF
330
BC0
330
BC1
330
BC2
330
BC3
330
BC4
330
BC5
330
BC6
330
BC7
330
BC8
330
BC9
330
BCA
330
BCB
330
BCC
330
BCD
330
BCE
330
BCF
330
BD0
330
BD1
330
BD2
330
BD3
330
BD4
330
BD5
330
BD6
330
BD7
330
BD8
330
BD9
330
BDA
330
BDB
330
BDC
330
BDD
330
BDE
330
BDF
330
BE0
330
BE1
330
BE2
  0
IDBUFFER
  5
416
330
0
100
AcDbIdBuffer
  0
IDBUFFER
  5
417
330
0
100
AcDbIdBuffer
330
365
330
366
330
39E
330
3A5
330
3BF
330
3C0
330
3C1
330
3C2
330
3C3
330
3C4
330
3C5
330
3C6
330
3C7
330
3C8
330
3C9
330
3CA
  0
IDBUFFER
  5
418
330
0
100
AcDbIdBuffer
330
39F
330
3A7
330
3A9
330
3BC
330
BB5
  0
IDBUFFER
  5
419
330
0
100
AcDbIdBuffer
330
382
330
BBB
  0
IDBUFFER
  5
41A
330
0
100
AcDbIdBuffer
330
39B
330
39C
330
39D
  0
IDBUFFER
  5
BEF
330
0
100
AcDbIdBuffer
  0
XRECORD
  5
C78
102
{ACAD_REACTORS
330
C77
102
}
330
C77
100
AcDbXrecord
280
     1
102
DISPLAYNAME
  1
Metric50
102
FLAGS
 90
        0
  0
XRECORD
  5
604
102
{ACAD_REACTORS
330
602
102
}
330
602
100
AcDbXrecord
280
     1
270
     1
271
     1
  0
XRECORD
  5
603
102
{ACAD_REACTORS
330
602
102
}
330
602
100
AcDbXrecord
280
     1
270
     1
271
     1
  0
XRECORD
  5
607
102
{ACAD_REACTORS
330
602
102
}
330
602
100
AcDbXrecord
280
     1
270
     1
271
     1
  0
XRECORD
  5
606
102
{ACAD_REACTORS
330
602
102
}
330
602
100
AcDbXrecord
280
     1
270
     1
271
     1
  0
XRECORD
  5
608
102
{ACAD_REACTORS
330
602
102
}
330
602
100
AcDbXrecord
280
     1
270
     1
271
     1
  0
XRECORD
  5
605
102
{ACAD_REACTORS
330
602
102
}
330
602
100
AcDbXrecord
280
     1
270
     1
271
     1
  0
XRECORD
  5
5FC
102
{ACAD_REACTORS
330
5FA
102
}
330
5FA
100
AcDbXrecord
280
     1
270
     1
271
     1
  0
XRECORD
  5
5FB
102
{ACAD_REACTORS
330
5FA
102
}
330
5FA
100
AcDbXrecord
280
     1
270
     1
271
     1
  0
XRECORD
  5
5FF
102
{ACAD_REACTORS
330
5FA
102
}
330
5FA
100
AcDbXrecord
280
     1
270
     1
271
     1
  0
XRECORD
  5
5FE
102
{ACAD_REACTORS
330
5FA
102
}
330
5FA
100
AcDbXrecord
280
     1
270
     1
271
     1
  0
XRECORD
  5
600
102
{ACAD_REACTORS
330
5FA
102
}
330
5FA
100
AcDbXrecord
280
     1
270
     1
271
     1
  0
XRECORD
  5
5FD
102
{ACAD_REACTORS
330
5FA
102
}
330
5FA
100
AcDbXrecord
280
     1
270
     1
271
     1
  0
XRECORD
  5
C74
102
{ACAD_REACTORS
330
C73
102
}
330
C73
100
AcDbXrecord
280
     1
102
ACAD_ROUNDTRIP_2012_MLEADER_STYLE
298
     1
  0
XRECORD
  5
C76
102
{ACAD_REACTORS
330
C75
102
}
330
C75
100
AcDbXrecord
280
     1
102
DISPLAYNAME
  1
Metric50
102
FLAGS
 90
        0
  0
CELLSTYLEMAP
  5
C39
102
{ACAD_REACTORS
330
66C
102
}
330
66C
100
AcDbCellStyleMap
 90
        3
300
CELLSTYLE
  1
TABLEFORMAT_BEGIN
 90
        5
170
     1
 91
        0
 92
    32768
 62
   257
 93
        1
300
CONTENTFORMAT
  1
CONTENTFORMAT_BEGIN
 90
        0
 91
        0
 92
      512
 93
        0
300

 40
0.0
140
1.0
 94
        5
 62
     0
340
11
144
6.0
309
CONTENTFORMAT_END
171
     1
301
MARGIN
  1
CELLMARGIN_BEGIN
 40
1.5
 40
1.5
 40
1.5
 40
1.5
 40
4.5
 40
4.5
309
CELLMARGIN_END
 94
        6
 95
        1
302
GRIDFORMAT
  1
GRIDFORMAT_BEGIN
 90
        0
 91
        1
 62
     0
 92
       -2
340
0
 93
        0
 40
1.125
309
GRIDFORMAT_END
 95
        2
302
GRIDFORMAT
  1
GRIDFORMAT_BEGIN
 90
        0
 91
        1
 62
     0
 92
       -2
340
0
 93
        0
 40
1.125
309
GRIDFORMAT_END
 95
        4
302
GRIDFORMAT
  1
GRIDFORMAT_BEGIN
 90
        0
 91
        1
 62
     0
 92
       -2
340
0
 93
        0
 40
1.125
309
GRIDFORMAT_END
 95
        8
302
GRIDFORMAT
  1
GRIDFORMAT_BEGIN
 90
        0
 91
        1
 62
     0
 92
       -2
340
0
 93
        0
 40
1.125
309
GRIDFORMAT_END
 95
       16
302
GRIDFORMAT
  1
GRIDFORMAT_BEGIN
 90
        0
 91
        1
 62
     0
 92
       -2
340
0
 93
        0
 40
1.125
309
GRIDFORMAT_END
 95
       32
302
GRIDFORMAT
  1
GRIDFORMAT_BEGIN
 90
        0
 91
        1
 62
     0
 92
       -2
340
0
 93
        0
 40
1.125
309
GRIDFORMAT_END
309
TABLEFORMAT_END
  1
CELLSTYLE_BEGIN
 90
        1
 91
        1
300
_TITLE
309
CELLSTYLE_END
300
CELLSTYLE
  1
TABLEFORMAT_BEGIN
 90
        5
170
     1
 91
        0
 92
        0
 62
   257
 93
        1
300
CONTENTFORMAT
  1
CONTENTFORMAT_BEGIN
 90
        0
 91
        0
 92
      512
 93
        0
300

 40
0.0
140
1.0
 94
        5
 62
     0
340
11
144
4.5
309
CONTENTFORMAT_END
171
     1
301
MARGIN
  1
CELLMARGIN_BEGIN
 40
1.5
 40
1.5
 40
1.5
 40
1.5
 40
4.5
 40
4.5
309
CELLMARGIN_END
 94
        6
 95
        1
302
GRIDFORMAT
  1
GRIDFORMAT_BEGIN
 90
        0
 91
        1
 62
     0
 92
       -2
340
0
 93
        0
 40
1.125
309
GRIDFORMAT_END
 95
        2
302
GRIDFORMAT
  1
GRIDFORMAT_BEGIN
 90
        0
 91
        1
 62
     0
 92
       -2
340
0
 93
        0
 40
1.125
309
GRIDFORMAT_END
 95
        4
302
GRIDFORMAT
  1
GRIDFORMAT_BEGIN
 90
        0
 91
        1
 62
     0
 92
       -2
340
0
 93
        0
 40
1.125
309
GRIDFORMAT_END
 95
        8
302
GRIDFORMAT
  1
GRIDFORMAT_BEGIN
 90
        0
 91
        1
 62
     0
 92
       -2
340
0
 93
        0
 40
1.125
309
GRIDFORMAT_END
 95
       16
302
GRIDFORMAT
  1
GRIDFORMAT_BEGIN
 90
        0
 91
        1
 62
     0
 92
       -2
340
0
 93
        0
 40
1.125
309
GRIDFORMAT_END
 95
       32
302
GRIDFORMAT
  1
GRIDFORMAT_BEGIN
 90
        0
 91
        1
 62
     0
 92
       -2
340
0
 93
        0
 40
1.125
309
GRIDFORMAT_END
309
TABLEFORMAT_END
  1
CELLSTYLE_BEGIN
 90
        2
 91
        1
300
_HEADER
309
CELLSTYLE_END
300
CELLSTYLE
  1
TABLEFORMAT_BEGIN
 90
        5
170
     1
 91
        0
 92
        0
 62
   257
 93
        1
300
CONTENTFORMAT
  1
CONTENTFORMAT_BEGIN
 90
        0
 91
        0
 92
      512
 93
        0
300

 40
0.0
140
1.0
 94
        2
 62
     0
340
11
144
4.5
309
CONTENTFORMAT_END
171
     1
301
MARGIN
  1
CELLMARGIN_BEGIN
 40
1.5
 40
1.5
 40
1.5
 40
1.5
 40
4.5
 40
4.5
309
CELLMARGIN_END
 94
        6
 95
        1
302
GRIDFORMAT
  1
GRIDFORMAT_BEGIN
 90
        0
 91
        1
 62
     0
 92
       -2
340
0
 93
        0
 40
1.125
309
GRIDFORMAT_END
 95
        2
302
GRIDFORMAT
  1
GRIDFORMAT_BEGIN
 90
        0
 91
        1
 62
     0
 92
       -2
340
0
 93
        0
 40
1.125
309
GRIDFORMAT_END
 95
        4
302
GRIDFORMAT
  1
GRIDFORMAT_BEGIN
 90
        0
 91
        1
 62
     0
 92
       -2
340
0
 93
        0
 40
1.125
309
GRIDFORMAT_END
 95
        8
302
GRIDFORMAT
  1
GRIDFORMAT_BEGIN
 90
        0
 91
        1
 62
     0
 92
       -2
340
0
 93
        0
 40
1.125
309
GRIDFORMAT_END
 95
       16
302
GRIDFORMAT
  1
GRIDFORMAT_BEGIN
 90
        0
 91
        1
 62
     0
 92
       -2
340
0
 93
        0
 40
1.125
309
GRIDFORMAT_END
 95
       32
302
GRIDFORMAT
  1
GRIDFORMAT_BEGIN
 90
        0
 91
        1
 62
     0
 92
       -2
340
0
 93
        0
 40
1.125
309
GRIDFORMAT_END
309
TABLEFORMAT_END
  1
CELLSTYLE_BEGIN
 90
        3
 91
        2
300
_DATA
309
CELLSTYLE_END
  0
XRECORD
  5
C4E
102
{ACAD_REACTORS
330
C4D
102
}
330
C4D
100
AcDbXrecord
280
     1
102
RTVSPost2010Prop28
280
     1
102
RTVSPost2010PropOp28
 70
     1
102
RTVSPost2010Prop29
280
     1
102
RTVSPost2010PropOp29
 70
     1
102
RTVSPost2010Prop30
280
     0
102
RTVSPost2010PropOp30
 70
     1
102
RTVSPost2010Prop31
280
     0
102
RTVSPost2010PropOp31
 70
     1
102
RTVSPost2010Prop32
280
     0
102
RTVSPost2010PropOp32
 70
     1
102
RTVSPost2010Prop33
280
     0
102
RTVSPost2010PropOp33
 70
     1
102
RTVSPost2010Prop34
280
     0
102
RTVSPost2010PropOp34
 70
     1
102
RTVSPost2010Prop35
280
     0
102
RTVSPost2010PropOp35
 70
     1
102
RTVSPost2010Prop36
280
     0
102
RTVSPost2010PropOp36
 70
     1
102
RTVSPost2010Prop37
 90
       50
102
RTVSPost2010PropOp37
 70
     1
102
RTVSPost2010Prop38
140
0.0
102
RTVSPost2010PropOp38
 70
     1
102
RTVSPost2010Prop39
140
1.0
102
RTVSPost2010PropOp39
 70
     1
102
RTVSPost2010Prop40
 90
        0
102
RTVSPost2010PropOp40
 70
     1
102
RTVSPost2010Prop41ColorIndex
 90
       18
102
RTVSPost2010Prop41ColorRGB
 90
        0
102
RTVSPost2010PropOp41
 70
     1
102
RTVSPost2010Prop42
 90
       50
102
RTVSPost2010PropOp42
 70
     1
102
RTVSPost2010Prop43
 90
        3
102
RTVSPost2010PropOp43
 70
     1
102
RTVSPost2010Prop44ColorIndex
 90
        5
102
RTVSPost2010Prop44ColorRGB
 90
      255
102
RTVSPost2010PropOp44
 70
     1
102
RTVSPost2010Prop45
280
     0
102
RTVSPost2010PropOp45
 70
     1
102
RTVSPost2010Prop46
 90
       50
102
RTVSPost2010PropOp46
 70
     1
102
RTVSPost2010Prop47
 90
       50
102
RTVSPost2010PropOp47
 70
     1
102
RTVSPost2010Prop48
 90
       50
102
RTVSPost2010PropOp48
 70
     1
102
RTVSPost2010Prop49
280
     0
102
RTVSPost2010PropOp49
 70
     1
102
RTVSPost2010Prop50
 90
       50
102
RTVSPost2010PropOp50
 70
     1
102
RTVSPost2010Prop51ColorIndex
 90
      256
102
RTVSPost2010Prop51ColorRGB
 90
-16777216
102
RTVSPost2010PropOp51
 70
     0
102
RTVSPost2010Prop52
140
1.0
102
RTVSPost2010PropOp52
 70
     0
102
RTVSPost2010Prop53
 90
        2
102
RTVSPost2010PropOp53
 70
     1
102
RTVSPost2010Prop54
  1
strokes_ogs.tif
102
RTVSPost2010PropOp54
 70
     1
102
RTVSPost2010Prop55
280
     0
102
RTVSPost2010PropOp55
 70
     1
102
RTVSPost2010Prop56
140
1.0
102
RTVSPost2010PropOp56
 70
     1
102
RTVSPost2010Prop57
140
1.0
102
RTVSPost2010PropOp57
 70
     1
  0
XRECORD
  5
C4C
102
{ACAD_REACTORS
330
C4B
102
}
330
C4B
100
AcDbXrecord
280
     1
102
RTVSPost2010Prop28
280
     0
102
RTVSPost2010PropOp28
 70
     1
102
RTVSPost2010Prop29
280
     1
102
RTVSPost2010PropOp29
 70
     1
102
RTVSPost2010Prop30
280
     1
102
RTVSPost2010PropOp30
 70
     1
102
RTVSPost2010Prop31
280
     0
102
RTVSPost2010PropOp31
 70
     1
102
RTVSPost2010Prop32
280
     0
102
RTVSPost2010PropOp32
 70
     1
102
RTVSPost2010Prop33
280
     0
102
RTVSPost2010PropOp33
 70
     1
102
RTVSPost2010Prop34
280
     0
102
RTVSPost2010PropOp34
 70
     1
102
RTVSPost2010Prop35
280
     0
102
RTVSPost2010PropOp35
 70
     1
102
RTVSPost2010Prop36
280
     0
102
RTVSPost2010PropOp36
 70
     1
102
RTVSPost2010Prop37
 90
       50
102
RTVSPost2010PropOp37
 70
     1
102
RTVSPost2010Prop38
140
0.0
102
RTVSPost2010PropOp38
 70
     1
102
RTVSPost2010Prop39
140
1.0
102
RTVSPost2010PropOp39
 70
     1
102
RTVSPost2010Prop40
 90
        0
102
RTVSPost2010PropOp40
 70
     1
102
RTVSPost2010Prop41ColorIndex
 90
       18
102
RTVSPost2010Prop41ColorRGB
 90
        0
102
RTVSPost2010PropOp41
 70
     1
102
RTVSPost2010Prop42
 90
       50
102
RTVSPost2010PropOp42
 70
     1
102
RTVSPost2010Prop43
 90
        3
102
RTVSPost2010PropOp43
 70
     1
102
RTVSPost2010Prop44ColorIndex
 90
        5
102
RTVSPost2010Prop44ColorRGB
 90
      255
102
RTVSPost2010PropOp44
 70
     1
102
RTVSPost2010Prop45
280
     0
102
RTVSPost2010PropOp45
 70
     1
102
RTVSPost2010Prop46
 90
       50
102
RTVSPost2010PropOp46
 70
     1
102
RTVSPost2010Prop47
 90
       50
102
RTVSPost2010PropOp47
 70
     1
102
RTVSPost2010Prop48
 90
       50
102
RTVSPost2010PropOp48
 70
     1
102
RTVSPost2010Prop49
280
     0
102
RTVSPost2010PropOp49
 70
     1
102
RTVSPost2010Prop50
 90
       50
102
RTVSPost2010PropOp50
 70
     1
102
RTVSPost2010Prop51ColorIndex
 90
      256
102
RTVSPost2010Prop51ColorRGB
 90
-16777216
102
RTVSPost2010PropOp51
 70
     0
102
RTVSPost2010Prop52
140
1.0
102
RTVSPost2010PropOp52
 70
     0
102
RTVSPost2010Prop53
 90
        2
102
RTVSPost2010PropOp53
 70
     1
102
RTVSPost2010Prop54
  1
strokes_ogs.tif
102
RTVSPost2010PropOp54
 70
     1
102
RTVSPost2010Prop55
280
     0
102
RTVSPost2010PropOp55
 70
     1
102
RTVSPost2010Prop56
140
1.0
102
RTVSPost2010PropOp56
 70
     1
102
RTVSPost2010Prop57
140
1.0
102
RTVSPost2010PropOp57
 70
     1
  0
XRECORD
  5
C5A
102
{ACAD_REACTORS
330
C59
102
}
330
C59
100
AcDbXrecord
280
     1
102
RTVSPost2010Prop28
280
     0
102
RTVSPost2010PropOp28
 70
     1
102
RTVSPost2010Prop29
280
     1
102
RTVSPost2010PropOp29
 70
     1
102
RTVSPost2010Prop30
280
     1
102
RTVSPost2010PropOp30
 70
     1
102
RTVSPost2010Prop31
280
     0
102
RTVSPost2010PropOp31
 70
     1
102
RTVSPost2010Prop32
280
     0
102
RTVSPost2010PropOp32
 70
     1
102
RTVSPost2010Prop33
280
     0
102
RTVSPost2010PropOp33
 70
     1
102
RTVSPost2010Prop34
280
     0
102
RTVSPost2010PropOp34
 70
     1
102
RTVSPost2010Prop35
280
     0
102
RTVSPost2010PropOp35
 70
     1
102
RTVSPost2010Prop36
280
     0
102
RTVSPost2010PropOp36
 70
     1
102
RTVSPost2010Prop37
 90
       50
102
RTVSPost2010PropOp37
 70
     1
102
RTVSPost2010Prop38
140
0.0
102
RTVSPost2010PropOp38
 70
     1
102
RTVSPost2010Prop39
140
1.0
102
RTVSPost2010PropOp39
 70
     1
102
RTVSPost2010Prop40
 90
        0
102
RTVSPost2010PropOp40
 70
     1
102
RTVSPost2010Prop41ColorIndex
 90
       18
102
RTVSPost2010Prop41ColorRGB
 90
        0
102
RTVSPost2010PropOp41
 70
     1
102
RTVSPost2010Prop42
 90
       50
102
RTVSPost2010PropOp42
 70
     1
102
RTVSPost2010Prop43
 90
        3
102
RTVSPost2010PropOp43
 70
     1
102
RTVSPost2010Prop44ColorIndex
 90
        5
102
RTVSPost2010Prop44ColorRGB
 90
      255
102
RTVSPost2010PropOp44
 70
     1
102
RTVSPost2010Prop45
280
     0
102
RTVSPost2010PropOp45
 70
     1
102
RTVSPost2010Prop46
 90
       50
102
RTVSPost2010PropOp46
 70
     1
102
RTVSPost2010Prop47
 90
       50
102
RTVSPost2010PropOp47
 70
     1
102
RTVSPost2010Prop48
 90
       50
102
RTVSPost2010PropOp48
 70
     1
102
RTVSPost2010Prop49
280
     0
102
RTVSPost2010PropOp49
 70
     1
102
RTVSPost2010Prop50
 90
       50
102
RTVSPost2010PropOp50
 70
     1
102
RTVSPost2010Prop51ColorIndex
 90
      256
102
RTVSPost2010Prop51ColorRGB
 90
-16777216
102
RTVSPost2010PropOp51
 70
     0
102
RTVSPost2010Prop52
140
1.0
102
RTVSPost2010PropOp52
 70
     0
102
RTVSPost2010Prop53
 90
        2
102
RTVSPost2010PropOp53
 70
     1
102
RTVSPost2010Prop54
  1
strokes_ogs.tif
102
RTVSPost2010PropOp54
 70
     1
102
RTVSPost2010Prop55
280
     0
102
RTVSPost2010PropOp55
 70
     1
102
RTVSPost2010Prop56
140
1.0
102
RTVSPost2010PropOp56
 70
     1
102
RTVSPost2010Prop57
140
1.0
102
RTVSPost2010PropOp57
 70
     1
  0
XRECORD
  5
C62
102
{ACAD_REACTORS
330
C61
102
}
330
C61
100
AcDbXrecord
280
     1
102
RTVSPost2010Prop28
280
     0
102
RTVSPost2010PropOp28
 70
     1
102
RTVSPost2010Prop29
280
     1
102
RTVSPost2010PropOp29
 70
     1
102
RTVSPost2010Prop30
280
     1
102
RTVSPost2010PropOp30
 70
     1
102
RTVSPost2010Prop31
280
     0
102
RTVSPost2010PropOp31
 70
     1
102
RTVSPost2010Prop32
280
     0
102
RTVSPost2010PropOp32
 70
     1
102
RTVSPost2010Prop33
280
     0
102
RTVSPost2010PropOp33
 70
     1
102
RTVSPost2010Prop34
280
     0
102
RTVSPost2010PropOp34
 70
     1
102
RTVSPost2010Prop35
280
     0
102
RTVSPost2010PropOp35
 70
     1
102
RTVSPost2010Prop36
280
     0
102
RTVSPost2010PropOp36
 70
     1
102
RTVSPost2010Prop37
 90
       50
102
RTVSPost2010PropOp37
 70
     1
102
RTVSPost2010Prop38
140
0.0
102
RTVSPost2010PropOp38
 70
     1
102
RTVSPost2010Prop39
140
1.0
102
RTVSPost2010PropOp39
 70
     1
102
RTVSPost2010Prop40
 90
        0
102
RTVSPost2010PropOp40
 70
     1
102
RTVSPost2010Prop41ColorIndex
 90
       18
102
RTVSPost2010Prop41ColorRGB
 90
        0
102
RTVSPost2010PropOp41
 70
     1
102
RTVSPost2010Prop42
 90
       50
102
RTVSPost2010PropOp42
 70
     1
102
RTVSPost2010Prop43
 90
        3
102
RTVSPost2010PropOp43
 70
     1
102
RTVSPost2010Prop44ColorIndex
 90
        5
102
RTVSPost2010Prop44ColorRGB
 90
      255
102
RTVSPost2010PropOp44
 70
     1
102
RTVSPost2010Prop45
280
     0
102
RTVSPost2010PropOp45
 70
     1
102
RTVSPost2010Prop46
 90
       50
102
RTVSPost2010PropOp46
 70
     1
102
RTVSPost2010Prop47
 90
       50
102
RTVSPost2010PropOp47
 70
     1
102
RTVSPost2010Prop48
 90
       50
102
RTVSPost2010PropOp48
 70
     1
102
RTVSPost2010Prop49
280
     0
102
RTVSPost2010PropOp49
 70
     1
102
RTVSPost2010Prop50
 90
       50
102
RTVSPost2010PropOp50
 70
     1
102
RTVSPost2010Prop51ColorIndex
 90
      256
102
RTVSPost2010Prop51ColorRGB
 90
-16777216
102
RTVSPost2010PropOp51
 70
     0
102
RTVSPost2010Prop52
140
1.0
102
RTVSPost2010PropOp52
 70
     0
102
RTVSPost2010Prop53
 90
        2
102
RTVSPost2010PropOp53
 70
     1
102
RTVSPost2010Prop54
  1
strokes_ogs.tif
102
RTVSPost2010PropOp54
 70
     1
102
RTVSPost2010Prop55
280
     0
102
RTVSPost2010PropOp55
 70
     1
102
RTVSPost2010Prop56
140
1.0
102
RTVSPost2010PropOp56
 70
     1
102
RTVSPost2010Prop57
140
1.0
102
RTVSPost2010PropOp57
 70
     1
  0
XRECORD
  5
C54
102
{ACAD_REACTORS
330
C53
102
}
330
C53
100
AcDbXrecord
280
     1
102
RTVSPost2010Prop28
280
     0
102
RTVSPost2010PropOp28
 70
     1
102
RTVSPost2010Prop29
280
     1
102
RTVSPost2010PropOp29
 70
     1
102
RTVSPost2010Prop30
280
     1
102
RTVSPost2010PropOp30
 70
     1
102
RTVSPost2010Prop31
280
     0
102
RTVSPost2010PropOp31
 70
     1
102
RTVSPost2010Prop32
280
     0
102
RTVSPost2010PropOp32
 70
     1
102
RTVSPost2010Prop33
280
     0
102
RTVSPost2010PropOp33
 70
     1
102
RTVSPost2010Prop34
280
     0
102
RTVSPost2010PropOp34
 70
     1
102
RTVSPost2010Prop35
280
     0
102
RTVSPost2010PropOp35
 70
     1
102
RTVSPost2010Prop36
280
     0
102
RTVSPost2010PropOp36
 70
     1
102
RTVSPost2010Prop37
 90
       50
102
RTVSPost2010PropOp37
 70
     1
102
RTVSPost2010Prop38
140
0.0
102
RTVSPost2010PropOp38
 70
     1
102
RTVSPost2010Prop39
140
1.0
102
RTVSPost2010PropOp39
 70
     1
102
RTVSPost2010Prop40
 90
        0
102
RTVSPost2010PropOp40
 70
     1
102
RTVSPost2010Prop41ColorIndex
 90
       18
102
RTVSPost2010Prop41ColorRGB
 90
        0
102
RTVSPost2010PropOp41
 70
     1
102
RTVSPost2010Prop42
 90
       50
102
RTVSPost2010PropOp42
 70
     1
102
RTVSPost2010Prop43
 90
        3
102
RTVSPost2010PropOp43
 70
     1
102
RTVSPost2010Prop44ColorIndex
 90
        5
102
RTVSPost2010Prop44ColorRGB
 90
      255
102
RTVSPost2010PropOp44
 70
     1
102
RTVSPost2010Prop45
280
     0
102
RTVSPost2010PropOp45
 70
     1
102
RTVSPost2010Prop46
 90
       50
102
RTVSPost2010PropOp46
 70
     1
102
RTVSPost2010Prop47
 90
       50
102
RTVSPost2010PropOp47
 70
     1
102
RTVSPost2010Prop48
 90
       50
102
RTVSPost2010PropOp48
 70
     1
102
RTVSPost2010Prop49
280
     0
102
RTVSPost2010PropOp49
 70
     1
102
RTVSPost2010Prop50
 90
       50
102
RTVSPost2010PropOp50
 70
     1
102
RTVSPost2010Prop51ColorIndex
 90
      256
102
RTVSPost2010Prop51ColorRGB
 90
-16777216
102
RTVSPost2010PropOp51
 70
     0
102
RTVSPost2010Prop52
140
1.0
102
RTVSPost2010PropOp52
 70
     0
102
RTVSPost2010Prop53
 90
        2
102
RTVSPost2010PropOp53
 70
     1
102
RTVSPost2010Prop54
  1
strokes_ogs.tif
102
RTVSPost2010PropOp54
 70
     1
102
RTVSPost2010Prop55
280
     0
102
RTVSPost2010PropOp55
 70
     1
102
RTVSPost2010Prop56
140
1.0
102
RTVSPost2010PropOp56
 70
     1
102
RTVSPost2010Prop57
140
1.0
102
RTVSPost2010PropOp57
 70
     1
  0
XRECORD
  5
C58
102
{ACAD_REACTORS
330
C57
102
}
330
C57
100
AcDbXrecord
280
     1
102
RTVSPost2010Prop28
280
     0
102
RTVSPost2010PropOp28
 70
     1
102
RTVSPost2010Prop29
280
     1
102
RTVSPost2010PropOp29
 70
     1
102
RTVSPost2010Prop30
280
     1
102
RTVSPost2010PropOp30
 70
     1
102
RTVSPost2010Prop31
280
     0
102
RTVSPost2010PropOp31
 70
     1
102
RTVSPost2010Prop32
280
     0
102
RTVSPost2010PropOp32
 70
     1
102
RTVSPost2010Prop33
280
     0
102
RTVSPost2010PropOp33
 70
     1
102
RTVSPost2010Prop34
280
     0
102
RTVSPost2010PropOp34
 70
     1
102
RTVSPost2010Prop35
280
     0
102
RTVSPost2010PropOp35
 70
     1
102
RTVSPost2010Prop36
280
     0
102
RTVSPost2010PropOp36
 70
     1
102
RTVSPost2010Prop37
 90
       50
102
RTVSPost2010PropOp37
 70
     1
102
RTVSPost2010Prop38
140
0.0
102
RTVSPost2010PropOp38
 70
     1
102
RTVSPost2010Prop39
140
1.0
102
RTVSPost2010PropOp39
 70
     1
102
RTVSPost2010Prop40
 90
        0
102
RTVSPost2010PropOp40
 70
     1
102
RTVSPost2010Prop41ColorIndex
 90
       18
102
RTVSPost2010Prop41ColorRGB
 90
        0
102
RTVSPost2010PropOp41
 70
     1
102
RTVSPost2010Prop42
 90
       50
102
RTVSPost2010PropOp42
 70
     1
102
RTVSPost2010Prop43
 90
        3
102
RTVSPost2010PropOp43
 70
     1
102
RTVSPost2010Prop44ColorIndex
 90
        5
102
RTVSPost2010Prop44ColorRGB
 90
      255
102
RTVSPost2010PropOp44
 70
     1
102
RTVSPost2010Prop45
280
     0
102
RTVSPost2010PropOp45
 70
     1
102
RTVSPost2010Prop46
 90
       50
102
RTVSPost2010PropOp46
 70
     1
102
RTVSPost2010Prop47
 90
       50
102
RTVSPost2010PropOp47
 70
     1
102
RTVSPost2010Prop48
 90
       50
102
RTVSPost2010PropOp48
 70
     1
102
RTVSPost2010Prop49
280
     0
102
RTVSPost2010PropOp49
 70
     1
102
RTVSPost2010Prop50
 90
       50
102
RTVSPost2010PropOp50
 70
     1
102
RTVSPost2010Prop51ColorIndex
 90
      256
102
RTVSPost2010Prop51ColorRGB
 90
-16777216
102
RTVSPost2010PropOp51
 70
     0
102
RTVSPost2010Prop52
140
1.0
102
RTVSPost2010PropOp52
 70
     0
102
RTVSPost2010Prop53
 90
        2
102
RTVSPost2010PropOp53
 70
     1
102
RTVSPost2010Prop54
  1
strokes_ogs.tif
102
RTVSPost2010PropOp54
 70
     1
102
RTVSPost2010Prop55
280
     0
102
RTVSPost2010PropOp55
 70
     1
102
RTVSPost2010Prop56
140
1.0
102
RTVSPost2010PropOp56
 70
     1
102
RTVSPost2010Prop57
140
1.0
102
RTVSPost2010PropOp57
 70
     1
  0
XRECORD
  5
C72
102
{ACAD_REACTORS
330
C71
102
}
330
C71
100
AcDbXrecord
280
     1
102
RTVSPost2010Prop28
280
     0
102
RTVSPost2010PropOp28
 70
     0
102
RTVSPost2010Prop29
280
     1
102
RTVSPost2010PropOp29
 70
     0
102
RTVSPost2010Prop30
280
     1
102
RTVSPost2010PropOp30
 70
     0
102
RTVSPost2010Prop31
280
     0
102
RTVSPost2010PropOp31
 70
     0
102
RTVSPost2010Prop32
280
     0
102
RTVSPost2010PropOp32
 70
     0
102
RTVSPost2010Prop33
280
     0
102
RTVSPost2010PropOp33
 70
     0
102
RTVSPost2010Prop34
280
     0
102
RTVSPost2010PropOp34
 70
     0
102
RTVSPost2010Prop35
280
     0
102
RTVSPost2010PropOp35
 70
     0
102
RTVSPost2010Prop36
280
     0
102
RTVSPost2010PropOp36
 70
     0
102
RTVSPost2010Prop37
 90
       50
102
RTVSPost2010PropOp37
 70
     0
102
RTVSPost2010Prop38
140
0.0
102
RTVSPost2010PropOp38
 70
     0
102
RTVSPost2010Prop39
140
1.0
102
RTVSPost2010PropOp39
 70
     0
102
RTVSPost2010Prop40
 90
        0
102
RTVSPost2010PropOp40
 70
     0
102
RTVSPost2010Prop41ColorIndex
 90
       18
102
RTVSPost2010Prop41ColorRGB
 90
        0
102
RTVSPost2010PropOp41
 70
     0
102
RTVSPost2010Prop42
 90
       50
102
RTVSPost2010PropOp42
 70
     0
102
RTVSPost2010Prop43
 90
        3
102
RTVSPost2010PropOp43
 70
     0
102
RTVSPost2010Prop44ColorIndex
 90
        5
102
RTVSPost2010Prop44ColorRGB
 90
      255
102
RTVSPost2010PropOp44
 70
     0
102
RTVSPost2010Prop45
280
     0
102
RTVSPost2010PropOp45
 70
     0
102
RTVSPost2010Prop46
 90
       50
102
RTVSPost2010PropOp46
 70
     0
102
RTVSPost2010Prop47
 90
       50
102
RTVSPost2010PropOp47
 70
     0
102
RTVSPost2010Prop48
 90
       50
102
RTVSPost2010PropOp48
 70
     0
102
RTVSPost2010Prop49
280
     0
102
RTVSPost2010PropOp49
 70
     0
102
RTVSPost2010Prop50
 90
       50
102
RTVSPost2010PropOp50
 70
     0
102
RTVSPost2010Prop51ColorIndex
 90
      256
102
RTVSPost2010Prop51ColorRGB
 90
-16777216
102
RTVSPost2010PropOp51
 70
     0
102
RTVSPost2010Prop52
140
1.0
102
RTVSPost2010PropOp52
 70
     0
102
RTVSPost2010Prop53
 90
        2
102
RTVSPost2010PropOp53
 70
     0
102
RTVSPost2010Prop54
  1
strokes_ogs.tif
102
RTVSPost2010PropOp54
 70
     0
102
RTVSPost2010Prop55
280
     0
102
RTVSPost2010PropOp55
 70
     0
102
RTVSPost2010Prop56
140
1.0
102
RTVSPost2010PropOp56
 70
     0
102
RTVSPost2010Prop57
140
1.0
102
RTVSPost2010PropOp57
 70
     0
  0
XRECORD
  5
C60
102
{ACAD_REACTORS
330
C5F
102
}
330
C5F
100
AcDbXrecord
280
     1
102
RTVSPost2010Prop28
280
     0
102
RTVSPost2010PropOp28
 70
     1
102
RTVSPost2010Prop29
280
     1
102
RTVSPost2010PropOp29
 70
     1
102
RTVSPost2010Prop30
280
     1
102
RTVSPost2010PropOp30
 70
     1
102
RTVSPost2010Prop31
280
     0
102
RTVSPost2010PropOp31
 70
     1
102
RTVSPost2010Prop32
280
     0
102
RTVSPost2010PropOp32
 70
     1
102
RTVSPost2010Prop33
280
     0
102
RTVSPost2010PropOp33
 70
     1
102
RTVSPost2010Prop34
280
     0
102
RTVSPost2010PropOp34
 70
     1
102
RTVSPost2010Prop35
280
     0
102
RTVSPost2010PropOp35
 70
     1
102
RTVSPost2010Prop36
280
     0
102
RTVSPost2010PropOp36
 70
     1
102
RTVSPost2010Prop37
 90
       50
102
RTVSPost2010PropOp37
 70
     1
102
RTVSPost2010Prop38
140
0.0
102
RTVSPost2010PropOp38
 70
     1
102
RTVSPost2010Prop39
140
1.0
102
RTVSPost2010PropOp39
 70
     1
102
RTVSPost2010Prop40
 90
        0
102
RTVSPost2010PropOp40
 70
     1
102
RTVSPost2010Prop41ColorIndex
 90
       18
102
RTVSPost2010Prop41ColorRGB
 90
        0
102
RTVSPost2010PropOp41
 70
     1
102
RTVSPost2010Prop42
 90
       50
102
RTVSPost2010PropOp42
 70
     1
102
RTVSPost2010Prop43
 90
        3
102
RTVSPost2010PropOp43
 70
     1
102
RTVSPost2010Prop44ColorIndex
 90
        5
102
RTVSPost2010Prop44ColorRGB
 90
      255
102
RTVSPost2010PropOp44
 70
     1
102
RTVSPost2010Prop45
280
     0
102
RTVSPost2010PropOp45
 70
     1
102
RTVSPost2010Prop46
 90
       50
102
RTVSPost2010PropOp46
 70
     1
102
RTVSPost2010Prop47
 90
       50
102
RTVSPost2010PropOp47
 70
     1
102
RTVSPost2010Prop48
 90
       50
102
RTVSPost2010PropOp48
 70
     1
102
RTVSPost2010Prop49
280
     0
102
RTVSPost2010PropOp49
 70
     1
102
RTVSPost2010Prop50
 90
       50
102
RTVSPost2010PropOp50
 70
     1
102
RTVSPost2010Prop51ColorIndex
 90
      256
102
RTVSPost2010Prop51ColorRGB
 90
-16777216
102
RTVSPost2010PropOp51
 70
     0
102
RTVSPost2010Prop52
140
1.0
102
RTVSPost2010PropOp52
 70
     0
102
RTVSPost2010Prop53
 90
        2
102
RTVSPost2010PropOp53
 70
     1
102
RTVSPost2010Prop54
  1
strokes_ogs.tif
102
RTVSPost2010PropOp54
 70
     1
102
RTVSPost2010Prop55
280
     0
102
RTVSPost2010PropOp55
 70
     1
102
RTVSPost2010Prop56
140
1.0
102
RTVSPost2010PropOp56
 70
     1
102
RTVSPost2010Prop57
140
1.0
102
RTVSPost2010PropOp57
 70
     1
  0
XRECORD
  5
C44
102
{ACAD_REACTORS
330
C43
102
}
330
C43
100
AcDbXrecord
280
     1
102
RTVSPost2010Prop28
280
     0
102
RTVSPost2010PropOp28
 70
     1
102
RTVSPost2010Prop29
280
     1
102
RTVSPost2010PropOp29
 70
     1
102
RTVSPost2010Prop30
280
     1
102
RTVSPost2010PropOp30
 70
     1
102
RTVSPost2010Prop31
280
     0
102
RTVSPost2010PropOp31
 70
     1
102
RTVSPost2010Prop32
280
     0
102
RTVSPost2010PropOp32
 70
     1
102
RTVSPost2010Prop33
280
     0
102
RTVSPost2010PropOp33
 70
     1
102
RTVSPost2010Prop34
280
     0
102
RTVSPost2010PropOp34
 70
     1
102
RTVSPost2010Prop35
280
     0
102
RTVSPost2010PropOp35
 70
     1
102
RTVSPost2010Prop36
280
     0
102
RTVSPost2010PropOp36
 70
     1
102
RTVSPost2010Prop37
 90
       50
102
RTVSPost2010PropOp37
 70
     1
102
RTVSPost2010Prop38
140
0.0
102
RTVSPost2010PropOp38
 70
     1
102
RTVSPost2010Prop39
140
1.0
102
RTVSPost2010PropOp39
 70
     1
102
RTVSPost2010Prop40
 90
        0
102
RTVSPost2010PropOp40
 70
     1
102
RTVSPost2010Prop41ColorIndex
 90
       18
102
RTVSPost2010Prop41ColorRGB
 90
        0
102
RTVSPost2010PropOp41
 70
     1
102
RTVSPost2010Prop42
 90
       50
102
RTVSPost2010PropOp42
 70
     1
102
RTVSPost2010Prop43
 90
        3
102
RTVSPost2010PropOp43
 70
     1
102
RTVSPost2010Prop44ColorIndex
 90
        5
102
RTVSPost2010Prop44ColorRGB
 90
      255
102
RTVSPost2010PropOp44
 70
     1
102
RTVSPost2010Prop45
280
     0
102
RTVSPost2010PropOp45
 70
     1
102
RTVSPost2010Prop46
 90
       50
102
RTVSPost2010PropOp46
 70
     1
102
RTVSPost2010Prop47
 90
       50
102
RTVSPost2010PropOp47
 70
     1
102
RTVSPost2010Prop48
 90
       50
102
RTVSPost2010PropOp48
 70
     1
102
RTVSPost2010Prop49
280
     0
102
RTVSPost2010PropOp49
 70
     1
102
RTVSPost2010Prop50
 90
       50
102
RTVSPost2010PropOp50
 70
     1
102
RTVSPost2010Prop51ColorIndex
 90
      256
102
RTVSPost2010Prop51ColorRGB
 90
-16777216
102
RTVSPost2010PropOp51
 70
     0
102
RTVSPost2010Prop52
140
1.0
102
RTVSPost2010PropOp52
 70
     0
102
RTVSPost2010Prop53
 90
        2
102
RTVSPost2010PropOp53
 70
     1
102
RTVSPost2010Prop54
  1
strokes_ogs.tif
102
RTVSPost2010PropOp54
 70
     1
102
RTVSPost2010Prop55
280
     0
102
RTVSPost2010PropOp55
 70
     1
102
RTVSPost2010Prop56
140
1.0
102
RTVSPost2010PropOp56
 70
     1
102
RTVSPost2010Prop57
140
1.0
102
RTVSPost2010PropOp57
 70
     1
  0
XRECORD
  5
C46
102
{ACAD_REACTORS
330
C45
102
}
330
C45
100
AcDbXrecord
280
     1
102
RTVSPost2010Prop28
280
     0
102
RTVSPost2010PropOp28
 70
     1
102
RTVSPost2010Prop29
280
     1
102
RTVSPost2010PropOp29
 70
     1
102
RTVSPost2010Prop30
280
     1
102
RTVSPost2010PropOp30
 70
     1
102
RTVSPost2010Prop31
280
     0
102
RTVSPost2010PropOp31
 70
     1
102
RTVSPost2010Prop32
280
     0
102
RTVSPost2010PropOp32
 70
     1
102
RTVSPost2010Prop33
280
     0
102
RTVSPost2010PropOp33
 70
     1
102
RTVSPost2010Prop34
280
     0
102
RTVSPost2010PropOp34
 70
     1
102
RTVSPost2010Prop35
280
     0
102
RTVSPost2010PropOp35
 70
     1
102
RTVSPost2010Prop36
280
     0
102
RTVSPost2010PropOp36
 70
     1
102
RTVSPost2010Prop37
 90
       50
102
RTVSPost2010PropOp37
 70
     1
102
RTVSPost2010Prop38
140
0.0
102
RTVSPost2010PropOp38
 70
     1
102
RTVSPost2010Prop39
140
1.0
102
RTVSPost2010PropOp39
 70
     1
102
RTVSPost2010Prop40
 90
        0
102
RTVSPost2010PropOp40
 70
     1
102
RTVSPost2010Prop41ColorIndex
 90
       18
102
RTVSPost2010Prop41ColorRGB
 90
        0
102
RTVSPost2010PropOp41
 70
     1
102
RTVSPost2010Prop42
 90
       50
102
RTVSPost2010PropOp42
 70
     1
102
RTVSPost2010Prop43
 90
        3
102
RTVSPost2010PropOp43
 70
     1
102
RTVSPost2010Prop44ColorIndex
 90
        5
102
RTVSPost2010Prop44ColorRGB
 90
      255
102
RTVSPost2010PropOp44
 70
     1
102
RTVSPost2010Prop45
280
     0
102
RTVSPost2010PropOp45
 70
     1
102
RTVSPost2010Prop46
 90
       50
102
RTVSPost2010PropOp46
 70
     1
102
RTVSPost2010Prop47
 90
       50
102
RTVSPost2010PropOp47
 70
     1
102
RTVSPost2010Prop48
 90
       50
102
RTVSPost2010PropOp48
 70
     1
102
RTVSPost2010Prop49
280
     0
102
RTVSPost2010PropOp49
 70
     1
102
RTVSPost2010Prop50
 90
       50
102
RTVSPost2010PropOp50
 70
     1
102
RTVSPost2010Prop51ColorIndex
 90
      256
102
RTVSPost2010Prop51ColorRGB
 90
-16777216
102
RTVSPost2010PropOp51
 70
     0
102
RTVSPost2010Prop52
140
1.0
102
RTVSPost2010PropOp52
 70
     0
102
RTVSPost2010Prop53
 90
        2
102
RTVSPost2010PropOp53
 70
     1
102
RTVSPost2010Prop54
  1
strokes_ogs.tif
102
RTVSPost2010PropOp54
 70
     1
102
RTVSPost2010Prop55
280
     0
102
RTVSPost2010PropOp55
 70
     1
102
RTVSPost2010Prop56
140
1.0
102
RTVSPost2010PropOp56
 70
     1
102
RTVSPost2010Prop57
140
1.0
102
RTVSPost2010PropOp57
 70
     1
  0
XRECORD
  5
C48
102
{ACAD_REACTORS
330
C47
102
}
330
C47
100
AcDbXrecord
280
     1
102
RTVSPost2010Prop28
280
     0
102
RTVSPost2010PropOp28
 70
     1
102
RTVSPost2010Prop29
280
     1
102
RTVSPost2010PropOp29
 70
     1
102
RTVSPost2010Prop30
280
     1
102
RTVSPost2010PropOp30
 70
     1
102
RTVSPost2010Prop31
280
     0
102
RTVSPost2010PropOp31
 70
     1
102
RTVSPost2010Prop32
280
     0
102
RTVSPost2010PropOp32
 70
     1
102
RTVSPost2010Prop33
280
     0
102
RTVSPost2010PropOp33
 70
     1
102
RTVSPost2010Prop34
280
     0
102
RTVSPost2010PropOp34
 70
     1
102
RTVSPost2010Prop35
280
     0
102
RTVSPost2010PropOp35
 70
     1
102
RTVSPost2010Prop36
280
     0
102
RTVSPost2010PropOp36
 70
     1
102
RTVSPost2010Prop37
 90
       50
102
RTVSPost2010PropOp37
 70
     1
102
RTVSPost2010Prop38
140
0.0
102
RTVSPost2010PropOp38
 70
     1
102
RTVSPost2010Prop39
140
1.0
102
RTVSPost2010PropOp39
 70
     1
102
RTVSPost2010Prop40
 90
        0
102
RTVSPost2010PropOp40
 70
     1
102
RTVSPost2010Prop41ColorIndex
 90
       18
102
RTVSPost2010Prop41ColorRGB
 90
        0
102
RTVSPost2010PropOp41
 70
     1
102
RTVSPost2010Prop42
 90
       50
102
RTVSPost2010PropOp42
 70
     1
102
RTVSPost2010Prop43
 90
        3
102
RTVSPost2010PropOp43
 70
     1
102
RTVSPost2010Prop44ColorIndex
 90
        5
102
RTVSPost2010Prop44ColorRGB
 90
      255
102
RTVSPost2010PropOp44
 70
     1
102
RTVSPost2010Prop45
280
     0
102
RTVSPost2010PropOp45
 70
     1
102
RTVSPost2010Prop46
 90
       50
102
RTVSPost2010PropOp46
 70
     1
102
RTVSPost2010Prop47
 90
       50
102
RTVSPost2010PropOp47
 70
     1
102
RTVSPost2010Prop48
 90
       50
102
RTVSPost2010PropOp48
 70
     1
102
RTVSPost2010Prop49
280
     0
102
RTVSPost2010PropOp49
 70
     1
102
RTVSPost2010Prop50
 90
       50
102
RTVSPost2010PropOp50
 70
     1
102
RTVSPost2010Prop51ColorIndex
 90
      256
102
RTVSPost2010Prop51ColorRGB
 90
-16777216
102
RTVSPost2010PropOp51
 70
     0
102
RTVSPost2010Prop52
140
1.0
102
RTVSPost2010PropOp52
 70
     0
102
RTVSPost2010Prop53
 90
        2
102
RTVSPost2010PropOp53
 70
     1
102
RTVSPost2010Prop54
  1
strokes_ogs.tif
102
RTVSPost2010PropOp54
 70
     1
102
RTVSPost2010Prop55
280
     0
102
RTVSPost2010PropOp55
 70
     1
102
RTVSPost2010Prop56
140
1.0
102
RTVSPost2010PropOp56
 70
     1
102
RTVSPost2010Prop57
140
1.0
102
RTVSPost2010PropOp57
 70
     1
  0
XRECORD
  5
C4A
102
{ACAD_REACTORS
330
C49
102
}
330
C49
100
AcDbXrecord
280
     1
102
RTVSPost2010Prop28
280
     0
102
RTVSPost2010PropOp28
 70
     1
102
RTVSPost2010Prop29
280
     1
102
RTVSPost2010PropOp29
 70
     1
102
RTVSPost2010Prop30
280
     1
102
RTVSPost2010PropOp30
 70
     1
102
RTVSPost2010Prop31
280
     0
102
RTVSPost2010PropOp31
 70
     1
102
RTVSPost2010Prop32
280
     0
102
RTVSPost2010PropOp32
 70
     1
102
RTVSPost2010Prop33
280
     0
102
RTVSPost2010PropOp33
 70
     1
102
RTVSPost2010Prop34
280
     0
102
RTVSPost2010PropOp34
 70
     1
102
RTVSPost2010Prop35
280
     0
102
RTVSPost2010PropOp35
 70
     1
102
RTVSPost2010Prop36
280
     0
102
RTVSPost2010PropOp36
 70
     1
102
RTVSPost2010Prop37
 90
       50
102
RTVSPost2010PropOp37
 70
     1
102
RTVSPost2010Prop38
140
0.0
102
RTVSPost2010PropOp38
 70
     1
102
RTVSPost2010Prop39
140
1.0
102
RTVSPost2010PropOp39
 70
     1
102
RTVSPost2010Prop40
 90
        0
102
RTVSPost2010PropOp40
 70
     1
102
RTVSPost2010Prop41ColorIndex
 90
       18
102
RTVSPost2010Prop41ColorRGB
 90
        0
102
RTVSPost2010PropOp41
 70
     1
102
RTVSPost2010Prop42
 90
       50
102
RTVSPost2010PropOp42
 70
     1
102
RTVSPost2010Prop43
 90
        3
102
RTVSPost2010PropOp43
 70
     1
102
RTVSPost2010Prop44ColorIndex
 90
        5
102
RTVSPost2010Prop44ColorRGB
 90
      255
102
RTVSPost2010PropOp44
 70
     1
102
RTVSPost2010Prop45
280
     0
102
RTVSPost2010PropOp45
 70
     1
102
RTVSPost2010Prop46
 90
       50
102
RTVSPost2010PropOp46
 70
     1
102
RTVSPost2010Prop47
 90
       50
102
RTVSPost2010PropOp47
 70
     1
102
RTVSPost2010Prop48
 90
       50
102
RTVSPost2010PropOp48
 70
     1
102
RTVSPost2010Prop49
280
     0
102
RTVSPost2010PropOp49
 70
     1
102
RTVSPost2010Prop50
 90
       50
102
RTVSPost2010PropOp50
 70
     1
102
RTVSPost2010Prop51ColorIndex
 90
      256
102
RTVSPost2010Prop51ColorRGB
 90
-16777216
102
RTVSPost2010PropOp51
 70
     0
102
RTVSPost2010Prop52
140
1.0
102
RTVSPost2010PropOp52
 70
     0
102
RTVSPost2010Prop53
 90
        2
102
RTVSPost2010PropOp53
 70
     1
102
RTVSPost2010Prop54
  1
strokes_ogs.tif
102
RTVSPost2010PropOp54
 70
     1
102
RTVSPost2010Prop55
280
     0
102
RTVSPost2010PropOp55
 70
     1
102
RTVSPost2010Prop56
140
1.0
102
RTVSPost2010PropOp56
 70
     1
102
RTVSPost2010Prop57
140
1.0
102
RTVSPost2010PropOp57
 70
     1
  0
XRECORD
  5
C52
102
{ACAD_REACTORS
330
C51
102
}
330
C51
100
AcDbXrecord
280
     1
102
RTVSPost2010Prop28
280
     0
102
RTVSPost2010PropOp28
 70
     1
102
RTVSPost2010Prop29
280
     1
102
RTVSPost2010PropOp29
 70
     1
102
RTVSPost2010Prop30
280
     1
102
RTVSPost2010PropOp30
 70
     1
102
RTVSPost2010Prop31
280
     0
102
RTVSPost2010PropOp31
 70
     1
102
RTVSPost2010Prop32
280
     0
102
RTVSPost2010PropOp32
 70
     1
102
RTVSPost2010Prop33
280
     0
102
RTVSPost2010PropOp33
 70
     1
102
RTVSPost2010Prop34
280
     0
102
RTVSPost2010PropOp34
 70
     1
102
RTVSPost2010Prop35
280
     0
102
RTVSPost2010PropOp35
 70
     1
102
RTVSPost2010Prop36
280
     0
102
RTVSPost2010PropOp36
 70
     1
102
RTVSPost2010Prop37
 90
       50
102
RTVSPost2010PropOp37
 70
     1
102
RTVSPost2010Prop38
140
0.0
102
RTVSPost2010PropOp38
 70
     1
102
RTVSPost2010Prop39
140
1.0
102
RTVSPost2010PropOp39
 70
     1
102
RTVSPost2010Prop40
 90
        0
102
RTVSPost2010PropOp40
 70
     1
102
RTVSPost2010Prop41ColorIndex
 90
       18
102
RTVSPost2010Prop41ColorRGB
 90
        0
102
RTVSPost2010PropOp41
 70
     1
102
RTVSPost2010Prop42
 90
       50
102
RTVSPost2010PropOp42
 70
     1
102
RTVSPost2010Prop43
 90
        3
102
RTVSPost2010PropOp43
 70
     1
102
RTVSPost2010Prop44ColorIndex
 90
        5
102
RTVSPost2010Prop44ColorRGB
 90
      255
102
RTVSPost2010PropOp44
 70
     1
102
RTVSPost2010Prop45
280
     0
102
RTVSPost2010PropOp45
 70
     1
102
RTVSPost2010Prop46
 90
       50
102
RTVSPost2010PropOp46
 70
     1
102
RTVSPost2010Prop47
 90
       50
102
RTVSPost2010PropOp47
 70
     1
102
RTVSPost2010Prop48
 90
       50
102
RTVSPost2010PropOp48
 70
     1
102
RTVSPost2010Prop49
280
     0
102
RTVSPost2010PropOp49
 70
     1
102
RTVSPost2010Prop50
 90
       50
102
RTVSPost2010PropOp50
 70
     1
102
RTVSPost2010Prop51ColorIndex
 90
      256
102
RTVSPost2010Prop51ColorRGB
 90
-16777216
102
RTVSPost2010PropOp51
 70
     0
102
RTVSPost2010Prop52
140
1.0
102
RTVSPost2010PropOp52
 70
     0
102
RTVSPost2010Prop53
 90
        2
102
RTVSPost2010PropOp53
 70
     1
102
RTVSPost2010Prop54
  1
strokes_ogs.tif
102
RTVSPost2010PropOp54
 70
     1
102
RTVSPost2010Prop55
280
     0
102
RTVSPost2010PropOp55
 70
     1
102
RTVSPost2010Prop56
140
1.0
102
RTVSPost2010PropOp56
 70
     1
102
RTVSPost2010Prop57
140
1.0
102
RTVSPost2010PropOp57
 70
     1
  0
XRECORD
  5
C6E
102
{ACAD_REACTORS
330
C6D
102
}
330
C6D
100
AcDbXrecord
280
     1
102
RTVSPost2010Prop28
280
     0
102
RTVSPost2010PropOp28
 70
     0
102
RTVSPost2010Prop29
280
     1
102
RTVSPost2010PropOp29
 70
     0
102
RTVSPost2010Prop30
280
     1
102
RTVSPost2010PropOp30
 70
     0
102
RTVSPost2010Prop31
280
     0
102
RTVSPost2010PropOp31
 70
     0
102
RTVSPost2010Prop32
280
     0
102
RTVSPost2010PropOp32
 70
     0
102
RTVSPost2010Prop33
280
     0
102
RTVSPost2010PropOp33
 70
     0
102
RTVSPost2010Prop34
280
     0
102
RTVSPost2010PropOp34
 70
     0
102
RTVSPost2010Prop35
280
     0
102
RTVSPost2010PropOp35
 70
     0
102
RTVSPost2010Prop36
280
     0
102
RTVSPost2010PropOp36
 70
     0
102
RTVSPost2010Prop37
 90
       50
102
RTVSPost2010PropOp37
 70
     0
102
RTVSPost2010Prop38
140
0.0
102
RTVSPost2010PropOp38
 70
     0
102
RTVSPost2010Prop39
140
1.0
102
RTVSPost2010PropOp39
 70
     0
102
RTVSPost2010Prop40
 90
        0
102
RTVSPost2010PropOp40
 70
     0
102
RTVSPost2010Prop41ColorIndex
 90
       18
102
RTVSPost2010Prop41ColorRGB
 90
        0
102
RTVSPost2010PropOp41
 70
     0
102
RTVSPost2010Prop42
 90
       50
102
RTVSPost2010PropOp42
 70
     0
102
RTVSPost2010Prop43
 90
        3
102
RTVSPost2010PropOp43
 70
     0
102
RTVSPost2010Prop44ColorIndex
 90
        5
102
RTVSPost2010Prop44ColorRGB
 90
      255
102
RTVSPost2010PropOp44
 70
     0
102
RTVSPost2010Prop45
280
     0
102
RTVSPost2010PropOp45
 70
     0
102
RTVSPost2010Prop46
 90
       50
102
RTVSPost2010PropOp46
 70
     0
102
RTVSPost2010Prop47
 90
       50
102
RTVSPost2010PropOp47
 70
     0
102
RTVSPost2010Prop48
 90
       50
102
RTVSPost2010PropOp48
 70
     0
102
RTVSPost2010Prop49
280
     0
102
RTVSPost2010PropOp49
 70
     0
102
RTVSPost2010Prop50
 90
       50
102
RTVSPost2010PropOp50
 70
     0
102
RTVSPost2010Prop51ColorIndex
 90
      256
102
RTVSPost2010Prop51ColorRGB
 90
-16777216
102
RTVSPost2010PropOp51
 70
     0
102
RTVSPost2010Prop52
140
1.0
102
RTVSPost2010PropOp52
 70
     0
102
RTVSPost2010Prop53
 90
        2
102
RTVSPost2010PropOp53
 70
     0
102
RTVSPost2010Prop54
  1
strokes_ogs.tif
102
RTVSPost2010PropOp54
 70
     0
102
RTVSPost2010Prop55
280
     0
102
RTVSPost2010PropOp55
 70
     0
102
RTVSPost2010Prop56
140
1.0
102
RTVSPost2010PropOp56
 70
     0
102
RTVSPost2010Prop57
140
1.0
102
RTVSPost2010PropOp57
 70
     0
  0
XRECORD
  5
C5E
102
{ACAD_REACTORS
330
C5D
102
}
330
C5D
100
AcDbXrecord
280
     1
102
RTVSPost2010Prop28
280
     0
102
RTVSPost2010PropOp28
 70
     1
102
RTVSPost2010Prop29
280
     1
102
RTVSPost2010PropOp29
 70
     1
102
RTVSPost2010Prop30
280
     1
102
RTVSPost2010PropOp30
 70
     1
102
RTVSPost2010Prop31
280
     0
102
RTVSPost2010PropOp31
 70
     1
102
RTVSPost2010Prop32
280
     0
102
RTVSPost2010PropOp32
 70
     1
102
RTVSPost2010Prop33
280
     0
102
RTVSPost2010PropOp33
 70
     1
102
RTVSPost2010Prop34
280
     0
102
RTVSPost2010PropOp34
 70
     1
102
RTVSPost2010Prop35
280
     0
102
RTVSPost2010PropOp35
 70
     1
102
RTVSPost2010Prop36
280
     0
102
RTVSPost2010PropOp36
 70
     1
102
RTVSPost2010Prop37
 90
       50
102
RTVSPost2010PropOp37
 70
     1
102
RTVSPost2010Prop38
140
0.0
102
RTVSPost2010PropOp38
 70
     1
102
RTVSPost2010Prop39
140
1.0
102
RTVSPost2010PropOp39
 70
     1
102
RTVSPost2010Prop40
 90
        0
102
RTVSPost2010PropOp40
 70
     1
102
RTVSPost2010Prop41ColorIndex
 90
       18
102
RTVSPost2010Prop41ColorRGB
 90
        0
102
RTVSPost2010PropOp41
 70
     1
102
RTVSPost2010Prop42
 90
       50
102
RTVSPost2010PropOp42
 70
     1
102
RTVSPost2010Prop43
 90
        3
102
RTVSPost2010PropOp43
 70
     1
102
RTVSPost2010Prop44ColorIndex
 90
        5
102
RTVSPost2010Prop44ColorRGB
 90
      255
102
RTVSPost2010PropOp44
 70
     1
102
RTVSPost2010Prop45
280
     0
102
RTVSPost2010PropOp45
 70
     1
102
RTVSPost2010Prop46
 90
       50
102
RTVSPost2010PropOp46
 70
     1
102
RTVSPost2010Prop47
 90
       50
102
RTVSPost2010PropOp47
 70
     1
102
RTVSPost2010Prop48
 90
       50
102
RTVSPost2010PropOp48
 70
     1
102
RTVSPost2010Prop49
280
     0
102
RTVSPost2010PropOp49
 70
     1
102
RTVSPost2010Prop50
 90
       50
102
RTVSPost2010PropOp50
 70
     1
102
RTVSPost2010Prop51ColorIndex
 90
      256
102
RTVSPost2010Prop51ColorRGB
 90
-16777216
102
RTVSPost2010PropOp51
 70
     0
102
RTVSPost2010Prop52
140
1.0
102
RTVSPost2010PropOp52
 70
     0
102
RTVSPost2010Prop53
 90
        2
102
RTVSPost2010PropOp53
 70
     1
102
RTVSPost2010Prop54
  1
strokes_ogs.tif
102
RTVSPost2010PropOp54
 70
     1
102
RTVSPost2010Prop55
280
     0
102
RTVSPost2010PropOp55
 70
     1
102
RTVSPost2010Prop56
140
1.0
102
RTVSPost2010PropOp56
 70
     1
102
RTVSPost2010Prop57
140
1.0
102
RTVSPost2010PropOp57
 70
     1
  0
XRECORD
  5
C70
102
{ACAD_REACTORS
330
C6F
102
}
330
C6F
100
AcDbXrecord
280
     1
102
RTVSPost2010Prop28
280
     0
102
RTVSPost2010PropOp28
 70
     0
102
RTVSPost2010Prop29
280
     1
102
RTVSPost2010PropOp29
 70
     0
102
RTVSPost2010Prop30
280
     1
102
RTVSPost2010PropOp30
 70
     0
102
RTVSPost2010Prop31
280
     0
102
RTVSPost2010PropOp31
 70
     0
102
RTVSPost2010Prop32
280
     0
102
RTVSPost2010PropOp32
 70
     0
102
RTVSPost2010Prop33
280
     0
102
RTVSPost2010PropOp33
 70
     0
102
RTVSPost2010Prop34
280
     0
102
RTVSPost2010PropOp34
 70
     0
102
RTVSPost2010Prop35
280
     0
102
RTVSPost2010PropOp35
 70
     0
102
RTVSPost2010Prop36
280
     0
102
RTVSPost2010PropOp36
 70
     0
102
RTVSPost2010Prop37
 90
       50
102
RTVSPost2010PropOp37
 70
     0
102
RTVSPost2010Prop38
140
0.0
102
RTVSPost2010PropOp38
 70
     0
102
RTVSPost2010Prop39
140
1.0
102
RTVSPost2010PropOp39
 70
     0
102
RTVSPost2010Prop40
 90
        0
102
RTVSPost2010PropOp40
 70
     0
102
RTVSPost2010Prop41ColorIndex
 90
       18
102
RTVSPost2010Prop41ColorRGB
 90
        0
102
RTVSPost2010PropOp41
 70
     0
102
RTVSPost2010Prop42
 90
       50
102
RTVSPost2010PropOp42
 70
     0
102
RTVSPost2010Prop43
 90
        3
102
RTVSPost2010PropOp43
 70
     0
102
RTVSPost2010Prop44ColorIndex
 90
        5
102
RTVSPost2010Prop44ColorRGB
 90
      255
102
RTVSPost2010PropOp44
 70
     0
102
RTVSPost2010Prop45
280
     0
102
RTVSPost2010PropOp45
 70
     0
102
RTVSPost2010Prop46
 90
       50
102
RTVSPost2010PropOp46
 70
     0
102
RTVSPost2010Prop47
 90
       50
102
RTVSPost2010PropOp47
 70
     0
102
RTVSPost2010Prop48
 90
       50
102
RTVSPost2010PropOp48
 70
     0
102
RTVSPost2010Prop49
280
     0
102
RTVSPost2010PropOp49
 70
     0
102
RTVSPost2010Prop50
 90
       50
102
RTVSPost2010PropOp50
 70
     0
102
RTVSPost2010Prop51ColorIndex
 90
      256
102
RTVSPost2010Prop51ColorRGB
 90
-16777216
102
RTVSPost2010PropOp51
 70
     0
102
RTVSPost2010Prop52
140
1.0
102
RTVSPost2010PropOp52
 70
     0
102
RTVSPost2010Prop53
 90
        2
102
RTVSPost2010PropOp53
 70
     0
102
RTVSPost2010Prop54
  1
strokes_ogs.tif
102
RTVSPost2010PropOp54
 70
     0
102
RTVSPost2010Prop55
280
     0
102
RTVSPost2010PropOp55
 70
     0
102
RTVSPost2010Prop56
140
1.0
102
RTVSPost2010PropOp56
 70
     0
102
RTVSPost2010Prop57
140
1.0
102
RTVSPost2010PropOp57
 70
     0
  0
XRECORD
  5
C56
102
{ACAD_REACTORS
330
C55
102
}
330
C55
100
AcDbXrecord
280
     1
102
RTVSPost2010Prop28
280
     0
102
RTVSPost2010PropOp28
 70
     1
102
RTVSPost2010Prop29
280
     1
102
RTVSPost2010PropOp29
 70
     1
102
RTVSPost2010Prop30
280
     1
102
RTVSPost2010PropOp30
 70
     1
102
RTVSPost2010Prop31
280
     0
102
RTVSPost2010PropOp31
 70
     1
102
RTVSPost2010Prop32
280
     0
102
RTVSPost2010PropOp32
 70
     1
102
RTVSPost2010Prop33
280
     0
102
RTVSPost2010PropOp33
 70
     1
102
RTVSPost2010Prop34
280
     0
102
RTVSPost2010PropOp34
 70
     1
102
RTVSPost2010Prop35
280
     0
102
RTVSPost2010PropOp35
 70
     1
102
RTVSPost2010Prop36
280
     0
102
RTVSPost2010PropOp36
 70
     1
102
RTVSPost2010Prop37
 90
       50
102
RTVSPost2010PropOp37
 70
     1
102
RTVSPost2010Prop38
140
0.0
102
RTVSPost2010PropOp38
 70
     1
102
RTVSPost2010Prop39
140
1.0
102
RTVSPost2010PropOp39
 70
     1
102
RTVSPost2010Prop40
 90
        0
102
RTVSPost2010PropOp40
 70
     1
102
RTVSPost2010Prop41ColorIndex
 90
       18
102
RTVSPost2010Prop41ColorRGB
 90
        0
102
RTVSPost2010PropOp41
 70
     1
102
RTVSPost2010Prop42
 90
       50
102
RTVSPost2010PropOp42
 70
     1
102
RTVSPost2010Prop43
 90
        3
102
RTVSPost2010PropOp43
 70
     1
102
RTVSPost2010Prop44ColorIndex
 90
        5
102
RTVSPost2010Prop44ColorRGB
 90
      255
102
RTVSPost2010PropOp44
 70
     1
102
RTVSPost2010Prop45
280
     0
102
RTVSPost2010PropOp45
 70
     1
102
RTVSPost2010Prop46
 90
       50
102
RTVSPost2010PropOp46
 70
     1
102
RTVSPost2010Prop47
 90
       50
102
RTVSPost2010PropOp47
 70
     1
102
RTVSPost2010Prop48
 90
       50
102
RTVSPost2010PropOp48
 70
     1
102
RTVSPost2010Prop49
280
     0
102
RTVSPost2010PropOp49
 70
     1
102
RTVSPost2010Prop50
 90
       50
102
RTVSPost2010PropOp50
 70
     1
102
RTVSPost2010Prop51ColorIndex
 90
      256
102
RTVSPost2010Prop51ColorRGB
 90
-16777216
102
RTVSPost2010PropOp51
 70
     0
102
RTVSPost2010Prop52
140
1.0
102
RTVSPost2010PropOp52
 70
     0
102
RTVSPost2010Prop53
 90
        2
102
RTVSPost2010PropOp53
 70
     1
102
RTVSPost2010Prop54
  1
strokes_ogs.tif
102
RTVSPost2010PropOp54
 70
     1
102
RTVSPost2010Prop55
280
     0
102
RTVSPost2010PropOp55
 70
     1
102
RTVSPost2010Prop56
140
1.0
102
RTVSPost2010PropOp56
 70
     1
102
RTVSPost2010Prop57
140
1.0
102
RTVSPost2010PropOp57
 70
     1
  0
XRECORD
  5
C6C
102
{ACAD_REACTORS
330
C6B
102
}
330
C6B
100
AcDbXrecord
280
     1
102
RTVSPost2010Prop28
280
     0
102
RTVSPost2010PropOp28
 70
     1
102
RTVSPost2010Prop29
280
     1
102
RTVSPost2010PropOp29
 70
     1
102
RTVSPost2010Prop30
280
     1
102
RTVSPost2010PropOp30
 70
     1
102
RTVSPost2010Prop31
280
     0
102
RTVSPost2010PropOp31
 70
     1
102
RTVSPost2010Prop32
280
     0
102
RTVSPost2010PropOp32
 70
     1
102
RTVSPost2010Prop33
280
     0
102
RTVSPost2010PropOp33
 70
     1
102
RTVSPost2010Prop34
280
     0
102
RTVSPost2010PropOp34
 70
     1
102
RTVSPost2010Prop35
280
     0
102
RTVSPost2010PropOp35
 70
     1
102
RTVSPost2010Prop36
280
     0
102
RTVSPost2010PropOp36
 70
     1
102
RTVSPost2010Prop37
 90
       50
102
RTVSPost2010PropOp37
 70
     1
102
RTVSPost2010Prop38
140
0.0
102
RTVSPost2010PropOp38
 70
     1
102
RTVSPost2010Prop39
140
1.0
102
RTVSPost2010PropOp39
 70
     1
102
RTVSPost2010Prop40
 90
        0
102
RTVSPost2010PropOp40
 70
     1
102
RTVSPost2010Prop41ColorIndex
 90
       18
102
RTVSPost2010Prop41ColorRGB
 90
        0
102
RTVSPost2010PropOp41
 70
     1
102
RTVSPost2010Prop42
 90
       50
102
RTVSPost2010PropOp42
 70
     1
102
RTVSPost2010Prop43
 90
        3
102
RTVSPost2010PropOp43
 70
     1
102
RTVSPost2010Prop44ColorIndex
 90
        5
102
RTVSPost2010Prop44ColorRGB
 90
      255
102
RTVSPost2010PropOp44
 70
     1
102
RTVSPost2010Prop45
280
     0
102
RTVSPost2010PropOp45
 70
     1
102
RTVSPost2010Prop46
 90
       50
102
RTVSPost2010PropOp46
 70
     1
102
RTVSPost2010Prop47
 90
       50
102
RTVSPost2010PropOp47
 70
     1
102
RTVSPost2010Prop48
 90
       50
102
RTVSPost2010PropOp48
 70
     1
102
RTVSPost2010Prop49
280
     0
102
RTVSPost2010PropOp49
 70
     1
102
RTVSPost2010Prop50
 90
       50
102
RTVSPost2010PropOp50
 70
     1
102
RTVSPost2010Prop51ColorIndex
 90
      256
102
RTVSPost2010Prop51ColorRGB
 90
-16777216
102
RTVSPost2010PropOp51
 70
     0
102
RTVSPost2010Prop52
140
1.0
102
RTVSPost2010PropOp52
 70
     0
102
RTVSPost2010Prop53
 90
        2
102
RTVSPost2010PropOp53
 70
     1
102
RTVSPost2010Prop54
  1
strokes_ogs.tif
102
RTVSPost2010PropOp54
 70
     1
102
RTVSPost2010Prop55
280
     0
102
RTVSPost2010PropOp55
 70
     1
102
RTVSPost2010Prop56
140
1.0
102
RTVSPost2010PropOp56
 70
     1
102
RTVSPost2010Prop57
140
1.0
102
RTVSPost2010PropOp57
 70
     1
  0
XRECORD
  5
C6A
102
{ACAD_REACTORS
330
C69
102
}
330
C69
100
AcDbXrecord
280
     1
102
RTVSPost2010Prop28
280
     0
102
RTVSPost2010PropOp28
 70
     1
102
RTVSPost2010Prop29
280
     1
102
RTVSPost2010PropOp29
 70
     1
102
RTVSPost2010Prop30
280
     1
102
RTVSPost2010PropOp30
 70
     1
102
RTVSPost2010Prop31
280
     0
102
RTVSPost2010PropOp31
 70
     1
102
RTVSPost2010Prop32
280
     0
102
RTVSPost2010PropOp32
 70
     1
102
RTVSPost2010Prop33
280
     0
102
RTVSPost2010PropOp33
 70
     1
102
RTVSPost2010Prop34
280
     0
102
RTVSPost2010PropOp34
 70
     1
102
RTVSPost2010Prop35
280
     0
102
RTVSPost2010PropOp35
 70
     1
102
RTVSPost2010Prop36
280
     0
102
RTVSPost2010PropOp36
 70
     1
102
RTVSPost2010Prop37
 90
       50
102
RTVSPost2010PropOp37
 70
     1
102
RTVSPost2010Prop38
140
0.0
102
RTVSPost2010PropOp38
 70
     1
102
RTVSPost2010Prop39
140
1.0
102
RTVSPost2010PropOp39
 70
     1
102
RTVSPost2010Prop40
 90
        0
102
RTVSPost2010PropOp40
 70
     1
102
RTVSPost2010Prop41ColorIndex
 90
       18
102
RTVSPost2010Prop41ColorRGB
 90
        0
102
RTVSPost2010PropOp41
 70
     1
102
RTVSPost2010Prop42
 90
       50
102
RTVSPost2010PropOp42
 70
     1
102
RTVSPost2010Prop43
 90
        3
102
RTVSPost2010PropOp43
 70
     1
102
RTVSPost2010Prop44ColorIndex
 90
        5
102
RTVSPost2010Prop44ColorRGB
 90
      255
102
RTVSPost2010PropOp44
 70
     1
102
RTVSPost2010Prop45
280
     0
102
RTVSPost2010PropOp45
 70
     1
102
RTVSPost2010Prop46
 90
       50
102
RTVSPost2010PropOp46
 70
     1
102
RTVSPost2010Prop47
 90
       50
102
RTVSPost2010PropOp47
 70
     1
102
RTVSPost2010Prop48
 90
       50
102
RTVSPost2010PropOp48
 70
     1
102
RTVSPost2010Prop49
280
     0
102
RTVSPost2010PropOp49
 70
     1
102
RTVSPost2010Prop50
 90
       50
102
RTVSPost2010PropOp50
 70
     1
102
RTVSPost2010Prop51ColorIndex
 90
      256
102
RTVSPost2010Prop51ColorRGB
 90
-16777216
102
RTVSPost2010PropOp51
 70
     0
102
RTVSPost2010Prop52
140
1.0
102
RTVSPost2010PropOp52
 70
     0
102
RTVSPost2010Prop53
 90
        2
102
RTVSPost2010PropOp53
 70
     1
102
RTVSPost2010Prop54
  1
strokes_ogs.tif
102
RTVSPost2010PropOp54
 70
     1
102
RTVSPost2010Prop55
280
     0
102
RTVSPost2010PropOp55
 70
     1
102
RTVSPost2010Prop56
140
1.0
102
RTVSPost2010PropOp56
 70
     1
102
RTVSPost2010Prop57
140
1.0
102
RTVSPost2010PropOp57
 70
     1
  0
XRECORD
  5
C64
102
{ACAD_REACTORS
330
C63
102
}
330
C63
100
AcDbXrecord
280
     1
102
RTVSPost2010Prop28
280
     0
102
RTVSPost2010PropOp28
 70
     1
102
RTVSPost2010Prop29
280
     1
102
RTVSPost2010PropOp29
 70
     1
102
RTVSPost2010Prop30
280
     1
102
RTVSPost2010PropOp30
 70
     1
102
RTVSPost2010Prop31
280
     0
102
RTVSPost2010PropOp31
 70
     1
102
RTVSPost2010Prop32
280
     0
102
RTVSPost2010PropOp32
 70
     1
102
RTVSPost2010Prop33
280
     0
102
RTVSPost2010PropOp33
 70
     1
102
RTVSPost2010Prop34
280
     0
102
RTVSPost2010PropOp34
 70
     1
102
RTVSPost2010Prop35
280
     0
102
RTVSPost2010PropOp35
 70
     1
102
RTVSPost2010Prop36
280
     0
102
RTVSPost2010PropOp36
 70
     1
102
RTVSPost2010Prop37
 90
       50
102
RTVSPost2010PropOp37
 70
     1
102
RTVSPost2010Prop38
140
0.0
102
RTVSPost2010PropOp38
 70
     1
102
RTVSPost2010Prop39
140
1.0
102
RTVSPost2010PropOp39
 70
     1
102
RTVSPost2010Prop40
 90
        0
102
RTVSPost2010PropOp40
 70
     1
102
RTVSPost2010Prop41ColorIndex
 90
       18
102
RTVSPost2010Prop41ColorRGB
 90
        0
102
RTVSPost2010PropOp41
 70
     1
102
RTVSPost2010Prop42
 90
       50
102
RTVSPost2010PropOp42
 70
     1
102
RTVSPost2010Prop43
 90
        3
102
RTVSPost2010PropOp43
 70
     1
102
RTVSPost2010Prop44ColorIndex
 90
        5
102
RTVSPost2010Prop44ColorRGB
 90
      255
102
RTVSPost2010PropOp44
 70
     1
102
RTVSPost2010Prop45
280
     0
102
RTVSPost2010PropOp45
 70
     1
102
RTVSPost2010Prop46
 90
       50
102
RTVSPost2010PropOp46
 70
     1
102
RTVSPost2010Prop47
 90
       50
102
RTVSPost2010PropOp47
 70
     1
102
RTVSPost2010Prop48
 90
       50
102
RTVSPost2010PropOp48
 70
     1
102
RTVSPost2010Prop49
280
     0
102
RTVSPost2010PropOp49
 70
     1
102
RTVSPost2010Prop50
 90
       50
102
RTVSPost2010PropOp50
 70
     1
102
RTVSPost2010Prop51ColorIndex
 90
      256
102
RTVSPost2010Prop51ColorRGB
 90
-16777216
102
RTVSPost2010PropOp51
 70
     0
102
RTVSPost2010Prop52
140
1.0
102
RTVSPost2010PropOp52
 70
     0
102
RTVSPost2010Prop53
 90
        2
102
RTVSPost2010PropOp53
 70
     1
102
RTVSPost2010Prop54
  1
strokes_ogs.tif
102
RTVSPost2010PropOp54
 70
     1
102
RTVSPost2010Prop55
280
     0
102
RTVSPost2010PropOp55
 70
     1
102
RTVSPost2010Prop56
140
1.0
102
RTVSPost2010PropOp56
 70
     1
102
RTVSPost2010Prop57
140
1.0
102
RTVSPost2010PropOp57
 70
     1
  0
XRECORD
  5
C66
102
{ACAD_REACTORS
330
C65
102
}
330
C65
100
AcDbXrecord
280
     1
102
RTVSPost2010Prop28
280
     0
102
RTVSPost2010PropOp28
 70
     1
102
RTVSPost2010Prop29
280
     1
102
RTVSPost2010PropOp29
 70
     1
102
RTVSPost2010Prop30
280
     1
102
RTVSPost2010PropOp30
 70
     1
102
RTVSPost2010Prop31
280
     0
102
RTVSPost2010PropOp31
 70
     1
102
RTVSPost2010Prop32
280
     0
102
RTVSPost2010PropOp32
 70
     1
102
RTVSPost2010Prop33
280
     0
102
RTVSPost2010PropOp33
 70
     1
102
RTVSPost2010Prop34
280
     0
102
RTVSPost2010PropOp34
 70
     1
102
RTVSPost2010Prop35
280
     0
102
RTVSPost2010PropOp35
 70
     1
102
RTVSPost2010Prop36
280
     0
102
RTVSPost2010PropOp36
 70
     1
102
RTVSPost2010Prop37
 90
       50
102
RTVSPost2010PropOp37
 70
     1
102
RTVSPost2010Prop38
140
0.0
102
RTVSPost2010PropOp38
 70
     1
102
RTVSPost2010Prop39
140
1.0
102
RTVSPost2010PropOp39
 70
     1
102
RTVSPost2010Prop40
 90
        0
102
RTVSPost2010PropOp40
 70
     1
102
RTVSPost2010Prop41ColorIndex
 90
       18
102
RTVSPost2010Prop41ColorRGB
 90
        0
102
RTVSPost2010PropOp41
 70
     1
102
RTVSPost2010Prop42
 90
       50
102
RTVSPost2010PropOp42
 70
     1
102
RTVSPost2010Prop43
 90
        3
102
RTVSPost2010PropOp43
 70
     1
102
RTVSPost2010Prop44ColorIndex
 90
        5
102
RTVSPost2010Prop44ColorRGB
 90
      255
102
RTVSPost2010PropOp44
 70
     1
102
RTVSPost2010Prop45
280
     0
102
RTVSPost2010PropOp45
 70
     1
102
RTVSPost2010Prop46
 90
       50
102
RTVSPost2010PropOp46
 70
     1
102
RTVSPost2010Prop47
 90
       50
102
RTVSPost2010PropOp47
 70
     1
102
RTVSPost2010Prop48
 90
       50
102
RTVSPost2010PropOp48
 70
     1
102
RTVSPost2010Prop49
280
     0
102
RTVSPost2010PropOp49
 70
     1
102
RTVSPost2010Prop50
 90
       50
102
RTVSPost2010PropOp50
 70
     1
102
RTVSPost2010Prop51ColorIndex
 90
      256
102
RTVSPost2010Prop51ColorRGB
 90
-16777216
102
RTVSPost2010PropOp51
 70
     0
102
RTVSPost2010Prop52
140
1.0
102
RTVSPost2010PropOp52
 70
     0
102
RTVSPost2010Prop53
 90
        2
102
RTVSPost2010PropOp53
 70
     1
102
RTVSPost2010Prop54
  1
strokes_ogs.tif
102
RTVSPost2010PropOp54
 70
     1
102
RTVSPost2010Prop55
280
     0
102
RTVSPost2010PropOp55
 70
     1
102
RTVSPost2010Prop56
140
1.0
102
RTVSPost2010PropOp56
 70
     1
102
RTVSPost2010Prop57
140
1.0
102
RTVSPost2010PropOp57
 70
     1
  0
XRECORD
  5
C5C
102
{ACAD_REACTORS
330
C5B
102
}
330
C5B
100
AcDbXrecord
280
     1
102
RTVSPost2010Prop28
280
     0
102
RTVSPost2010PropOp28
 70
     1
102
RTVSPost2010Prop29
280
     1
102
RTVSPost2010PropOp29
 70
     1
102
RTVSPost2010Prop30
280
     1
102
RTVSPost2010PropOp30
 70
     1
102
RTVSPost2010Prop31
280
     0
102
RTVSPost2010PropOp31
 70
     1
102
RTVSPost2010Prop32
280
     0
102
RTVSPost2010PropOp32
 70
     1
102
RTVSPost2010Prop33
280
     0
102
RTVSPost2010PropOp33
 70
     1
102
RTVSPost2010Prop34
280
     0
102
RTVSPost2010PropOp34
 70
     1
102
RTVSPost2010Prop35
280
     0
102
RTVSPost2010PropOp35
 70
     1
102
RTVSPost2010Prop36
280
     0
102
RTVSPost2010PropOp36
 70
     1
102
RTVSPost2010Prop37
 90
       50
102
RTVSPost2010PropOp37
 70
     1
102
RTVSPost2010Prop38
140
0.0
102
RTVSPost2010PropOp38
 70
     1
102
RTVSPost2010Prop39
140
1.0
102
RTVSPost2010PropOp39
 70
     1
102
RTVSPost2010Prop40
 90
        0
102
RTVSPost2010PropOp40
 70
     1
102
RTVSPost2010Prop41ColorIndex
 90
       18
102
RTVSPost2010Prop41ColorRGB
 90
        0
102
RTVSPost2010PropOp41
 70
     1
102
RTVSPost2010Prop42
 90
       50
102
RTVSPost2010PropOp42
 70
     1
102
RTVSPost2010Prop43
 90
        3
102
RTVSPost2010PropOp43
 70
     1
102
RTVSPost2010Prop44ColorIndex
 90
        5
102
RTVSPost2010Prop44ColorRGB
 90
      255
102
RTVSPost2010PropOp44
 70
     1
102
RTVSPost2010Prop45
280
     0
102
RTVSPost2010PropOp45
 70
     1
102
RTVSPost2010Prop46
 90
       50
102
RTVSPost2010PropOp46
 70
     1
102
RTVSPost2010Prop47
 90
       50
102
RTVSPost2010PropOp47
 70
     1
102
RTVSPost2010Prop48
 90
       50
102
RTVSPost2010PropOp48
 70
     1
102
RTVSPost2010Prop49
280
     0
102
RTVSPost2010PropOp49
 70
     1
102
RTVSPost2010Prop50
 90
       50
102
RTVSPost2010PropOp50
 70
     1
102
RTVSPost2010Prop51ColorIndex
 90
      256
102
RTVSPost2010Prop51ColorRGB
 90
-16777216
102
RTVSPost2010PropOp51
 70
     0
102
RTVSPost2010Prop52
140
1.0
102
RTVSPost2010PropOp52
 70
     0
102
RTVSPost2010Prop53
 90
        2
102
RTVSPost2010PropOp53
 70
     1
102
RTVSPost2010Prop54
  1
strokes_ogs.tif
102
RTVSPost2010PropOp54
 70
     1
102
RTVSPost2010Prop55
280
     0
102
RTVSPost2010PropOp55
 70
     1
102
RTVSPost2010Prop56
140
1.0
102
RTVSPost2010PropOp56
 70
     1
102
RTVSPost2010Prop57
140
1.0
102
RTVSPost2010PropOp57
 70
     1
  0
XRECORD
  5
C50
102
{ACAD_REACTORS
330
C4F
102
}
330
C4F
100
AcDbXrecord
280
     1
102
RTVSPost2010Prop28
280
     0
102
RTVSPost2010PropOp28
 70
     1
102
RTVSPost2010Prop29
280
     1
102
RTVSPost2010PropOp29
 70
     1
102
RTVSPost2010Prop30
280
     1
102
RTVSPost2010PropOp30
 70
     1
102
RTVSPost2010Prop31
280
     0
102
RTVSPost2010PropOp31
 70
     1
102
RTVSPost2010Prop32
280
     0
102
RTVSPost2010PropOp32
 70
     1
102
RTVSPost2010Prop33
280
     0
102
RTVSPost2010PropOp33
 70
     1
102
RTVSPost2010Prop34
280
     0
102
RTVSPost2010PropOp34
 70
     1
102
RTVSPost2010Prop35
280
     0
102
RTVSPost2010PropOp35
 70
     1
102
RTVSPost2010Prop36
280
     0
102
RTVSPost2010PropOp36
 70
     1
102
RTVSPost2010Prop37
 90
       50
102
RTVSPost2010PropOp37
 70
     1
102
RTVSPost2010Prop38
140
0.0
102
RTVSPost2010PropOp38
 70
     1
102
RTVSPost2010Prop39
140
1.0
102
RTVSPost2010PropOp39
 70
     1
102
RTVSPost2010Prop40
 90
        0
102
RTVSPost2010PropOp40
 70
     1
102
RTVSPost2010Prop41ColorIndex
 90
       18
102
RTVSPost2010Prop41ColorRGB
 90
        0
102
RTVSPost2010PropOp41
 70
     1
102
RTVSPost2010Prop42
 90
       50
102
RTVSPost2010PropOp42
 70
     1
102
RTVSPost2010Prop43
 90
        3
102
RTVSPost2010PropOp43
 70
     1
102
RTVSPost2010Prop44ColorIndex
 90
        5
102
RTVSPost2010Prop44ColorRGB
 90
      255
102
RTVSPost2010PropOp44
 70
     1
102
RTVSPost2010Prop45
280
     0
102
RTVSPost2010PropOp45
 70
     1
102
RTVSPost2010Prop46
 90
       50
102
RTVSPost2010PropOp46
 70
     1
102
RTVSPost2010Prop47
 90
       50
102
RTVSPost2010PropOp47
 70
     1
102
RTVSPost2010Prop48
 90
       50
102
RTVSPost2010PropOp48
 70
     1
102
RTVSPost2010Prop49
280
     0
102
RTVSPost2010PropOp49
 70
     1
102
RTVSPost2010Prop50
 90
       50
102
RTVSPost2010PropOp50
 70
     1
102
RTVSPost2010Prop51ColorIndex
 90
      256
102
RTVSPost2010Prop51ColorRGB
 90
-16777216
102
RTVSPost2010PropOp51
 70
     0
102
RTVSPost2010Prop52
140
1.0
102
RTVSPost2010PropOp52
 70
     0
102
RTVSPost2010Prop53
 90
        2
102
RTVSPost2010PropOp53
 70
     1
102
RTVSPost2010Prop54
  1
strokes_ogs.tif
102
RTVSPost2010PropOp54
 70
     1
102
RTVSPost2010Prop55
280
     0
102
RTVSPost2010PropOp55
 70
     1
102
RTVSPost2010Prop56
140
1.0
102
RTVSPost2010PropOp56
 70
     1
102
RTVSPost2010Prop57
140
1.0
102
RTVSPost2010PropOp57
 70
     1
  0
XRECORD
  5
C68
102
{ACAD_REACTORS
330
C67
102
}
330
C67
100
AcDbXrecord
280
     1
102
RTVSPost2010Prop28
280
     0
102
RTVSPost2010PropOp28
 70
     1
102
RTVSPost2010Prop29
280
     1
102
RTVSPost2010PropOp29
 70
     1
102
RTVSPost2010Prop30
280
     1
102
RTVSPost2010PropOp30
 70
     1
102
RTVSPost2010Prop31
280
     0
102
RTVSPost2010PropOp31
 70
     1
102
RTVSPost2010Prop32
280
     0
102
RTVSPost2010PropOp32
 70
     1
102
RTVSPost2010Prop33
280
     0
102
RTVSPost2010PropOp33
 70
     1
102
RTVSPost2010Prop34
280
     0
102
RTVSPost2010PropOp34
 70
     1
102
RTVSPost2010Prop35
280
     0
102
RTVSPost2010PropOp35
 70
     1
102
RTVSPost2010Prop36
280
     0
102
RTVSPost2010PropOp36
 70
     1
102
RTVSPost2010Prop37
 90
       50
102
RTVSPost2010PropOp37
 70
     1
102
RTVSPost2010Prop38
140
0.0
102
RTVSPost2010PropOp38
 70
     1
102
RTVSPost2010Prop39
140
1.0
102
RTVSPost2010PropOp39
 70
     1
102
RTVSPost2010Prop40
 90
        0
102
RTVSPost2010PropOp40
 70
     1
102
RTVSPost2010Prop41ColorIndex
 90
       18
102
RTVSPost2010Prop41ColorRGB
 90
        0
102
RTVSPost2010PropOp41
 70
     1
102
RTVSPost2010Prop42
 90
       50
102
RTVSPost2010PropOp42
 70
     1
102
RTVSPost2010Prop43
 90
        3
102
RTVSPost2010PropOp43
 70
     1
102
RTVSPost2010Prop44ColorIndex
 90
        5
102
RTVSPost2010Prop44ColorRGB
 90
      255
102
RTVSPost2010PropOp44
 70
     1
102
RTVSPost2010Prop45
280
     0
102
RTVSPost2010PropOp45
 70
     1
102
RTVSPost2010Prop46
 90
       50
102
RTVSPost2010PropOp46
 70
     1
102
RTVSPost2010Prop47
 90
       50
102
RTVSPost2010PropOp47
 70
     1
102
RTVSPost2010Prop48
 90
       50
102
RTVSPost2010PropOp48
 70
     1
102
RTVSPost2010Prop49
280
     0
102
RTVSPost2010PropOp49
 70
     1
102
RTVSPost2010Prop50
 90
       50
102
RTVSPost2010PropOp50
 70
     1
102
RTVSPost2010Prop51ColorIndex
 90
      256
102
RTVSPost2010Prop51ColorRGB
 90
-16777216
102
RTVSPost2010PropOp51
 70
     0
102
RTVSPost2010Prop52
140
1.0
102
RTVSPost2010PropOp52
 70
     0
102
RTVSPost2010Prop53
 90
        2
102
RTVSPost2010PropOp53
 70
     1
102
RTVSPost2010Prop54
  1
strokes_ogs.tif
102
RTVSPost2010PropOp54
 70
     1
102
RTVSPost2010Prop55
280
     0
102
RTVSPost2010PropOp55
 70
     1
102
RTVSPost2010Prop56
140
1.0
102
RTVSPost2010PropOp56
 70
     1
102
RTVSPost2010Prop57
140
1.0
102
RTVSPost2010PropOp57
 70
     1
  0
ACAD_PROXY_OBJECT
  5
6E
330
62
100
AcDbProxyObject
 90
      499
 91
      526
 95
  6815769
 70
     0
161
                12
310
5C1C
 94
        0
1001
ACAD
1000
AcRTDxfName
1000
AMDTEDGESTANDARDISO
1000
AcRTDxfName
1000
AMDTEDGESTANDARDISO
  0
ACAD_PROXY_OBJECT
  5
6F
330
62
100
AcDbProxyObject
 90
      499
 91
      527
 95
  6815769
 70
     0
161
                96
310
5C2A0E80A0280A0280A0280F00
 94
        0
1001
ACAD
1000
AcRTDxfName
1000
ACMSURFSTANDARDISO
1000
AcRTDxfName
1000
ACMSURFSTANDARDISO
  0
ACAD_PROXY_OBJECT
  5
70
330
62
100
AcDbProxyObject
 90
      499
 91
      528
 95
  6815769
 70
     0
161
               272
310
5C10E4050140501405014050140501405014050140D01405012C000000000000004000
340
79
 94
        0
1001
ACAD
1000
AcRTDxfName
1000
ACMFCFSTANDARDISO
1000
AcRTDxfName
1000
ACMFCFSTANDARDISO
  0
ACAD_PROXY_OBJECT
  5
71
330
62
100
AcDbProxyObject
 90
      499
 91
      529
 95
  6815769
 70
     0
161
               496
310
5C28666666666667A67E199999999999E99FD224050140501405014050140501405014050140501405014050140501405014050140501405014050140501FF
340
7A
 94
        0
1001
ACAD
1000
AcRTDxfName
1000
ACMWELDSTANDARDISO
1000
AcRTDxfName
1000
ACMWELDSTANDARDISO
  0
ACAD_PROXY_OBJECT
  5
72
330
62
100
AcDbProxyObject
 90
      499
 91
      530
 95
  6815769
 70
     0
161
                10
310
5C0C
 94
        0
1001
ACAD
1000
AcRTDxfName
1000
ACMIDSTANDARDISO
1000
AcRTDxfName
1000
ACMIDSTANDARDISO
  0
ACAD_PROXY_OBJECT
  5
73
330
62
100
AcDbProxyObject
 90
      499
 91
      531
 95
  6815769
 70
     0
161
               257
310
5C2290EA22A7D90F49F8000000000000108140000000000000420401000061804C
340
7B
340
7C
 94
        0
1001
ACAD
1000
AcRTDxfName
1000
ACMDATUMSTANDARDISO
1000
AcRTDxfName
1000
ACMDATUMSTANDARDISO
  0
ACAD_PROXY_OBJECT
  5
74
330
62
100
AcDbProxyObject
 90
      499
 91
      532
 95
  6815769
 70
     0
161
             13231
310
5C10E411255115350141236025B690140501406901000000000000091013347454E545241434F2C4A504E2C302C8D8096DA2C47454E54524154582C25732C2847454E4D53472067656E647767203232322940690120281A8AA2CA0282484A4BE52028120280A0320200000000000012202668E8A9CA8A482869E5894A09C58
310
605921292F94588E8A9CA8A482A8B0584AE658508E8A9C9AA68E40CECADCC8EECE406464665280D202405044E414D454050496BC914F4051C40640A80000000000004E404CD1D15395149050D3CB1294138B0C0B25AF2453CB11D15395149055160B095CCB0A11D1539354D1C819D95B991DD9C80C8C8D8A50192C3D494628
310
4953424C414E4B28504152543A4E414D45292C424C4F434B3A4E414D452C504152543A4E414D452940480A0A888AA686A480A0921C12D7C80A3A80C81D0000000000100A28099A3A2A72A2920A1A79625282716181648704B5F1623A2A72A2920AA2C1612B9961423A2A726A9A39033B2B7323BB39019189B94A0348090142
310
14D51053911054911014122D2E29A50147501904A000000000000125013347454E545241434F2C4A504E2C302C8B4B8A692C47454E54524154582C25732C2847454E4D53472067656E64776720323138294069012028426A0AA22A924A0A62028246EF4BDFA028EA0320B40000000000001CA02668E8A9CA8A482869E5894A
310
09C5860591BBD2F7E588E8A9CA8A482A8B0584AE658508E8A9C9AA68E40CECADCC8EECE406464625280D202405044E4F544540504928D8B4C4051D40641A80000000000003E404CD1D15395149050D3CB1294138B0C0B24A362D30B11D15395149055160B095CCB0A11D1539354D1C819D95B991DD9C80C8C8D4A501240480
310
A0CAC8A9C889EA480A1106F1072706BF02B680A3A80C83D00000000000007C809BA3A2A72A2920A1A79625282716181641BC41C9C1AFC0AD9623A2A72A2920AA2C1612B9961423A2A726A9A39033B2B7323BB39019191A14A0248090141911154D0D48C90141A43825AF880C90147501908A000000000020145013447454E5
310
45241434F2C4A504E2C302C90E096BE20322C47454E54524154582C25732C2847454E4D53472067656E6477672033362940490120284A9AA20A72220A922192028345A5C53490192028EA03213400000000000024A026A8E8A9CA8A482869E5894A09C586059169714D24064588E8A9CA8A482A8B0584AE658508E8A9C9AA6
310
8E40CECADCC8EECE4064646052809202405094D4154455249414C32405068DDE97BF20324051D40642A8713D0AD7A37045404D11D15395149050D3CB1294138B0C0B2377A5EFC80C8B11D15395149055160B095CCB0A11D1539354D1C819D95B991DD9C80D0C0A501240480A089A82A6A680A091D7F2F9480A3A80A0485A06
310
8100000000000007C809923A2A72A2920A1A796252827161816475FCBE51623A2A72A2920AA2C1612B9961423A2A726A9A39033B2B7323BB3901A1914A024809014154149250D150141226FE29A501475014090C409020000000000000F9013247454E545241434F2C4A504E2C302C89BF8A692C47454E54524154582C2573
310
2C2847454E4D53472067656E6477672034332940490120281A224A6A02824850CB202028EA028121A81A040000000000001F202648E8A9CA8A482869E5894A09C58605921432C80588E8A9CA8A482A8B0584AE658508E8A9C9AA68E40CECADCC8EECE406868528092024050E445020000000000000510201C00030C0001018
310
0000000000003E400000000000000F901073D3C4954454D3E4050180000000000003E400000000000000F901073D3C4954454D3E40501800000000000034400000000000000D101073D3C4954454D3E40501800000000000034400000000000000D101073D3C4954454D3E405029010000000000000F9000000000000003E4
310
041CF4F125511534F901418F4F1455164F9014060000000000000F9000000000000003E4041CF4F125511534F901901000000000000000F9000000000000003E40A2200000000000008204018000618048220681A048120280A0D2B292AD32AB8882148421F04D904E44104DF06A706AD06C5069C8820321F04D904E44104D
310
F06A706AD06C5069C8520321F04D904E44104DF06A706AD06C5069C8452028521485214814000000000000F0BF0000000000003C2FD018020000C3008070000C3003373333333333B0FCCDCCCCCCCCCCEC3F000000000000031012034164050341105901A00000000000006204010000618040100006180400800061802026
310
280A02
340
0
340
0
 94
        0
1001
ACAD
1000
AcRTDxfName
1000
ACMBOMSTANDARDISO
1000
AcRTDxfName
1000
ACMBOMSTANDARDISO
  0
ACAD_PROXY_OBJECT
  5
75
330
62
100
AcDbProxyObject
 90
      499
 91
      533
 95
  6815769
 70
     0
161
               898
310
5C04000000000000144048CF4F11115510525317D3105091530F880A0F11115510525317D05094D4D0D053114F8A51141C9A9999999999B93F26A666666666724FC000000000000E03F400000000000000400000000000000510000000000000024408070000C30000000000000005100C
340
16
340
6D
 94
        0
1001
ACAD
1000
AcRTDxfName
1000
ACMDETAILSTANDARDISO
1000
AcRTDxfName
1000
ACMDETAILSTANDARDISO
  0
ACAD_PROXY_OBJECT
  5
76
330
62
100
AcDbProxyObject
 90
      499
 91
      534
 95
  6815769
 70
     0
161
               813
310
5C00B00000000000002880959E9E29A2A1AA24A7A72FA620A122A62FA324A929AA1F169E29A2A1AA24A7A72FA620A122A62FA620A9AA1F00000000000004880FF8070000C30022300E000186000000000000001220000000000000028800000000000000A204
340
7E
340
6D
 94
        0
1001
ACAD
1000
AcRTDxfName
1000
ACMSECTIONSTANDARDISO
1000
AcRTDxfName
1000
ACMSECTIONSTANDARDISO
  0
ACAD_PROXY_OBJECT
  5
77
330
62
100
AcDbProxyObject
 90
      499
 91
      535
 95
  6815769
 70
     0
161
               151
310
5C280000000000000840A3D0A5723F0BD1F200
 94
        0
1001
ACAD
1000
AcRTDxfName
1000
ACMCENTERLINESTANDARDISO
1000
AcRTDxfName
1000
ACMCENTERLINESTANDARDISO
  0
ACAD_PROXY_OBJECT
  5
78
330
62
100
AcDbProxyObject
 90
      499
 91
      536
 95
  6815769
 70
     0
161
              5141
310
5C1084050BA4050AA405024050A54656D706C6174652031405BE3D2525633C486F6C653A63746469613E2078203C486F6C653A637464657074683E20555C503C696628657175616C28486F6C653A7461707065642C223022292C222525632220486F6C653A6469612C20486F6C653A6E6F6D696E616C20222078202220486F
310
6C653A70697463686465736320222078202220486F6C653A7461706465707468293E203C696628657175616C28486F6C653A7465726D696E6174696F6E2C223022292C22202F202220486F6C653A64657074682C222022293E406901405034050A54656D706C6174652031405BF3D2525633C486F6C653A63746469613E207
310
8203C486F6C653A6374616E676C653E2525645C503C696628657175616C28486F6C653A7461707065642C223022292C222525632220486F6C653A6469612C20486F6C653A6E6F6D696E616C20222078202220486F6C653A70697463686465736320222078202220486F6C653A7461706465707468293E203C6966286571756
310
16C28486F6C653A7465726D696E6174696F6E2C223022292C22202F202220486F6C653A64657074682C222022293E406901405014050A54656D706C61746520314059A3D3C696628657175616C28486F6C653A7461707065642C223022292C222525632220486F6C653A6469612C20486F6C653A6E6F6D696E616C20222078
310
202220486F6C653A70697463686465736320222078202220486F6C653A7461706465707468293E203C696628657175616C28486F6C653A7465726D696E6174696F6E2C223022292C22202F202220486F6C653A64657074682C222022293E4069014051E4050A54656D706C61746520314050C3D3C535444503A444553433E4
310
0690140515AAAB7C
360
136
330
136
360
137
330
137
360
138
330
138
360
139
330
139
 94
        0
1001
ACAD
1000
AcRTDxfName
1000
ACMNOTESTANDARDISO
1000
AcRTDxfName
1000
ACMNOTESTANDARDISO
  0
ACAD_PROXY_OBJECT
  5
7F
330
62
100
AcDbProxyObject
 90
      499
 91
      537
 95
  6815769
 70
     0
161
                26
310
5C102A8C
340
63
 94
        0
1001
ACAD
1000
AcRTDxfName
1000
ACAMGLAYSTD
1000
AcRTDxfName
1000
ACAMGLAYSTD
  0
ACAD_PROXY_OBJECT
  5
80
330
62
100
AcDbProxyObject
 90
      499
 91
      538
 95
  6815769
 70
     0
161
               250
310
5C1020000000000000A1000000000000002440408F0F9023C3E409A0DCFFFF8C
340
81
340
0
340
0
340
82
340
83
340
84
340
85
340
86
340
8B
340
0
 94
        0
1001
ACAD
1000
AcRTDxfName
1000
ACAMGDIMSTD
1000
AcRTDxfName
1000
ACAMGDIMSTD
  0
ACAD_PROXY_OBJECT
  5
8C
330
62
100
AcDbProxyObject
 90
      499
 91
      539
 95
  6815769
 70
     0
161
             13659
310
5C11C003FFFFFFFD030300030000000000000310200800030C01030300030000000000000310200800030C00050C8DC0955782CC838A83588367014ED1D15395149050D3CB1294138B0C0B23702555E0B320E2A0D620D9CB11D15395149055160B095CCB0A11D1539354D1C819D95B991A5B5E880CCC0A78000C0000000000
310
00000000000000000000010000000000000310200800030C010000000000000310200800030C020142A322A0D96056E0DD60E2C053947454E545241434F2C4A504E2C302C8C8A8365815B8375838B2C47454E54524154582C25732C2847454E4D53472067656E64696D7A20333129E00030000000000000000000000000000
310
000040000000000000C408020000C30040000000000000C408020000C30090D44111409034110541D0C4350F4050E44D03449074510F000141232D24D7C053447454E545241434F2C454E552C302C4F726967696E2C47454E54524154582C25732C2847454E4D53472067656E64696D7A20312900010105002214000281464
310
500A648E8A9CA8A482869E588A9CAA58605890DED8CA588E8A9CA8A482A8B0584AE658508E8A9C9AA68E40CECADCC8D2DAF4406452029F9E9E27B934B3B4B71F1E24A31427A91424A9A12620A7259427B934B3B4B7149624A9A12620A7259424B73232BC149496111116111711149F1E24B73232BC1F00808200111A000140
310
560052F47454E545241434F2C454E552C302C582C47454E54524154582C25732C2847454E4D53472067656E64696D7A20332900010100002054000280AC80A5E8E8A9CA8A482869E588A9CAA586058B2588E8A9CA8A482A8B0584AE658508E8A9C9AA68E40CECADCC8D2DAF4406852000202000040E800050172014BD1D153
310
95149050D3CB1153954B0C0B1C8B11D15395149055160B095CCB0A11D1539354D1C819D95B991A5B5E880D8A400040400008250000A050766029823A2A72A2920A1A79622A72A96181642431623A2A72A2920AA2C1612B9961423A2A726A9A39033B2B73234B6BD101B948000808180105A000140A0ECC053147454E545241
310
434F2C454E552C302C2525632C47454E54524154582C25732C2847454E4D53472067656E64696D7A203829000101010020F400028248704B5F00A748E8A9CA8A482869E588A9CAA58605888CAE6C6E4D2E0E8D2DEDC588E8A9CA8A482A8B0584AE658508E8A9C9AA68E40CECADCC8D2DAF4406460520002000800432800050
310
48B4B8A69014DD1D15395149050D3CB1153954B0C0B14DD185B99185C990B11D15395149055160B095CCB0A11D1539354D1C819D95B991A5B5E880C8C4A4000400100086D0000A09196926BE029A23A2A72A2920A1A79622A72A96181627B934B3B4B71623A2A72A2920AA2C1612B9961423A2A726A9A39033B2B73234B6BD
310
10189480A026202020A0043E80005048D8096DA014CD1D15395149050D3CB1153954B0C0B125D195B4B11D15395149055160B095CCB0A11D1539354D1C819D95B991A5B5E880C4D0A4000404140080D0000A190687072706CD06C5069D06B0029A23A2A72A2920A1A79622A72A96181624B73232BC1623A2A72A2920AA2C16
310
12B9961423A2A726A9A39033B2B73234B6BD10189A94800080828010EA000143A322A0D0E0E4E0D9A0D8A0D3A0D60053947454E545241434F2C454E552C302C486F6C6520496E6465782C47454E54524154582C25732C2847454E4D53472067656E64696D7A2031372900010105002274000281464500A668E8A9CA8A48286
310
9E588A9CAA58605890DED8CA588E8A9CA8A482A8B0584AE658508E8A9C9AA68E40CECADCC8D2DAF440626C52000202080044A8000504909497CA014C91D15395149050D3CB1153954B0C0B145D1E4B11D15395149055160B095CCB0A11D1539354D1C819D95B991A5B5E880C4E4A400040418008A521E000000000000001CA
310
040C00000000000034408080000000000006881010000000000000D102040000000000001A204080000000000003440818000000000000728103000000000000125020600000000004028A040000000000000034408000000000000004881000000000000000D102000000000000001A204000000000000003440818000000
310
000000508143C0000000000000039408180000000000006881030000000000000D102060000000000001A2040C00000000000034408180000000000006881030000000000000E5020600000000000024A040C000000000080514080000000000000068810000000000000009102000000000000001A2040000000000000034
310
408180000000000006881030000000000000A10283A2000000087800000204000000818000002080000008280000020E00000080A24000000C
340
0
340
0
340
0
340
0
340
6D
340
6D
 94
        0
1001
ACAD
1000
AcRTDxfName
1000
ACAMGHOLECHARTSTDISO
1000
AcRTDxfName
1000
ACAMGHOLECHARTSTDISO
  0
ACAD_PROXY_OBJECT
  5
8D
330
62
100
AcDbProxyObject
 90
      499
 91
      540
 95
  6815769
 70
     0
161
              7162
310
5C19740D254D3D0649534F5F4133429254D3D7D5125513115051349534F5F42525F5265766973696F6E6C69737446111413478342028323937783834316D6D2920421254D3D7D04D1E0D11141327835202835393478323130326D6D29421254D3D7D04C9E0D51141347839202832393778313839326D6D29421254D3D7D04D
310
1E0E51141337837202834323078323038306D6D29421254D3D7D04CDE0DD1141347838202832393778313638326D6D29421254D3D7D04D1E0E11141327834202835393478313638326D6D29421254D3D7D04C9E0D10E41312028353934783834316D6D29419254D3D7D04C51141347837202832393778313437316D6D29421
310
254D3D7D04D1E0DD1141347836202832393778313236316D6D29421254D3D7D04D1E0D91141347835202832393778313035316D6D29421254D3D7D04D1E0D5104130202838343078313138396D6D2920419254D3D7D04C10E41332028323937783432306D6D29419254D3D7D04CD1141327833202835393478313236316D6D
310
29421254D3D7D04C9E0CD10413478332028323937783633306D6D29421254D3D7D04D1E0CD1141337834202834323078313138396D6D29421254D3D7D04CDE0D11141337836202834323078313738336D6D29421254D3D7D04CDE0D91141337835202834323078313438366D6D29421254D3D7D04CDE0D50E4132202834323
310
0783539346D6D29419254D3D7D04C910413378332028343230783839316D6D29421254D3D7D04CDE0CD0E41342028323937783231306D6D29419254D3D7D04D1124130783220283131383978313638326D6D29421254D3D7D04C1E0C9124130783320283131383978323532336D6D29421254D3D7D04C1E0CD114131783420
310
2838343178323337386D6D29421254D3D7D04C5E0D11141317833202838343178313738336D6D29421254D3D7D04C5E0CD02445254D3C8151A5D1B1948109B1BD8DAC81050A49534F5F5449544C4541445254D3C8151A5D1B1948109B1BD8DAC81090A49534F5F5449544C4542411105265766973696F6E6C6973745F424C5
310
F44D254D3D7D09317D4995D9A5CDA5BDB9B1A5CDD1105265766973696F6E6C6973745F544C5F44D254D3D7D51317D4995D9A5CDA5BDB9B1A5CDD1105265766973696F6E6C6973745F42525F44D254D3D7D09497D4995D9A5CDA5BDB9B1A5CDD1105265766973696F6E6C6973745F54525F44D254D3D7D51497D4995D9A5CDA
310
5BDB9B1A5CDD0C
 94
        0
1001
ACAD
1000
AcRTDxfName
1000
ACAMGTITLESTD
1000
AcRTDxfName
1000
ACAMGTITLESTD
  0
ACAD_PROXY_OBJECT
  5
10D
330
62
100
AcDbProxyObject
 90
      499
 91
      567
 95
  6815769
 70
     0
161
                14
310
5C20
340
0
 94
        0
1001
ACAD
1000
AcRTDxfName
1000
ACMTHREADLINESTANDARDISO
1000
AcRTDxfName
1000
ACMTHREADLINESTANDARDISO
  0
ACAD_PROXY_OBJECT
  5
136
330
0
100
AcDbProxyObject
 90
      499
 91
      573
 95
  6815769
 70
     0
161
              1648
310
5C2014295195B5C1B185D19480C405BE3D2525633C486F6C653A63746469613E2078203C486F6C653A637464657074683E20555C503C696628657175616C28486F6C653A7461707065642C223022292C222525632220486F6C653A6469612C20486F6C653A6E6F6D696E616C20222078202220486F6C653A70697463686465
310
736320222078202220486F6C653A7461706465707468293E203C696628657175616C28486F6C653A7465726D696E6174696F6E2C223022292C22202F202220486F6C653A64657074682C222022293E00
 94
        0
1001
ACAD
1000
AcRTDxfName
1000
AMDTNOTETEMPLATEDB
1000
AcRTDxfName
1000
AMDTNOTETEMPLATEDB
  0
ACAD_PROXY_OBJECT
  5
137
330
0
100
AcDbProxyObject
 90
      499
 91
      573
 95
  6815769
 70
     0
161
              1656
310
5C2014295195B5C1B185D19480C405BF3D2525633C486F6C653A63746469613E2078203C486F6C653A6374616E676C653E2525645C503C696628657175616C28486F6C653A7461707065642C223022292C222525632220486F6C653A6469612C20486F6C653A6E6F6D696E616C20222078202220486F6C653A706974636864
310
65736320222078202220486F6C653A7461706465707468293E203C696628657175616C28486F6C653A7465726D696E6174696F6E2C223022292C22202F202220486F6C653A64657074682C222022293E00
 94
        0
1001
ACAD
1000
AcRTDxfName
1000
AMDTNOTETEMPLATEDB
1000
AcRTDxfName
1000
AMDTNOTETEMPLATEDB
1001
AcadCodePageInfo
1000
CodePage
1070
    38
  0
ACAD_PROXY_OBJECT
  5
138
330
0
100
AcDbProxyObject
 90
      499
 91
      573
 95
  6815769
 70
     0
161
              1360
310
5C2014295195B5C1B185D19480C4059A3D3C696628657175616C28486F6C653A7461707065642C223022292C222525632220486F6C653A6469612C20486F6C653A6E6F6D696E616C20222078202220486F6C653A70697463686465736320222078202220486F6C653A7461706465707468293E203C696628657175616C2848
310
6F6C653A7465726D696E6174696F6E2C223022292C22202F202220486F6C653A64657074682C222022293E00
 94
        0
1001
ACAD
1000
AcRTDxfName
1000
AMDTNOTETEMPLATEDB
1000
AcRTDxfName
1000
AMDTNOTETEMPLATEDB
1001
AcadCodePageInfo
1000
CodePage
1070
    38
  0
ACAD_PROXY_OBJECT
  5
139
330
0
100
AcDbProxyObject
 90
      499
 91
      573
 95
  6815769
 70
     0
161
               224
310
5C2014295195B5C1B185D19480C4050C3D3C535444503A444553433E67
 94
        0
1001
ACAD
1000
AcRTDxfName
1000
AMDTNOTETEMPLATEDB
1000
AcRTDxfName
1000
AMDTNOTETEMPLATEDB
1001
AcadCodePageInfo
1000
CodePage
1070
    38
  0
ENDSEC
  0
EOF
