  0
SECTION
  2
HEADER
  9
$ACADVER
  1
AC1024
  9
$ACADMAINTVER
 70
   225
  9
$DWGCODEPAGE
  3
ANSI_932
  9
$LASTSAVEDBY
  1
takanashi
  9
$CUSTOMPROPERTYTAG
  1
AmdtFileType
  9
$CUSTOMPROPERTY
  1
84
  9
$INSBASE
 10
0.0
 20
0.0
 30
0.0
  9
$EXTMIN
 10
14.43098598948791
 20
10.94950580947716
 30
-0.000000000995277
  9
$EXTMAX
 10
795.0767144495562
 20
561.0092806502969
 30
0.0000000001461631
  9
$LIMMIN
 10
-0.0791567889075395
 20
-0.0159211882485977
  9
$LIMMAX
 10
420.079168406405
 20
297.0159086457359
  9
$ORTHOMODE
 70
     0
  9
$REGENMODE
 70
     1
  9
$FILLMODE
 70
     1
  9
$QTEXTMODE
 70
     0
  9
$MIRRTEXT
 70
     1
  9
$LTSCALE
 40
0.2
  9
$ATTMODE
 70
     1
  9
$TEXTSIZE
 40
2.5
  9
$TRACEWID
 40
1.0
  9
$TEXTSTYLE
  7
STANDARD
  9
$CLAYER
  8
0
  9
$CELTYPE
  6
ByLayer
  9
$CECOLOR
 62
   256
  9
$CELTSCALE
 40
0.2
  9
$DISPSILH
 70
     0
  9
$DIMSCALE
 40
1.0
  9
$DIMASZ
 40
2.5
  9
$DIMEXO
 40
1.0
  9
$DIMDLI
 40
10.0
  9
$DIMRND
 40
0.0
  9
$DIMDLE
 40
0.0
  9
$DIMEXE
 40
1.0
  9
$DIMTP
 40
0.1
  9
$DIMTM
 40
0.1
  9
$DIMTXT
 40
3.5
  9
$DIMCEN
 40
0.0
  9
$DIMTSZ
 40
0.0
  9
$DIMTOL
 70
     0
  9
$DIMLIM
 70
     0
  9
$DIMTIH
 70
     0
  9
$DIMTOH
 70
     0
  9
$DIMSE1
 70
     0
  9
$DIMSE2
 70
     0
  9
$DIMTAD
 70
     1
  9
$DIMZIN
 70
     8
  9
$DIMBLK
  1

  9
$DIMASO
 70
     1
  9
$DIMSHO
 70
     1
  9
$DIMPOST
  1

  9
$DIMAPOST
  1
"
  9
$DIMALT
 70
     0
  9
$DIMALTD
 70
     2
  9
$DIMALTF
 40
0.0393701
  9
$DIMLFAC
 40
1.0
  9
$DIMTOFL
 70
     1
  9
$DIMTVP
 40
0.0
  9
$DIMTIX
 70
     0
  9
$DIMSOXD
 70
     0
  9
$DIMSAH
 70
     0
  9
$DIMBLK1
  1

  9
$DIMBLK2
  1

  9
$DIMSTYLE
  2
AM_ISO
  9
$DIMCLRD
 70
   256
  9
$DIMCLRE
 70
   256
  9
$DIMCLRT
 70
     2
  9
$DIMTFAC
 40
0.71
  9
$DIMGAP
 40
1.5
  9
$DIMJUST
 70
     0
  9
$DIMSD1
 70
     0
  9
$DIMSD2
 70
     0
  9
$DIMTOLJ
 70
     0
  9
$DIMTZIN
 70
     8
  9
$DIMALTZ
 70
     0
  9
$DIMALTTZ
 70
     0
  9
$DIMUPT
 70
     0
  9
$DIMDEC
 70
     2
  9
$DIMTDEC
 70
     3
  9
$DIMALTU
 70
     2
  9
$DIMALTTD
 70
     4
  9
$DIMTXSTY
  7
STANDARD
  9
$DIMAUNIT
 70
     0
  9
$DIMADEC
 70
     0
  9
$DIMALTRND
 40
0.0
  9
$DIMAZIN
 70
     2
  9
$DIMDSEP
 70
    46
  9
$DIMATFIT
 70
     3
  9
$DIMFRAC
 70
     0
  9
$DIMLDRBLK
  1

  9
$DIMLUNIT
 70
     2
  9
$DIMLWD
 70
    -1
  9
$DIMLWE
 70
    -1
  9
$DIMTMOVE
 70
     0
  9
$DIMFXL
 40
1.0
  9
$DIMFXLON
 70
     0
  9
$DIMJOGANG
 40
0.7853981633974483
  9
$DIMTFILL
 70
     0
  9
$DIMTFILLCLR
 70
     0
  9
$DIMARCSYM
 70
     0
  9
$DIMLTYPE
  6

  9
$DIMLTEX1
  6

  9
$DIMLTEX2
  6

  9
$DIMTXTDIRECTION
 70
     0
  9
$LUNITS
 70
     2
  9
$LUPREC
 70
     2
  9
$SKETCHINC
 40
1.0
  9
$FILLETRAD
 40
2.5
  9
$AUNITS
 70
     0
  9
$AUPREC
 70
     0
  9
$MENU
  1
.
  9
$ELEVATION
 40
0.0
  9
$PELEVATION
 40
0.0
  9
$THICKNESS
 40
0.0
  9
$LIMCHECK
 70
     0
  9
$CHAMFERA
 40
2.5
  9
$CHAMFERB
 40
2.5
  9
$CHAMFERC
 40
20.0
  9
$CHAMFERD
 40
0.0
  9
$SKPOLY
 70
     0
  9
$TDCREATE
 40
2457815.719780093
  9
$TDUCREATE
 40
2457815.344791609
  9
$TDUPDATE
 40
2459720.650868055
  9
$TDUUPDATE
 40
2459720.275868055
  9
$TDINDWG
 40
0.1501900810
  9
$TDUSRTIMER
 40
0.1501900810
  9
$USRTIMER
 70
     1
  9
$ANGBASE
 50
0.0
  9
$ANGDIR
 70
     0
  9
$PDMODE
 70
     0
  9
$PDSIZE
 40
0.0
  9
$PLINEWID
 40
0.0
  9
$SPLFRAME
 70
     0
  9
$SPLINETYPE
 70
     6
  9
$SPLINESEGS
 70
     8
  9
$HANDSEED
  5
1AEA
  9
$SURFTAB1
 70
     6
  9
$SURFTAB2
 70
     6
  9
$SURFTYPE
 70
     6
  9
$SURFU
 70
     6
  9
$SURFV
 70
     6
  9
$UCSBASE
  2

  9
$UCSNAME
  2

  9
$UCSORG
 10
0.0
 20
0.0
 30
0.0
  9
$UCSXDIR
 10
1.0
 20
0.0
 30
0.0
  9
$UCSYDIR
 10
0.0
 20
1.0
 30
0.0
  9
$UCSORTHOREF
  2

  9
$UCSORTHOVIEW
 70
     0
  9
$UCSORGTOP
 10
0.0
 20
0.0
 30
0.0
  9
$UCSORGBOTTOM
 10
0.0
 20
0.0
 30
0.0
  9
$UCSORGLEFT
 10
0.0
 20
0.0
 30
0.0
  9
$UCSORGRIGHT
 10
0.0
 20
0.0
 30
0.0
  9
$UCSORGFRONT
 10
0.0
 20
0.0
 30
0.0
  9
$UCSORGBACK
 10
0.0
 20
0.0
 30
0.0
  9
$PUCSBASE
  2

  9
$PUCSNAME
  2

  9
$PUCSORG
 10
0.0
 20
0.0
 30
0.0
  9
$PUCSXDIR
 10
1.0
 20
0.0
 30
0.0
  9
$PUCSYDIR
 10
0.0
 20
1.0
 30
0.0
  9
$PUCSORTHOREF
  2

  9
$PUCSORTHOVIEW
 70
     0
  9
$PUCSORGTOP
 10
0.0
 20
0.0
 30
0.0
  9
$PUCSORGBOTTOM
 10
0.0
 20
0.0
 30
0.0
  9
$PUCSORGLEFT
 10
0.0
 20
0.0
 30
0.0
  9
$PUCSORGRIGHT
 10
0.0
 20
0.0
 30
0.0
  9
$PUCSORGFRONT
 10
0.0
 20
0.0
 30
0.0
  9
$PUCSORGBACK
 10
0.0
 20
0.0
 30
0.0
  9
$USERI1
 70
     0
  9
$USERI2
 70
     0
  9
$USERI3
 70
     0
  9
$USERI4
 70
     0
  9
$USERI5
 70
     0
  9
$USERR1
 40
0.0
  9
$USERR2
 40
0.0
  9
$USERR3
 40
0.0
  9
$USERR4
 40
0.0
  9
$USERR5
 40
0.0
  9
$WORLDVIEW
 70
     1
  9
$SHADEDGE
 70
     3
  9
$SHADEDIF
 70
    70
  9
$TILEMODE
 70
     1
  9
$MAXACTVP
 70
    64
  9
$PINSBASE
 10
0.0
 20
0.0
 30
0.0
  9
$PLIMCHECK
 70
     0
  9
$PEXTMIN
 10
1.000000000000000E+20
 20
1.000000000000000E+20
 30
1.000000000000000E+20
  9
$PEXTMAX
 10
-1.000000000000000E+20
 20
-1.000000000000000E+20
 30
-1.000000000000000E+20
  9
$PLIMMIN
 10
0.0
 20
0.0
  9
$PLIMMAX
 10
12.0
 20
9.0
  9
$UNITMODE
 70
     0
  9
$VISRETAIN
 70
     1
  9
$PLINEGEN
 70
     0
  9
$PSLTSCALE
 70
     0
  9
$TREEDEPTH
 70
  3020
  9
$CMLSTYLE
  2
Standard
  9
$CMLJUST
 70
     0
  9
$CMLSCALE
 40
20.0
  9
$PROXYGRAPHICS
 70
     1
  9
$MEASUREMENT
 70
     1
  9
$CELWEIGHT
370
    -1
  9
$ENDCAPS
280
     0
  9
$JOINSTYLE
280
     0
  9
$LWDISPLAY
290
     0
  9
$INSUNITS
 70
     4
  9
$HYPERLINKBASE
  1

  9
$STYLESHEET
  1

  9
$XEDIT
290
     1
  9
$CEPSNTYPE
380
     0
  9
$PSTYLEMODE
290
     1
  9
$FINGERPRINTGUID
  2
{1154E996-7001-4A3D-B959-1EACD68E291A}
  9
$VERSIONGUID
  2
{2E5416EF-94AA-904D-9D18-6AB1B38AE904}
  9
$EXTNAMES
290
     1
  9
$PSVPSCALE
 40
0.0
  9
$OLESTARTUP
290
     0
  9
$SORTENTS
280
   127
  9
$INDEXCTL
280
     0
  9
$HIDETEXT
280
     1
  9
$XCLIPFRAME
280
     2
  9
$HALOGAP
280
     0
  9
$OBSCOLOR
 70
   257
  9
$OBSLTYPE
280
     0
  9
$INTERSECTIONDISPLAY
280
     0
  9
$INTERSECTIONCOLOR
 70
   257
  9
$DIMASSOC
280
     2
  9
$PROJECTNAME
  1

  9
$CAMERADISPLAY
290
     0
  9
$LENSLENGTH
 40
50.0
  9
$CAMERAHEIGHT
 40
0.0
  9
$STEPSPERSEC
 40
2.0
  9
$STEPSIZE
 40
6.0
  9
$3DDWFPREC
 40
2.0
  9
$PSOLWIDTH
 40
0.25
  9
$PSOLHEIGHT
 40
4.0
  9
$LOFTANG1
 40
1.570796326794896
  9
$LOFTANG2
 40
1.570796326794896
  9
$LOFTMAG1
 40
0.0
  9
$LOFTMAG2
 40
0.0
  9
$LOFTPARAM
 70
     7
  9
$LOFTNORMALS
280
     1
  9
$LATITUDE
 40
37.795
  9
$LONGITUDE
 40
-122.394
  9
$NORTHDIRECTION
 40
0.0
  9
$TIMEZONE
 70
 -8000
  9
$LIGHTGLYPHDISPLAY
280
     1
  9
$TILEMODELIGHTSYNCH
280
     1
  9
$CMATERIAL
347
11
  9
$SOLIDHIST
280
     0
  9
$SHOWHIST
280
     1
  9
$DWFFRAME
280
     2
  9
$DGNFRAME
280
     0
  9
$REALWORLDSCALE
290
     1
  9
$INTERFERECOLOR
 62
     1
  9
$INTERFEREOBJVS
345
33
  9
$INTERFEREVPVS
346
30
  9
$CSHADOW
280
     0
  9
$SHADOWPLANELOCATION
 40
0.0
  0
ENDSEC
  0
SECTION
  2
CLASSES
  0
CLASS
  1
ACDBDICTIONARYWDFLT
  2
AcDbDictionaryWithDefault
  3
ObjectDBX Classes
 90
        0
 91
        1
280
     0
281
     0
  0
CLASS
  1
MATERIAL
  2
AcDbMaterial
  3
ObjectDBX Classes
 90
     1153
 91
        3
280
     0
281
     0
  0
CLASS
  1
VISUALSTYLE
  2
AcDbVisualStyle
  3
ObjectDBX Classes
 90
     4095
 91
       24
280
     0
281
     0
  0
CLASS
  1
SCALE
  2
AcDbScale
  3
ObjectDBX Classes
 90
     1153
 91
       17
280
     0
281
     0
  0
CLASS
  1
TABLESTYLE
  2
AcDbTableStyle
  3
ObjectDBX Classes
 90
     4095
 91
        1
280
     0
281
     0
  0
CLASS
  1
MLEADERSTYLE
  2
AcDbMLeaderStyle
  3
ACDB_MLEADERSTYLE_CLASS
 90
     4095
 91
        1
280
     0
281
     0
  0
CLASS
  1
ACDBSECTIONVIEWSTYLE
  2
AcDbSectionViewStyle
  3
ObjectDBX Classes
 90
     1025
 91
        2
280
     0
281
     0
  0
CLASS
  1
ACDBDETAILVIEWSTYLE
  2
AcDbDetailViewStyle
  3
ObjectDBX Classes
 90
     1025
 91
        2
280
     0
281
     0
  0
CLASS
  1
DIMASSOC
  2
AcDbDimAssoc
  3
"AcDbDimAssoc|Product Desc:     AcDim ARX App For Dimension|Company:          Autodesk, Inc.|WEB Address:      www.autodesk.com"
 90
        0
 91
        0
280
     0
281
     0
  0
CLASS
  1
SORTENTSTABLE
  2
AcDbSortentsTable
  3
ObjectDBX Classes
 90
        0
 91
        6
280
     0
281
     0
  0
CLASS
  1
DICTIONARYVAR
  2
AcDbDictionaryVar
  3
ObjectDBX Classes
 90
        0
 91
       10
280
     0
281
     0
  0
CLASS
  1
CELLSTYLEMAP
  2
AcDbCellStyleMap
  3
ObjectDBX Classes
 90
     1152
 91
        1
280
     0
281
     0
  0
ENDSEC
  0
SECTION
  2
TABLES
  0
TABLE
  2
VPORT
  5
8
102
{ACAD_XDICTIONARY
360
CE0
102
}
330
0
100
AcDbSymbolTable
 70
     1
  0
VPORT
  5
57
330
8
100
AcDbSymbolTableRecord
100
AcDbViewportTableRecord
  2
*Active
 70
     0
 10
0.0
 20
0.0
 11
1.0
 21
1.0
 12
397.4987788303244
 22
280.4966797310242
 13
0.0
 23
0.0
 14
10.0
 24
10.0
 15
10.0
 25
10.0
 16
0.0
 26
0.0
 36
1.0
 17
0.0
 27
0.0
 37
0.0
 40
564.9622207988159
 41
1.879391100702576
 42
50.0
 43
0.0
 44
0.0
 50
0.0
 51
0.0
 71
     0
 72
   100
 73
     1
 74
     1
 75
     0
 76
     0
 77
     0
 78
     0
281
     0
 65
     1
110
0.0
120
0.0
130
0.0
111
1.0
121
0.0
131
0.0
112
0.0
122
1.0
132
0.0
 79
     0
146
0.0
348
2F
 60
     3
 61
     5
292
     1
282
     1
141
0.0
142
0.0
 63
   250
421
  3355443
1001
ACAD_NAV_VCDISPLAY
1070
     3
  0
ENDTAB
  0
TABLE
  2
LTYPE
  5
5
330
0
100
AcDbSymbolTable
 70
     6
  0
LTYPE
  5
5B
330
5
100
AcDbSymbolTableRecord
100
AcDbLinetypeTableRecord
  2
ByBlock
 70
     0
  3

 72
    65
 73
     0
 40
0.0
  0
LTYPE
  5
5C
330
5
100
AcDbSymbolTableRecord
100
AcDbLinetypeTableRecord
  2
ByLayer
 70
     0
  3

 72
    65
 73
     0
 40
0.0
  0
LTYPE
  5
5D
330
5
100
AcDbSymbolTableRecord
100
AcDbLinetypeTableRecord
  2
Continuous
 70
     0
  3
Solid line
 72
    65
 73
     0
 40
0.0
  0
LTYPE
  5
7D
330
5
100
AcDbSymbolTableRecord
100
AcDbLinetypeTableRecord
  2
DASHED2
 70
     0
  3
Dashed (.5x) _ _ _ _ _ _ _ _ _ _ _ _ _ _ _ _ _
 72
    65
 73
     2
 40
9.524999999999996
 49
6.349999999999997
 74
     0
 49
-3.174999999999998
 74
     0
  0
LTYPE
  5
7E
330
5
100
AcDbSymbolTableRecord
100
AcDbLinetypeTableRecord
  2
CENTERX2
 70
     0
  3
Center (2x) ________  __  ________  __  _____
 72
    65
 73
     4
 40
101.6
 49
63.5
 74
     0
 49
-12.7
 74
     0
 49
12.7
 74
     0
 49
-12.7
 74
     0
  0
LTYPE
  5
126B
330
5
100
AcDbSymbolTableRecord
100
AcDbLinetypeTableRecord
  2
CENTER2
 70
     0
  3
Center (.5x) ___ _ ___ _ ___ _ ___ _ ___ _ ___
 72
    65
 73
     4
 40
28.575
 49
19.05
 74
     0
 49
-3.174999999999998
 74
     0
 49
3.174999999999998
 74
     0
 49
-3.174999999999998
 74
     0
  0
ENDTAB
  0
TABLE
  2
LAYER
  5
2
102
{ACAD_XDICTIONARY
360
1277
102
}
330
0
100
AcDbSymbolTable
 70
    17
  0
LAYER
  5
54
102
{ACAD_XDICTIONARY
360
CD7
102
}
330
2
100
AcDbSymbolTableRecord
100
AcDbLayerTableRecord
  2
0
 70
     0
 62
     7
  6
Continuous
370
    -3
390
F
347
21
1001
AcAecLayerStandard
1000

1000

  0
LAYER
  5
91
102
{ACAD_XDICTIONARY
360
92
102
}
330
2
100
AcDbSymbolTableRecord
100
AcDbLayerTableRecord
  2
WAKU
 70
     0
 62
     7
  6
Continuous
370
    -3
390
F
347
21
  0
LAYER
  5
96
102
{ACAD_XDICTIONARY
360
97
102
}
330
2
100
AcDbSymbolTableRecord
100
AcDbLayerTableRecord
  2
MOJI
 70
     0
 62
     7
  6
Continuous
370
    -3
390
F
347
21
  0
LAYER
  5
9E
102
{ACAD_XDICTIONARY
360
9F
102
}
330
2
100
AcDbSymbolTableRecord
100
AcDbLayerTableRecord
  2
KUTAI
 70
     0
 62
     2
  6
Continuous
370
    -3
390
8B
347
21
  0
LAYER
  5
A7
102
{ACAD_XDICTIONARY
360
A8
102
}
330
2
100
AcDbSymbolTableRecord
100
AcDbLayerTableRecord
  2
SONOTABUZAI
 70
     0
 62
     5
  6
Continuous
370
    -3
390
8B
347
21
  0
LAYER
  5
BB
102
{ACAD_XDICTIONARY
360
BC
102
}
330
2
100
AcDbSymbolTableRecord
100
AcDbLayerTableRecord
  2
SEIHIN
 70
     0
 62
     4
  6
Continuous
370
    -3
390
F
347
21
  0
LAYER
  5
BF
102
{ACAD_XDICTIONARY
360
C0
102
}
330
2
100
AcDbSymbolTableRecord
100
AcDbLayerTableRecord
  2
BISUKUGI
 70
     0
 62
     6
  6
Continuous
370
    -3
390
F
347
21
  0
LAYER
  5
F4
102
{ACAD_XDICTIONARY
360
F5
102
}
330
2
100
AcDbSymbolTableRecord
100
AcDbLayerTableRecord
  2
BOUSUISI
 70
     0
 62
     1
  6
Continuous
370
    -3
390
8B
347
21
  0
LAYER
  5
11F
102
{ACAD_XDICTIONARY
360
120
102
}
330
2
100
AcDbSymbolTableRecord
100
AcDbLayerTableRecord
  2
YAKUMONO
 70
     0
 62
     3
  6
Continuous
370
    -3
390
F
347
21
  0
LAYER
  5
158
102
{ACAD_XDICTIONARY
360
159
102
}
330
2
100
AcDbSymbolTableRecord
100
AcDbLayerTableRecord
  2
YAKUMONO2
 70
     0
 62
    32
  6
Continuous
370
    -3
390
8B
347
21
  0
LAYER
  5
172
102
{ACAD_XDICTIONARY
360
173
102
}
330
2
100
AcDbSymbolTableRecord
100
AcDbLayerTableRecord
  2
SI-RINGU
 70
     0
 62
     9
  6
Continuous
370
    -3
390
8B
347
21
  0
LAYER
  5
178
102
{ACAD_XDICTIONARY
360
179
102
}
330
2
100
AcDbSymbolTableRecord
100
AcDbLayerTableRecord
  2
SUNPO
 70
     0
 62
     2
  6
Continuous
370
    -3
390
F
347
21
  0
LAYER
  5
192
102
{ACAD_XDICTIONARY
360
193
102
}
330
2
100
AcDbSymbolTableRecord
100
AcDbLayerTableRecord
  2
BOUSUITE-PU
 70
     0
 62
     8
  6
Continuous
370
    -3
390
F
347
21
  0
LAYER
  5
337
102
{ACAD_XDICTIONARY
360
338
102
}
330
2
100
AcDbSymbolTableRecord
100
AcDbLayerTableRecord
  2
SASSI
 70
     0
 62
     5
  6
Continuous
370
    -3
390
F
347
21
  0
LAYER
  5
D24
330
2
100
AcDbSymbolTableRecord
100
AcDbLayerTableRecord
  2
Defpoints
 70
     0
 62
     7
  6
Continuous
290
     0
370
    -3
390
F
347
21
  0
LAYER
  5
126C
102
{ACAD_XDICTIONARY
360
126D
102
}
330
2
100
AcDbSymbolTableRecord
100
AcDbLayerTableRecord
  2
PACKING
 70
     0
 62
     7
  6
Continuous
370
    -3
390
F
347
21
  0
LAYER
  5
126E
102
{ACAD_XDICTIONARY
360
126F
102
}
330
2
100
AcDbSymbolTableRecord
100
AcDbLayerTableRecord
  2
TEKUSU
 70
     0
 62
     7
  6
Continuous
370
    -3
390
F
347
21
  0
ENDTAB
  0
TABLE
  2
STYLE
  5
3
330
0
100
AcDbSymbolTable
 70
     3
  0
STYLE
  5
55
330
3
100
AcDbSymbolTableRecord
100
AcDbTextStyleTableRecord
  2
STANDARD
 70
     0
 40
0.0
 41
1.0
 50
0.0
 71
     0
 42
2.5
  3

  4

1001
ACAD
1000
MS Gothic
1071
    32817
  0
STYLE
  5
7A
330
3
100
AcDbSymbolTableRecord
100
AcDbTextStyleTableRecord
  2
CAD-DL
 70
     0
 40
0.0
 41
1.0
 50
0.0
 71
     0
 42
5.0
  3

  4

1001
ACAD
1000
MS Gothic
1071
    32817
  0
STYLE
  5
7B
330
3
100
AcDbSymbolTableRecord
100
AcDbTextStyleTableRecord
  2
WAKU
 70
     0
 40
5.0
 41
1.0
 50
0.0
 71
     0
 42
5.0
  3

  4

1001
ACAD
1000
MS Gothic
1071
    32817
  0
ENDTAB
  0
TABLE
  2
VIEW
  5
6
330
0
100
AcDbSymbolTable
 70
     3
  0
ENDTAB
  0
TABLE
  2
UCS
  5
7
330
0
100
AcDbSymbolTable
 70
     0
  0
ENDTAB
  0
TABLE
  2
APPID
  5
9
330
0
100
AcDbSymbolTable
 70
    17
  0
APPID
  5
56
330
9
100
AcDbSymbolTableRecord
100
AcDbRegAppTableRecord
  2
ACAD
 70
     0
  0
APPID
  5
5E
330
9
100
AcDbSymbolTableRecord
100
AcDbRegAppTableRecord
  2
AcadAnnotative
 70
     0
  0
APPID
  5
78
330
9
100
AcDbSymbolTableRecord
100
AcDbRegAppTableRecord
  2
ACAD_PSEXT
 70
     0
  0
APPID
  5
323
330
9
100
AcDbSymbolTableRecord
100
AcDbRegAppTableRecord
  2
GENIUS_GENODEF_13
 70
     0
  0
APPID
  5
324
330
9
100
AcDbSymbolTableRecord
100
AcDbRegAppTableRecord
  2
GENIUS_GENOBJ-N-HTC_13
 70
     0
  0
APPID
  5
325
330
9
100
AcDbSymbolTableRecord
100
AcDbRegAppTableRecord
  2
GENIUS_GENHATCH_13
 70
     0
  0
APPID
  5
32E
330
9
100
AcDbSymbolTableRecord
100
AcDbRegAppTableRecord
  2
GENIUS_GENOBJ-N-FIL_13
 70
     0
  0
APPID
  5
A76
330
9
100
AcDbSymbolTableRecord
100
AcDbRegAppTableRecord
  2
AcAecLayerStandard
 70
     0
  0
APPID
  5
CDC
330
9
100
AcDbSymbolTableRecord
100
AcDbRegAppTableRecord
  2
ACAD_NAV_VCDISPLAY
 70
     0
  0
APPID
  5
D16
330
9
100
AcDbSymbolTableRecord
100
AcDbRegAppTableRecord
  2
ACAD_MLEADERVER
 70
     0
  0
APPID
  5
1272
330
9
100
AcDbSymbolTableRecord
100
AcDbRegAppTableRecord
  2
ACAD_DSTYLE_DIMJAG
 70
     0
  0
APPID
  5
1273
330
9
100
AcDbSymbolTableRecord
100
AcDbRegAppTableRecord
  2
ACAD_DSTYLE_DIMTALN
 70
     0
  0
APPID
  5
1274
330
9
100
AcDbSymbolTableRecord
100
AcDbRegAppTableRecord
  2
GradientColor1ACI
 70
     0
  0
APPID
  5
1275
330
9
100
AcDbSymbolTableRecord
100
AcDbRegAppTableRecord
  2
GradientColor2ACI
 70
     0
  0
APPID
  5
1276
330
9
100
AcDbSymbolTableRecord
100
AcDbRegAppTableRecord
  2
AcDbDynamicBlockGUID
 70
     0
  0
APPID
  5
1805
330
9
100
AcDbSymbolTableRecord
100
AcDbRegAppTableRecord
  2
ACAD_EXEMPT_FROM_CAD_STANDARDS
 70
     0
  0
APPID
  5
1942
330
9
100
AcDbSymbolTableRecord
100
AcDbRegAppTableRecord
  2
AcadAnnoPO
 70
     0
  0
ENDTAB
  0
TABLE
  2
DIMSTYLE
  5
A
330
0
100
AcDbSymbolTable
 70
     4
100
AcDbDimStyleTable
 71
     1
340
8A
  0
DIMSTYLE
105
8A
330
A
100
AcDbSymbolTableRecord
100
AcDbDimStyleTableRecord
  2
AM_ISO
 70
     0
  4
"
 41
2.5
 42
1.0
 43
10.0
 44
1.0
 47
0.1
 48
0.1
 73
     0
 74
     0
 77
     1
 78
     8
 79
     2
140
3.5
141
0.0
143
0.0393701
146
0.71
147
1.5
172
     1
176
   256
177
   256
178
     2
271
     2
272
     3
274
     4
283
     0
284
     8
340
55
371
    -1
372
    -1
  0
DIMSTYLE
105
1270
330
A
100
AcDbSymbolTableRecord
100
AcDbDimStyleTableRecord
  2
ISO-25
 70
     0
 41
2.5
 42
0.625
 43
3.75
 44
1.25
 73
     0
 74
     0
 77
     1
 78
     8
140
2.5
141
2.5
143
0.03937007874016
147
0.625
171
     3
172
     1
271
     2
272
     2
274
     3
278
    44
283
     0
284
     8
340
55
  0
DIMSTYLE
105
1271
102
{ACAD_REACTORS
330
1540
330
1541
330
1543
330
15EA
330
15F8
330
16D3
330
16D4
330
16D5
330
16F4
330
1701
102
}
330
A
100
AcDbSymbolTableRecord
100
AcDbDimStyleTableRecord
  2
CAD-DL
 70
     0
 41
2.0
 42
2.0
 43
10.0
 44
2.0
 73
     0
 74
     0
 77
     3
 78
     8
140
5.0
141
0.0
143
0.0394
145
1.0
147
2.0
176
   256
271
     0
272
     0
279
     1
284
     8
285
     8
286
     8
340
7A
341
1187
342
1182
371
    -1
1001
ACAD_DSTYLE_DIMJAG
1070
   388
1040
1.5
1001
ACAD_DSTYLE_DIMTALN
1070
   392
1070
     0
  0
ENDTAB
  0
TABLE
  2
BLOCK_RECORD
  5
1
330
0
100
AcDbSymbolTable
 70
    20
  0
BLOCK_RECORD
  5
70
102
{ACAD_XDICTIONARY
360
369
102
}
330
1
100
AcDbSymbolTableRecord
100
AcDbBlockTableRecord
  2
*Model_Space
340
73
 70
     0
280
     1
281
     0
  0
BLOCK_RECORD
  5
6C
330
1
100
AcDbSymbolTableRecord
100
AcDbBlockTableRecord
  2
*Paper_Space
340
6F
 70
     0
280
     1
281
     0
  0
BLOCK_RECORD
  5
74
330
1
100
AcDbSymbolTableRecord
100
AcDbBlockTableRecord
  2
*Paper_Space0
340
77
 70
     0
280
     1
281
     0
  0
BLOCK_RECORD
  5
1182
330
1
100
AcDbSymbolTableRecord
100
AcDbBlockTableRecord
  2
_DOT
340
0
310
2800000020000000200000000100080000000000000400000000000000000000000000000000000000000000000080000080000000808000800000008000800080800000C0C0C000C0DCC000F0CAA6000020400000206000002080000020A0000020C0000020E00000400000004020000040400000406000004080000040A0
310
000040C0000040E00000600000006020000060400000606000006080000060A0000060C0000060E00000800000008020000080400000806000008080000080A0000080C0000080E00000A0000000A0200000A0400000A0600000A0800000A0A00000A0C00000A0E00000C0000000C0200000C0400000C0600000C0800000C0
310
A00000C0C00000C0E00000E0000000E0200000E0400000E0600000E0800000E0A00000E0C00000E0E00040000000400020004000400040006000400080004000A0004000C0004000E00040200000402020004020400040206000402080004020A0004020C0004020E000404000004040200040404000404060004040800040
310
40A0004040C0004040E00040600000406020004060400040606000406080004060A0004060C0004060E00040800000408020004080400040806000408080004080A0004080C0004080E00040A0000040A0200040A0400040A0600040A0800040A0A00040A0C00040A0E00040C0000040C0200040C0400040C0600040C08000
310
40C0A00040C0C00040C0E00040E0000040E0200040E0400040E0600040E0800040E0A00040E0C00040E0E00080000000800020008000400080006000800080008000A0008000C0008000E00080200000802020008020400080206000802080008020A0008020C0008020E00080400000804020008040400080406000804080
310
008040A0008040C0008040E00080600000806020008060400080606000806080008060A0008060C0008060E00080800000808020008080400080806000808080008080A0008080C0008080E00080A0000080A0200080A0400080A0600080A0800080A0A00080A0C00080A0E00080C0000080C0200080C0400080C0600080C0
310
800080C0A00080C0C00080C0E00080E0000080E0200080E0400080E0600080E0800080E0A00080E0C00080E0E000C0000000C0002000C0004000C0006000C0008000C000A000C000C000C000E000C0200000C0202000C0204000C0206000C0208000C020A000C020C000C020E000C0400000C0402000C0404000C0406000C0
310
408000C040A000C040C000C040E000C0600000C0602000C0604000C0606000C0608000C060A000C060C000C060E000C0800000C0802000C0804000C0806000C0808000C080A000C080C000C080E000C0A00000C0A02000C0A04000C0A06000C0A08000C0A0A000C0A0C000C0A0E000C0C00000C0C02000C0C04000C0C06000
310
C0C08000C0C0A000F0FBFF00A4A0A000808080000000FF0000FF000000FFFF00FF000000FF00FF00FFFF0000FFFFFF0000000000000000000000000000000000000000000000000000000000000000000000000000000000000000000000000000000000000000000000000000000000000000000000000000000000000000
310
000000000000000000000000000000000000000000000000000000000000000000000000000000000000000000000000000000000000000000000000000000000000000000000000000000000000000000000000000000000000000000000000000000FFFFFFFFFFFFFFFFFFFFFFFFFF000000000000000000000000000000
310
000000FF00FF000000000000000000FF00FF0000000000000000000000000000000000FF00FF000000000000000000FF00FF00000000000000000000000000000000FF000000FF00000000000000FF00000000000000000000000000000000000000FF000000FF00000000000000FF00000000000000000000000000000000
310
0000FF0000000000FF0000000000FF00000000000000000000000000000000000000FF0000000000FF0000000000FF000000000000000000000000000000000000FF00000000000000FF000000FF00000000000000000000000000000000000000FF00000000000000FF000000FF0000000000000000000000000000000000
310
00FF000000000000000000FF00FF00000000000000000000000000000000000000FF000000000000000000FFFFFF00000000FFFF00FFFFFFFFFFFFFFFFFFFFFFFFFFFFFFFFFFFFFFFFFFFFFFFFFFFFFFFFFF000000000000000000000000000000FF000000000000000000FF00FF0000000000000000000000000000000000
310
0000FF0000000000000000FF000000FF00000000000000000000000000000000000000FF00000000000000FF000000FF00000000000000000000000000000000000000FF000000000000FF0000000000FF00000000000000000000000000000000000000FF0000000000FF0000000000FF0000000000000000000000000000
310
000000000000FF000000FF00000000000000FF00000000000000000000000000000000000000FF000000FF00000000000000FF0000000000000000000000000000000000000000FF00FF000000000000000000FF00FF0000000000000000000000000000000000FF00FF000000000000000000FF00FF000000000000000000
310
000000000000000000FFFFFFFFFFFFFFFFFFFFFFFFFF000000000000000000000000000000000000000000000000000000000000000000000000000000000000000000000000000000000000000000000000000000000000000000000000000000000000000000000000000000000000000000000000000000000000000000
310
0000000000000000000000000000000000000000000000000000000000000000000000000000000000000000000000000000000000000000
102
{BLKREFS
331
187F
331
1880
331
1888
331
1889
331
1890
331
1891
331
1899
331
189A
331
18A2
331
18A3
331
18AB
331
18AC
331
18B5
331
18B6
331
18BF
331
18C0
331
186C
331
186D
331
1875
331
1876
102
}
 70
     0
280
     1
281
     0
  0
BLOCK_RECORD
  5
1187
330
1
100
AcDbSymbolTableRecord
100
AcDbBlockTableRecord
  2
_None
340
0
 70
     0
280
     1
281
     0
  0
BLOCK_RECORD
  5
118A
102
{ACAD_XDICTIONARY
360
118B
102
}
330
1
100
AcDbSymbolTableRecord
100
AcDbBlockTableRecord
  2
01止縁C15
340
0
310
2800000020000000200000000100080000000000000400000000000000000000000000000000000000000000000080000080000000808000800000008000800080800000C0C0C000C0DCC000F0CAA6000020400000206000002080000020A0000020C0000020E00000400000004020000040400000406000004080000040A0
310
000040C0000040E00000600000006020000060400000606000006080000060A0000060C0000060E00000800000008020000080400000806000008080000080A0000080C0000080E00000A0000000A0200000A0400000A0600000A0800000A0A00000A0C00000A0E00000C0000000C0200000C0400000C0600000C0800000C0
310
A00000C0C00000C0E00000E0000000E0200000E0400000E0600000E0800000E0A00000E0C00000E0E00040000000400020004000400040006000400080004000A0004000C0004000E00040200000402020004020400040206000402080004020A0004020C0004020E000404000004040200040404000404060004040800040
310
40A0004040C0004040E00040600000406020004060400040606000406080004060A0004060C0004060E00040800000408020004080400040806000408080004080A0004080C0004080E00040A0000040A0200040A0400040A0600040A0800040A0A00040A0C00040A0E00040C0000040C0200040C0400040C0600040C08000
310
40C0A00040C0C00040C0E00040E0000040E0200040E0400040E0600040E0800040E0A00040E0C00040E0E00080000000800020008000400080006000800080008000A0008000C0008000E00080200000802020008020400080206000802080008020A0008020C0008020E00080400000804020008040400080406000804080
310
008040A0008040C0008040E00080600000806020008060400080606000806080008060A0008060C0008060E00080800000808020008080400080806000808080008080A0008080C0008080E00080A0000080A0200080A0400080A0600080A0800080A0A00080A0C00080A0E00080C0000080C0200080C0400080C0600080C0
310
800080C0A00080C0C00080C0E00080E0000080E0200080E0400080E0600080E0800080E0A00080E0C00080E0E000C0000000C0002000C0004000C0006000C0008000C000A000C000C000C000E000C0200000C0202000C0204000C0206000C0208000C020A000C020C000C020E000C0400000C0402000C0404000C0406000C0
310
408000C040A000C040C000C040E000C0600000C0602000C0604000C0606000C0608000C060A000C060C000C060E000C0800000C0802000C0804000C0806000C0808000C080A000C080C000C080E000C0A00000C0A02000C0A04000C0A06000C0A08000C0A0A000C0A0C000C0A0E000C0C00000C0C02000C0C04000C0C06000
310
C0C08000C0C0A000F0FBFF00A4A0A000808080000000FF0000FF000000FFFF00FF000000FF00FF00FFFF0000FFFFFF000000000000000000000000000000000000000000000000000000000000000000000000000000000000000000000000000000000000000000000000000000000000000000000000000000FAFAFA0000
310
000000000000000000000000000000000000000000000000000000FAFAFA0000000000000000000000000000000000000000000000000000000000FAFAFA0000000000000000000000000000000000000000000000000000000000FA00000000000000000000000000000000000000000000000000000000000000FA000000
310
00000000000000000000000000000000000000000000000000000000FA00000000000000000000000000000000000000000000000000000000000000FA00000000000000000000000000000000000000000000000000000000000000FA00000000000000000000000000000000000000000000000000000000000000FA0000
310
0000000000000000000000000000000000000000000000000000000000FA00000000000000000000000000000000000000000000000000000000000000FA00000000000000000000000000000000000000000000000000000000000000FA00000000000000000000000000000000000000000000000000000000000000FA00
310
000000000000000000000000000000000000000000000000000000000000FA00000000000000000000000000000000000000000000000000000000000000FA00000000000000FAFA00000000000000000000000000000000000000000000FA00000000000000FA00FA000000000000000000000000000000000000000000FA
310
0000000000000000FA00FA0000000000000000000000000000000000000000FA0000000000000000FA00FA0000000000000000000000000000000000000000FA0000000000000000FA00FA0000000000000000000000000000000000000000FA00000000000000000000FA0000000000000000000000000000000000000000
310
FA00000000000000000000FA0000000000000000000000000000000000000000FA00000000000000000000FA0000000000000000000000000000000000000000FA00000000000000000000FA0000000000000000000000000000000000000000FA00000000000000000000FA00000000000000000000000000000000000000
310
00FA00000000000000000000FA0000000000000000000000000000000000000000FA00000000000000000000FA0000000000000000000000000000000000000000FA00000000000000000000FA0000000000000000000000000000000000000000FAFAFAFAFAFAFAFAFAFAFAFA000000000000000000000000000000000000
310
000000FAFAFAFAFAFA0000FAFA00000000000000000000000000000000000000000000000000000000000000000000000000000000000000
102
{BLKREFS
331
16B1
331
1670
331
159E
331
1A3A
102
}
 70
     4
280
     1
281
     0
1001
AcDbDynamicBlockGUID
1000
{FFF4DC83-55DB-E042-AEEC-B7DB01B75571}
  0
BLOCK_RECORD
  5
11BC
102
{ACAD_XDICTIONARY
360
11BD
102
}
330
1
100
AcDbSymbolTableRecord
100
AcDbBlockTableRecord
  2
01小口カバー15
340
0
 70
     0
280
     1
281
     0
1001
AcDbDynamicBlockGUID
1000
{F5B0974F-85FA-684A-883D-6F08EF5C5B11}
  0
BLOCK_RECORD
  5
1703
330
1
100
AcDbSymbolTableRecord
100
AcDbBlockTableRecord
  2
*D5
340
0
 70
     0
280
     1
281
     0
  0
BLOCK_RECORD
  5
170F
330
1
100
AcDbSymbolTableRecord
100
AcDbBlockTableRecord
  2
*D6
340
0
 70
     0
280
     1
281
     0
  0
BLOCK_RECORD
  5
171B
330
1
100
AcDbSymbolTableRecord
100
AcDbBlockTableRecord
  2
*D7
340
0
 70
     0
280
     1
281
     0
  0
BLOCK_RECORD
  5
1727
330
1
100
AcDbSymbolTableRecord
100
AcDbBlockTableRecord
  2
*D8
340
0
 70
     0
280
     1
281
     0
  0
BLOCK_RECORD
  5
1733
330
1
100
AcDbSymbolTableRecord
100
AcDbBlockTableRecord
  2
*D9
340
0
 70
     0
280
     1
281
     0
  0
BLOCK_RECORD
  5
173F
330
1
100
AcDbSymbolTableRecord
100
AcDbBlockTableRecord
  2
*D10
340
0
 70
     0
280
     1
281
     0
  0
BLOCK_RECORD
  5
174B
330
1
100
AcDbSymbolTableRecord
100
AcDbBlockTableRecord
  2
*D11
340
0
 70
     0
280
     1
281
     0
  0
BLOCK_RECORD
  5
1757
330
1
100
AcDbSymbolTableRecord
100
AcDbBlockTableRecord
  2
*D12
340
0
 70
     0
280
     1
281
     0
  0
BLOCK_RECORD
  5
1763
330
1
100
AcDbSymbolTableRecord
100
AcDbBlockTableRecord
  2
*D13
340
0
 70
     0
280
     1
281
     0
  0
BLOCK_RECORD
  5
176F
330
1
100
AcDbSymbolTableRecord
100
AcDbBlockTableRecord
  2
*D14
340
0
 70
     0
280
     1
281
     0
  0
ENDTAB
  0
ENDSEC
  0
SECTION
  2
BLOCKS
  0
BLOCK
  5
71
330
70
100
AcDbEntity
  8
0
100
AcDbBlockBegin
  2
*Model_Space
 70
     0
 10
0.0
 20
0.0
 30
0.0
  3
*Model_Space
  1

  0
ENDBLK
  5
72
330
70
100
AcDbEntity
  8
0
100
AcDbBlockEnd
  0
BLOCK
  5
6D
330
6C
100
AcDbEntity
 67
     1
  8
0
100
AcDbBlockBegin
  2
*Paper_Space
 70
     0
 10
0.0
 20
0.0
 30
0.0
  3
*Paper_Space
  1

  0
ENDBLK
  5
6E
330
6C
100
AcDbEntity
 67
     1
  8
0
100
AcDbBlockEnd
  0
BLOCK
  5
75
330
74
100
AcDbEntity
 67
     1
  8
0
100
AcDbBlockBegin
  2
*Paper_Space0
 70
     0
 10
0.0
 20
0.0
 30
0.0
  3
*Paper_Space0
  1

  0
ENDBLK
  5
76
330
74
100
AcDbEntity
 67
     1
  8
0
100
AcDbBlockEnd
  0
BLOCK
  5
1183
330
1182
100
AcDbEntity
  8
0
100
AcDbBlockBegin
  2
_DOT
 70
     0
 10
0.0
 20
0.0
 30
0.0
  3
_DOT
  1

  0
LWPOLYLINE
  5
1184
330
1182
100
AcDbEntity
  8
0
  6
ByBlock
 62
     0
100
AcDbPolyline
 90
        2
 70
     1
 43
0.5
 10
-0.25
 20
0.0
 42
1.0
 10
0.25
 20
0.0
 42
1.0
  0
LINE
  5
1185
330
1182
100
AcDbEntity
  8
0
  6
ByBlock
 62
     0
100
AcDbLine
 10
-0.5
 20
0.0
 30
0.0
 11
-1.0
 21
0.0
 31
0.0
  0
ENDBLK
  5
1186
330
1182
100
AcDbEntity
  8
0
100
AcDbBlockEnd
  0
BLOCK
  5
1188
330
1187
100
AcDbEntity
  8
0
100
AcDbBlockBegin
  2
_None
 70
     0
 10
0.0
 20
0.0
 30
0.0
  3
_None
  1

  0
ENDBLK
  5
1189
330
1187
100
AcDbEntity
  8
0
100
AcDbBlockEnd
  0
BLOCK
  5
118C
330
118A
100
AcDbEntity
  8
0
100
AcDbBlockBegin
  2
01止縁C15
 70
     0
 10
0.0
 20
0.0
 30
0.0
  3
01止縁C15
  1

  0
LINE
  5
118D
330
118A
100
AcDbEntity
  8
YAKUMONO
 62
     0
100
AcDbLine
 10
0.3500000000003638
 20
5.285357499999007
 30
0.0
 11
0.3500000000003638
 21
-5.285356499998669
 31
0.0
  0
LINE
  5
118E
330
118A
100
AcDbEntity
  8
YAKUMONO
 62
     0
100
AcDbLine
 10
0.0
 20
5.092121499999847
 30
0.0
 11
0.0
 21
-5.092121499999847
 31
0.0
  0
LINE
  5
118F
330
118A
100
AcDbEntity
  8
YAKUMONO
 62
     0
100
AcDbLine
 10
18.92560177471387
 20
9.760794499999974
 30
0.0
 11
22.26397399999951
 21
14.38840049999999
 31
0.0
  0
LINE
  5
1190
330
118A
100
AcDbEntity
  8
YAKUMONO
 62
     0
100
AcDbLine
 10
19.19371777471473
 20
9.535818500000461
 30
0.0
 11
22.53208899999822
 21
14.16342450000047
 31
0.0
  0
ARC
  5
1191
330
118A
100
AcDbEntity
  8
YAKUMONO
 62
     0
100
AcDbCircle
 10
18.04465077471286
 20
10.50000050000017
 30
0.0
 40
1.149999999999999
100
AcDbArc
 50
165.0000000000055
 51
320.0000000000808
  0
LINE
  5
1192
330
118A
100
AcDbEntity
  8
YAKUMONO
 62
     0
100
AcDbLine
 10
16.9338367747132
 20
10.79764249999971
 30
0.0
 11
19.10737877471365
 21
18.90941349999934
 31
0.0
  0
LINE
  5
1193
330
118A
100
AcDbEntity
  8
YAKUMONO
 62
     0
100
AcDbLine
 10
16.59576277471387
 20
10.88822849999997
 30
0.0
 11
18.76930477471433
 21
19.00000050000017
 31
0.0
  0
LINE
  5
1194
330
118A
100
AcDbEntity
  8
YAKUMONO
 62
     0
100
AcDbLine
 10
19.10737877471365
 20
18.90941349999934
 30
0.0
 11
18.76930477471433
 21
19.00000050000017
 31
0.0
  0
ARC
  5
1195
330
118A
100
AcDbEntity
  8
YAKUMONO
 62
     0
100
AcDbCircle
 10
18.04465077471286
 20
10.50000050000017
 30
0.0
 40
1.5
100
AcDbArc
 50
165.0000000000055
 51
320.0000000000808
  0
ARC
  5
1196
330
118A
100
AcDbEntity
  8
YAKUMONO
 62
     0
100
AcDbCircle
 10
20.99999999999818
 20
15.44899950000035
 30
0.0
 40
1.649999999999999
100
AcDbArc
 50
320.0000000000808
 51
0.0000009999948896
  0
ARC
  5
1197
330
118A
100
AcDbEntity
  8
YAKUMONO
 62
     0
100
AcDbCircle
 10
20.99999999999818
 20
15.44899950000035
 30
0.0
 40
2.0
100
AcDbArc
 50
320.0000000000808
 51
0.0
  0
ARC
  5
1198
330
118A
100
AcDbEntity
  8
YAKUMONO
 62
     0
100
AcDbCircle
 10
13.26999999999862
 20
38.00000050000017
 30
0.0
 40
1.0
100
AcDbArc
 50
41.81031500005842
 51
90.0
  0
LINE
  5
1199
330
118A
100
AcDbEntity
  8
YAKUMONO
 62
     0
100
AcDbLine
 10
22.64999999999941
 20
15.44899950000035
 30
0.0
 11
22.64999999999941
 21
37.00000050000017
 31
0.0
  0
LINE
  5
119A
330
118A
100
AcDbEntity
  8
YAKUMONO
 62
     0
100
AcDbLine
 10
23.0
 20
15.44899950000035
 30
0.0
 11
23.0
 21
37.00000050000017
 31
0.0
  0
ARC
  5
119B
330
118A
100
AcDbEntity
  8
YAKUMONO
 62
     0
100
AcDbCircle
 10
20.99999999999818
 20
37.00000050000017
 30
0.0
 40
1.649999999999999
100
AcDbArc
 50
0.0000009999948896
 51
90.0
  0
ARC
  5
119C
330
118A
100
AcDbEntity
  8
YAKUMONO
 62
     0
100
AcDbCircle
 10
20.99999999999818
 20
37.00000050000017
 30
0.0
 40
2.0
100
AcDbArc
 50
0.0
 51
90.0
  0
ARC
  5
119D
330
118A
100
AcDbEntity
  8
YAKUMONO
 62
     0
100
AcDbCircle
 10
18.73999999999955
 20
38.00000050000017
 30
0.0
 40
1.0
100
AcDbArc
 50
90.0
 51
138.1896849999416
  0
ARC
  5
119E
330
118A
100
AcDbEntity
  8
YAKUMONO
 62
     0
100
AcDbCircle
 10
16.50393199999757
 20
40.00000050000017
 30
0.0
 40
2.35
100
AcDbArc
 50
270.0
 51
324.9376099999917
  0
ARC
  5
119F
330
118A
100
AcDbEntity
  8
YAKUMONO
 62
     0
100
AcDbCircle
 10
16.50393199999757
 20
40.00000050000017
 30
0.0
 40
2.0
100
AcDbArc
 50
270.0
 51
318.1896849999416
  0
ARC
  5
11A0
330
118A
100
AcDbEntity
  8
YAKUMONO
 62
     0
100
AcDbCircle
 10
15.50606799999878
 20
40.00000050000017
 30
0.0
 40
2.35
100
AcDbArc
 50
215.0623900000082
 51
270.0
  0
ARC
  5
11A1
330
118A
100
AcDbEntity
  8
YAKUMONO
 62
     0
100
AcDbCircle
 10
15.50606799999878
 20
40.00000050000017
 30
0.0
 40
2.0
100
AcDbArc
 50
221.8103150000562
 51
270.0
  0
LINE
  5
11A2
330
118A
100
AcDbEntity
  8
YAKUMONO
 62
     0
100
AcDbLine
 10
16.50393199999939
 20
37.65000049999982
 30
0.0
 11
15.50606800000059
 21
37.65000049999982
 31
0.0
  0
LINE
  5
11A3
330
118A
100
AcDbEntity
  8
YAKUMONO
 62
     0
100
AcDbLine
 10
16.50393199999939
 20
38.00000050000017
 30
0.0
 11
15.50606800000059
 21
38.00000050000017
 31
0.0
  0
LINE
  5
11A4
330
118A
100
AcDbEntity
  8
YAKUMONO
 62
     0
100
AcDbLine
 10
20.99999999999977
 20
38.65000049999981
 30
0.0
 11
18.42747100000088
 21
38.65000049999981
 31
0.0
  0
LINE
  5
11A5
330
118A
100
AcDbEntity
  8
YAKUMONO
 62
     0
100
AcDbLine
 10
20.99999999999977
 20
39.00000050000017
 30
0.0
 11
18.73999999999955
 21
39.00000050000017
 31
0.0
  0
LINE
  5
11A6
330
118A
100
AcDbEntity
  8
YAKUMONO
 62
     0
100
AcDbLine
 10
13.58252999999945
 20
38.65000049999981
 30
0.0
 11
1.499999999999771
 21
38.65000049999981
 31
0.0
  0
LINE
  5
11A7
330
118A
100
AcDbEntity
  8
YAKUMONO
 62
     0
100
AcDbLine
 10
13.26999999999862
 20
39.00000050000017
 30
0.0
 11
1.499999999999771
 21
39.00000050000017
 31
0.0
  0
LINE
  5
11A8
330
118A
100
AcDbEntity
  8
YAKUMONO
 62
     0
100
AcDbLine
 10
0.0
 20
37.50000050000017
 30
0.0
 11
0.0
 21
8.907878500000149
 31
0.0
  0
ARC
  5
11A9
330
118A
100
AcDbEntity
  8
YAKUMONO
 62
     0
100
AcDbCircle
 10
1.49999999999818
 20
37.50000050000017
 30
0.0
 40
1.5
100
AcDbArc
 50
90.0
 51
180.0
  0
ARC
  5
11AA
330
118A
100
AcDbEntity
  8
YAKUMONO
 62
     0
100
AcDbCircle
 10
1.49999999999818
 20
37.50000050000017
 30
0.0
 40
1.149999999999999
100
AcDbArc
 50
90.0
 51
180.0000019999898
  0
LINE
  5
11AB
330
118A
100
AcDbEntity
  8
YAKUMONO
 62
     0
100
AcDbLine
 10
0.3500000000003638
 20
37.50000050000017
 30
0.0
 11
0.3500000000003638
 21
8.714643500001329
 31
0.0
  0
ARC
  5
11AC
330
118A
100
AcDbEntity
  8
YAKUMONO
 62
     0
100
AcDbCircle
 10
-0.000000000001819
 20
7.000000500000169
 30
0.0
 40
1.75
100
AcDbArc
 50
281.5369589999898
 51
78.4630410000102
  0
ARC
  5
11AD
330
118A
100
AcDbEntity
  8
YAKUMONO
 62
     0
100
AcDbCircle
 10
-0.000000000001819
 20
7.000000500000169
 30
0.0
 40
1.399999999999999
100
AcDbArc
 50
287.4576030000048
 51
72.54239699999519
  0
ARC
  5
11AE
330
118A
100
AcDbEntity
  8
YAKUMONO
 62
     0
100
AcDbCircle
 10
0.5999999999983176
 20
8.907878500000149
 30
0.0
 40
0.6
100
AcDbArc
 50
180.0
 51
252.5423969999952
  0
ARC
  5
11AF
330
118A
100
AcDbEntity
  8
YAKUMONO
 62
     0
100
AcDbCircle
 10
0.5999999999983176
 20
5.092121499999847
 30
0.0
 40
0.6
100
AcDbArc
 50
107.4576030000047
 51
180.0
  0
ARC
  5
11B0
330
118A
100
AcDbEntity
  8
YAKUMONO
 62
     0
100
AcDbCircle
 10
-0.000000000001819
 20
-6.999999499999829
 30
0.0
 40
1.75
100
AcDbArc
 50
281.5369589999898
 51
78.4630410000102
  0
ARC
  5
11B1
330
118A
100
AcDbEntity
  8
YAKUMONO
 62
     0
100
AcDbCircle
 10
-0.000000000001819
 20
-6.999999499999829
 30
0.0
 40
1.399999999999999
100
AcDbArc
 50
287.4576030000048
 51
72.54239699999519
  0
ARC
  5
11B2
330
118A
100
AcDbEntity
  8
YAKUMONO
 62
     0
100
AcDbCircle
 10
0.5999999999983176
 20
-8.907878500000149
 30
0.0
 40
0.6
100
AcDbArc
 50
107.4576030000047
 51
180.0
  0
ARC
  5
11B3
330
118A
100
AcDbEntity
  8
YAKUMONO
 62
     0
100
AcDbCircle
 10
0.5999999999983176
 20
-5.092121499999847
 30
0.0
 40
0.6
100
AcDbArc
 50
180.0
 51
252.5423969999952
  0
LINE
  5
11B4
330
118A
100
AcDbEntity
  8
YAKUMONO
 62
     0
100
AcDbLine
 10
0.3500000000003638
 20
-8.714642500000991
 30
0.0
 11
0.3500000000003638
 21
-19.49999949999982
 31
0.0
  0
LINE
  5
11B5
330
118A
100
AcDbEntity
  8
YAKUMONO
 62
     0
100
AcDbLine
 10
0.0
 20
-8.907878500000149
 30
0.0
 11
0.0
 21
-19.49999949999982
 31
0.0
  0
LINE
  5
11B6
330
118A
100
AcDbEntity
  8
YAKUMONO
 62
     0
100
AcDbLine
 10
2.649999999999407
 20
-19.49999949999982
 30
0.0
 11
2.649999999999407
 21
-14.99999949999983
 31
0.0
  0
LINE
  5
11B7
330
118A
100
AcDbEntity
  8
YAKUMONO
 62
     0
100
AcDbLine
 10
3.0
 20
-19.49999949999982
 30
0.0
 11
3.0
 21
-14.99999949999983
 31
0.0
  0
ARC
  5
11B8
330
118A
100
AcDbEntity
  8
YAKUMONO
 62
     0
100
AcDbCircle
 10
1.49999999999818
 20
-19.49999949999982
 30
0.0
 40
1.149999999999999
100
AcDbArc
 50
180.0000019999898
 51
0.0000019999897792
  0
ARC
  5
11B9
330
118A
100
AcDbEntity
  8
YAKUMONO
 62
     0
100
AcDbCircle
 10
1.49999999999818
 20
-19.49999949999982
 30
0.0
 40
1.5
100
AcDbArc
 50
180.0
 51
0.0
  0
LINE
  5
11BA
330
118A
100
AcDbEntity
  8
YAKUMONO
 62
     0
100
AcDbLine
 10
3.0
 20
-14.99999949999983
 30
0.0
 11
2.649999999999407
 21
-14.99999949999983
 31
0.0
  0
ENDBLK
  5
11BB
330
118A
100
AcDbEntity
  8
0
100
AcDbBlockEnd
  0
BLOCK
  5
11BF
330
11BC
100
AcDbEntity
  8
0
100
AcDbBlockBegin
  2
01小口カバー15
 70
     0
 10
7692.527308291406
 20
6707.468278465714
 30
0.0
  3
01小口カバー15
  1
X:\30　施工説明書関係\01 サイディング\00サイディング基本CAD\納まり図用付属品\01小口カバー15.dwg
  0
LINE
  5
11C0
330
11BC
100
AcDbEntity
  8
YAKUMONO
 62
     0
100
AcDbLine
 10
7673.868406413657
 20
6707.270615820725
 30
0.0
 11
7673.868406413657
 21
6712.620615820728
 31
0.0
  0
LINE
  5
11C1
330
11BC
100
AcDbEntity
  8
YAKUMONO
 62
     0
100
AcDbLine
 10
7680.868406413658
 20
6707.270615820725
 30
0.0
 11
7680.868406413658
 21
6712.620615820728
 31
0.0
  0
ARC
  5
11C2
330
11BC
100
AcDbEntity
  8
YAKUMONO
 62
     0
100
AcDbCircle
 10
7677.368406413657
 20
6709.287282820726
 30
0.0
 40
4.833333
100
AcDbArc
 50
43.60281900002374
 51
136.3971809999762
  0
LINE
  5
11C3
330
11BC
100
AcDbEntity
  8
YAKUMONO
 62
     0
100
AcDbLine
 10
7679.598406413657
 20
6706.920615820727
 30
0.0
 11
7691.368406413658
 21
6706.920615820727
 31
0.0
  0
LINE
  5
11C4
330
11BC
100
AcDbEntity
  8
YAKUMONO
 62
     0
100
AcDbLine
 10
7679.285876413658
 20
6707.270615820725
 30
0.0
 11
7691.368406413658
 21
6707.270615820725
 31
0.0
  0
ARC
  5
11C5
330
11BC
100
AcDbEntity
  8
YAKUMONO
 62
     0
100
AcDbCircle
 10
7691.368406413658
 20
6708.420615820727
 30
0.0
 40
1.149999999999999
100
AcDbArc
 50
270.0
 51
0.0000019999897792
  0
ARC
  5
11C6
330
11BC
100
AcDbEntity
  8
YAKUMONO
 62
     0
100
AcDbCircle
 10
7691.368406413658
 20
6708.420615820727
 30
0.0
 40
1.5
100
AcDbArc
 50
270.0
 51
0.0
  0
LINE
  5
11C7
330
11BC
100
AcDbEntity
  8
YAKUMONO
 62
     0
100
AcDbLine
 10
7671.868406413658
 20
6706.920615820727
 30
0.0
 11
7674.128406413657
 21
6706.920615820727
 31
0.0
  0
LINE
  5
11C8
330
11BC
100
AcDbEntity
  8
YAKUMONO
 62
     0
100
AcDbLine
 10
7671.868406413658
 20
6707.270615820725
 30
0.0
 11
7674.44093541366
 21
6707.270615820725
 31
0.0
  0
LINE
  5
11C9
330
11BC
100
AcDbEntity
  8
YAKUMONO
 62
     0
100
AcDbLine
 10
7676.364474413658
 20
6707.920615820725
 30
0.0
 11
7677.36233841366
 21
6707.920615820725
 31
0.0
  0
LINE
  5
11CA
330
11BC
100
AcDbEntity
  8
YAKUMONO
 62
     0
100
AcDbLine
 10
7676.364474413658
 20
6708.270615820724
 30
0.0
 11
7677.36233841366
 21
6708.270615820724
 31
0.0
  0
ARC
  5
11CB
330
11BC
100
AcDbEntity
  8
YAKUMONO
 62
     0
100
AcDbCircle
 10
7677.36233841366
 20
6705.920615820726
 30
0.0
 40
2.0
100
AcDbArc
 50
41.81031500005304
 51
90.0
  0
ARC
  5
11CC
330
11BC
100
AcDbEntity
  8
YAKUMONO
 62
     0
100
AcDbCircle
 10
7677.36233841366
 20
6705.920615820726
 30
0.0
 40
2.35
100
AcDbArc
 50
35.06239000000636
 51
90.0
  0
ARC
  5
11CD
330
11BC
100
AcDbEntity
  8
YAKUMONO
 62
     0
100
AcDbCircle
 10
7676.364474413658
 20
6705.920615820726
 30
0.0
 40
2.0
100
AcDbArc
 50
90.0
 51
138.1896849999469
  0
ARC
  5
11CE
330
11BC
100
AcDbEntity
  8
YAKUMONO
 62
     0
100
AcDbCircle
 10
7676.364474413658
 20
6705.920615820726
 30
0.0
 40
2.35
100
AcDbArc
 50
90.0
 51
144.9376099999936
  0
ARC
  5
11CF
330
11BC
100
AcDbEntity
  8
YAKUMONO
 62
     0
100
AcDbCircle
 10
7674.128406413657
 20
6707.920615820725
 30
0.0
 40
1.0
100
AcDbArc
 50
270.0
 51
318.1896849999469
  0
ARC
  5
11D0
330
11BC
100
AcDbEntity
  8
YAKUMONO
 62
     0
100
AcDbCircle
 10
7671.868406413658
 20
6708.920615820726
 30
0.0
 40
2.0
100
AcDbArc
 50
180.0
 51
270.0
  0
ARC
  5
11D1
330
11BC
100
AcDbEntity
  8
YAKUMONO
 62
     0
100
AcDbCircle
 10
7671.868406413658
 20
6708.920615820726
 30
0.0
 40
1.649999999999999
100
AcDbArc
 50
180.0000009999949
 51
270.0
  0
ARC
  5
11D2
330
11BC
100
AcDbEntity
  8
YAKUMONO
 62
     0
100
AcDbCircle
 10
7679.598406413657
 20
6707.920615820725
 30
0.0
 40
1.0
100
AcDbArc
 50
221.810315000053
 51
270.0
  0
LINE
  5
11D3
330
11BC
100
AcDbEntity
  8
YAKUMONO
 62
     0
100
AcDbLine
 10
7692.868406413658
 20
6708.420615820727
 30
0.0
 11
7692.868406413658
 21
6737.012737820726
 31
0.0
  0
LINE
  5
11D4
330
11BC
100
AcDbEntity
  8
YAKUMONO
 62
     0
100
AcDbLine
 10
7692.518406413658
 20
6708.420615820727
 30
0.0
 11
7692.518406413658
 21
6737.205972820728
 31
0.0
  0
LINE
  5
11D5
330
11BC
100
AcDbEntity
  8
YAKUMONO
 62
     0
100
AcDbLine
 10
7673.761027638947
 20
6727.011202820725
 30
0.0
 11
7674.099101638946
 21
6726.920615820727
 31
0.0
  0
ARC
  5
11D6
330
11BC
100
AcDbEntity
  8
YAKUMONO
 62
     0
100
AcDbCircle
 10
7671.868406413658
 20
6730.471616820726
 30
0.0
 40
2.0
100
AcDbArc
 50
140.0000000000441
 51
180.0
  0
ARC
  5
11D7
330
11BC
100
AcDbEntity
  8
YAKUMONO
 62
     0
100
AcDbCircle
 10
7671.868406413658
 20
6730.471616820726
 30
0.0
 40
1.649999999999999
100
AcDbArc
 50
140.0000000000441
 51
180.0000009999949
  0
LINE
  5
11D8
330
11BC
100
AcDbEntity
  8
YAKUMONO
 62
     0
100
AcDbLine
 10
7676.272643638945
 20
6735.032387820726
 30
0.0
 11
7674.099101638946
 21
6726.920615820727
 31
0.0
  0
LINE
  5
11D9
330
11BC
100
AcDbEntity
  8
YAKUMONO
 62
     0
100
AcDbLine
 10
7675.934569638943
 20
6735.122973820725
 30
0.0
 11
7673.761027638947
 21
6727.011202820725
 31
0.0
  0
ARC
  5
11DA
330
11BC
100
AcDbEntity
  8
YAKUMONO
 62
     0
100
AcDbCircle
 10
7674.823755638943
 20
6735.420615820726
 30
0.0
 40
1.5
100
AcDbArc
 50
345.0000000000056
 51
140.0000000000441
  0
ARC
  5
11DB
330
11BC
100
AcDbEntity
  8
YAKUMONO
 62
     0
100
AcDbCircle
 10
7674.823755638943
 20
6735.420615820726
 30
0.0
 40
1.149999999999999
100
AcDbArc
 50
345.0000000000056
 51
140.0000000000441
  0
LINE
  5
11DC
330
11BC
100
AcDbEntity
  8
YAKUMONO
 62
     0
100
AcDbLine
 10
7673.674688638945
 20
6736.384797820726
 30
0.0
 11
7670.336317413658
 21
6731.757191820726
 31
0.0
  0
LINE
  5
11DD
330
11BC
100
AcDbEntity
  8
YAKUMONO
 62
     0
100
AcDbLine
 10
7673.942804638944
 20
6736.159821820726
 30
0.0
 11
7670.60443241366
 21
6731.532215820728
 31
0.0
  0
LINE
  5
11DE
330
11BC
100
AcDbEntity
  8
YAKUMONO
 62
     0
100
AcDbLine
 10
7669.868406413659
 20
6730.471616820726
 30
0.0
 11
7669.868406413659
 21
6708.920615820726
 31
0.0
  0
LINE
  5
11DF
330
11BC
100
AcDbEntity
  8
YAKUMONO
 62
     0
100
AcDbLine
 10
7670.21840641366
 20
6730.471616820726
 30
0.0
 11
7670.21840641366
 21
6708.920615820726
 31
0.0
  0
ARC
  5
11E0
330
11BC
100
AcDbEntity
  8
YAKUMONO
 62
     0
100
AcDbCircle
 10
7692.268406413659
 20
6740.828494820725
 30
0.0
 40
0.6
100
AcDbArc
 50
287.457602999997
 51
0.0
  0
ARC
  5
11E1
330
11BC
100
AcDbEntity
  8
YAKUMONO
 62
     0
100
AcDbCircle
 10
7692.268406413659
 20
6737.012737820726
 30
0.0
 40
0.6
100
AcDbArc
 50
0.0
 51
72.54239700000297
  0
ARC
  5
11E2
330
11BC
100
AcDbEntity
  8
YAKUMONO
 62
     0
100
AcDbCircle
 10
7692.868406413658
 20
6738.920615820726
 30
0.0
 40
1.399999999999999
100
AcDbArc
 50
107.457602999997
 51
252.542397000003
  0
ARC
  5
11E3
330
11BC
100
AcDbEntity
  8
YAKUMONO
 62
     0
100
AcDbCircle
 10
7692.868406413658
 20
6738.920615820726
 30
0.0
 40
1.75
100
AcDbArc
 50
101.5369589999924
 51
258.4630410000077
  0
ARC
  5
11E4
330
11BC
100
AcDbEntity
  8
YAKUMONO
 62
     0
100
AcDbCircle
 10
7692.268406413659
 20
6751.012737820726
 30
0.0
 40
0.6
100
AcDbArc
 50
0.0
 51
72.54239700000297
  0
LINE
  5
11E5
330
11BC
100
AcDbEntity
  8
YAKUMONO
 62
     0
100
AcDbLine
 10
7692.868406413658
 20
6740.828494820725
 30
0.0
 11
7692.868406413658
 21
6751.012737820726
 31
0.0
  0
LINE
  5
11E6
330
11BC
100
AcDbEntity
  8
YAKUMONO
 62
     0
100
AcDbLine
 10
7692.518406413658
 20
6740.635258820725
 30
0.0
 11
7692.518406413658
 21
6751.205972820727
 31
0.0
  0
LINE
  5
11E7
330
11BC
100
AcDbEntity
  8
YAKUMONO
 62
     0
100
AcDbLine
 10
7689.868406413657
 20
6760.920615820726
 30
0.0
 11
7690.21840641366
 21
6760.920615820726
 31
0.0
  0
LINE
  5
11E8
330
11BC
100
AcDbEntity
  8
YAKUMONO
 62
     0
100
AcDbLine
 10
7692.868406413658
 20
6754.828494820725
 30
0.0
 11
7692.868406413658
 21
6765.420615820726
 31
0.0
  0
LINE
  5
11E9
330
11BC
100
AcDbEntity
  8
YAKUMONO
 62
     0
100
AcDbLine
 10
7692.518406413658
 20
6754.635258820727
 30
0.0
 11
7692.518406413658
 21
6765.420615820726
 31
0.0
  0
ARC
  5
11EA
330
11BC
100
AcDbEntity
  8
YAKUMONO
 62
     0
100
AcDbCircle
 10
7691.368406413658
 20
6765.420615820726
 30
0.0
 40
1.5
100
AcDbArc
 50
0.0
 51
180.0
  0
ARC
  5
11EB
330
11BC
100
AcDbEntity
  8
YAKUMONO
 62
     0
100
AcDbCircle
 10
7691.368406413658
 20
6765.420615820726
 30
0.0
 40
1.149999999999999
100
AcDbArc
 50
0.0000019999897792
 51
180.0000019999898
  0
LINE
  5
11EC
330
11BC
100
AcDbEntity
  8
YAKUMONO
 62
     0
100
AcDbLine
 10
7689.868406413657
 20
6765.420615820726
 30
0.0
 11
7689.868406413657
 21
6760.920615820726
 31
0.0
  0
LINE
  5
11ED
330
11BC
100
AcDbEntity
  8
YAKUMONO
 62
     0
100
AcDbLine
 10
7690.21840641366
 20
6765.420615820726
 30
0.0
 11
7690.21840641366
 21
6760.920615820726
 31
0.0
  0
ARC
  5
11EE
330
11BC
100
AcDbEntity
  8
YAKUMONO
 62
     0
100
AcDbCircle
 10
7692.268406413659
 20
6754.828494820725
 30
0.0
 40
0.6
100
AcDbArc
 50
287.457602999997
 51
0.0
  0
ARC
  5
11EF
330
11BC
100
AcDbEntity
  8
YAKUMONO
 62
     0
100
AcDbCircle
 10
7692.868406413658
 20
6752.920615820726
 30
0.0
 40
1.399999999999999
100
AcDbArc
 50
107.457602999997
 51
252.542397000003
  0
ARC
  5
11F0
330
11BC
100
AcDbEntity
  8
YAKUMONO
 62
     0
100
AcDbCircle
 10
7692.868406413658
 20
6752.920615820726
 30
0.0
 40
1.75
100
AcDbArc
 50
101.5369589999924
 51
258.4630410000077
  0
ENDBLK
  5
11F1
330
11BC
100
AcDbEntity
  8
0
100
AcDbBlockEnd
  0
BLOCK
  5
1704
330
1703
100
AcDbEntity
  8
0
 48
0.2
100
AcDbBlockBegin
  2
*D5
 70
     1
 10
0.0
 20
0.0
 30
0.0
  3
*D5
  1

  0
LINE
  5
1869
330
1703
100
AcDbEntity
  8
SUNPO
 62
     0
440
 16777216
 48
0.1
370
    -2
100
AcDbLine
 10
133.6628406093518
 20
526.5654227701754
 30
0.0
 11
133.6628406093518
 21
541.2960304100436
 31
0.0
  0
LINE
  5
186A
330
1703
100
AcDbEntity
  8
SUNPO
 62
     0
440
 16777216
 48
0.1
370
    -2
100
AcDbLine
 10
148.66284060935
 20
526.5654227701754
 30
0.0
 11
148.66284060935
 21
541.2960304100436
 31
0.0
  0
LINE
  5
186B
330
1703
100
AcDbEntity
  8
SUNPO
 62
     0
440
 16777216
 48
0.1
100
AcDbLine
 10
134.6628406093518
 20
541.2960304100436
 30
0.0
 11
147.66284060935
 21
541.2960304100436
 31
0.0
  0
INSERT
  5
186C
330
1703
100
AcDbEntity
  8
SUNPO
 62
     0
440
 16777216
 48
0.1
100
AcDbBlockReference
  2
_DOT
 10
133.6628406093518
 20
541.2960304100436
 30
0.0
 50
180.0
  0
INSERT
  5
186D
330
1703
100
AcDbEntity
  8
SUNPO
 62
     0
440
 16777216
 48
0.1
100
AcDbBlockReference
  2
_DOT
 10
148.66284060935
 20
541.2960304100436
 30
0.0
  0
MTEXT
  5
186E
330
1703
100
AcDbEntity
  8
SUNPO
 62
     0
440
 16777216
 48
0.1
100
AcDbMText
 10
141.1628406093509
 20
545.7960304100436
 30
0.0
 40
5.0
 41
0.0
 46
0.0
 71
     5
 72
     1
  1
\A1;15
  7
CAD-DL
 73
     1
 44
1.0
  0
POINT
  5
186F
330
1703
100
AcDbEntity
  8
Defpoints
 62
     0
440
 16777216
 48
0.1
100
AcDbPoint
 10
133.6628406093518
 20
521.5654227701755
 30
0.0
  0
POINT
  5
1870
330
1703
100
AcDbEntity
  8
Defpoints
 62
     0
440
 16777216
 48
0.1
100
AcDbPoint
 10
148.66284060935
 20
521.5654227701755
 30
0.0
  0
POINT
  5
1871
330
1703
100
AcDbEntity
  8
Defpoints
 62
     0
440
 16777216
 48
0.1
100
AcDbPoint
 10
148.66284060935
 20
541.2960304100436
 30
0.0
  0
ENDBLK
  5
1705
330
1703
100
AcDbEntity
  8
0
 48
0.2
100
AcDbBlockEnd
  0
BLOCK
  5
1710
330
170F
100
AcDbEntity
  8
0
 48
0.2
100
AcDbBlockBegin
  2
*D6
 70
     1
 10
0.0
 20
0.0
 30
0.0
  3
*D6
  1

  0
LINE
  5
1872
330
170F
100
AcDbEntity
  8
SUNPO
 62
     0
440
 16777216
 48
0.1
370
    -2
100
AcDbLine
 10
153.5574913840851
 20
526.5654366772355
 30
0.0
 11
153.5574913840851
 21
541.2960443171036
 31
0.0
  0
LINE
  5
1873
330
170F
100
AcDbEntity
  8
SUNPO
 62
     0
440
 16777216
 48
0.1
370
    -2
100
AcDbLine
 10
253.5574913840851
 20
526.5654366772355
 30
0.0
 11
253.5574913840851
 21
541.2960443171036
 31
0.0
  0
LINE
  5
1874
330
170F
100
AcDbEntity
  8
SUNPO
 62
     0
440
 16777216
 48
0.1
100
AcDbLine
 10
154.5574913840851
 20
541.2960443171036
 30
0.0
 11
252.5574913840851
 21
541.2960443171036
 31
0.0
  0
INSERT
  5
1875
330
170F
100
AcDbEntity
  8
SUNPO
 62
     0
440
 16777216
 48
0.1
100
AcDbBlockReference
  2
_DOT
 10
153.5574913840851
 20
541.2960443171036
 30
0.0
 50
180.0
  0
INSERT
  5
1876
330
170F
100
AcDbEntity
  8
SUNPO
 62
     0
440
 16777216
 48
0.1
100
AcDbBlockReference
  2
_DOT
 10
253.5574913840851
 20
541.2960443171036
 30
0.0
  0
MTEXT
  5
1877
330
170F
100
AcDbEntity
  8
SUNPO
 62
     0
440
 16777216
 48
0.1
100
AcDbMText
 10
203.5574913840851
 20
545.7960443171036
 30
0.0
 40
5.0
 41
0.0
 46
0.0
 71
     5
 72
     1
  1
\A1;100
  7
CAD-DL
 73
     1
 44
1.0
  0
POINT
  5
1878
330
170F
100
AcDbEntity
  8
Defpoints
 62
     0
440
 16777216
 48
0.1
100
AcDbPoint
 10
153.5574913840851
 20
521.5654366772355
 30
0.0
  0
POINT
  5
1879
330
170F
100
AcDbEntity
  8
Defpoints
 62
     0
440
 16777216
 48
0.1
100
AcDbPoint
 10
253.5574913840851
 20
521.5654366772355
 30
0.0
  0
POINT
  5
187A
330
170F
100
AcDbEntity
  8
Defpoints
 62
     0
440
 16777216
 48
0.1
100
AcDbPoint
 10
253.5574913840851
 20
541.2960443171036
 30
0.0
  0
ENDBLK
  5
1711
330
170F
100
AcDbEntity
  8
0
 48
0.2
100
AcDbBlockEnd
  0
BLOCK
  5
171C
330
171B
100
AcDbEntity
  8
0
 48
0.2
100
AcDbBlockBegin
  2
*D7
 70
     1
 10
0.0
 20
0.0
 30
0.0
  3
*D7
  1

  0
LINE
  5
187B
330
171B
100
AcDbEntity
  8
SUNPO
 62
     0
440
 16777216
 48
0.1
370
    -2
100
AcDbLine
 10
145.2074913840866
 20
346.3641140902675
 30
0.0
 11
118.1107056204539
 21
346.3641140902674
 31
0.0
  0
LINE
  5
187C
330
171B
100
AcDbEntity
  8
SUNPO
 62
     0
440
 16777216
 48
0.1
370
    -2
100
AcDbLine
 10
124.2074913840729
 20
356.3641140902693
 30
0.0
 11
118.1107056204538
 21
356.3641140902693
 31
0.0
  0
LINE
  5
187D
330
171B
100
AcDbEntity
  8
SUNPO
 62
     0
440
 16777216
 48
0.1
100
AcDbLine
 10
118.1107056204539
 20
347.3641140902675
 30
0.0
 11
118.1107056204538
 21
355.3641140902692
 31
0.0
  0
MTEXT
  5
187E
330
171B
100
AcDbEntity
  8
SUNPO
 62
     0
440
 16777216
 48
0.1
100
AcDbMText
 10
113.6107056204105
 20
351.3693850012417
 30
0.0
 40
5.0
 41
0.0
 46
0.0
 71
     5
 72
     1
  1
\A1;10
  7
CAD-DL
 11
0.0000000000000001
 21
1.0
 31
0.0
 73
     1
 44
1.0
  0
INSERT
  5
187F
330
171B
100
AcDbEntity
  8
SUNPO
 62
     0
440
 16777216
 48
0.1
100
AcDbBlockReference
  2
_DOT
 10
118.1107056204539
 20
346.3641140902674
 30
0.0
 50
270.0
  0
INSERT
  5
1880
330
171B
100
AcDbEntity
  8
SUNPO
 62
     0
440
 16777216
 48
0.1
100
AcDbBlockReference
  2
_DOT
 10
118.1107056204538
 20
356.3641140902693
 30
0.0
 50
90.0
  0
POINT
  5
1881
330
171B
100
AcDbEntity
  8
Defpoints
 62
     0
440
 16777216
 48
0.1
100
AcDbPoint
 10
150.2074913840866
 20
346.3641140902675
 30
0.0
  0
POINT
  5
1882
330
171B
100
AcDbEntity
  8
Defpoints
 62
     0
440
 16777216
 48
0.1
100
AcDbPoint
 10
129.2074913840729
 20
356.3641140902693
 30
0.0
  0
POINT
  5
1883
330
171B
100
AcDbEntity
  8
Defpoints
 62
     0
440
 16777216
 48
0.1
100
AcDbPoint
 10
118.1107056204538
 20
356.3641140902693
 30
0.0
  0
ENDBLK
  5
171D
330
171B
100
AcDbEntity
  8
0
 48
0.2
100
AcDbBlockEnd
  0
BLOCK
  5
1728
330
1727
100
AcDbEntity
  8
0
 48
0.2
100
AcDbBlockBegin
  2
*D8
 70
     1
 10
0.0
 20
0.0
 30
0.0
  3
*D8
  1

  0
LINE
  5
1884
330
1727
100
AcDbEntity
  8
SUNPO
 62
     0
440
 16777216
 48
0.1
370
    -2
100
AcDbLine
 10
124.5574913841015
 20
214.3367591721641
 30
0.0
 11
113.6317631013591
 21
214.3367591721641
 31
0.0
  0
LINE
  5
1885
330
1727
100
AcDbEntity
  8
SUNPO
 62
     0
440
 16777216
 48
0.1
370
    -2
100
AcDbLine
 10
119.7285488649818
 20
224.3262173502191
 30
0.0
 11
113.6317631013591
 21
224.3262173502191
 31
0.0
  0
LINE
  5
1886
330
1727
100
AcDbEntity
  8
SUNPO
 62
     0
440
 16777216
 48
0.1
100
AcDbLine
 10
113.6317631013591
 20
215.3367591721641
 30
0.0
 11
113.6317631013591
 21
223.3262173502191
 31
0.0
  0
MTEXT
  5
1887
330
1727
100
AcDbEntity
  8
SUNPO
 62
     0
440
 16777216
 48
0.1
100
AcDbMText
 10
109.1317631013212
 20
219.3314882611917
 30
0.0
 40
5.0
 41
0.0
 46
0.0
 71
     5
 72
     1
  1
\A1;10
  7
CAD-DL
 11
0.0000000000000001
 21
1.0
 31
0.0
 73
     1
 44
1.0
  0
INSERT
  5
1888
330
1727
100
AcDbEntity
  8
SUNPO
 62
     0
440
 16777216
 48
0.1
100
AcDbBlockReference
  2
_DOT
 10
113.6317631013591
 20
214.3367591721641
 30
0.0
 50
270.0
  0
INSERT
  5
1889
330
1727
100
AcDbEntity
  8
SUNPO
 62
     0
440
 16777216
 48
0.1
100
AcDbBlockReference
  2
_DOT
 10
113.6317631013591
 20
224.3262173502191
 30
0.0
 50
90.0
  0
POINT
  5
188A
330
1727
100
AcDbEntity
  8
Defpoints
 62
     0
440
 16777216
 48
0.1
100
AcDbPoint
 10
129.5574913841015
 20
214.3367591721641
 30
0.0
  0
POINT
  5
188B
330
1727
100
AcDbEntity
  8
Defpoints
 62
     0
440
 16777216
 48
0.1
100
AcDbPoint
 10
124.7285488649818
 20
224.3262173502191
 30
0.0
  0
POINT
  5
188C
330
1727
100
AcDbEntity
  8
Defpoints
 62
     0
440
 16777216
 48
0.1
100
AcDbPoint
 10
113.6317631013591
 20
224.3262173502191
 30
0.0
  0
ENDBLK
  5
1729
330
1727
100
AcDbEntity
  8
0
 48
0.2
100
AcDbBlockEnd
  0
BLOCK
  5
1734
330
1733
100
AcDbEntity
  8
0
 48
0.2
100
AcDbBlockBegin
  2
*D9
 70
     1
 10
0.0
 20
0.0
 30
0.0
  3
*D9
  1

  0
LINE
  5
188D
330
1733
100
AcDbEntity
  8
SUNPO
 62
     0
440
 16777216
 48
0.1
370
    -2
100
AcDbLine
 10
158.5574913840851
 20
308.5433981793628
 30
0.0
 11
202.741945755884
 21
308.5433981793628
 31
0.0
  0
LINE
  5
188E
330
1733
100
AcDbEntity
  8
SUNPO
 62
     0
440
 16777216
 48
0.1
370
    -2
100
AcDbLine
 10
158.5574913840851
 20
278.3734034431583
 30
0.0
 11
202.741945755884
 21
278.3734034431583
 31
0.0
  0
LINE
  5
188F
330
1733
100
AcDbEntity
  8
SUNPO
 62
     0
440
 16777216
 48
0.1
100
AcDbLine
 10
202.741945755884
 20
307.5433981793628
 30
0.0
 11
202.741945755884
 21
279.3734034431583
 31
0.0
  0
INSERT
  5
1890
330
1733
100
AcDbEntity
  8
SUNPO
 62
     0
440
 16777216
 48
0.1
100
AcDbBlockReference
  2
_DOT
 10
202.741945755884
 20
308.5433981793628
 30
0.0
 50
90.0
  0
INSERT
  5
1891
330
1733
100
AcDbEntity
  8
SUNPO
 62
     0
440
 16777216
 48
0.1
100
AcDbBlockReference
  2
_DOT
 10
202.741945755884
 20
278.3734034431583
 30
0.0
 50
270.0
  0
MTEXT
  5
1892
330
1733
100
AcDbEntity
  8
SUNPO
 62
     0
440
 16777216
 48
0.1
100
AcDbMText
 10
198.241945755884
 20
293.4584008112604
 30
0.0
 40
5.0
 41
0.0
 46
0.0
 71
     5
 72
     1
  1
\A1;H
  7
CAD-DL
 11
0.0000000000000001
 21
1.0
 31
0.0
 73
     1
 44
1.0
  0
POINT
  5
1893
330
1733
100
AcDbEntity
  8
Defpoints
 62
     0
440
 16777216
 48
0.1
100
AcDbPoint
 10
153.5574913840851
 20
308.5433981793628
 30
0.0
  0
POINT
  5
1894
330
1733
100
AcDbEntity
  8
Defpoints
 62
     0
440
 16777216
 48
0.1
100
AcDbPoint
 10
153.5574913840851
 20
278.3734034431583
 30
0.0
  0
POINT
  5
1895
330
1733
100
AcDbEntity
  8
Defpoints
 62
     0
440
 16777216
 48
0.1
100
AcDbPoint
 10
202.741945755884
 20
278.3734034431583
 30
0.0
  0
ENDBLK
  5
1735
330
1733
100
AcDbEntity
  8
0
 48
0.2
100
AcDbBlockEnd
  0
BLOCK
  5
1740
330
173F
100
AcDbEntity
  8
0
 48
0.2
100
AcDbBlockBegin
  2
*D10
 70
     1
 10
0.0
 20
0.0
 30
0.0
  3
*D10
  1

  0
LINE
  5
1896
330
173F
100
AcDbEntity
  8
SUNPO
 62
     0
440
 16777216
 48
0.1
370
    -2
100
AcDbLine
 10
501.4059702942327
 20
257.9999987707741
 30
0.0
 11
501.4059702942327
 21
210.6856046953711
 31
0.0
  0
LINE
  5
1897
330
173F
100
AcDbEntity
  8
SUNPO
 62
     0
440
 16777216
 48
0.1
370
    -2
100
AcDbLine
 10
526.4059702942309
 20
257.9999987707741
 30
0.0
 11
526.4059702942309
 21
210.6856046953711
 31
0.0
  0
LINE
  5
1898
330
173F
100
AcDbEntity
  8
SUNPO
 62
     0
440
 16777216
 48
0.1
100
AcDbLine
 10
502.4059702942326
 20
210.6856046953711
 30
0.0
 11
525.4059702942308
 21
210.6856046953711
 31
0.0
  0
INSERT
  5
1899
330
173F
100
AcDbEntity
  8
SUNPO
 62
     0
440
 16777216
 48
0.1
100
AcDbBlockReference
  2
_DOT
 10
501.4059702942327
 20
210.6856046953711
 30
0.0
 50
180.0
  0
INSERT
  5
189A
330
173F
100
AcDbEntity
  8
SUNPO
 62
     0
440
 16777216
 48
0.1
100
AcDbBlockReference
  2
_DOT
 10
526.4059702942309
 20
210.6856046953711
 30
0.0
  0
MTEXT
  5
189B
330
173F
100
AcDbEntity
  8
SUNPO
 62
     0
440
 16777216
 48
0.1
100
AcDbMText
 10
513.9059702942318
 20
215.1856046953711
 30
0.0
 40
5.0
 41
0.0
 46
0.0
 71
     5
 72
     1
  1
\A1;W
  7
CAD-DL
 73
     1
 44
1.0
  0
POINT
  5
189C
330
173F
100
AcDbEntity
  8
Defpoints
 62
     0
440
 16777216
 48
0.1
100
AcDbPoint
 10
501.4059702942327
 20
262.9999987707741
 30
0.0
  0
POINT
  5
189D
330
173F
100
AcDbEntity
  8
Defpoints
 62
     0
440
 16777216
 48
0.1
100
AcDbPoint
 10
526.4059702942309
 20
262.9999987707741
 30
0.0
  0
POINT
  5
189E
330
173F
100
AcDbEntity
  8
Defpoints
 62
     0
440
 16777216
 48
0.1
100
AcDbPoint
 10
526.4059702942309
 20
210.6856046953711
 30
0.0
  0
ENDBLK
  5
1741
330
173F
100
AcDbEntity
  8
0
 48
0.2
100
AcDbBlockEnd
  0
BLOCK
  5
174C
330
174B
100
AcDbEntity
  8
0
 48
0.2
100
AcDbBlockBegin
  2
*D11
 70
     1
 10
0.0
 20
0.0
 30
0.0
  3
*D11
  1

  0
LINE
  5
189F
330
174B
100
AcDbEntity
  8
SUNPO
 62
     0
440
 16777216
 48
0.1
370
    -2
100
AcDbLine
 10
757.4059702942338
 20
282.5446495455505
 30
0.0
 11
772.358246935104
 21
282.5446495455505
 31
0.0
  0
LINE
  5
18A0
330
174B
100
AcDbEntity
  8
SUNPO
 62
     0
440
 16777216
 48
0.1
370
    -2
100
AcDbLine
 10
757.4059702942338
 20
267.5446495455529
 30
0.0
 11
772.358246935104
 21
267.5446495455529
 31
0.0
  0
LINE
  5
18A1
330
174B
100
AcDbEntity
  8
SUNPO
 62
     0
440
 16777216
 48
0.1
100
AcDbLine
 10
772.358246935104
 20
281.5446495455505
 30
0.0
 11
772.358246935104
 21
268.5446495455529
 31
0.0
  0
INSERT
  5
18A2
330
174B
100
AcDbEntity
  8
SUNPO
 62
     0
440
 16777216
 48
0.1
100
AcDbBlockReference
  2
_DOT
 10
772.358246935104
 20
282.5446495455505
 30
0.0
 50
90.0
  0
INSERT
  5
18A3
330
174B
100
AcDbEntity
  8
SUNPO
 62
     0
440
 16777216
 48
0.1
100
AcDbBlockReference
  2
_DOT
 10
772.358246935104
 20
267.5446495455529
 30
0.0
 50
270.0
  0
MTEXT
  5
18A4
330
174B
100
AcDbEntity
  8
SUNPO
 62
     0
440
 16777216
 48
0.1
100
AcDbMText
 10
767.8582469351039
 20
275.0446495455514
 30
0.0
 40
5.0
 41
0.0
 46
0.0
 71
     5
 72
     1
  1
\A1;15
  7
CAD-DL
 11
0.0000000000000001
 21
1.0
 31
0.0
 73
     1
 44
1.0
  0
POINT
  5
18A5
330
174B
100
AcDbEntity
  8
Defpoints
 62
     0
440
 16777216
 48
0.1
100
AcDbPoint
 10
752.4059702942338
 20
282.5446495455505
 30
-0.000000000066345
  0
POINT
  5
18A6
330
174B
100
AcDbEntity
  8
Defpoints
 62
     0
440
 16777216
 48
0.1
100
AcDbPoint
 10
752.4059702942338
 20
267.5446495455529
 30
-0.000000000066345
  0
POINT
  5
18A7
330
174B
100
AcDbEntity
  8
Defpoints
 62
     0
440
 16777216
 48
0.1
100
AcDbPoint
 10
772.358246935104
 20
267.5446495455529
 30
0.0
  0
ENDBLK
  5
174D
330
174B
100
AcDbEntity
  8
0
 48
0.2
100
AcDbBlockEnd
  0
BLOCK
  5
1758
330
1757
100
AcDbEntity
  8
0
 48
0.2
100
AcDbBlockBegin
  2
*D12
 70
     1
 10
0.0
 20
0.0
 30
0.0
  3
*D12
  1

  0
LINE
  5
18A8
330
1757
100
AcDbEntity
  8
SUNPO
 62
     0
440
 16777216
 48
0.1
370
    -2
100
AcDbLine
 10
757.405706542432
 20
263.0000084694547
 30
0.0
 11
772.3579831833038
 21
263.0000084694547
 31
0.0
  0
LINE
  5
18A9
330
1757
100
AcDbEntity
  8
SUNPO
 62
     0
440
 16777216
 48
0.1
370
    -2
100
AcDbLine
 10
757.405706542432
 20
163.0000084694555
 30
0.0
 11
772.3579831833039
 21
163.0000084694555
 31
0.0
  0
LINE
  5
18AA
330
1757
100
AcDbEntity
  8
SUNPO
 62
     0
440
 16777216
 48
0.1
100
AcDbLine
 10
772.3579831833038
 20
262.0000084694547
 30
0.0
 11
772.3579831833039
 21
164.0000084694555
 31
0.0
  0
INSERT
  5
18AB
330
1757
100
AcDbEntity
  8
SUNPO
 62
     0
440
 16777216
 48
0.1
100
AcDbBlockReference
  2
_DOT
 10
772.3579831833038
 20
263.0000084694547
 30
0.0
 50
90.0
  0
INSERT
  5
18AC
330
1757
100
AcDbEntity
  8
SUNPO
 62
     0
440
 16777216
 48
0.1
100
AcDbBlockReference
  2
_DOT
 10
772.3579831833039
 20
163.0000084694555
 30
0.0
 50
270.0
  0
MTEXT
  5
18AD
330
1757
100
AcDbEntity
  8
SUNPO
 62
     0
440
 16777216
 48
0.1
100
AcDbMText
 10
767.8579831833038
 20
213.0000084694549
 30
0.0
 40
5.0
 41
0.0
 46
0.0
 71
     5
 72
     1
  1
\A1;100
  7
CAD-DL
 11
0.0000000000000001
 21
1.0
 31
0.0
 73
     1
 44
1.0
  0
POINT
  5
18AE
330
1757
100
AcDbEntity
  8
Defpoints
 62
     0
440
 16777216
 48
0.1
100
AcDbPoint
 10
752.405706542432
 20
263.0000084694547
 30
0.0
  0
POINT
  5
18AF
330
1757
100
AcDbEntity
  8
Defpoints
 62
     0
440
 16777216
 48
0.1
100
AcDbPoint
 10
752.405706542432
 20
163.0000084694555
 30
0.0
  0
POINT
  5
18B0
330
1757
100
AcDbEntity
  8
Defpoints
 62
     0
440
 16777216
 48
0.1
100
AcDbPoint
 10
772.3579831833039
 20
163.0000084694555
 30
0.0
  0
ENDBLK
  5
1759
330
1757
100
AcDbEntity
  8
0
 48
0.2
100
AcDbBlockEnd
  0
BLOCK
  5
1764
330
1763
100
AcDbEntity
  8
0
 48
0.2
100
AcDbBlockBegin
  2
*D13
 70
     1
 10
0.0
 20
0.0
 30
0.0
  3
*D13
  1

  0
LINE
  5
18B1
330
1763
100
AcDbEntity
  8
SUNPO
 62
     0
440
 16777216
 48
0.1
370
    -2
100
AcDbLine
 10
542.9059702942427
 20
298.0788682374879
 30
0.0
 11
542.9059702942427
 21
305.9423199443033
 31
0.0
  0
LINE
  5
18B2
330
1763
100
AcDbEntity
  8
SUNPO
 62
     0
440
 16777216
 48
0.1
370
    -2
100
AcDbLine
 10
552.9059702942354
 20
291.9999987708353
 30
0.0
 11
552.9059702942354
 21
305.9423199443033
 31
0.0
  0
LINE
  5
18B3
330
1763
100
AcDbEntity
  8
SUNPO
 62
     0
440
 16777216
 48
0.1
100
AcDbLine
 10
543.9059702942427
 20
305.9423199443033
 30
0.0
 11
551.9059702942354
 21
305.9423199443033
 31
0.0
  0
MTEXT
  5
18B4
330
1763
100
AcDbEntity
  8
SUNPO
 62
     0
440
 16777216
 48
0.1
100
AcDbMText
 10
547.905970294239
 20
310.4423199443033
 30
0.0
 40
5.0
 41
0.0
 46
0.0
 71
     5
 72
     1
  1
\A1;10
  7
CAD-DL
 73
     1
 44
1.0
  0
INSERT
  5
18B5
330
1763
100
AcDbEntity
  8
SUNPO
 62
     0
440
 16777216
 48
0.1
100
AcDbBlockReference
  2
_DOT
 10
542.9059702942427
 20
305.9423199443033
 30
0.0
 50
180.0
  0
INSERT
  5
18B6
330
1763
100
AcDbEntity
  8
SUNPO
 62
     0
440
 16777216
 48
0.1
100
AcDbBlockReference
  2
_DOT
 10
552.9059702942354
 20
305.9423199443033
 30
0.0
  0
POINT
  5
18B7
330
1763
100
AcDbEntity
  8
Defpoints
 62
     0
440
 16777216
 48
0.1
100
AcDbPoint
 10
542.9059702942427
 20
293.0788682374879
 30
0.0
  0
POINT
  5
18B8
330
1763
100
AcDbEntity
  8
Defpoints
 62
     0
440
 16777216
 48
0.1
100
AcDbPoint
 10
552.9059702942354
 20
286.9999987708352
 30
0.0
  0
POINT
  5
18B9
330
1763
100
AcDbEntity
  8
Defpoints
 62
     0
440
 16777216
 48
0.1
100
AcDbPoint
 10
552.9059702942354
 20
305.9423199443033
 30
0.0
  0
ENDBLK
  5
1765
330
1763
100
AcDbEntity
  8
0
 48
0.2
100
AcDbBlockEnd
  0
BLOCK
  5
1770
330
176F
100
AcDbEntity
  8
0
 48
0.2
100
AcDbBlockBegin
  2
*D14
 70
     1
 10
0.0
 20
0.0
 30
0.0
  3
*D14
  1

  0
LINE
  5
18BA
330
176F
100
AcDbEntity
  8
SUNPO
 62
     0
440
 16777216
 48
0.1
370
    -2
100
AcDbLine
 10
553.2559702942357
 20
262.4999987708373
 30
0.0
 11
553.2559702942357
 21
241.0337533254124
 31
0.0
  0
LINE
  5
18BB
330
176F
100
AcDbEntity
  8
SUNPO
 62
     0
440
 16777216
 48
0.1
370
    -2
100
AcDbLine
 10
563.2559702942339
 20
262.5446495455499
 30
0.0
 11
563.2559702942339
 21
241.0337533254124
 31
0.0
  0
LINE
  5
18BC
330
176F
100
AcDbEntity
  8
SUNPO
 62
     0
440
 16777216
 48
0.1
100
AcDbLine
 10
554.2559702942358
 20
241.0337533254124
 30
0.0
 11
562.2559702942339
 21
241.0337533254124
 31
0.0
  0
LINE
  5
18BD
330
176F
100
AcDbEntity
  8
SUNPO
 62
     0
440
 16777216
 48
0.1
100
AcDbLine
 10
581.2316286372353
 20
241.0337533254124
 30
0.0
 11
563.2559702942339
 21
241.0337533254124
 31
0.0
  0
MTEXT
  5
18BE
330
176F
100
AcDbEntity
  8
SUNPO
 62
     0
440
 16777216
 48
0.1
100
AcDbMText
 10
573.8149619705686
 20
245.5337533254124
 30
0.0
 40
5.0
 41
0.0
 46
0.0
 71
     5
 72
     1
  1
\A1;≧10
  7
CAD-DL
 73
     1
 44
1.0
  0
INSERT
  5
18BF
330
176F
100
AcDbEntity
  8
SUNPO
 62
     0
440
 16777216
 48
0.1
100
AcDbBlockReference
  2
_DOT
 10
553.2559702942357
 20
241.0337533254124
 30
0.0
 50
180.0
  0
INSERT
  5
18C0
330
176F
100
AcDbEntity
  8
SUNPO
 62
     0
440
 16777216
 48
0.1
100
AcDbBlockReference
  2
_DOT
 10
563.2559702942339
 20
241.0337533254124
 30
0.0
  0
POINT
  5
18C1
330
176F
100
AcDbEntity
  8
Defpoints
 62
     0
440
 16777216
 48
0.1
100
AcDbPoint
 10
553.2559702942357
 20
267.4999987708373
 30
0.000000000481875
  0
POINT
  5
18C2
330
176F
100
AcDbEntity
  8
Defpoints
 62
     0
440
 16777216
 48
0.1
100
AcDbPoint
 10
563.2559702942339
 20
267.5446495455499
 30
0.000000000481875
  0
POINT
  5
18C3
330
176F
100
AcDbEntity
  8
Defpoints
 62
     0
440
 16777216
 48
0.1
100
AcDbPoint
 10
563.2559702942339
 20
241.0337533254124
 30
0.0
  0
ENDBLK
  5
1771
330
176F
100
AcDbEntity
  8
0
 48
0.2
100
AcDbBlockEnd
  0
ENDSEC
  0
SECTION
  2
ENTITIES
  0
TEXT
  5
5C6
330
70
100
AcDbEntity
  8
MOJI
 48
0.4999999962295411
100
AcDbText
 10
57.44279974065194
 20
532.257811145946
 30
0.0
 40
4.99999996229541
  1
開口部上
  7
CAD-DL
 72
     4
 11
68.94279965393138
 21
534.7578111270936
 31
0.0
100
AcDbText
  0
LINE
  5
5C7
330
70
100
AcDbEntity
  8
MOJI
 48
0.4999999962295411
100
AcDbLine
 10
93.46908531968734
 20
540.9999959203632
 30
0.0
 11
44.61395849368386
 21
540.9999959203632
 31
0.0
  0
LINE
  5
5C8
330
70
100
AcDbEntity
  8
MOJI
 48
0.4999999962295411
100
AcDbLine
 10
44.61395849368386
 20
540.9999959203632
 30
0.0
 11
44.61395849368386
 21
528.6244860348774
 31
0.0
  0
LINE
  5
5C9
330
70
100
AcDbEntity
  8
MOJI
 48
0.4999999962295411
100
AcDbLine
 10
44.61395849368386
 20
528.6244860348774
 30
0.0
 11
93.46908531968734
 21
528.6244860348774
 31
0.0
  0
LINE
  5
5CA
330
70
100
AcDbEntity
  8
MOJI
 48
0.4999999962295411
100
AcDbLine
 10
93.46908531968734
 20
528.6244860348774
 30
0.0
 11
93.46908531968734
 21
540.9999959203632
 31
0.0
  0
TEXT
  5
5D2
330
70
100
AcDbEntity
  8
MOJI
 48
0.4999999962295411
100
AcDbText
 10
57.66922974049339
 20
54.4823763420089
 30
0.0
 40
4.99999996229541
  1
開口部下
  7
CAD-DL
 72
     4
 11
69.16922965377285
 21
56.98237632315661
 31
0.0
100
AcDbText
  0
LINE
  5
5D3
330
70
100
AcDbEntity
  8
MOJI
 48
0.4999999962295411
100
AcDbLine
 10
93.46908531968734
 20
63.37550950089919
 30
0.0
 11
44.61395849368386
 21
63.37550950089919
 31
0.0
  0
LINE
  5
5D4
330
70
100
AcDbEntity
  8
MOJI
 48
0.4999999962295411
100
AcDbLine
 10
44.61395849368386
 20
63.37550950089919
 30
0.0
 11
44.61395849368386
 21
50.99999961541337
 31
0.0
  0
LINE
  5
5D5
330
70
100
AcDbEntity
  8
MOJI
 48
0.4999999962295411
100
AcDbLine
 10
44.61395849368386
 20
50.99999961541337
 30
0.0
 11
93.46908531968734
 21
50.99999961541337
 31
0.0
  0
LINE
  5
5D6
330
70
100
AcDbEntity
  8
MOJI
 48
0.4999999962295411
100
AcDbLine
 10
93.46908531968734
 20
50.99999961541337
 30
0.0
 11
93.46908531968734
 21
63.37550950089919
 31
0.0
  0
TEXT
  5
5D7
330
70
100
AcDbEntity
  8
MOJI
 48
0.4999999962295411
100
AcDbText
 10
498.9425236722568
 20
379.5779522873437
 30
-0.0000000004818749
 40
4.99999996229541
  1
開口部左右
  7
CAD-DL
 72
     4
 11
513.4425235629135
 21
382.0779522684913
 31
-0.0000000004818749
100
AcDbText
  0
LINE
  5
5D8
330
70
100
AcDbEntity
  8
MOJI
 48
0.4999999962295411
100
AcDbLine
 10
488.9979221562596
 20
388.3755070501015
 30
-0.0000000004818749
 11
537.853048982263
 21
388.3755070501015
 31
-0.0000000004818749
  0
LINE
  5
5D9
330
70
100
AcDbEntity
  8
MOJI
 48
0.4999999962295411
100
AcDbLine
 10
537.853048982263
 20
388.3755070501015
 30
-0.0000000004818749
 11
537.853048982263
 21
375.9999971646152
 31
-0.0000000004818749
  0
LINE
  5
5DA
330
70
100
AcDbEntity
  8
MOJI
 48
0.4999999962295411
100
AcDbLine
 10
537.853048982263
 20
375.9999971646152
 30
-0.0000000004818749
 11
488.9979221562596
 21
375.9999971646152
 31
-0.0000000004818749
  0
LINE
  5
5DB
330
70
100
AcDbEntity
  8
MOJI
 48
0.4999999962295411
100
AcDbLine
 10
488.9979221562596
 20
375.9999971646152
 30
-0.0000000004818749
 11
488.9979221562596
 21
388.3755070501015
 31
-0.0000000004818749
  0
TEXT
  5
7B9
330
70
100
AcDbEntity
  8
MOJI
 48
0.4999999962295411
100
AcDbText
 10
407.916381053563
 20
52.35769001812741
 30
0.0000000009637499
 40
4.99999996229541
  1
※ビス頭には、シーリング材の代わりにタッチアップペイントでの塗装も可。
  7
CAD-DL
100
AcDbText
  0
LINE
  5
7BC
330
70
100
AcDbEntity
  8
WAKU
 48
0.4999999962295411
100
AcDbLine
 10
14.99999988688682
 20
30.99999976623167
 30
0.0
 11
794.9999940049708
 21
30.99999976623167
 31
0.0
  0
LINE
  5
7BD
330
70
100
AcDbEntity
  8
WAKU
 48
0.4999999962295411
100
AcDbLine
 10
14.99999988688682
 20
10.99999991704999
 30
0.0
 11
794.9999940049708
 21
10.99999991704999
 31
0.0
  0
LINE
  5
7BE
330
70
100
AcDbEntity
  8
WAKU
 48
0.4999999962295411
100
AcDbLine
 10
14.99999988688682
 20
560.9999957695449
 30
0.0
 11
14.99999988688682
 21
10.99999991704999
 31
0.0
  0
LINE
  5
7BF
330
70
100
AcDbEntity
  8
WAKU
 48
0.4999999962295411
100
AcDbLine
 10
794.9999940049708
 20
560.9999957695449
 30
0.0
 11
14.99999988688682
 21
560.9999957695449
 31
0.0
  0
LINE
  5
7C0
330
70
100
AcDbEntity
  8
WAKU
 48
0.4999999962295411
100
AcDbLine
 10
794.9999940049708
 20
10.99999991704999
 30
0.0
 11
794.9999940049708
 21
560.9999957695449
 31
0.0
  0
LINE
  5
7C2
330
70
100
AcDbEntity
  8
WAKU
 48
0.4999999962295411
100
AcDbLine
 10
112.9999991478769
 20
28.99999978131359
 30
0.0
 11
112.9999991478769
 21
12.99999990196807
 31
0.0
  0
LINE
  5
7C3
330
70
100
AcDbEntity
  8
WAKU
 48
0.4999999962295411
100
AcDbLine
 10
16.99999987180513
 20
12.99999990196807
 30
0.0
 11
112.9999991478769
 21
12.99999990196807
 31
0.0
  0
LINE
  5
7C4
330
70
100
AcDbEntity
  8
WAKU
 48
0.4999999962295411
100
AcDbLine
 10
16.99999987180513
 20
28.99999978131359
 30
0.0
 11
112.9999991478769
 21
28.99999978131359
 31
0.0
  0
LINE
  5
7C5
330
70
100
AcDbEntity
  8
WAKU
 48
0.4999999962295411
100
AcDbLine
 10
114.9999991327947
 20
30.99999976623167
 30
0.0
 11
114.9999991327947
 21
10.99999991704999
 31
0.0
  0
LINE
  5
7C7
330
70
100
AcDbEntity
  8
WAKU
 48
0.4999999962295411
100
AcDbLine
 10
16.99999987180513
 20
28.99999978131359
 30
0.0
 11
16.99999987180513
 21
12.99999990196807
 31
0.0
  0
LINE
  5
7C9
330
70
100
AcDbEntity
  8
WAKU
 48
0.4999999962295411
100
AcDbLine
 10
274.9999979262482
 20
30.99999976623167
 30
0.0
 11
274.9999979262482
 21
10.99999991704999
 31
0.0
  0
LINE
  5
7CA
330
70
100
AcDbEntity
  8
WAKU
 48
0.4999999962295411
100
AcDbLine
 10
264.9999980016571
 20
30.99999976623167
 30
0.0
 11
264.9999980016571
 21
10.99999991704999
 31
0.0
  0
LINE
  5
7CB
330
70
100
AcDbEntity
  8
WAKU
 48
0.4999999962295411
100
AcDbLine
 10
484.9999963426551
 20
30.99999976623167
 30
0.0
 11
484.9999963426551
 21
10.99999991704999
 31
0.0
  0
LINE
  5
7CC
330
70
100
AcDbEntity
  8
WAKU
 48
0.4999999962295411
100
AcDbLine
 10
474.9999964180644
 20
10.99999991704999
 30
0.0
 11
474.9999964180644
 21
30.99999976623167
 31
0.0
  0
LINE
  5
7CF
330
70
100
AcDbEntity
  8
WAKU
 48
0.4999999962295411
100
AcDbLine
 10
514.9999961164278
 20
30.99999976623167
 30
0.0
 11
514.9999961164278
 21
10.99999991704999
 31
0.0
  0
LINE
  5
7D0
330
70
100
AcDbEntity
  8
WAKU
 48
0.4999999962295411
100
AcDbLine
 10
504.9999961918372
 20
30.99999976623167
 30
0.0
 11
504.9999961918372
 21
10.99999991704999
 31
0.0
  0
LINE
  5
7D1
330
70
100
AcDbEntity
  8
WAKU
 48
0.4999999962295411
100
AcDbLine
 10
554.9999958147907
 20
30.99999976623167
 30
0.0
 11
554.9999958147907
 21
10.99999991704999
 31
0.0
  0
LINE
  5
7D2
330
70
100
AcDbEntity
  8
WAKU
 48
0.4999999962295411
100
AcDbLine
 10
564.9999957393817
 20
30.99999976623167
 30
0.0
 11
564.9999957393817
 21
10.99999991704999
 31
0.0
  0
LINE
  5
7D3
330
70
100
AcDbEntity
  8
WAKU
  6
DASHED2
 48
0.2499999981147705
100
AcDbLine
 10
614.9999953623362
 20
20.99999984164083
 30
0.0
 11
794.9999940049708
 21
20.99999984164083
 31
0.0
  0
LINE
  5
7D4
330
70
100
AcDbEntity
  8
WAKU
 48
0.4999999962295411
100
AcDbLine
 10
614.9999953623362
 20
30.99999976623167
 30
0.0
 11
614.9999953623362
 21
10.99999991704999
 31
0.0
  0
LINE
  5
7D5
330
70
100
AcDbEntity
  8
WAKU
 48
0.4999999962295411
100
AcDbLine
 10
604.9999954377451
 20
30.99999976623167
 30
0.0
 11
604.9999954377451
 21
10.99999991704999
 31
0.0
  0
TEXT
  5
AE4
330
70
100
AcDbEntity
  8
WAKU
100
AcDbText
 10
606.7512644600717
 20
22.80626040331608
 30
0.0
 40
4.99999996229541
  1
特
  7
WAKU
100
AcDbText
  0
TEXT
  5
AE5
330
70
100
AcDbEntity
  8
WAKU
100
AcDbText
 10
606.7258837496035
 20
14.47292713282372
 30
0.0
 40
4.99999996229541
  1
記
  7
WAKU
100
AcDbText
  0
TEXT
  5
AE6
330
70
100
AcDbEntity
  8
WAKU
100
AcDbText
 10
556.0646925344561
 20
23.04737715276687
 30
0.0
 40
4.99999996229541
  1
図
  7
WAKU
100
AcDbText
  0
TEXT
  5
AE7
330
70
100
AcDbEntity
  8
WAKU
100
AcDbText
 10
556.4454031914835
 20
14.56175961946349
 30
0.0
 40
4.99999996229541
  1
番
  7
WAKU
100
AcDbText
  0
TEXT
  5
AE8
330
70
100
AcDbEntity
  8
WAKU
100
AcDbText
 10
506.8147169903348
 20
22.80626040331608
 30
0.0
 40
4.99999996229541
  1
縮
  7
WAKU
100
AcDbText
  0
TEXT
  5
AE9
330
70
100
AcDbEntity
  8
WAKU
100
AcDbText
 10
506.8020266351006
 20
14.47292713282372
 30
0.0
 40
4.99999996229541
  1
尺
  7
WAKU
100
AcDbText
  0
TEXT
  5
AEA
330
70
100
AcDbEntity
  8
WAKU
100
AcDbText
 10
476.7512654403915
 20
22.88240253472158
 30
0.0
 40
4.99999996229541
  1
単
  7
WAKU
100
AcDbText
  0
TEXT
  5
AEB
330
70
100
AcDbEntity
  8
WAKU
100
AcDbText
 10
476.8147172165624
 20
14.3714042909497
 30
0.0
 40
4.99999996229541
  1
位
  7
WAKU
100
AcDbText
  0
TEXT
  5
AEC
330
70
100
AcDbEntity
  8
WAKU
100
AcDbText
 10
522.2842600208885
 20
18.67766483377265
 30
0.0
 40
4.99999996229541
  1
1/2（A3）
  7
WAKU
100
AcDbText
  0
TEXT
  5
AED
330
70
100
AcDbEntity
  8
WAKU
100
AcDbText
 10
491.7893363929804
 20
18.49999986049312
 30
0.0
 40
4.99999996229541
  1
mm
  7
WAKU
100
AcDbText
  0
TEXT
  5
AEE
330
70
100
AcDbEntity
  8
WAKU
100
AcDbText
 10
267.0558355496062
 20
22.98392537659561
 30
0.0
 40
4.99999996229541
  1
名
  7
WAKU
100
AcDbText
  0
TEXT
  5
AEF
330
70
100
AcDbEntity
  8
WAKU
100
AcDbText
 10
266.7131959582814
 20
14.39678500141821
 30
0.0
 40
4.99999996229541
  1
称
  7
WAKU
100
AcDbText
  0
TEXT
  5
AF0
330
70
100
AcDbEntity
  8
WAKU
100
AcDbText
 10
25.86294396740664
 20
18.13705570079351
 30
0.0
 40
5.999999954754492
  1
アイジー工業株式会社
  7
WAKU
100
AcDbText
  0
TEXT
  5
AF1
330
70
100
AcDbEntity
  8
WAKU
100
AcDbText
 10
134.5812172592461
 20
18.56345163666439
 30
0.0
 40
4.99999996229541
  1
アイジーサイディング参考ディテール
  7
WAKU
100
AcDbText
  0
TEXT
  5
CCC
330
70
100
AcDbEntity
  8
WAKU
100
AcDbText
 10
567.5761378519371
 20
18.49999986049312
 30
0.0
 40
4.99999996229541
  1
st003-10-01
  7
WAKU
100
AcDbText
  0
LINE
  5
14C1
330
70
100
AcDbEntity
  8
KUTAI
100
AcDbLine
 10
251.2574913840858
 20
351.3114009335182
 30
-0.0000000004818749
 11
253.5574913840851
 21
353.6114009335175
 31
-0.0000000004818749
  0
LINE
  5
14C2
330
70
100
AcDbEntity
  8
KUTAI
100
AcDbLine
 10
251.2574913840858
 20
354.1398280582622
 30
-0.0000000004818749
 11
253.5574913840851
 21
356.4398280582651
 31
-0.0000000004818749
  0
LINE
  5
14C3
330
70
100
AcDbEntity
  8
KUTAI
100
AcDbLine
 10
251.2574913840858
 20
393.7378078047109
 30
-0.0000000004818749
 11
253.5574913840851
 21
396.0378078047102
 31
-0.0000000004818749
  0
LINE
  5
14C4
330
70
100
AcDbEntity
  8
KUTAI
100
AcDbLine
 10
251.2574913840858
 20
396.5662349294549
 30
-0.0000000004818749
 11
253.5574913840851
 21
398.8662349294569
 31
-0.0000000004818749
  0
LINE
  5
14C5
330
70
100
AcDbEntity
  8
KUTAI
100
AcDbLine
 10
248.8235229436855
 20
433.7302462355042
 30
-0.0000000004818749
 11
250.6689574323086
 21
435.5756807241264
 31
-0.0000000004818749
  0
LINE
  5
14C6
330
70
100
AcDbEntity
  8
KUTAI
100
AcDbLine
 10
246.008233855739
 20
433.7433842723036
 30
-0.0000000004818749
 11
248.3082338557392
 21
436.0433842723028
 31
-0.0000000004818749
  0
LINE
  5
14C7
330
70
100
AcDbEntity
  8
KUTAI
100
AcDbLine
 10
203.5818269845454
 20
433.7433842723036
 30
-0.0000000004818749
 11
205.8818269845456
 21
436.0433842723028
 31
-0.0000000004818749
  0
LINE
  5
14C8
330
70
100
AcDbEntity
  8
KUTAI
100
AcDbLine
 10
206.410254109293
 20
433.7433842723036
 30
-0.0000000004818749
 11
208.7102541092922
 21
436.0433842723028
 31
-0.0000000004818749
  0
LINE
  5
14C9
330
70
100
AcDbEntity
  8
KUTAI
100
AcDbLine
 10
163.9838472381002
 20
433.7433842723036
 30
-0.0000000004818749
 11
166.2838472380995
 21
436.0433842723028
 31
-0.0000000004818749
  0
LINE
  5
14CA
330
70
100
AcDbEntity
  8
KUTAI
100
AcDbLine
 10
161.1554201133535
 20
433.7433842723036
 30
-0.0000000004818749
 11
163.4554201133528
 21
436.0433842723028
 31
-0.0000000004818749
  0
LINE
  5
14CB
330
70
100
AcDbEntity
  8
KUTAI
100
AcDbLine
 10
235.9894747228704
 20
336.0433842723028
 30
-0.0000000004818749
 11
238.2894747228697
 21
338.3433842723058
 31
-0.0000000004818749
  0
LINE
  5
14CC
330
70
100
AcDbEntity
  8
KUTAI
100
AcDbLine
 10
193.5630678516777
 20
336.0433842723028
 30
-0.0000000004818749
 11
195.863067851677
 21
338.3433842723058
 31
-0.0000000004818749
  0
LINE
  5
14CD
330
70
100
AcDbEntity
  8
KUTAI
100
AcDbLine
 10
154.0251949322614
 20
338.9319182240848
 30
-0.0000000004818749
 11
155.8706294208846
 21
340.7773527127024
 31
-0.0000000004818749
  0
LINE
  5
14CE
330
70
100
AcDbEntity
  8
KUTAI
100
AcDbLine
 10
153.557491384086
 20
380.8906215470957
 30
-0.0000000004818749
 11
155.8574913840844
 21
383.1906215470986
 31
-0.0000000004818749
  0
LINE
  5
14CF
330
70
100
AcDbEntity
  8
KUTAI
100
AcDbLine
 10
153.557491384086
 20
423.3170284182884
 30
-0.0000000004818749
 11
155.8574913840844
 21
425.6170284182913
 31
-0.0000000004818749
  0
LINE
  5
14D0
330
70
100
AcDbEntity
  8
KUTAI
100
AcDbLine
 10
233.1610475981238
 20
336.0433842723028
 30
-0.0000000004818749
 11
235.4610475981222
 21
338.3433842723058
 31
-0.0000000004818749
  0
LINE
  5
14D1
330
70
100
AcDbEntity
  8
KUTAI
100
AcDbLine
 10
190.734640726931
 20
336.0433842723028
 30
-0.0000000004818749
 11
193.0346407269294
 21
338.3433842723058
 31
-0.0000000004818749
  0
LINE
  5
14D2
330
70
100
AcDbEntity
  8
KUTAI
100
AcDbLine
 10
153.557491384086
 20
383.7190486718423
 30
-0.0000000004818749
 11
155.8574913840844
 21
386.0190486718416
 31
-0.0000000004818749
  0
LINE
  5
14D3
330
70
100
AcDbEntity
  8
KUTAI
100
AcDbLine
 10
153.557491384086
 20
341.2926418006496
 30
-0.0000000004818749
 11
155.8574913840844
 21
343.5926418006489
 31
-0.0000000004818749
  0
ARC
  5
14D4
330
70
100
AcDbEntity
  8
KUTAI
100
AcDbCircle
 10
158.557491384086
 20
341.0433842723028
 30
-0.0000000004818749
 40
2.7
100
AcDbArc
 50
180.0
 51
270.0
  0
ARC
  5
14D5
330
70
100
AcDbEntity
  8
KUTAI
100
AcDbCircle
 10
248.5574913840851
 20
431.0433842723027
 30
-0.0000000004818749
 40
2.7
100
AcDbArc
 50
0.0
 51
90.0
  0
ARC
  5
14D6
330
70
100
AcDbEntity
  8
KUTAI
100
AcDbCircle
 10
158.557491384086
 20
431.0433842723027
 30
-0.0000000004818749
 40
2.7
100
AcDbArc
 50
90.0
 51
180.0
  0
LINE
  5
14D7
330
70
100
AcDbEntity
  8
KUTAI
100
AcDbLine
 10
158.557491384086
 20
433.7433842723036
 30
-0.0000000004818749
 11
248.5574913840851
 21
433.7433842723036
 31
-0.0000000004818749
  0
LINE
  5
14D8
330
70
100
AcDbEntity
  8
KUTAI
100
AcDbLine
 10
251.2574913840858
 20
431.0433842723027
 30
-0.0000000004818749
 11
251.2574913840858
 21
341.0433842723028
 31
-0.0000000004818749
  0
LINE
  5
14D9
330
70
100
AcDbEntity
  8
KUTAI
100
AcDbLine
 10
158.557491384086
 20
338.3433842723058
 30
-0.0000000004818749
 11
248.5574913840851
 21
338.3433842723058
 31
-0.0000000004818749
  0
LINE
  5
14DA
330
70
100
AcDbEntity
  8
KUTAI
100
AcDbLine
 10
155.8574913840844
 20
431.0433842723027
 30
-0.0000000004818749
 11
155.8574913840844
 21
341.0433842723028
 31
-0.0000000004818749
  0
ARC
  5
14DB
330
70
100
AcDbEntity
  8
KUTAI
100
AcDbCircle
 10
158.557491384086
 20
341.0433842723028
 30
-0.0000000004818749
 40
5.0
100
AcDbArc
 50
180.0
 51
270.0
  0
ARC
  5
14DC
330
70
100
AcDbEntity
  8
KUTAI
100
AcDbCircle
 10
248.5574913840851
 20
431.0433842723027
 30
-0.0000000004818749
 40
5.0
100
AcDbArc
 50
0.0
 51
90.0
  0
ARC
  5
14DD
330
70
100
AcDbEntity
  8
KUTAI
100
AcDbCircle
 10
158.557491384086
 20
431.0433842723027
 30
-0.0000000004818749
 40
5.0
100
AcDbArc
 50
90.0
 51
180.0
  0
LINE
  5
14DE
330
70
100
AcDbEntity
  8
KUTAI
100
AcDbLine
 10
253.5574913840851
 20
431.0433842723027
 30
-0.0000000004818749
 11
253.5574913840851
 21
341.0433842723028
 31
-0.0000000004818749
  0
LINE
  5
14DF
330
70
100
AcDbEntity
  8
KUTAI
100
AcDbLine
 10
153.557491384086
 20
431.0433842723027
 30
-0.0000000004818749
 11
153.557491384086
 21
341.0433842723028
 31
-0.0000000004818749
  0
LINE
  5
14E0
330
70
100
AcDbEntity
  8
KUTAI
100
AcDbLine
 10
158.557491384086
 20
336.0433842723028
 30
-0.0000000004818749
 11
248.5574913840851
 21
336.0433842723028
 31
-0.0000000004818749
  0
LINE
  5
14E1
330
70
100
AcDbEntity
  8
KUTAI
100
AcDbLine
 10
158.557491384086
 20
436.0433842723028
 30
-0.0000000004818749
 11
248.5574913840851
 21
436.0433842723028
 31
-0.0000000004818749
  0
LINE
  5
14E2
330
70
100
AcDbEntity
  8
KUTAI
100
AcDbLine
 10
153.557491384086
 20
426.145455543036
 30
-0.0000000004818749
 11
155.8574913840844
 21
428.4454555430343
 31
-0.0000000004818749
  0
ARC
  5
14E3
330
70
100
AcDbEntity
  8
KUTAI
100
AcDbCircle
 10
248.5574913840851
 20
341.0433842723028
 30
-0.0000000004818749
 40
2.7
100
AcDbArc
 50
270.0
 51
0.0
  0
ARC
  5
14E4
330
70
100
AcDbEntity
  8
KUTAI
100
AcDbCircle
 10
248.5574913840851
 20
341.0433842723028
 30
-0.0000000004818749
 40
5.0
100
AcDbArc
 50
270.0
 51
0.0
  0
LINE
  5
14E5
330
70
100
AcDbEntity
  8
SEIHIN
100
AcDbLine
 10
148.6628406093627
 20
363.7141140902678
 30
-0.0000000004818749
 11
133.6628406093627
 21
363.7141140902678
 31
-0.0000000004818749
  0
LINE
  5
14E6
330
70
100
AcDbEntity
  8
SONOTABUZAI
100
AcDbLine
 10
153.5574913840851
 20
378.5433981793627
 30
-0.0000000004818749
 11
152.0574913840851
 21
378.5433981793627
 31
-0.0000000004818749
  0
LINE
  5
14E7
330
70
100
AcDbEntity
  8
SONOTABUZAI
100
AcDbLine
 10
152.0574913840851
 20
342.0394075370019
 30
-0.0000000004818749
 11
152.0574913840851
 21
330.0433981793627
 31
-0.0000000004818749
  0
LINE
  5
14E8
330
70
100
AcDbEntity
  8
SONOTABUZAI
100
AcDbLine
 10
152.0574913840851
 20
343.5433981793631
 30
-0.0000000004818749
 11
152.0574913840851
 21
378.5433981793627
 31
-0.0000000004818749
  0
LINE
  5
14E9
330
70
100
AcDbEntity
  8
SONOTABUZAI
100
AcDbLine
 10
153.5574913840851
 20
308.5433981793627
 30
-0.0000000004818749
 11
152.0574913840851
 21
308.5433981793627
 31
-0.0000000004818749
  0
LINE
  5
14EA
330
70
100
AcDbEntity
  8
SONOTABUZAI
100
AcDbLine
 10
153.5574913840851
 20
378.5433981793627
 30
-0.0000000004818749
 11
153.5574913840851
 21
308.5433981793627
 31
-0.0000000004818749
  0
LINE
  5
14EB
330
70
100
AcDbEntity
  8
SONOTABUZAI
100
AcDbLine
 10
152.0574913840851
 20
328.5433981793631
 30
-0.0000000004818749
 11
152.0574913840851
 21
308.5433981793627
 31
-0.0000000004818749
  0
LINE
  5
14EC
330
70
100
AcDbEntity
  8
SONOTABUZAI
100
AcDbLine
 10
135.5574913840851
 20
328.5433981793631
 30
-0.0000000004818749
 11
105.0574913840851
 21
328.5433981793631
 31
-0.0000000004818749
  0
LINE
  5
14ED
330
70
100
AcDbEntity
  8
SONOTABUZAI
100
AcDbLine
 10
137.0574913840851
 20
308.5433981793627
 30
-0.0000000004818749
 11
135.5574913840851
 21
308.5433981793627
 31
-0.0000000004818749
  0
LINE
  5
14EE
330
70
100
AcDbEntity
  8
SONOTABUZAI
100
AcDbLine
 10
135.5574913840851
 20
308.5433981793627
 30
-0.0000000004818749
 11
135.5574913840851
 21
328.5433981793631
 31
-0.0000000004818749
  0
LINE
  5
14EF
330
70
100
AcDbEntity
  8
SONOTABUZAI
100
AcDbLine
 10
137.0574913840851
 20
308.5433981793627
 30
-0.0000000004818749
 11
137.0574913840851
 21
328.5433981793631
 31
-0.0000000004818749
  0
LINE
  5
14F0
330
70
100
AcDbEntity
  8
SONOTABUZAI
100
AcDbLine
 10
152.0574913840851
 20
330.0433981793627
 30
-0.0000000004818749
 11
105.0574913840851
 21
330.0433981793627
 31
-0.0000000004818749
  0
LINE
  5
14F1
330
70
100
AcDbEntity
  8
SONOTABUZAI
100
AcDbLine
 10
152.0574913840851
 20
328.5433981793631
 30
-0.0000000004818749
 11
137.0574913840851
 21
328.5433981793631
 31
-0.0000000004818749
  0
LINE
  5
14F2
330
70
100
AcDbEntity
  8
SONOTABUZAI
100
AcDbLine
 10
105.0574913840851
 20
338.6087506026957
 30
-0.0000000004818749
 11
152.0574913840851
 21
342.0394075370037
 31
-0.0000000004818749
  0
LINE
  5
14F3
330
70
100
AcDbEntity
  8
SONOTABUZAI
100
AcDbLine
 10
83.5574913840851
 20
338.5433981793627
 30
-0.0000000004818749
 11
152.0574913840851
 21
343.5433981793631
 31
-0.0000000004818749
  0
LINE
  5
14F4
330
70
100
AcDbEntity
  8
BOUSUISI
100
AcDbLine
 10
150.807491384086
 20
378.5433981793627
 30
-0.0000000004818749
 11
150.8074913840851
 21
344.5433981965467
 31
-0.0000000004818749
  0
LINE
  5
14F5
330
70
100
AcDbEntity
  8
SONOTABUZAI
100
AcDbLine
 10
105.0574913840851
 20
330.0433981793627
 30
-0.0000000004818749
 11
105.0574913840851
 21
338.6087506026957
 31
-0.0000000004818749
  0
LINE
  5
14F6
330
70
100
AcDbEntity
  8
SONOTABUZAI
100
AcDbLine
 10
105.0574913840851
 20
308.5433981793627
 30
-0.0000000004818749
 11
103.5574913840851
 21
308.5433981793627
 31
-0.0000000004818749
  0
LINE
  5
14F7
330
70
100
AcDbEntity
  8
SONOTABUZAI
100
AcDbLine
 10
103.5574913840851
 20
308.5433981793645
 30
-0.0000000004818749
 11
103.5574913840851
 21
338.4992615515999
 31
-0.0000000004818749
  0
LINE
  5
14F8
330
70
100
AcDbEntity
  8
SONOTABUZAI
100
AcDbLine
 10
105.0574913840851
 20
308.5433981793627
 30
-0.0000000004818749
 11
105.0574913840851
 21
328.5433981793631
 31
-0.0000000004818749
  0
LINE
  5
14F9
330
70
100
AcDbEntity
  8
SONOTABUZAI
100
AcDbLine
 10
85.05749138408509
 20
308.5433981793627
 30
-0.0000000004818749
 11
85.05749138408509
 21
337.1488965880959
 31
-0.0000000004818749
  0
LINE
  5
14FA
330
70
100
AcDbEntity
  8
SONOTABUZAI
100
AcDbLine
 10
83.5574913840851
 20
308.5433981793627
 30
-0.0000000004818749
 11
83.5574913840851
 21
338.5433981793627
 31
-0.0000000004818749
  0
LINE
  5
14FB
330
70
100
AcDbEntity
  8
SONOTABUZAI
100
AcDbLine
 10
85.05749138408509
 20
337.1488965880959
 30
-0.0000000004818749
 11
103.5574913840851
 21
338.4992615515999
 31
-0.0000000004818749
  0
LINE
  5
14FC
330
70
100
AcDbEntity
  8
SONOTABUZAI
100
AcDbLine
 10
85.05749138408509
 20
308.5433981793627
 30
-0.0000000004818749
 11
83.5574913840851
 21
308.5433981793627
 31
-0.0000000004818749
  0
LINE
  5
14FD
330
70
100
AcDbEntity
  8
YAKUMONO2
100
AcDbLine
 10
149.6074913840734
 20
431.0433981793631
 30
-0.0000000004818749
 11
149.5074913840676
 21
431.0433981793594
 31
-0.0000000004818749
  0
LINE
  5
14FE
330
70
100
AcDbEntity
  8
YAKUMONO2
100
AcDbLine
 10
149.6074913840734
 20
430.6933981793609
 30
-0.0000000004818749
 11
149.5074913840676
 21
430.6933981793609
 31
-0.0000000004818749
  0
ARC
  5
14FF
330
70
100
AcDbEntity
  8
YAKUMONO2
100
AcDbCircle
 10
149.6074913840734
 20
430.0933981793623
 30
-0.0000000004818749
 40
0.5999999999999999
100
AcDbArc
 50
0.0
 51
90.00000000041687
  0
ARC
  5
1500
330
70
100
AcDbEntity
  8
YAKUMONO2
100
AcDbCircle
 10
149.6074913840734
 20
430.0933981793623
 30
-0.0000000004818749
 40
0.9499999999999998
100
AcDbArc
 50
0.0
 51
90.00000000041687
  0
LINE
  5
1501
330
70
100
AcDbEntity
  8
YAKUMONO2
100
AcDbLine
 10
148.5574913840778
 20
430.0933981793623
 30
-0.0000000004818749
 11
148.5574913840778
 21
423.5433981793595
 31
-0.0000000004818749
  0
LINE
  5
1502
330
70
100
AcDbEntity
  8
YAKUMONO2
100
AcDbLine
 10
148.9074913840672
 20
430.0933981793623
 30
-0.0000000004818749
 11
148.9074913840763
 21
423.5433981793595
 31
-0.0000000004818749
  0
LINE
  5
1503
330
70
100
AcDbEntity
  8
YAKUMONO2
100
AcDbLine
 10
148.9074913840691
 20
423.5433981793595
 30
-0.0000000004818749
 11
148.5574913840778
 21
423.5433981793595
 31
-0.0000000004818749
  0
ARC
  5
1504
330
70
100
AcDbEntity
  8
YAKUMONO2
100
AcDbCircle
 10
149.5074913840676
 20
430.0933981793623
 30
-0.0000000004818749
 40
0.5999999999999999
100
AcDbArc
 50
90.0
 51
180.0
  0
ARC
  5
1505
330
70
100
AcDbEntity
  8
YAKUMONO2
100
AcDbCircle
 10
149.5074913840676
 20
430.0933981793623
 30
-0.0000000004818749
 40
0.9499999999999998
100
AcDbArc
 50
90.0
 51
180.0
  0
LINE
  5
1506
330
70
100
AcDbEntity
  8
YAKUMONO2
100
AcDbLine
 10
150.207491384072
 20
430.0933981793623
 30
-0.0000000004818749
 11
150.2074913840792
 21
346.3641140902674
 31
-0.0000000004818749
  0
LINE
  5
1507
330
70
100
AcDbEntity
  8
YAKUMONO2
100
AcDbLine
 10
150.5574913840705
 20
430.0933981793623
 30
-0.0000000004818749
 11
150.5574913840851
 21
346.0433981793595
 31
-0.0000000004818749
  0
LINE
  5
1508
330
70
100
AcDbEntity
  8
YAKUMONO2
100
AcDbLine
 10
142.7012362649061
 20
344.0510991299325
 30
-0.0000000004818749
 11
142.7317407748801
 21
343.7024309856079
 31
-0.0000000004818749
  0
LINE
  5
1509
330
70
100
AcDbEntity
  8
YAKUMONO2
100
AcDbLine
 10
142.7012362649134
 20
344.0510991299435
 30
-0.0000000004818749
 11
136.6742583414766
 21
343.5238068862364
 31
-0.0000000004818749
  0
LINE
  5
150A
330
70
100
AcDbEntity
  8
YAKUMONO2
100
AcDbLine
 10
142.7317407748874
 20
343.7024309855242
 30
-0.0000000004818749
 11
136.704762851436
 21
343.1751387419045
 31
-0.0000000004818749
  0
ARC
  5
150B
330
70
100
AcDbEntity
  8
YAKUMONO2
100
AcDbCircle
 10
136.6219648958235
 20
344.1215237050911
 30
-0.0000000004818749
 40
0.9499999999999998
100
AcDbArc
 50
184.9999999996613
 51
275.0000000002875
  0
ARC
  5
150C
330
70
100
AcDbEntity
  8
YAKUMONO2
100
AcDbCircle
 10
136.6132493215359
 20
344.2211431749002
 30
-0.0000000004818749
 40
0.9499999999999998
100
AcDbArc
 50
94.99999999986902
 51
184.9999999996613
  0
ARC
  5
150D
330
70
100
AcDbEntity
  8
YAKUMONO2
100
AcDbCircle
 10
136.6132493215359
 20
344.2211431749002
 30
-0.0000000004818749
 40
0.5999999999999999
100
AcDbArc
 50
94.99999999986902
 51
184.9999999996613
  0
ARC
  5
150E
330
70
100
AcDbEntity
  8
YAKUMONO2
100
AcDbCircle
 10
136.6219648958235
 20
344.1215237050911
 30
-0.0000000004818749
 40
0.5999999999999999
100
AcDbArc
 50
184.9999999996613
 51
275.0000000002875
  0
LINE
  5
150F
330
70
100
AcDbEntity
  8
YAKUMONO2
100
AcDbLine
 10
136.0155325026812
 20
344.1688497292544
 30
-0.0000000004818749
 11
136.0242480769689
 21
344.0692302594453
 31
-0.0000000004818749
  0
LINE
  5
1510
330
70
100
AcDbEntity
  8
YAKUMONO2
100
AcDbLine
 10
135.6668643583566
 20
344.1383452192877
 30
-0.0000000004818749
 11
135.675579932637
 21
344.038725749475
 31
-0.0000000004818749
  0
LINE
  5
1511
330
70
100
AcDbEntity
  8
YAKUMONO2
100
AcDbLine
 10
150.2074913840865
 20
346.3641140902674
 30
-0.0000000004818749
 11
136.5304513659234
 21
345.1675281380868
 31
-0.0000000004818749
  0
LINE
  5
1512
330
70
100
AcDbEntity
  8
YAKUMONO2
100
AcDbLine
 10
150.5574913840851
 20
346.0433981793595
 30
-0.0000000004818749
 11
136.5609558758901
 21
344.8188599937549
 31
-0.0000000004818749
  0
LINE
  5
1513
330
70
100
AcDbEntity
  8
SI-RINGU
100
AcDbLine
 10
150.5574913840851
 20
346.0433981793595
 30
-0.0000000004818749
 11
150.5574913840851
 21
343.4339091282682
 31
-0.0000000004818749
  0
LINE
  5
1514
330
70
100
AcDbEntity
  8
SI-RINGU
100
AcDbLine
 10
135.6632493215352
 20
344.2211431749002
 30
-0.0000000004818749
 11
135.6632493215352
 21
342.3467381747974
 31
-0.0000000004818749
  0
HATCH
  5
1515
330
70
100
AcDbEntity
  8
SI-RINGU
100
AcDbHatch
 10
0.0
 20
0.0
 30
-0.0000000004818749
210
0.0
220
0.0
230
1.0
  2
ANSI37
 70
     0
 71
     0
 91
        1
 92
        7
 72
     1
 73
     1
 93
       10
 10
142.7012362649061
 20
345.3560649186643
 42
0.0
 10
150.5574913840851
 20
346.0433981793595
 42
0.0
 10
150.5574913840851
 20
343.4339091282682
 42
0.0
 10
135.6632493215352
 20
342.3467381747974
 42
0.0
 10
135.6632493215352
 20
344.2211431749002
 42
0.0218200776352517
 10
135.6668643583603
 20
344.1383452192409
 42
0.0
 10
135.675579932637
 20
344.038725749475
 42
0.4142135623718353
 10
136.704762851436
 20
343.1751387419045
 42
0.0
 10
142.7317407748874
 20
343.7024309855242
 42
0.0
 10
142.7012362649061
 20
344.051099129943
 42
0.0
 97
        0
 75
     0
 76
     1
 52
0.0
 41
0.6
 77
     0
 78
     2
 53
45.0
 43
-81.33879034116535
 44
342.3467381747974
 45
-1.347038418160372
 46
1.347038418160372
 79
     0
 53
135.0
 43
-81.33879034116535
 44
342.3467381747974
 45
-1.347038418160372
 46
-1.347038418160372
 79
     0
 47
0.0458014300744638
 98
        1
 10
147.9502661582323
 20
344.0537293490539
  0
LINE
  5
1516
330
70
100
AcDbEntity
  8
SEIHIN
100
AcDbLine
 10
133.6628406093627
 20
521.5654227701755
 30
-0.0000000004818749
 11
133.6628406093627
 21
363.7141140902678
 31
-0.0000000004818749
  0
LINE
  5
1517
330
70
100
AcDbEntity
  8
SEIHIN
100
AcDbLine
 10
133.9328406093632
 20
521.5654227701755
 30
-0.0000000004818749
 11
133.9328406093632
 21
363.7141140902678
 31
-0.0000000004818749
  0
LINE
  5
1518
330
70
100
AcDbEntity
  8
SEIHIN
100
AcDbLine
 10
148.6628348565405
 20
521.5654227701752
 30
-0.0000000004818749
 11
148.6628403819199
 21
363.7141141217058
 31
-0.0000000004818749
  0
LINE
  5
1519
330
70
100
AcDbEntity
  8
BOUSUITE-PU
  6
DASHED2
100
AcDbLine
 10
151.5574913840851
 20
378.5433981793627
 30
-0.0000000004818749
 11
151.5574913840851
 21
344.5433981965467
 31
-0.0000000004818749
  0
LINE
  5
151A
330
70
100
AcDbEntity
  8
BOUSUITE-PU
  6
DASHED2
100
AcDbLine
 10
153.0574913840851
 20
394.5433981965467
 30
-0.0000000004818749
 11
153.0574913840851
 21
381.9453219680091
 31
-0.0000000004818749
  0
ARC
  5
151B
330
70
100
AcDbEntity
  8
BOUSUITE-PU
  6
DASHED2
100
AcDbCircle
 10
153.5574913840851
 20
378.5433981793627
 30
-0.0000000004818749
 40
2.0
100
AcDbArc
 50
149.9999999999827
 51
180.0
  0
LINE
  5
151C
330
70
100
AcDbEntity
  8
BOUSUITE-PU
  6
DASHED2
100
AcDbLine
 10
151.8254405765151
 20
379.5433981793627
 30
-0.0000000004818749
 11
152.9235167878692
 21
381.4453219680091
 31
-0.0000000004818749
  0
ARC
  5
151D
330
70
100
AcDbEntity
  8
BOUSUITE-PU
  6
DASHED2
100
AcDbCircle
 10
152.0574913840851
 20
381.9453219680091
 30
-0.0000000004818749
 40
1.0
100
AcDbArc
 50
329.9999999999828
 51
0.0
  0
LINE
  5
151E
330
70
100
AcDbEntity
  8
SI-RINGU
100
AcDbLine
 10
131.0137739446822
 20
385.8282955047958
 30
-0.0000000004818749
 11
133.6628406093627
 21
388.4773621694758
 31
-0.0000000004818749
  0
HATCH
  5
151F
330
70
100
AcDbEntity
  8
SI-RINGU
100
AcDbHatch
 10
0.0
 20
0.0
 30
-0.0000000004818749
210
0.0
220
0.0
230
1.0
  2
ANSI37
 70
     0
 71
     0
 91
        1
 92
        7
 72
     1
 73
     1
 93
        4
 10
133.6628406093627
 20
388.4773621694758
 42
0.0
 10
133.6628406093627
 20
386.9773621694759
 42
0.0
 10
133.6628406093627
 20
384.8641140902674
 42
0.637070260806997
 10
131.1986591948357
 20
386.0131807549474
 42
0.0
 97
        0
 75
     0
 76
     1
 52
0.0
 41
0.6
 77
     0
 78
     2
 53
45.0
 43
-78.83838162899292
 44
386.9773621694759
 45
-1.347038418160372
 46
1.347038418160372
 79
     0
 53
135.0
 43
-78.83838162899292
 44
386.9773621694759
 45
-1.347038418160372
 46
-1.347038418160372
 79
     0
 47
0.0103666473914323
 98
        1
 10
133.0953481385772
 20
386.8054543761656
  0
ARC
  5
1520
330
70
100
AcDbEntity
  8
BOUSUISI
100
AcDbCircle
 10
153.0574913840851
 20
378.5433981793627
 30
-0.0000000004818749
 40
2.249999999999857
100
AcDbArc
 50
149.9999999999827
 51
180.0
  0
LINE
  5
1521
330
70
100
AcDbEntity
  8
BOUSUISI
100
AcDbLine
 10
151.1089342255695
 20
379.6683981793627
 30
-0.0000000004818749
 11
152.2070104369236
 21
381.5703219680091
 31
-0.0000000004818749
  0
LINE
  5
1522
330
70
100
AcDbEntity
  8
BOUSUISI
100
AcDbLine
 10
152.307491384086
 20
521.5654227701755
 30
-0.0000000004818749
 11
152.307491384086
 21
381.9453219680091
 31
-0.0000000004818749
  0
ARC
  5
1523
330
70
100
AcDbEntity
  8
BOUSUISI
100
AcDbCircle
 10
151.5574913840851
 20
381.9453219680091
 30
-0.0000000004818749
 40
0.7500000000001421
100
AcDbArc
 50
329.9999999999828
 51
0.0
  0
LINE
  5
1524
330
70
100
AcDbEntity
  8
BOUSUITE-PU
  6
DASHED2
100
AcDbLine
 10
151.5574913840687
 20
448.2180454823979
 30
-0.0000000004818749
 11
151.5574913840687
 21
436.6992062997194
 31
-0.0000000004818749
  0
ARC
  5
1525
330
70
100
AcDbEntity
  8
BOUSUITE-PU
  6
DASHED2
100
AcDbCircle
 10
149.5574913840687
 20
436.6992062997194
 30
-0.0000000004818749
 40
2.0
100
AcDbArc
 50
321.7586304908297
 51
0.0
1001
GENIUS_GENODEF_13
1002
{
1000
HIER
1070
     0
1002
}
1002
{
1000
MANEDIT
1070
     0
1002
}
1002
{
1000
NOSEL
1070
     0
1002
}
1002
{
1000
BEHIND
1070
     0
1002
}
1002
{
1000
OTHER
1070
     0
1002
}
1002
{
1000
REACTOR
1002
}
1001
GENIUS_GENOBJ-N-FIL_13
1002
{
1000
OWNER
1000
GEN
1002
}
  0
LINE
  5
1526
330
70
100
AcDbEntity
  8
BOUSUITE-PU
  6
DASHED2
100
AcDbLine
 10
151.1283117368507
 20
435.4612550004802
 30
-0.0000000004818749
 11
148.7012608548807
 21
432.3816016046032
 31
-0.0000000004818749
  0
ARC
  5
1527
330
70
100
AcDbEntity
  8
BOUSUITE-PU
  6
DASHED2
100
AcDbCircle
 10
151.0574913840532
 20
430.5246746557443
 30
-0.0000000004818749
 40
3.0
100
AcDbArc
 50
141.7586304908297
 51
180.0
1001
GENIUS_GENODEF_13
1002
{
1000
HIER
1070
     0
1002
}
1002
{
1000
MANEDIT
1070
     0
1002
}
1002
{
1000
NOSEL
1070
     0
1002
}
1002
{
1000
BEHIND
1070
     0
1002
}
1002
{
1000
OTHER
1070
     0
1002
}
1002
{
1000
REACTOR
1002
}
1001
GENIUS_GENOBJ-N-FIL_13
1002
{
1000
OWNER
1000
GEN
1002
}
  0
LINE
  5
1528
330
70
100
AcDbEntity
  8
BOUSUITE-PU
  6
DASHED2
100
AcDbLine
 10
148.0574913840532
 20
430.5246746557443
 30
-0.0000000004818749
 11
148.0574913840532
 21
398.2180454823979
 31
-0.0000000004818749
  0
LINE
  5
152A
330
70
100
AcDbEntity
  8
MOJI
100
AcDbLine
 10
171.5300271842584
 20
496.3454290269935
 30
-0.0000000004742021
 11
176.5300271842584
 21
496.3454290269935
 31
-0.0000000004742021
  0
LINE
  5
152B
330
70
100
AcDbEntity
  8
MOJI
100
AcDbLine
 10
152.307491384086
 20
463.6929419575842
 30
-0.0000000004742021
 11
171.5300271842584
 21
496.3454290269935
 31
-0.0000000004742021
  0
LINE
  5
152D
330
70
100
AcDbEntity
  8
MOJI
100
AcDbLine
 10
171.5300271842584
 20
465.9931542382085
 30
-0.0000000004742021
 11
176.5300271842584
 21
465.9931542382085
 31
-0.0000000004742021
  0
LINE
  5
152E
330
70
100
AcDbEntity
  8
MOJI
100
AcDbLine
 10
150.5298179560063
 20
430.3210104893997
 30
-0.0000000004818749
 11
171.5300271842584
 21
465.9931542382085
 31
-0.0000000004742021
  0
LINE
  5
1530
330
70
100
AcDbEntity
  8
MOJI
100
AcDbLine
 10
172.6585566954959
 20
323.3464198236382
 30
-0.0000000004818749
 11
177.6585566954959
 21
323.3464198236382
 31
-0.0000000004818749
  0
LINE
  5
1532
330
70
100
AcDbEntity
  8
MOJI
100
AcDbLine
 10
151.5574913840851
 20
359.1898834225152
 30
-0.0000000004818749
 11
172.6585566954959
 21
323.3464198236382
 31
-0.0000000004818749
  0
LINE
  5
1533
330
70
100
AcDbEntity
  8
MOJI
100
AcDbLine
 10
117.4089839182732
 20
294.600615834059
 30
-0.0000000004818749
 11
146.3520295372245
 21
344.7314413718617
 31
-0.0000000004818749
  0
LINE
  5
1534
330
70
100
AcDbEntity
  8
MOJI
100
AcDbLine
 10
117.4089839182731
 20
294.600615834059
 30
-0.0000000004818749
 11
112.4089839182731
 21
294.600615834059
 31
-0.0000000004818749
  0
LINE
  5
1536
330
70
100
AcDbEntity
  8
MOJI
100
AcDbLine
 10
113.8046684987253
 20
496.774036530502
 30
-0.0000000004818749
 11
150.0174373843742
 21
434.0516809378136
 31
-0.0000000004818749
  0
LINE
  5
1537
330
70
100
AcDbEntity
  8
MOJI
100
AcDbLine
 10
113.8046684987253
 20
496.774036530502
 30
-0.0000000004818749
 11
108.8046684987262
 21
496.774036530502
 31
-0.0000000004818749
  0
LINE
  5
1539
330
70
100
AcDbEntity
  8
MOJI
100
AcDbLine
 10
116.199187472042
 20
474.9058050507153
 30
-0.0000000004818749
 11
133.6628406093627
 21
444.6578705311242
 31
-0.0000000004818749
  0
LINE
  5
153A
330
70
100
AcDbEntity
  8
MOJI
100
AcDbLine
 10
111.4472631291496
 20
424.978209202524
 30
-0.0000000004818749
 11
133.2589958665262
 21
387.1991799002758
 31
-0.0000000004818749
  0
LINE
  5
153B
330
70
100
AcDbEntity
  8
MOJI
100
AcDbLine
 10
111.4472631291496
 20
424.9782092025239
 30
-0.0000000004818749
 11
106.4472631291496
 21
424.9782092025239
 31
-0.0000000004818749
  0
LINE
  5
153C
330
70
100
AcDbEntity
  8
MOJI
100
AcDbLine
 10
107.2385091290302
 20
401.2055389214499
 30
-0.0000000004818749
 11
127.2074913840783
 21
366.6182470802676
 31
-0.0000000004818749
  0
LINE
  5
153D
330
70
100
AcDbEntity
  8
MOJI
100
AcDbLine
 10
107.2385091290302
 20
401.2055389214499
 30
-0.0000000004818749
 11
102.2385091290302
 21
401.2055389214499
 31
-0.0000000004818749
  0
LINE
  5
153F
330
70
100
AcDbEntity
  8
MOJI
100
AcDbLine
 10
116.199187472042
 20
474.9058050507153
 30
-0.0000000004818749
 11
111.199187472042
 21
474.9058050507153
 31
-0.0000000004818749
  0
DIMENSION
  5
1540
330
70
100
AcDbEntity
  8
SUNPO
 48
0.1
100
AcDbDimension
280
     0
  2
*D5
 10
148.66284060935
 20
541.2960304100436
 30
-0.0000000004818749
 11
141.1628406093509
 21
545.7960304100436
 31
-0.0000000004818749
 70
    32
 71
     5
 42
14.99999999999818
 73
     0
 74
     0
 75
     0
  3
CAD-DL
100
AcDbAlignedDimension
 13
133.6628406093518
 23
521.5654227701755
 33
-0.0000000004818749
 14
148.66284060935
 24
521.5654227701755
 34
-0.0000000004818749
100
AcDbRotatedDimension
1001
ACAD
1000
DSTYLE
1002
{
1070
   176
1070
     0
1070
    41
1040
1.0
1070
    42
1040
5.0
1070
    44
1040
0.0
1002
}
  0
DIMENSION
  5
1541
330
70
100
AcDbEntity
  8
SUNPO
 48
0.1
100
AcDbDimension
280
     0
  2
*D6
 10
253.5574913840851
 20
541.2960443171036
 30
-0.0000000004818749
 11
203.5574913840851
 21
545.7960443171036
 31
-0.0000000004818749
 70
    32
 71
     5
 42
100.0
 73
     0
 74
     0
 75
     0
  3
CAD-DL
100
AcDbAlignedDimension
 13
153.5574913840851
 23
521.5654366772355
 33
-0.0000000004818749
 14
253.5574913840851
 24
521.5654366772355
 34
-0.0000000004818749
100
AcDbRotatedDimension
1001
ACAD
1000
DSTYLE
1002
{
1070
   176
1070
     0
1070
    41
1040
1.0
1070
    42
1040
5.0
1070
    44
1040
0.0
1002
}
  0
LINE
  5
1542
330
70
100
AcDbEntity
  8
MOJI
100
AcDbLine
 10
147.1036663278478
 20
397.2874838773104
 30
-0.0000000004818749
 11
116.0862590043675
 21
451.0112092805782
 31
-0.0000000004818749
  0
DIMENSION
  5
1543
330
70
100
AcDbEntity
  8
SUNPO
 48
0.1
100
AcDbDimension
280
     0
  2
*D7
 10
118.1107056204538
 20
356.3641140902693
 30
-0.0000000004818749
 11
118.1107056204105
 21
351.3693850012417
 31
-0.0000000004818749
 70
   160
 71
     5
 42
10.00000000000182
 73
     0
 74
     0
 75
     0
  3
CAD-DL
100
AcDbAlignedDimension
 13
150.2074913840865
 23
346.3641140902674
 33
-0.0000000004818749
 14
129.2074913840729
 24
356.3641140902692
 34
-0.0000000004818749
 50
90.0
100
AcDbRotatedDimension
1001
ACAD
1000
DSTYLE
1002
{
1070
   176
1070
     0
1070
    41
1040
1.0
1070
    42
1040
5.0
1070
    44
1040
0.0
1002
}
  0
LINE
  5
1544
330
70
100
AcDbEntity
  8
MOJI
100
AcDbLine
 10
116.0862590043684
 20
451.011209280578
 30
-0.0000000004818749
 11
111.0862590043684
 21
451.011209280578
 31
-0.0000000004818749
  0
LINE
  5
1548
330
70
100
AcDbEntity
  8
TEKUSU
  6
CENTER2
370
     5
100
AcDbLine
 10
140.8928394540594
 20
395.3641140902697
 30
-0.0000000004818749
 11
172.3928394540658
 21
395.3641140902697
 31
-0.0000000004818749
  0
LINE
  5
1549
330
70
100
AcDbEntity
  8
TEKUSU
  6
DASHED2
 48
0.5
100
AcDbLine
 10
149.3364224990823
 20
393.3641140902697
 30
-0.0000000004818749
 11
155.8574913840844
 21
393.3641140902697
 31
-0.0000000004818749
  0
LINE
  5
154A
330
70
100
AcDbEntity
  8
TEKUSU
100
AcDbLine
 10
155.8574913840843
 20
393.3641140902697
 30
-0.0000000004818749
 11
161.8928394540594
 21
393.3641140902697
 31
-0.0000000004818749
  0
LINE
  5
154B
330
70
100
AcDbEntity
  8
TEKUSU
  6
DASHED2
 48
0.5
100
AcDbLine
 10
149.3364224990823
 20
397.3641140902697
 30
-0.0000000004818749
 11
155.8574913840844
 21
397.3641140902697
 31
-0.0000000004818749
  0
LINE
  5
154C
330
70
100
AcDbEntity
  8
TEKUSU
100
AcDbLine
 10
155.8574913840843
 20
397.3641140902697
 30
-0.0000000004818749
 11
161.8928394540594
 21
397.3641140902697
 31
-0.0000000004818749
  0
LINE
  5
154D
330
70
100
AcDbEntity
  8
TEKUSU
100
AcDbLine
 10
166.1744778266043
 20
393.6241140902699
 30
-0.0000000004818749
 11
161.8928394540594
 21
393.6241140902708
 31
-0.0000000004818749
  0
LINE
  5
154E
330
70
100
AcDbEntity
  8
TEKUSU
100
AcDbLine
 10
166.1744778266006
 20
397.1041140902685
 30
-0.0000000004818749
 11
161.8928394540585
 21
397.1041140902676
 31
-0.0000000004818749
  0
LINE
  5
154F
330
70
100
AcDbEntity
  8
TEKUSU
100
AcDbLine
 10
167.3928394540594
 20
395.3641140902697
 30
-0.0000000004818749
 11
166.1744778266024
 21
393.6241140902671
 31
-0.0000000004818749
  0
LINE
  5
1550
330
70
100
AcDbEntity
  8
TEKUSU
100
AcDbLine
 10
167.3928394540594
 20
395.3641140902697
 30
-0.0000000004818749
 11
166.1744778266006
 21
397.1041140902685
 31
-0.0000000004818749
  0
LINE
  5
1551
330
70
100
AcDbEntity
  8
TEKUSU
100
AcDbLine
 10
161.8928394540594
 20
397.3641140902697
 30
-0.0000000004818749
 11
161.8928394540594
 21
393.3641140902697
 31
-0.0000000004818749
  0
LINE
  5
1552
330
70
100
AcDbEntity
  8
TEKUSU
100
AcDbLine
 10
161.8928394540594
 20
396.7768040523093
 30
-0.0000000004818749
 11
167.3928394540585
 21
395.3641140902624
 31
-0.0000000004818749
  0
LINE
  5
1553
330
70
100
AcDbEntity
  8
TEKUSU
  6
DASHED2
 48
0.5
100
AcDbLine
 10
149.3364224990823
 20
393.3641140902697
 30
-0.0000000004818749
 11
149.3364224990823
 21
397.3641140902697
 31
-0.0000000004818749
  0
LINE
  5
1554
330
70
100
AcDbEntity
  8
TEKUSU
  6
DASHED2
 48
0.5
100
AcDbLine
 10
148.3928394540585
 20
390.2216396680465
 30
-0.0000000004818749
 11
148.3928394540585
 21
400.5065875124905
 31
-0.0000000004818749
  0
LINE
  5
1555
330
70
100
AcDbEntity
  8
TEKUSU
  6
DASHED2
 48
0.5
100
AcDbLine
 10
147.7928394540581
 20
389.8641135902686
 30
-0.0000000004818749
 11
148.0928394540583
 21
389.8641135902686
 31
-0.0000000004818749
  0
LINE
  5
1556
330
70
100
AcDbEntity
  8
TEKUSU
  6
DASHED2
 48
0.5
100
AcDbLine
 10
147.7928394540581
 20
400.8641135902685
 30
-0.0000000004818749
 11
148.0928394540583
 21
400.8641135902685
 31
-0.0000000004818749
  0
ARC
  5
1557
330
70
100
AcDbEntity
  8
TEKUSU
  6
DASHED2
 48
0.5
100
AcDbCircle
 10
152.2928394540581
 20
395.3641145902689
 30
-0.0000000004818749
 40
6.299999999999998
100
AcDbArc
 50
150.0000105015227
 51
209.9999894984773
  0
LINE
  5
1558
330
70
100
AcDbEntity
  8
TEKUSU
  6
DASHED2
 48
0.5
100
AcDbLine
 10
146.8368788328666
 20
398.5141135902691
 30
-0.0000000004818749
 11
146.8368788328666
 21
392.2141135902689
 31
-0.0000000004818749
  0
ARC
  5
1559
330
70
100
AcDbEntity
  8
TEKUSU
  6
DASHED2
 48
0.5
100
AcDbCircle
 10
153.2199880931689
 20
397.286955829
 30
-0.0000000004818749
 40
6.5
100
AcDbArc
 50
146.6102099832611
 51
169.1176172862685
  0
ARC
  5
155A
330
70
100
AcDbEntity
  8
TEKUSU
  6
DASHED2
 48
0.5
100
AcDbCircle
 10
153.2199880931689
 20
393.4412713515372
 30
-0.0000000004818749
 40
6.5
100
AcDbArc
 50
190.8823827137314
 51
213.3897900167389
  0
LINE
  5
155B
330
70
100
AcDbEntity
  8
TEKUSU
  6
DASHED2
 48
0.5
100
AcDbLine
 10
148.0928394540583
 20
389.8641135902686
 30
-0.0000000004818749
 11
148.3928394540585
 21
390.2216396680465
 31
-0.0000000004818749
  0
LINE
  5
155C
330
70
100
AcDbEntity
  8
TEKUSU
  6
DASHED2
 48
0.5
100
AcDbLine
 10
148.0928394540583
 20
400.8641135902685
 30
-0.0000000004818749
 11
148.3928394540585
 21
400.5065875124905
 31
-0.0000000004818749
  0
LINE
  5
155D
330
70
100
AcDbEntity
  8
TEKUSU
  6
DASHED2
 48
0.5
100
AcDbLine
 10
148.3928394540585
 20
392.6770078090818
 30
-0.0000000004818749
 11
149.3364224990823
 21
393.3641140902697
 31
-0.0000000004818749
  0
LINE
  5
155E
330
70
100
AcDbEntity
  8
TEKUSU
  6
DASHED2
 48
0.5
100
AcDbLine
 10
148.3928394540585
 20
398.0512213714551
 30
-0.0000000004818749
 11
149.3364224990823
 21
397.3641140902697
 31
-0.0000000004818749
  0
LINE
  5
155F
330
70
100
AcDbEntity
  8
TEKUSU
  6
CENTER2
370
     5
100
AcDbLine
 10
141.2428406094036
 20
175.3262173502172
 30
-0.0000000004818749
 11
172.74284060941
 21
175.3262173502172
 31
-0.0000000004818749
  0
LINE
  5
1560
330
70
100
AcDbEntity
  8
TEKUSU
  6
DASHED2
 48
0.5
100
AcDbLine
 10
149.6864236544265
 20
173.3262173502172
 30
-0.0000000004818749
 11
154.9428406094071
 21
173.3262173502172
 31
-0.0000000004818749
  0
LINE
  5
1561
330
70
100
AcDbEntity
  8
TEKUSU
100
AcDbLine
 10
154.9428406094071
 20
173.3262173502172
 30
-0.0000000004818749
 11
162.2428406094036
 21
173.3262173502172
 31
-0.0000000004818749
  0
LINE
  5
1562
330
70
100
AcDbEntity
  8
TEKUSU
  6
DASHED2
 48
0.5
100
AcDbLine
 10
149.6864236544265
 20
177.3262173502172
 30
-0.0000000004818749
 11
154.9428406094071
 21
177.3262173502172
 31
-0.0000000004818749
  0
LINE
  5
1563
330
70
100
AcDbEntity
  8
TEKUSU
100
AcDbLine
 10
154.9428406094071
 20
177.3262173502172
 30
-0.0000000004818749
 11
162.2428406094036
 21
177.3262173502172
 31
-0.0000000004818749
  0
LINE
  5
1564
330
70
100
AcDbEntity
  8
TEKUSU
100
AcDbLine
 10
166.5244789819485
 20
173.5862173502174
 30
-0.0000000004818749
 11
162.2428406094036
 21
173.5862173502183
 31
-0.0000000004818749
  0
LINE
  5
1565
330
70
100
AcDbEntity
  8
TEKUSU
100
AcDbLine
 10
166.5244789819448
 20
177.066217350216
 30
-0.0000000004818749
 11
162.2428406094027
 21
177.0662173502151
 31
-0.0000000004818749
  0
LINE
  5
1566
330
70
100
AcDbEntity
  8
TEKUSU
100
AcDbLine
 10
167.7428406094036
 20
175.3262173502172
 30
-0.0000000004818749
 11
166.5244789819467
 21
173.5862173502146
 31
-0.0000000004818749
  0
LINE
  5
1567
330
70
100
AcDbEntity
  8
TEKUSU
100
AcDbLine
 10
167.7428406094036
 20
175.3262173502172
 30
-0.0000000004818749
 11
166.5244789819448
 21
177.066217350216
 31
-0.0000000004818749
  0
LINE
  5
1568
330
70
100
AcDbEntity
  8
TEKUSU
100
AcDbLine
 10
162.2428406094036
 20
177.3262173502172
 30
-0.0000000004818749
 11
162.2428406094036
 21
173.3262173502172
 31
-0.0000000004818749
  0
LINE
  5
1569
330
70
100
AcDbEntity
  8
TEKUSU
100
AcDbLine
 10
162.2428406094036
 20
176.7389073122568
 30
-0.0000000004818749
 11
167.7428406094027
 21
175.3262173502099
 31
-0.0000000004818749
  0
LINE
  5
156A
330
70
100
AcDbEntity
  8
TEKUSU
  6
DASHED2
 48
0.5
100
AcDbLine
 10
149.6864236544265
 20
173.3262173502172
 30
-0.0000000004818749
 11
149.6864236544265
 21
177.3262173502172
 31
-0.0000000004818749
  0
LINE
  5
156B
330
70
100
AcDbEntity
  8
TEKUSU
  6
DASHED2
 48
0.5
100
AcDbLine
 10
148.7428406094027
 20
170.183742927994
 30
-0.0000000004818749
 11
148.7428406094027
 21
180.4686907724381
 31
-0.0000000004818749
  0
LINE
  5
156C
330
70
100
AcDbEntity
  8
TEKUSU
  6
DASHED2
 48
0.5
100
AcDbLine
 10
148.1428406094023
 20
169.8262168502161
 30
-0.0000000004818749
 11
148.4428406094025
 21
169.8262168502161
 31
-0.0000000004818749
  0
LINE
  5
156D
330
70
100
AcDbEntity
  8
TEKUSU
  6
DASHED2
 48
0.5
100
AcDbLine
 10
148.1428406094023
 20
180.8262168502161
 30
-0.0000000004818749
 11
148.4428406094025
 21
180.8262168502161
 31
-0.0000000004818749
  0
ARC
  5
156E
330
70
100
AcDbEntity
  8
TEKUSU
  6
DASHED2
 48
0.5
100
AcDbCircle
 10
152.6428406094023
 20
175.3262178502164
 30
-0.0000000004818749
 40
6.299999999999998
100
AcDbArc
 50
150.0000105015227
 51
209.9999894984773
  0
LINE
  5
156F
330
70
100
AcDbEntity
  8
TEKUSU
  6
DASHED2
 48
0.5
100
AcDbLine
 10
147.1868799882108
 20
178.4762168502166
 30
-0.0000000004818749
 11
147.1868799882108
 21
172.1762168502164
 31
-0.0000000004818749
  0
ARC
  5
1570
330
70
100
AcDbEntity
  8
TEKUSU
  6
DASHED2
 48
0.5
100
AcDbCircle
 10
153.5699892485131
 20
177.2490590889475
 30
-0.0000000004818749
 40
6.5
100
AcDbArc
 50
146.6102099832603
 51
169.1176172862654
  0
ARC
  5
1571
330
70
100
AcDbEntity
  8
TEKUSU
  6
DASHED2
 48
0.5
100
AcDbCircle
 10
153.5699892485131
 20
173.4033746114847
 30
-0.0000000004818749
 40
6.5
100
AcDbArc
 50
190.8823827137346
 51
213.3897900167397
  0
LINE
  5
1572
330
70
100
AcDbEntity
  8
TEKUSU
  6
DASHED2
 48
0.5
100
AcDbLine
 10
148.4428406094025
 20
169.8262168502161
 30
-0.0000000004818749
 11
148.7428406094027
 21
170.183742927994
 31
-0.0000000004818749
  0
LINE
  5
1573
330
70
100
AcDbEntity
  8
TEKUSU
  6
DASHED2
 48
0.5
100
AcDbLine
 10
148.4428406094025
 20
180.8262168502161
 30
-0.0000000004818749
 11
148.7428406094027
 21
180.4686907724381
 31
-0.0000000004818749
  0
LINE
  5
1574
330
70
100
AcDbEntity
  8
TEKUSU
  6
DASHED2
 48
0.5
100
AcDbLine
 10
148.7428406094027
 20
172.6391110690293
 30
-0.0000000004818749
 11
149.6864236544265
 21
173.3262173502172
 31
-0.0000000004818749
  0
LINE
  5
1575
330
70
100
AcDbEntity
  8
TEKUSU
  6
DASHED2
 48
0.5
100
AcDbLine
 10
148.7428406094027
 20
178.0133246314026
 30
-0.0000000004818749
 11
149.6864236544265
 21
177.3262173502172
 31
-0.0000000004818749
  0
LINE
  5
1576
330
70
100
AcDbEntity
  8
KUTAI
100
AcDbLine
 10
251.2574913840804
 20
151.6414201043731
 30
-0.0000000004818749
 11
253.5574913840796
 21
153.9414201043724
 31
-0.0000000004818749
  0
LINE
  5
1577
330
70
100
AcDbEntity
  8
KUTAI
100
AcDbLine
 10
251.2574913840804
 20
154.469847229117
 30
-0.0000000004818749
 11
253.5574913840796
 21
156.76984722912
 31
-0.0000000004818749
  0
LINE
  5
1578
330
70
100
AcDbEntity
  8
KUTAI
100
AcDbLine
 10
251.2574913840804
 20
194.0678269755659
 30
-0.0000000004818749
 11
253.5574913840796
 21
196.3678269755651
 31
-0.0000000004818749
  0
LINE
  5
1579
330
70
100
AcDbEntity
  8
KUTAI
100
AcDbLine
 10
251.2574913840804
 20
196.8962541003098
 30
-0.0000000004818749
 11
253.5574913840796
 21
199.1962541003118
 31
-0.0000000004818749
  0
LINE
  5
157A
330
70
100
AcDbEntity
  8
KUTAI
100
AcDbLine
 10
248.82352294368
 20
234.0602654063592
 30
-0.0000000004818749
 11
250.6689574323031
 21
235.9056998949814
 31
-0.0000000004818749
  0
LINE
  5
157B
330
70
100
AcDbEntity
  8
KUTAI
100
AcDbLine
 10
246.0082338557336
 20
234.0734034431585
 30
-0.0000000004818749
 11
248.3082338557338
 21
236.3734034431578
 31
-0.0000000004818749
  0
LINE
  5
157C
330
70
100
AcDbEntity
  8
KUTAI
100
AcDbLine
 10
203.5818269845399
 20
234.0734034431585
 30
-0.0000000004818749
 11
205.8818269845401
 21
236.3734034431578
 31
-0.0000000004818749
  0
LINE
  5
157D
330
70
100
AcDbEntity
  8
KUTAI
100
AcDbLine
 10
206.4102541092875
 20
234.0734034431585
 30
-0.0000000004818749
 11
208.7102541092868
 21
236.3734034431578
 31
-0.0000000004818749
  0
LINE
  5
157E
330
70
100
AcDbEntity
  8
KUTAI
100
AcDbLine
 10
163.9838472380947
 20
234.0734034431585
 30
-0.0000000004818749
 11
166.283847238094
 21
236.3734034431578
 31
-0.0000000004818749
  0
LINE
  5
157F
330
70
100
AcDbEntity
  8
KUTAI
100
AcDbLine
 10
161.1554201133481
 20
234.0734034431585
 30
-0.0000000004818749
 11
163.4554201133473
 21
236.3734034431578
 31
-0.0000000004818749
  0
LINE
  5
1580
330
70
100
AcDbEntity
  8
KUTAI
100
AcDbLine
 10
235.989474722865
 20
136.3734034431578
 30
-0.0000000004818749
 11
238.2894747228643
 21
138.6734034431607
 31
-0.0000000004818749
  0
LINE
  5
1581
330
70
100
AcDbEntity
  8
KUTAI
100
AcDbLine
 10
193.5630678516722
 20
136.3734034431578
 30
-0.0000000004818749
 11
195.8630678516715
 21
138.6734034431607
 31
-0.0000000004818749
  0
LINE
  5
1582
330
70
100
AcDbEntity
  8
KUTAI
100
AcDbLine
 10
154.025194932256
 20
139.2619373949397
 30
-0.0000000004818749
 11
155.8706294208791
 21
141.1073718835574
 31
-0.0000000004818749
  0
LINE
  5
1583
330
70
100
AcDbEntity
  8
KUTAI
100
AcDbLine
 10
153.5574913840805
 20
181.2206407179506
 30
-0.0000000004818749
 11
155.8574913840789
 21
183.5206407179535
 31
-0.0000000004818749
  0
LINE
  5
1584
330
70
100
AcDbEntity
  8
KUTAI
100
AcDbLine
 10
153.5574913840805
 20
223.6470475891433
 30
-0.0000000004818749
 11
155.8574913840789
 21
225.9470475891463
 31
-0.0000000004818749
  0
LINE
  5
1585
330
70
100
AcDbEntity
  8
KUTAI
100
AcDbLine
 10
233.1610475981183
 20
136.3734034431578
 30
-0.0000000004818749
 11
235.4610475981167
 21
138.6734034431607
 31
-0.0000000004818749
  0
LINE
  5
1586
330
70
100
AcDbEntity
  8
KUTAI
100
AcDbLine
 10
190.7346407269256
 20
136.3734034431578
 30
-0.0000000004818749
 11
193.0346407269239
 21
138.6734034431607
 31
-0.0000000004818749
  0
LINE
  5
1587
330
70
100
AcDbEntity
  8
KUTAI
100
AcDbLine
 10
153.5574913840805
 20
184.0490678426973
 30
-0.0000000004818749
 11
155.8574913840789
 21
186.3490678426965
 31
-0.0000000004818749
  0
LINE
  5
1588
330
70
100
AcDbEntity
  8
KUTAI
100
AcDbLine
 10
153.5574913840805
 20
141.6226609715045
 30
-0.0000000004818749
 11
155.8574913840789
 21
143.9226609715038
 31
-0.0000000004818749
  0
ARC
  5
1589
330
70
100
AcDbEntity
  8
KUTAI
100
AcDbCircle
 10
158.5574913840805
 20
141.3734034431577
 30
-0.0000000004818749
 40
2.7
100
AcDbArc
 50
180.0
 51
270.0
  0
ARC
  5
158A
330
70
100
AcDbEntity
  8
KUTAI
100
AcDbCircle
 10
248.5574913840796
 20
231.3734034431578
 30
-0.0000000004818749
 40
2.7
100
AcDbArc
 50
0.0
 51
90.0
  0
ARC
  5
158B
330
70
100
AcDbEntity
  8
KUTAI
100
AcDbCircle
 10
158.5574913840805
 20
231.3734034431578
 30
-0.0000000004818749
 40
2.7
100
AcDbArc
 50
90.0
 51
180.0
  0
LINE
  5
158C
330
70
100
AcDbEntity
  8
KUTAI
100
AcDbLine
 10
158.5574913840805
 20
234.0734034431585
 30
-0.0000000004818749
 11
248.5574913840796
 21
234.0734034431585
 31
-0.0000000004818749
  0
LINE
  5
158D
330
70
100
AcDbEntity
  8
KUTAI
100
AcDbLine
 10
251.2574913840804
 20
231.3734034431578
 30
-0.0000000004818749
 11
251.2574913840804
 21
141.3734034431577
 31
-0.0000000004818749
  0
LINE
  5
158E
330
70
100
AcDbEntity
  8
KUTAI
100
AcDbLine
 10
158.5574913840805
 20
138.6734034431607
 30
-0.0000000004818749
 11
248.5574913840796
 21
138.6734034431607
 31
-0.0000000004818749
  0
LINE
  5
158F
330
70
100
AcDbEntity
  8
KUTAI
100
AcDbLine
 10
155.8574913840789
 20
231.3734034431578
 30
-0.0000000004818749
 11
155.8574913840789
 21
141.3734034431577
 31
-0.0000000004818749
  0
ARC
  5
1590
330
70
100
AcDbEntity
  8
KUTAI
100
AcDbCircle
 10
158.5574913840805
 20
141.3734034431577
 30
-0.0000000004818749
 40
5.0
100
AcDbArc
 50
180.0
 51
270.0
  0
ARC
  5
1591
330
70
100
AcDbEntity
  8
KUTAI
100
AcDbCircle
 10
248.5574913840796
 20
231.3734034431578
 30
-0.0000000004818749
 40
5.0
100
AcDbArc
 50
0.0
 51
90.0
  0
ARC
  5
1592
330
70
100
AcDbEntity
  8
KUTAI
100
AcDbCircle
 10
158.5574913840805
 20
231.3734034431578
 30
-0.0000000004818749
 40
5.0
100
AcDbArc
 50
90.0
 51
180.0
  0
LINE
  5
1593
330
70
100
AcDbEntity
  8
KUTAI
100
AcDbLine
 10
253.5574913840796
 20
231.3734034431578
 30
-0.0000000004818749
 11
253.5574913840796
 21
141.3734034431577
 31
-0.0000000004818749
  0
LINE
  5
1594
330
70
100
AcDbEntity
  8
KUTAI
100
AcDbLine
 10
153.5574913840805
 20
231.3734034431578
 30
-0.0000000004818749
 11
153.5574913840805
 21
141.3734034431577
 31
-0.0000000004818749
  0
LINE
  5
1595
330
70
100
AcDbEntity
  8
KUTAI
100
AcDbLine
 10
158.5574913840805
 20
136.3734034431578
 30
-0.0000000004818749
 11
248.5574913840796
 21
136.3734034431578
 31
-0.0000000004818749
  0
LINE
  5
1596
330
70
100
AcDbEntity
  8
KUTAI
100
AcDbLine
 10
158.5574913840805
 20
236.3734034431578
 30
-0.0000000004818749
 11
248.5574913840796
 21
236.3734034431578
 31
-0.0000000004818749
  0
LINE
  5
1597
330
70
100
AcDbEntity
  8
KUTAI
100
AcDbLine
 10
153.5574913840805
 20
226.4754747138909
 30
-0.0000000004818749
 11
155.8574913840789
 21
228.7754747138893
 31
-0.0000000004818749
  0
ARC
  5
1598
330
70
100
AcDbEntity
  8
KUTAI
100
AcDbCircle
 10
248.5574913840796
 20
141.3734034431577
 30
-0.0000000004818749
 40
2.7
100
AcDbArc
 50
270.0
 51
0.0
  0
ARC
  5
1599
330
70
100
AcDbEntity
  8
KUTAI
100
AcDbCircle
 10
248.5574913840796
 20
141.3734034431577
 30
-0.0000000004818749
 40
5.0
100
AcDbArc
 50
270.0
 51
0.0
  0
LINE
  5
159A
330
70
100
AcDbEntity
  8
SEIHIN
100
AcDbLine
 10
134.0128406093804
 20
203.9762173502045
 30
-0.0000000004818749
 11
134.0128406093795
 21
50.99999746592499
 31
-0.0000000004818749
  0
LINE
  5
159B
330
70
100
AcDbEntity
  8
SEIHIN
100
AcDbLine
 10
134.2828406093799
 20
203.9762173502045
 30
-0.0000000004818749
 11
134.2828406093799
 21
50.99999746592499
 31
-0.0000000004818749
  0
LINE
  5
159C
330
70
100
AcDbEntity
  8
SEIHIN
100
AcDbLine
 10
149.0128406093795
 20
203.9762173502045
 30
-0.0000000004818749
 11
134.0128406093795
 21
203.9762173502045
 31
-0.0000000004818749
  0
LINE
  5
159D
330
70
100
AcDbEntity
  8
SEIHIN
100
AcDbLine
 10
149.0128406093786
 20
203.9762173502045
 30
-0.0000000004818749
 11
149.0128406093795
 21
50.99999746592499
 31
-0.0000000004818749
  0
INSERT
  5
159E
330
70
100
AcDbEntity
  8
YAKUMONO
100
AcDbBlockReference
  2
01止縁C15
 10
150.5574913840996
 20
175.326216850217
 30
-0.0000000004818749
 41
-1.0
  0
LINE
  5
159F
330
70
100
AcDbEntity
  8
SONOTABUZAI
100
AcDbLine
 10
153.5574913840796
 20
278.3734034431578
 30
-0.0000000004818749
 11
152.0574913840796
 21
278.3734034431578
 31
-0.0000000004818749
  0
LINE
  5
15A0
330
70
100
AcDbEntity
  8
SONOTABUZAI
100
AcDbLine
 10
153.5574913840796
 20
237.8734034431578
 30
-0.0000000004818749
 11
153.5574913840796
 21
278.3734034431578
 31
-0.0000000004818749
  0
LINE
  5
15A1
330
70
100
AcDbEntity
  8
SONOTABUZAI
100
AcDbLine
 10
152.0574913840796
 20
246.3734034431578
 30
-0.0000000004818749
 11
152.0574913840796
 21
278.3734034431578
 31
-0.0000000004818749
  0
ARC
  5
15A2
330
70
100
AcDbEntity
  8
SONOTABUZAI
100
AcDbCircle
 10
104.3074911486551
 20
246.9197237533131
 30
-0.0000000004818749
 40
1.406479689845807
100
AcDbArc
 50
302.2250534246437
 51
237.7749465753562
  0
ARC
  5
15A3
330
70
100
AcDbEntity
  8
SONOTABUZAI
100
AcDbCircle
 10
136.3074911486551
 20
256.9197237533149
 30
-0.0000000004818749
 40
1.406479689845807
100
AcDbArc
 50
302.2250534246437
 51
237.7749465751097
  0
LINE
  5
15A4
330
70
100
AcDbEntity
  8
SONOTABUZAI
100
AcDbLine
 10
171.5574913840796
 20
236.3734034431578
 30
-0.0000000004818749
 11
171.5574913840796
 21
237.8734034431559
 31
-0.0000000004818749
  0
LINE
  5
15A5
330
70
100
AcDbEntity
  8
SONOTABUZAI
100
AcDbLine
 10
171.5574913840796
 20
236.3734034431578
 30
-0.0000000004818749
 11
153.5574913840796
 21
236.3734034431578
 31
-0.0000000004818749
  0
LINE
  5
15A6
330
70
100
AcDbEntity
  8
SONOTABUZAI
100
AcDbLine
 10
171.5574913840796
 20
237.8734034431559
 30
-0.0000000004818749
 11
153.5574913840796
 21
237.8734034431578
 31
-0.0000000004818749
  0
LINE
  5
15A7
330
70
100
AcDbEntity
  8
SONOTABUZAI
100
AcDbLine
 10
152.0574913840796
 20
213.3734034431578
 30
-0.0000000004818749
 11
152.0574913840796
 21
224.3262173502172
 31
-0.0000000004818749
  0
LINE
  5
15A8
330
70
100
AcDbEntity
  8
SONOTABUZAI
100
AcDbLine
 10
153.5574913840796
 20
213.3734034431578
 30
-0.0000000004818749
 11
152.0574913840796
 21
213.3734034431578
 31
-0.0000000004818749
  0
LINE
  5
15A9
330
70
100
AcDbEntity
  8
SONOTABUZAI
100
AcDbLine
 10
152.0574913840796
 20
225.8262173502167
 30
-0.0000000004818749
 11
152.0574913840796
 21
244.8734034431577
 31
-0.0000000004818749
  0
LINE
  5
15AA
330
70
100
AcDbEntity
  8
SONOTABUZAI
100
AcDbLine
 10
153.5574913840796
 20
213.3734034431578
 30
-0.0000000004818749
 11
153.5574913840796
 21
236.3734034431578
 31
-0.0000000004818749
  0
LINE
  5
15AB
330
70
100
AcDbEntity
  8
SONOTABUZAI
100
AcDbLine
 10
137.0574913840796
 20
244.8734034431577
 30
-0.0000000004818749
 11
137.0574913840796
 21
235.205179224156
 31
-0.0000000004818749
  0
LINE
  5
15AC
330
70
100
AcDbEntity
  8
SONOTABUZAI
100
AcDbLine
 10
135.5574913840796
 20
255.7298979378753
 30
-0.0000000004818749
 11
135.5574913840796
 21
236.599680815421
 31
-0.0000000004818749
  0
LINE
  5
15AD
330
70
100
AcDbEntity
  8
SONOTABUZAI
100
AcDbLine
 10
137.0574913840796
 20
255.7298982346725
 30
-0.0000000004818749
 11
137.0574913840796
 21
246.3734034431559
 31
-0.0000000004818749
  0
LINE
  5
15AE
330
70
100
AcDbEntity
  8
SONOTABUZAI
100
AcDbLine
 10
105.0574913840796
 20
245.7298982346706
 30
-0.0000000004818749
 11
105.0574913840796
 21
234.3734034431578
 31
-0.0000000004818749
  0
LINE
  5
15AF
330
70
100
AcDbEntity
  8
SONOTABUZAI
100
AcDbLine
 10
105.0574913840796
 20
232.869412800797
 30
-0.0000000004818749
 11
137.0574913840796
 21
235.205179224156
 31
-0.0000000004818749
  0
LINE
  5
15B0
330
70
100
AcDbEntity
  8
SONOTABUZAI
100
AcDbLine
 10
105.0574913840796
 20
234.3734034431578
 30
-0.0000000004818749
 11
135.5574913840796
 21
236.599680815421
 31
-0.0000000004818749
  0
LINE
  5
15B1
330
70
100
AcDbEntity
  8
SONOTABUZAI
100
AcDbLine
 10
103.6666899203069
 20
226.9250879148804
 30
-0.0000000004818749
 11
103.6666899203069
 21
224.3262173502172
 31
-0.0000000004818749
  0
LINE
  5
15B2
330
70
100
AcDbEntity
  8
SONOTABUZAI
100
AcDbLine
 10
88.55749138407963
 20
227.3262173502172
 30
-0.0000000004818749
 11
88.55749138407963
 21
225.8262173502167
 31
-0.0000000004818749
  0
LINE
  5
15B3
330
70
100
AcDbEntity
  8
SONOTABUZAI
100
AcDbLine
 10
90.05749138407963
 20
225.9317157589517
 30
-0.0000000004818749
 11
103.6666899203069
 21
226.9250879148804
 31
-0.0000000004818749
  0
LINE
  5
15B4
330
70
100
AcDbEntity
  8
SONOTABUZAI
100
AcDbLine
 10
88.55749138407963
 20
227.3262173502172
 30
-0.0000000004818749
 11
103.5574913840796
 21
228.4211078611675
 31
-0.0000000004818749
  0
LINE
  5
15B5
330
70
100
AcDbEntity
  8
SONOTABUZAI
100
AcDbLine
 10
88.55749138407963
 20
224.3262173502172
 30
-0.0000000004818749
 11
88.55749138407963
 21
209.1525596010547
 31
-0.0000000004818749
  0
LINE
  5
15B6
330
70
100
AcDbEntity
  8
SONOTABUZAI
100
AcDbLine
 10
90.05749138407963
 20
225.9317157589517
 30
-0.0000000004818749
 11
90.05749138407963
 21
209.1525596010547
 31
-0.0000000004818749
  0
LINE
  5
15B7
330
70
100
AcDbEntity
  8
SONOTABUZAI
100
AcDbLine
 10
103.5574913840796
 20
245.7298979378734
 30
-0.0000000004818749
 11
103.5574913840796
 21
228.4211078611675
 31
-0.0000000004818749
  0
LINE
  5
15B8
330
70
100
AcDbEntity
  8
SONOTABUZAI
100
AcDbLine
 10
105.0574913840796
 20
232.869412800797
 30
-0.0000000004818749
 11
105.0574913840796
 21
225.8262173502167
 31
-0.0000000004818749
  0
LINE
  5
15B9
330
70
100
AcDbEntity
  8
SONOTABUZAI
100
AcDbLine
 10
85.05749138407963
 20
234.3734034431578
 30
-0.0000000004818749
 11
83.55749138407963
 21
234.3734034431559
 31
-0.0000000004818749
  0
LINE
  5
15BA
330
70
100
AcDbEntity
  8
SONOTABUZAI
100
AcDbLine
 10
85.05749138407963
 20
224.3262173502172
 30
-0.0000000004818749
 11
85.05749138407963
 21
222.3734034431578
 31
-0.0000000004818749
  0
LINE
  5
15BB
330
70
100
AcDbEntity
  8
SONOTABUZAI
100
AcDbLine
 10
85.05749138407963
 20
222.373403443156
 30
-0.0000000004818749
 11
83.55749138407963
 21
222.3734034431578
 31
-0.0000000004818749
  0
LINE
  5
15BC
330
70
100
AcDbEntity
  8
SONOTABUZAI
100
AcDbLine
 10
85.05749138407963
 20
234.3734034431578
 30
-0.0000000004818749
 11
85.05749138407963
 21
225.8262173502167
 31
-0.0000000004818749
  0
LINE
  5
15BD
330
70
100
AcDbEntity
  8
SONOTABUZAI
100
AcDbLine
 10
83.55749138407963
 20
234.3734034431578
 30
-0.0000000004818749
 11
83.55749138407963
 21
222.3734034431578
 31
-0.0000000004818749
  0
LINE
  5
15BE
330
70
100
AcDbEntity
  8
SONOTABUZAI
100
AcDbLine
 10
85.05749138407963
 20
225.8262173502167
 30
-0.0000000004818749
 11
88.55749138407963
 21
225.8262173502167
 31
-0.0000000004818749
  0
LINE
  5
15BF
330
70
100
AcDbEntity
  8
SONOTABUZAI
100
AcDbLine
 10
85.05749138407963
 20
224.3262173502172
 30
-0.0000000004818749
 11
88.55749138407963
 21
224.3262173502172
 31
-0.0000000004818749
  0
LINE
  5
15C0
330
70
100
AcDbEntity
  8
SONOTABUZAI
100
AcDbLine
 10
105.0574913840796
 20
225.8262173502167
 30
-0.0000000004818749
 11
152.0574913840796
 21
225.8262173502167
 31
-0.0000000004818749
  0
LINE
  5
15C1
330
70
100
AcDbEntity
  8
SONOTABUZAI
100
AcDbLine
 10
103.6666899203069
 20
224.3262173502172
 30
-0.0000000004818749
 11
152.0574913840796
 21
224.3262173502172
 31
-0.0000000004818749
  0
LINE
  5
15C2
330
70
100
AcDbEntity
  8
SONOTABUZAI
100
AcDbLine
 10
152.0574913840796
 20
244.8734034431577
 30
-0.0000000004818749
 11
137.0574913840796
 21
244.8734034431559
 31
-0.0000000004818749
  0
LINE
  5
15C3
330
70
100
AcDbEntity
  8
SONOTABUZAI
100
AcDbLine
 10
152.0574913840796
 20
246.3734034431578
 30
-0.0000000004818749
 11
137.0574913840796
 21
246.3734034431559
 31
-0.0000000004818749
  0
LINE
  5
15C4
330
70
100
AcDbEntity
  8
BOUSUISI
100
AcDbLine
 10
150.8074913840796
 20
223.3262173502172
 30
-0.0000000004818749
 11
150.8074913840796
 21
213.3734034431578
 31
-0.0000000004818749
  0
LINE
  5
15C5
330
70
100
AcDbEntity
  8
BOUSUITE-PU
  6
DASHED2
100
AcDbLine
 10
152.9235167878637
 20
210.4714796545109
 30
-0.0000000004818749
 11
151.8254405765115
 21
212.3734034431578
 31
-0.0000000004818749
  0
ARC
  5
15C6
330
70
100
AcDbEntity
  8
BOUSUITE-PU
  6
DASHED2
100
AcDbCircle
 10
152.0574913840796
 20
209.9714796545109
 30
-0.0000000004818749
 40
1.0
100
AcDbArc
 50
0.0
 51
30.00000000001641
  0
ARC
  5
15C7
330
70
100
AcDbEntity
  8
BOUSUITE-PU
  6
DASHED2
100
AcDbCircle
 10
153.5574913840796
 20
213.3734034431578
 30
-0.0000000004818749
 40
2.0
100
AcDbArc
 50
180.0
 51
210.0000000000164
  0
LINE
  5
15C8
330
70
100
AcDbEntity
  8
BOUSUITE-PU
  6
DASHED2
100
AcDbLine
 10
151.5574913840796
 20
223.3262173502172
 30
-0.0000000004818749
 11
151.5574913840796
 21
213.3734034431578
 31
-0.0000000004818749
  0
LINE
  5
15C9
330
70
100
AcDbEntity
  8
BOUSUITE-PU
  6
DASHED2
100
AcDbLine
 10
153.0574913840796
 20
173.3262173502172
 30
-0.0000000004818749
 11
153.0574913840796
 21
209.9714796545109
 31
-0.0000000004818749
  0
LINE
  5
15CA
330
70
100
AcDbEntity
  8
SI-RINGU
100
AcDbLine
 10
131.3637739446917
 20
184.8620359356737
 30
-0.0000000004818749
 11
134.0128406093722
 21
182.2129692709942
 31
-0.0000000004818749
  0
HATCH
  5
15CB
330
70
100
AcDbEntity
  8
SI-RINGU
100
AcDbHatch
 10
0.0
 20
0.0
 30
-0.0000000004818749
210
0.0
220
0.0
230
1.0
  2
ANSI37
 70
     0
 71
     0
 91
        1
 92
        7
 72
     1
 73
     1
 93
        4
 10
134.0128406093722
 20
182.2129692709942
 42
0.0
 10
134.0128406093722
 20
183.7129692709941
 42
0.0
 10
134.0128406093722
 20
185.8262173502017
 42
-0.637070260806997
 10
131.5486591948452
 20
184.6771506855221
 42
0.0
 97
        0
 75
     0
 76
     1
 52
0.0
 41
0.6
 77
     0
 78
     2
 53
315.0
 43
-79.18838162900238
 44
183.7129692709941
 45
-1.347038418160372
 46
-1.347038418160373
 79
     0
 53
225.0
 43
-79.18838162900238
 44
183.7129692709941
 45
-1.347038418160372
 46
1.347038418160373
 79
     0
 47
0.0103666473914323
 98
        1
 10
133.4453481385867
 20
183.8848770643044
  0
LINE
  5
15CC
330
70
100
AcDbEntity
  8
BOUSUISI
100
AcDbLine
 10
152.3074913840796
 20
50.99999746592454
 30
-0.0000000004818749
 11
152.3074913840796
 21
209.9714796545109
 31
-0.0000000004818749
  0
ARC
  5
15CD
330
70
100
AcDbEntity
  8
BOUSUISI
100
AcDbCircle
 10
151.5574913840796
 20
209.9714796545109
 30
-0.0000000004818749
 40
0.75
100
AcDbArc
 50
0.0
 51
30.00000000001641
  0
LINE
  5
15CE
330
70
100
AcDbEntity
  8
BOUSUISI
100
AcDbLine
 10
152.2070104369181
 20
210.3464796545109
 30
-0.0000000004818749
 11
151.1089342255641
 21
212.2484034431578
 31
-0.0000000004818749
  0
ARC
  5
15CF
330
70
100
AcDbEntity
  8
BOUSUISI
100
AcDbCircle
 10
153.0574913840796
 20
213.3734034431578
 30
-0.0000000004818749
 40
2.25
100
AcDbArc
 50
180.0
 51
210.0000000000164
  0
LINE
  5
15D0
330
70
100
AcDbEntity
  8
SASSI
100
AcDbLine
 10
90.05749138407509
 20
209.1525596010547
 30
-0.0000000004818749
 11
88.55749138407508
 21
209.1525596010547
 31
-0.0000000004818749
  0
LINE
  5
15D1
330
70
100
AcDbEntity
  8
MOJI
100
AcDbLine
 10
134.0100706869948
 20
111.7349493402849
 30
-0.0000000004818749
 11
114.0100706869948
 21
77.09393318891972
 31
-0.0000000004818749
  0
LINE
  5
15D2
330
70
100
AcDbEntity
  8
MOJI
100
AcDbLine
 10
133.5172241482901
 20
183.8471707355541
 30
-0.0000000004818749
 11
113.2894660461893
 21
148.8116659795096
 31
-0.0000000004818749
  0
LINE
  5
15D3
330
70
100
AcDbEntity
  8
MOJI
100
AcDbLine
 10
127.5547214617158
 20
194.9826948648036
 30
-0.0000000004818749
 11
113.2058448488492
 21
170.1297115397888
 31
-0.0000000004818749
  0
LINE
  5
15D4
330
70
100
AcDbEntity
  8
MOJI
100
AcDbLine
 10
113.2894660461893
 20
148.8116659795099
 30
-0.0000000004818749
 11
108.2894660461893
 21
148.8116659795099
 31
-0.0000000004818749
  0
LINE
  5
15D6
330
70
100
AcDbEntity
  8
MOJI
100
AcDbLine
 10
113.2058448488492
 20
170.1297115397888
 30
-0.0000000004818749
 11
108.2058448488501
 21
170.1297115397888
 31
-0.0000000004818749
  0
LINE
  5
15D7
330
70
100
AcDbEntity
  8
MOJI
100
AcDbLine
 10
114.0100706869948
 20
77.09393318891972
 30
-0.0000000004818749
 11
109.0100706869948
 21
77.09393318891972
 31
-0.0000000004818749
  0
LINE
  5
15D8
330
70
100
AcDbEntity
  8
MOJI
100
AcDbLine
 10
174.35662491423
 20
61.63204989159368
 30
-0.0000000004742021
 11
152.3074913840796
 21
99.82226942868585
 31
-0.0000000004742021
  0
LINE
  5
15DA
330
70
100
AcDbEntity
  8
MOJI
100
AcDbLine
 10
179.35662491423
 20
61.63204989159368
 30
-0.0000000004742021
 11
174.35662491423
 21
61.63204989159368
 31
-0.0000000004742021
  0
LINE
  5
15DB
330
70
100
AcDbEntity
  8
MOJI
100
AcDbLine
 10
116.2087045354023
 20
120.8449118401502
 30
-0.0000000004818749
 11
111.2087045354032
 21
120.8449118401502
 31
-0.0000000004818749
  0
LINE
  5
15DC
330
70
100
AcDbEntity
  8
MOJI
100
AcDbLine
 10
147.3785567377558
 20
174.8326795189821
 30
-0.0000000004818749
 11
116.2087045354023
 21
120.8449118401502
 31
-0.0000000004818749
  0
HATCH
  5
15DF
330
70
100
AcDbEntity
  8
SI-RINGU
370
     9
100
AcDbHatch
 10
0.0
 20
0.0
 30
-0.0000000004818749
210
0.0
220
0.0
230
1.0
  2
ANSI37
 70
     0
 71
     0
 91
        1
 92
        7
 72
     1
 73
     1
 93
       11
 10
137.569525886834
 20
224.3262173502172
 42
0.0
 10
124.7285488649836
 20
224.3262173502172
 42
-0.1441851586427086
 10
127.5695258868331
 20
212.5452908120301
 42
-0.3824198698467765
 10
129.5574913841014
 20
214.3262173502172
 42
0.0
 10
131.8174913841007
 20
214.3262173502172
 42
-0.2134217685510693
 10
132.5628473924348
 20
213.9928840243381
 42
0.2134217665904643
 10
134.0535593841027
 20
213.3262173502172
 42
0.0
 10
135.0514233841008
 20
213.3262173502172
 42
0.2134217675705818
 10
136.542135388268
 20
213.992884013157
 42
-0.213421766590358
 10
137.287491384101
 20
214.3262173502172
 42
0.0
 10
137.5695258868322
 20
214.3262173502172
 42
0.0
 97
        0
 75
     1
 76
     1
 52
0.0
 41
0.6
 77
     0
 78
     2
 53
45.0
 43
-3608.641957147244
 44
-448.3658244171381
 45
-1.347038418160372
 46
1.347038418160372
 79
     0
 53
135.0
 43
-3608.641957147244
 44
-448.3658244171381
 45
-1.347038418160372
 46
-1.347038418160372
 79
     0
 47
0.1918305076110804
 98
        1
 10
133.6426693686048
 20
221.5776034029225
1001
GradientColor1ACI
1070
     5
1001
GradientColor2ACI
1070
     2
1001
ACAD
1010
0.0
1020
0.0
1030
0.0
  0
HATCH
  5
15E0
330
70
100
AcDbEntity
  8
PACKING
370
     9
100
AcDbHatch
 10
0.0
 20
0.0
 30
-0.0000000004818749
210
0.0
220
0.0
230
1.0
  2
ANSI31
 70
     0
 71
     0
 91
        1
 92
        7
 72
     1
 73
     1
 93
        8
 10
141.4833596730836
 20
223.1340812200602
 42
0.4142135623730951
 10
138.4833596730836
 20
220.1340812200602
 42
0.0
 10
138.4833596730836
 20
218.1340812200602
 42
0.4142135623730951
 10
141.4833596730836
 20
215.1340812200602
 42
0.0
 10
143.4833596730836
 20
215.1340812200602
 42
0.4142135623730951
 10
146.4833596730836
 20
218.1340812200602
 42
0.0
 10
146.4833596730836
 20
220.1340812200602
 42
0.4142135623730951
 10
143.4833596730836
 20
223.1340812200602
 42
0.0
 97
        0
 75
     1
 76
     1
 52
0.0
 41
0.6
 77
     0
 78
     1
 53
45.0
 43
-3672.362581541698
 44
-61.38577684002183
 45
-1.347038418160372
 46
1.347038418160372
 79
     0
 47
0.0646122254205289
 98
        1
 10
142.860001866979
 20
219.6650609866459
1001
GradientColor1ACI
1070
     5
1001
GradientColor2ACI
1070
     2
1001
ACAD
1010
0.0
1020
0.0
1030
0.0
  0
LINE
  5
15E1
330
70
100
AcDbEntity
  8
PACKING
370
     9
100
AcDbLine
 10
141.4833596730836
 20
223.1340812200602
 30
-0.0000000004818749
 11
143.4833596730836
 21
223.1340812200602
 31
-0.0000000004818749
  0
ARC
  5
15E2
330
70
100
AcDbEntity
  8
PACKING
370
     9
100
AcDbCircle
 10
141.4833596730836
 20
220.1340812200602
 30
-0.0000000004818749
 40
3.0
100
AcDbArc
 50
90.0
 51
180.0
  0
LINE
  5
15E3
330
70
100
AcDbEntity
  8
PACKING
370
     9
100
AcDbLine
 10
146.4833596730836
 20
220.1340812200602
 30
-0.0000000004818749
 11
146.4833596730836
 21
218.1340812200602
 31
-0.0000000004818749
  0
ARC
  5
15E4
330
70
100
AcDbEntity
  8
PACKING
370
     9
100
AcDbCircle
 10
143.4833596730836
 20
220.1340812200602
 30
-0.0000000004818749
 40
3.0
100
AcDbArc
 50
0.0
 51
90.0
  0
ARC
  5
15E5
330
70
100
AcDbEntity
  8
PACKING
370
     9
100
AcDbCircle
 10
143.4833596730836
 20
218.1340812200602
 30
-0.0000000004818749
 40
3.0
100
AcDbArc
 50
270.0
 51
0.0
  0
LINE
  5
15E6
330
70
100
AcDbEntity
  8
PACKING
370
     9
100
AcDbLine
 10
138.4833596730836
 20
218.1340812200602
 30
-0.0000000004818749
 11
138.4833596730836
 21
220.1340812200602
 31
-0.0000000004818749
  0
ARC
  5
15E7
330
70
100
AcDbEntity
  8
PACKING
370
     9
100
AcDbCircle
 10
141.4833596730836
 20
218.1340812200602
 30
-0.0000000004818749
 40
3.0
100
AcDbArc
 50
180.0
 51
270.0
  0
ARC
  5
15E8
330
70
100
AcDbEntity
  8
SI-RINGU
 48
0.5
100
AcDbCircle
 10
106.1469637849682
 20
213.6122428507456
 30
-0.0000000004818749
 40
21.4491154517192
100
AcDbArc
 50
356.5626530251549
 51
29.96736156602919
  0
LINE
  5
15E9
330
70
100
AcDbEntity
  8
SI-RINGU
 48
0.5
100
AcDbLine
 10
137.569525886834
 20
224.3262173502172
 30
-0.0000000004818749
 11
137.5695258868322
 21
214.3262173502172
 31
-0.0000000004818749
  0
DIMENSION
  5
15EA
330
70
100
AcDbEntity
  8
SUNPO
 48
0.1
100
AcDbDimension
280
     0
  2
*D8
 10
113.6317631013591
 20
224.3262173502191
 30
-0.0000000004818749
 11
113.6317631013212
 21
219.3314882611917
 31
-0.0000000004818749
 70
   160
 71
     5
 42
9.989458178054974
 73
     0
 74
     0
 75
     0
  3
CAD-DL
100
AcDbAlignedDimension
 13
129.5574913841014
 23
214.336759172164
 33
-0.0000000004818749
 14
124.7285488649818
 24
224.326217350219
 34
-0.0000000004818749
 50
90.0
100
AcDbRotatedDimension
1001
ACAD
1000
DSTYLE
1002
{
1070
   176
1070
     0
1070
    41
1040
1.0
1070
    42
1040
5.0
1070
    44
1040
0.0
1002
}
  0
LINE
  5
15EB
330
70
100
AcDbEntity
  8
PACKING
370
     9
100
AcDbLine
 10
141.4833596730836
 20
215.1340812200602
 30
-0.0000000004818749
 11
143.4833596730836
 21
215.1340812200602
 31
-0.0000000004818749
  0
LINE
  5
15EC
330
70
100
AcDbEntity
  8
MOJI
100
AcDbLine
 10
273.0673745782128
 20
137.9633605380095
 30
-0.0000000004818749
 11
268.0673745782128
 21
137.9633605380093
 31
-0.0000000004818749
  0
LINE
  5
15EE
330
70
100
AcDbEntity
  8
MOJI
100
AcDbLine
 10
173.3415458702479
 20
246.9081324448144
 30
-0.0000000004818749
 11
178.3415458702479
 21
246.9081324448144
 31
-0.0000000004818749
  0
LINE
  5
15F0
330
70
100
AcDbEntity
  8
MOJI
100
AcDbLine
 10
152.4124171866801
 20
211.3567301314907
 30
-0.0000000004818749
 11
173.341545870247
 21
246.9081324448144
 31
-0.0000000004818749
  0
LINE
  5
15F1
330
70
100
AcDbEntity
  8
MOJI
100
AcDbLine
 10
268.0464333457471
 20
137.9633605380093
 30
-0.0000000004818749
 11
253.5574913840796
 21
163.0589441635134
 31
-0.0000000004818749
  0
LINE
  5
15F2
330
70
100
AcDbEntity
  8
MOJI
100
AcDbLine
 10
129.1576018231512
 20
219.6466804905508
 30
-0.0000000004818749
 11
110.6400992440626
 21
187.5734251942668
 31
-0.0000000004818749
  0
LINE
  5
15F3
330
70
100
AcDbEntity
  8
MOJI
100
AcDbLine
 10
105.6400992440626
 20
187.5734251942668
 30
-0.0000000004818749
 11
110.6400992440626
 21
187.5734251942668
 31
-0.0000000004818749
  0
LINE
  5
15F5
330
70
100
AcDbEntity
  8
MOJI
100
AcDbLine
 10
119.1552195439049
 20
259.1707858110449
 30
-0.0000000004818749
 11
141.8200419688924
 21
219.914161826451
 31
-0.0000000004818749
  0
LINE
  5
15F6
330
70
100
AcDbEntity
  8
MOJI
100
AcDbLine
 10
114.1552195439049
 20
259.1707858110449
 30
-0.0000000004818749
 11
119.1552195439049
 21
259.1707858110449
 31
-0.0000000004818749
  0
DIMENSION
  5
15F8
330
70
100
AcDbEntity
  8
SUNPO
 48
0.1
100
AcDbDimension
280
     0
  2
*D9
 10
202.741945755884
 20
278.3734034431583
 30
-0.0000000004818749
 11
198.241945755884
 21
293.4584008112604
 31
-0.0000000004818749
 70
    32
  1
H
 71
     5
 42
30.16999473620444
 73
     0
 74
     0
 75
     0
  3
CAD-DL
100
AcDbAlignedDimension
 13
153.5574913840851
 23
308.5433981793627
 33
-0.0000000004818749
 14
153.5574913840851
 24
278.3734034431582
 34
-0.0000000004818749
 50
90.0
100
AcDbRotatedDimension
1001
ACAD
1000
DSTYLE
1002
{
1070
   176
1070
     0
1070
    41
1040
1.0
1070
    42
1040
5.0
1070
    44
1040
0.0
1002
}
  0
LINE
  5
15FA
330
70
100
AcDbEntity
  8
TEKUSU
  6
DASHED2
 48
0.5
100
AcDbLine
 10
421.9059707942254
 20
281.6010645539058
 30
-0.0000000004818749
 11
421.9059707942254
 21
258.4746425437047
 31
-0.0000000004818749
  0
LINE
  5
15FB
330
70
100
AcDbEntity
  8
TEKUSU
100
AcDbLine
 10
421.9059707942254
 20
258.4746425437047
 30
-0.0000000004818749
 11
421.9059707942254
 21
253.0446475989297
 31
-0.0000000004818749
  0
LINE
  5
15FC
330
70
100
AcDbEntity
  8
TEKUSU
  6
DASHED2
 48
0.5
100
AcDbLine
 10
425.9059707942254
 20
281.6010645539058
 30
-0.0000000004818749
 11
425.9059707942254
 21
258.4746425437047
 31
-0.0000000004818749
  0
LINE
  5
15FD
330
70
100
AcDbEntity
  8
TEKUSU
100
AcDbLine
 10
425.9059707942254
 20
258.4746425437047
 30
-0.0000000004818749
 11
425.9059707942254
 21
253.0446475989297
 31
-0.0000000004818749
  0
LINE
  5
15FE
330
70
100
AcDbEntity
  8
TEKUSU
100
AcDbLine
 10
422.1659707942256
 20
248.7630092263848
 30
-0.0000000004818749
 11
422.1659707942275
 21
253.0446475989297
 31
-0.0000000004818749
  0
LINE
  5
15FF
330
70
100
AcDbEntity
  8
TEKUSU
100
AcDbLine
 10
425.6459707942252
 20
248.7630092263885
 30
-0.0000000004818749
 11
425.6459707942234
 21
253.0446475989297
 31
-0.0000000004818749
  0
LINE
  5
1600
330
70
100
AcDbEntity
  8
TEKUSU
  6
DASHED2
 48
0.5
100
AcDbLine
 10
421.9059707942254
 20
281.6010645539058
 30
-0.0000000004818749
 11
425.9059707942254
 21
281.6010645539058
 31
-0.0000000004818749
  0
LINE
  5
1601
330
70
100
AcDbEntity
  8
TEKUSU
100
AcDbLine
 10
423.9059707942255
 20
247.5446475989297
 30
-0.0000000004818749
 11
422.1659707942238
 21
248.7630092263866
 31
-0.0000000004818749
  0
LINE
  5
1602
330
70
100
AcDbEntity
  8
TEKUSU
100
AcDbLine
 10
423.9059707942255
 20
247.5446475989297
 30
-0.0000000004818749
 11
425.6459707942252
 21
248.7630092263885
 31
-0.0000000004818749
  0
LINE
  5
1603
330
70
100
AcDbEntity
  8
TEKUSU
100
AcDbLine
 10
425.9059707942254
 20
253.0446475989297
 30
-0.0000000004818749
 11
421.9059707942254
 21
253.0446475989297
 31
-0.0000000004818749
  0
LINE
  5
1604
330
70
100
AcDbEntity
  8
TEKUSU
100
AcDbLine
 10
425.318660756266
 20
253.0446475989297
 30
-0.0000000004818749
 11
423.9059707942182
 21
247.5446475989297
 31
-0.0000000004818749
  0
LINE
  5
1605
330
70
100
AcDbEntity
  8
TEKUSU
  6
CENTER2
370
     5
100
AcDbLine
 10
423.9059702942252
 20
290.0446475989297
 30
-0.0000000004818749
 11
423.9059702942252
 21
242.5446475989233
 31
-0.0000000004818749
  0
LINE
  5
1606
330
70
100
AcDbEntity
  8
TEKUSU
100
AcDbLine
 10
418.7634963720032
 20
282.5446475989297
 30
-0.0000000004818749
 11
429.0484442164474
 21
282.5446475989297
 31
-0.0000000004818749
  0
LINE
  5
1607
330
70
100
AcDbEntity
  8
TEKUSU
100
AcDbLine
 10
418.4059702942253
 20
283.1446475989301
 30
-0.0000000004818749
 11
418.4059702942253
 21
282.8446475989299
 31
-0.0000000004818749
  0
LINE
  5
1608
330
70
100
AcDbEntity
  8
TEKUSU
100
AcDbLine
 10
429.4059702942253
 20
283.1446475989301
 30
-0.0000000004818749
 11
429.4059702942253
 21
282.8446475989299
 31
-0.0000000004818749
  0
ARC
  5
1609
330
70
100
AcDbEntity
  8
TEKUSU
100
AcDbCircle
 10
423.9059712942256
 20
278.6446475989301
 30
-0.0000000004818749
 40
6.299999999999998
100
AcDbArc
 50
60.0000105015229
 51
119.9999894984771
  0
LINE
  5
160A
330
70
100
AcDbEntity
  8
TEKUSU
100
AcDbLine
 10
427.0559702942249
 20
284.1006082201216
 30
-0.0000000004818749
 11
420.7559702942257
 21
284.1006082201216
 31
-0.0000000004818749
  0
ARC
  5
160B
330
70
100
AcDbEntity
  8
TEKUSU
100
AcDbCircle
 10
425.8288125329567
 20
277.7174989598193
 30
-0.0000000004818749
 40
6.5
100
AcDbArc
 50
56.61020998332919
 51
79.11761728626231
  0
ARC
  5
160C
330
70
100
AcDbEntity
  8
TEKUSU
100
AcDbCircle
 10
421.9831280554939
 20
277.7174989598193
 30
-0.0000000004818749
 40
6.5
100
AcDbArc
 50
100.8823827137377
 51
123.3897900166708
  0
LINE
  5
160D
330
70
100
AcDbEntity
  8
TEKUSU
100
AcDbLine
 10
418.4059702942253
 20
282.8446475989299
 30
-0.0000000004818749
 11
418.7634963720032
 21
282.5446475989297
 31
-0.0000000004818749
  0
LINE
  5
160E
330
70
100
AcDbEntity
  8
TEKUSU
100
AcDbLine
 10
429.4059702942253
 20
282.8446475989299
 30
-0.0000000004818749
 11
429.0484442164474
 21
282.5446475989297
 31
-0.0000000004818749
  0
LINE
  5
160F
330
70
100
AcDbEntity
  8
TEKUSU
  6
DASHED2
 48
0.5
100
AcDbLine
 10
421.2188645130376
 20
282.5446475989297
 30
-0.0000000004818749
 11
421.9059707942254
 21
281.6010645539058
 31
-0.0000000004818749
  0
LINE
  5
1610
330
70
100
AcDbEntity
  8
TEKUSU
  6
DASHED2
 48
0.5
100
AcDbLine
 10
426.5930780754119
 20
282.5446475989297
 30
-0.0000000004818749
 11
425.9059707942254
 21
281.6010645539058
 31
-0.0000000004818749
  0
LINE
  5
1611
330
70
100
AcDbEntity
  8
TEKUSU
  6
DASHED2
 48
0.5
100
AcDbLine
 10
601.9059707942365
 20
281.6010645539058
 30
-0.0000000004818749
 11
601.9059707942365
 21
258.4746425437047
 31
-0.0000000004818749
  0
LINE
  5
1612
330
70
100
AcDbEntity
  8
TEKUSU
100
AcDbLine
 10
601.9059707942365
 20
258.4746425437047
 30
-0.0000000004818749
 11
601.9059707942365
 21
253.0446475989297
 31
-0.0000000004818749
  0
LINE
  5
1613
330
70
100
AcDbEntity
  8
TEKUSU
  6
DASHED2
 48
0.5
100
AcDbLine
 10
605.9059707942365
 20
281.6010645539058
 30
-0.0000000004818749
 11
605.9059707942365
 21
258.4746425437047
 31
-0.0000000004818749
  0
LINE
  5
1614
330
70
100
AcDbEntity
  8
TEKUSU
100
AcDbLine
 10
605.9059707942365
 20
258.4746425437047
 30
-0.0000000004818749
 11
605.9059707942365
 21
253.0446475989297
 31
-0.0000000004818749
  0
LINE
  5
1615
330
70
100
AcDbEntity
  8
TEKUSU
100
AcDbLine
 10
602.1659707942367
 20
248.7630092263848
 30
-0.0000000004818749
 11
602.1659707942385
 21
253.0446475989297
 31
-0.0000000004818749
  0
LINE
  5
1616
330
70
100
AcDbEntity
  8
TEKUSU
100
AcDbLine
 10
605.6459707942362
 20
248.7630092263885
 30
-0.0000000004818749
 11
605.6459707942345
 21
253.0446475989297
 31
-0.0000000004818749
  0
LINE
  5
1617
330
70
100
AcDbEntity
  8
TEKUSU
  6
DASHED2
 48
0.5
100
AcDbLine
 10
601.9059707942365
 20
281.6010645539058
 30
-0.0000000004818749
 11
605.9059707942365
 21
281.6010645539058
 31
-0.0000000004818749
  0
LINE
  5
1618
330
70
100
AcDbEntity
  8
TEKUSU
100
AcDbLine
 10
603.9059707942365
 20
247.5446475989297
 30
-0.0000000004818749
 11
602.1659707942348
 21
248.7630092263866
 31
-0.0000000004818749
  0
LINE
  5
1619
330
70
100
AcDbEntity
  8
TEKUSU
100
AcDbLine
 10
603.9059707942365
 20
247.5446475989297
 30
-0.0000000004818749
 11
605.6459707942362
 21
248.7630092263885
 31
-0.0000000004818749
  0
LINE
  5
161A
330
70
100
AcDbEntity
  8
TEKUSU
100
AcDbLine
 10
605.9059707942365
 20
253.0446475989297
 30
-0.0000000004818749
 11
601.9059707942365
 21
253.0446475989297
 31
-0.0000000004818749
  0
LINE
  5
161B
330
70
100
AcDbEntity
  8
TEKUSU
100
AcDbLine
 10
605.318660756277
 20
253.0446475989297
 30
-0.0000000004818749
 11
603.9059707942292
 21
247.5446475989297
 31
-0.0000000004818749
  0
LINE
  5
161C
330
70
100
AcDbEntity
  8
TEKUSU
  6
CENTER2
370
     5
100
AcDbLine
 10
603.9059702942363
 20
290.0446475989297
 30
-0.0000000004818749
 11
603.9059702942363
 21
242.5446475989233
 31
-0.0000000004818749
  0
LINE
  5
161D
330
70
100
AcDbEntity
  8
TEKUSU
100
AcDbLine
 10
598.7634963720142
 20
282.5446475989297
 30
-0.0000000004818749
 11
609.0484442164584
 21
282.5446475989297
 31
-0.0000000004818749
  0
LINE
  5
161E
330
70
100
AcDbEntity
  8
TEKUSU
100
AcDbLine
 10
598.4059702942363
 20
283.1446475989301
 30
-0.0000000004818749
 11
598.4059702942363
 21
282.8446475989299
 31
-0.0000000004818749
  0
LINE
  5
161F
330
70
100
AcDbEntity
  8
TEKUSU
100
AcDbLine
 10
609.4059702942363
 20
283.1446475989301
 30
-0.0000000004818749
 11
609.4059702942363
 21
282.8446475989299
 31
-0.0000000004818749
  0
ARC
  5
1620
330
70
100
AcDbEntity
  8
TEKUSU
100
AcDbCircle
 10
603.9059712942367
 20
278.6446475989301
 30
-0.0000000004818749
 40
6.299999999999998
100
AcDbArc
 50
60.0000105015229
 51
119.9999894984771
  0
LINE
  5
1621
330
70
100
AcDbEntity
  8
TEKUSU
100
AcDbLine
 10
607.0559702942359
 20
284.1006082201216
 30
-0.0000000004818749
 11
600.7559702942367
 21
284.1006082201216
 31
-0.0000000004818749
  0
ARC
  5
1622
330
70
100
AcDbEntity
  8
TEKUSU
100
AcDbCircle
 10
605.8288125329677
 20
277.7174989598193
 30
-0.0000000004818749
 40
6.5
100
AcDbArc
 50
56.61020998332919
 51
79.11761728626231
  0
ARC
  5
1623
330
70
100
AcDbEntity
  8
TEKUSU
100
AcDbCircle
 10
601.9831280555049
 20
277.7174989598193
 30
-0.0000000004818749
 40
6.5
100
AcDbArc
 50
100.8823827137377
 51
123.3897900166708
  0
LINE
  5
1624
330
70
100
AcDbEntity
  8
TEKUSU
100
AcDbLine
 10
598.4059702942363
 20
282.8446475989299
 30
-0.0000000004818749
 11
598.7634963720142
 21
282.5446475989297
 31
-0.0000000004818749
  0
LINE
  5
1625
330
70
100
AcDbEntity
  8
TEKUSU
100
AcDbLine
 10
609.4059702942363
 20
282.8446475989299
 30
-0.0000000004818749
 11
609.0484442164584
 21
282.5446475989297
 31
-0.0000000004818749
  0
LINE
  5
1626
330
70
100
AcDbEntity
  8
TEKUSU
  6
DASHED2
 48
0.5
100
AcDbLine
 10
601.2188645130486
 20
282.5446475989297
 30
-0.0000000004818749
 11
601.9059707942365
 21
281.6010645539058
 31
-0.0000000004818749
  0
LINE
  5
1627
330
70
100
AcDbEntity
  8
TEKUSU
  6
DASHED2
 48
0.5
100
AcDbLine
 10
606.5930780754229
 20
282.5446475989297
 30
-0.0000000004818749
 11
605.9059707942365
 21
281.6010645539058
 31
-0.0000000004818749
  0
LINE
  5
1628
330
70
100
AcDbEntity
  8
KUTAI
100
AcDbLine
 10
479.1059702942325
 20
178.2680154320529
 30
-0.0000000004818749
 11
481.4059702942317
 21
180.5680154320521
 31
-0.0000000004818749
  0
LINE
  5
1629
330
70
100
AcDbEntity
  8
KUTAI
100
AcDbLine
 10
479.1059702942325
 20
181.0964425567968
 30
-0.0000000004818749
 11
481.4059702942317
 21
183.3964425567997
 31
-0.0000000004818749
  0
LINE
  5
162A
330
70
100
AcDbEntity
  8
KUTAI
100
AcDbLine
 10
479.1059702942325
 20
220.6944223032456
 30
-0.0000000004818749
 11
481.4059702942317
 21
222.9944223032449
 31
-0.0000000004818749
  0
LINE
  5
162B
330
70
100
AcDbEntity
  8
KUTAI
100
AcDbLine
 10
479.1059702942325
 20
223.5228494279896
 30
-0.0000000004818749
 11
481.4059702942317
 21
225.8228494279916
 31
-0.0000000004818749
  0
LINE
  5
162C
330
70
100
AcDbEntity
  8
KUTAI
100
AcDbLine
 10
476.6720018538321
 20
260.6868607340389
 30
-0.0000000004818749
 11
478.5174363424553
 21
262.5322952226611
 31
-0.0000000004818749
  0
LINE
  5
162D
330
70
100
AcDbEntity
  8
KUTAI
100
AcDbLine
 10
473.8567127658857
 20
260.6999987708383
 30
-0.0000000004818749
 11
476.1567127658858
 21
262.9999987708375
 31
-0.0000000004818749
  0
LINE
  5
162E
330
70
100
AcDbEntity
  8
KUTAI
100
AcDbLine
 10
431.430305894692
 20
260.6999987708383
 30
-0.0000000004818749
 11
433.7303058946921
 21
262.9999987708375
 31
-0.0000000004818749
  0
LINE
  5
162F
330
70
100
AcDbEntity
  8
KUTAI
100
AcDbLine
 10
434.2587330194395
 20
260.6999987708383
 30
-0.0000000004818749
 11
436.5587330194387
 21
262.9999987708375
 31
-0.0000000004818749
  0
LINE
  5
1630
330
70
100
AcDbEntity
  8
KUTAI
100
AcDbLine
 10
391.8323261482468
 20
260.6999987708383
 30
-0.0000000004818749
 11
394.1323261482461
 21
262.9999987708375
 31
-0.0000000004818749
  0
LINE
  5
1631
330
70
100
AcDbEntity
  8
KUTAI
100
AcDbLine
 10
389.0038990235002
 20
260.6999987708383
 30
-0.0000000004818749
 11
391.3038990234994
 21
262.9999987708375
 31
-0.0000000004818749
  0
LINE
  5
1632
330
70
100
AcDbEntity
  8
KUTAI
100
AcDbLine
 10
463.8379536330171
 20
162.9999987708375
 30
-0.0000000004818749
 11
466.1379536330164
 21
165.2999987708404
 31
-0.0000000004818749
  0
LINE
  5
1633
330
70
100
AcDbEntity
  8
KUTAI
100
AcDbLine
 10
421.4115467618243
 20
162.9999987708375
 30
-0.0000000004818749
 11
423.7115467618235
 21
165.2999987708404
 31
-0.0000000004818749
  0
LINE
  5
1634
330
70
100
AcDbEntity
  8
KUTAI
100
AcDbLine
 10
381.873673842408
 20
165.8885327226194
 30
-0.0000000004818749
 11
383.7191083310312
 21
167.7339672112371
 31
-0.0000000004818749
  0
LINE
  5
1635
330
70
100
AcDbEntity
  8
KUTAI
100
AcDbLine
 10
381.4059702942326
 20
207.8472360456304
 30
-0.0000000004818749
 11
383.705970294231
 21
210.1472360456333
 31
-0.0000000004818749
  0
LINE
  5
1636
330
70
100
AcDbEntity
  8
KUTAI
100
AcDbLine
 10
381.4059702942326
 20
250.2736429168231
 30
-0.0000000004818749
 11
383.705970294231
 21
252.573642916826
 31
-0.0000000004818749
  0
LINE
  5
1637
330
70
100
AcDbEntity
  8
KUTAI
100
AcDbLine
 10
461.0095265082704
 20
162.9999987708375
 30
-0.0000000004818749
 11
463.3095265082688
 21
165.2999987708404
 31
-0.0000000004818749
  0
LINE
  5
1638
330
70
100
AcDbEntity
  8
KUTAI
100
AcDbLine
 10
418.5831196370775
 20
162.9999987708375
 30
-0.0000000004818749
 11
420.8831196370759
 21
165.2999987708404
 31
-0.0000000004818749
  0
LINE
  5
1639
330
70
100
AcDbEntity
  8
KUTAI
100
AcDbLine
 10
381.4059702942326
 20
210.675663170377
 30
-0.0000000004818749
 11
383.705970294231
 21
212.9756631703763
 31
-0.0000000004818749
  0
LINE
  5
163A
330
70
100
AcDbEntity
  8
KUTAI
100
AcDbLine
 10
381.4059702942326
 20
168.2492562991843
 30
-0.0000000004818749
 11
383.705970294231
 21
170.5492562991836
 31
-0.0000000004818749
  0
ARC
  5
163B
330
70
100
AcDbEntity
  8
KUTAI
100
AcDbCircle
 10
386.4059702942326
 20
167.9999987708375
 30
-0.0000000004818749
 40
2.7
100
AcDbArc
 50
180.0
 51
270.0
  0
ARC
  5
163C
330
70
100
AcDbEntity
  8
KUTAI
100
AcDbCircle
 10
476.4059702942318
 20
257.9999987708375
 30
-0.0000000004818749
 40
2.7
100
AcDbArc
 50
0.0
 51
90.0
  0
ARC
  5
163D
330
70
100
AcDbEntity
  8
KUTAI
100
AcDbCircle
 10
386.4059702942326
 20
257.9999987708375
 30
-0.0000000004818749
 40
2.7
100
AcDbArc
 50
90.0
 51
180.0
  0
LINE
  5
163E
330
70
100
AcDbEntity
  8
KUTAI
100
AcDbLine
 10
386.4059702942326
 20
260.6999987708383
 30
-0.0000000004818749
 11
476.4059702942318
 21
260.6999987708383
 31
-0.0000000004818749
  0
LINE
  5
163F
330
70
100
AcDbEntity
  8
KUTAI
100
AcDbLine
 10
479.1059702942325
 20
257.9999987708375
 30
-0.0000000004818749
 11
479.1059702942325
 21
167.9999987708375
 31
-0.0000000004818749
  0
LINE
  5
1640
330
70
100
AcDbEntity
  8
KUTAI
100
AcDbLine
 10
386.4059702942326
 20
165.2999987708404
 30
-0.0000000004818749
 11
476.4059702942318
 21
165.2999987708404
 31
-0.0000000004818749
  0
LINE
  5
1641
330
70
100
AcDbEntity
  8
KUTAI
100
AcDbLine
 10
383.705970294231
 20
257.9999987708375
 30
-0.0000000004818749
 11
383.705970294231
 21
167.9999987708375
 31
-0.0000000004818749
  0
ARC
  5
1642
330
70
100
AcDbEntity
  8
KUTAI
100
AcDbCircle
 10
386.4059702942326
 20
167.9999987708375
 30
-0.0000000004818749
 40
5.0
100
AcDbArc
 50
180.0
 51
270.0
  0
ARC
  5
1643
330
70
100
AcDbEntity
  8
KUTAI
100
AcDbCircle
 10
476.4059702942318
 20
257.9999987708375
 30
-0.0000000004818749
 40
5.0
100
AcDbArc
 50
0.0
 51
90.0
  0
ARC
  5
1644
330
70
100
AcDbEntity
  8
KUTAI
100
AcDbCircle
 10
386.4059702942326
 20
257.9999987708375
 30
-0.0000000004818749
 40
5.0
100
AcDbArc
 50
90.0
 51
180.0
  0
LINE
  5
1645
330
70
100
AcDbEntity
  8
KUTAI
100
AcDbLine
 10
481.4059702942317
 20
257.9999987708375
 30
-0.0000000004818749
 11
481.4059702942317
 21
167.9999987708375
 31
-0.0000000004818749
  0
LINE
  5
1646
330
70
100
AcDbEntity
  8
KUTAI
100
AcDbLine
 10
381.4059702942326
 20
257.9999987708375
 30
-0.0000000004818749
 11
381.4059702942326
 21
167.9999987708375
 31
-0.0000000004818749
  0
LINE
  5
1647
330
70
100
AcDbEntity
  8
KUTAI
100
AcDbLine
 10
386.4059702942326
 20
162.9999987708375
 30
-0.0000000004818749
 11
476.4059702942318
 21
162.9999987708375
 31
-0.0000000004818749
  0
LINE
  5
1648
330
70
100
AcDbEntity
  8
KUTAI
100
AcDbLine
 10
386.4059702942326
 20
262.9999987708375
 30
-0.0000000004818749
 11
476.4059702942318
 21
262.9999987708375
 31
-0.0000000004818749
  0
LINE
  5
1649
330
70
100
AcDbEntity
  8
KUTAI
100
AcDbLine
 10
381.4059702942326
 20
253.1020700415707
 30
-0.0000000004818749
 11
383.705970294231
 21
255.4020700415691
 31
-0.0000000004818749
  0
ARC
  5
164A
330
70
100
AcDbEntity
  8
KUTAI
100
AcDbCircle
 10
476.4059702942318
 20
167.9999987708375
 30
-0.0000000004818749
 40
2.7
100
AcDbArc
 50
270.0
 51
0.0
  0
ARC
  5
164B
330
70
100
AcDbEntity
  8
KUTAI
100
AcDbCircle
 10
476.4059702942318
 20
167.9999987708375
 30
-0.0000000004818749
 40
5.0
100
AcDbArc
 50
270.0
 51
0.0
  0
LINE
  5
164C
330
70
100
AcDbEntity
  8
KUTAI
100
AcDbLine
 10
644.1059702942325
 20
178.2680154320529
 30
-0.0000000004818749
 11
646.4059702942318
 21
180.5680154320521
 31
-0.0000000004818749
  0
LINE
  5
164D
330
70
100
AcDbEntity
  8
KUTAI
100
AcDbLine
 10
644.1059702942325
 20
181.0964425567968
 30
-0.0000000004818749
 11
646.4059702942318
 21
183.3964425567997
 31
-0.0000000004818749
  0
LINE
  5
164E
330
70
100
AcDbEntity
  8
KUTAI
100
AcDbLine
 10
644.1059702942325
 20
220.6944223032456
 30
-0.0000000004818749
 11
646.4059702942318
 21
222.9944223032449
 31
-0.0000000004818749
  0
LINE
  5
164F
330
70
100
AcDbEntity
  8
KUTAI
100
AcDbLine
 10
644.1059702942325
 20
223.5228494279896
 30
-0.0000000004818749
 11
646.4059702942318
 21
225.8228494279916
 31
-0.0000000004818749
  0
LINE
  5
1650
330
70
100
AcDbEntity
  8
KUTAI
100
AcDbLine
 10
641.6720018538321
 20
260.6868607340389
 30
-0.0000000004818749
 11
643.5174363424553
 21
262.5322952226611
 31
-0.0000000004818749
  0
LINE
  5
1651
330
70
100
AcDbEntity
  8
KUTAI
100
AcDbLine
 10
638.8567127658857
 20
260.6999987708383
 30
-0.0000000004818749
 11
641.1567127658859
 21
262.9999987708375
 31
-0.0000000004818749
  0
LINE
  5
1652
330
70
100
AcDbEntity
  8
KUTAI
100
AcDbLine
 10
596.4303058946921
 20
260.6999987708383
 30
-0.0000000004818749
 11
598.7303058946922
 21
262.9999987708375
 31
-0.0000000004818749
  0
LINE
  5
1653
330
70
100
AcDbEntity
  8
KUTAI
100
AcDbLine
 10
599.2587330194396
 20
260.6999987708383
 30
-0.0000000004818749
 11
601.5587330194389
 21
262.9999987708375
 31
-0.0000000004818749
  0
LINE
  5
1654
330
70
100
AcDbEntity
  8
KUTAI
100
AcDbLine
 10
556.8323261482468
 20
260.6999987708383
 30
-0.0000000004818749
 11
559.1323261482462
 21
262.9999987708375
 31
-0.0000000004818749
  0
LINE
  5
1655
330
70
100
AcDbEntity
  8
KUTAI
100
AcDbLine
 10
554.0038990235002
 20
260.6999987708383
 30
-0.0000000004818749
 11
556.3038990234995
 21
262.9999987708375
 31
-0.0000000004818749
  0
LINE
  5
1656
330
70
100
AcDbEntity
  8
KUTAI
100
AcDbLine
 10
628.8379536330171
 20
162.9999987708375
 30
-0.0000000004818749
 11
631.1379536330164
 21
165.2999987708404
 31
-0.0000000004818749
  0
LINE
  5
1657
330
70
100
AcDbEntity
  8
KUTAI
100
AcDbLine
 10
586.4115467618244
 20
162.9999987708375
 30
-0.0000000004818749
 11
588.7115467618237
 21
165.2999987708404
 31
-0.0000000004818749
  0
LINE
  5
1658
330
70
100
AcDbEntity
  8
KUTAI
100
AcDbLine
 10
546.8736738424081
 20
165.8885327226194
 30
-0.0000000004818749
 11
548.7191083310313
 21
167.7339672112371
 31
-0.0000000004818749
  0
LINE
  5
1659
330
70
100
AcDbEntity
  8
KUTAI
100
AcDbLine
 10
546.4059702942327
 20
207.8472360456304
 30
-0.0000000004818749
 11
548.705970294231
 21
210.1472360456333
 31
-0.0000000004818749
  0
LINE
  5
165A
330
70
100
AcDbEntity
  8
KUTAI
100
AcDbLine
 10
546.4059702942327
 20
250.2736429168231
 30
-0.0000000004818749
 11
548.705970294231
 21
252.573642916826
 31
-0.0000000004818749
  0
LINE
  5
165B
330
70
100
AcDbEntity
  8
KUTAI
100
AcDbLine
 10
626.0095265082704
 20
162.9999987708375
 30
-0.0000000004818749
 11
628.3095265082688
 21
165.2999987708404
 31
-0.0000000004818749
  0
LINE
  5
165C
330
70
100
AcDbEntity
  8
KUTAI
100
AcDbLine
 10
583.5831196370777
 20
162.9999987708375
 30
-0.0000000004818749
 11
585.883119637076
 21
165.2999987708404
 31
-0.0000000004818749
  0
LINE
  5
165D
330
70
100
AcDbEntity
  8
KUTAI
100
AcDbLine
 10
546.4059702942327
 20
210.675663170377
 30
-0.0000000004818749
 11
548.705970294231
 21
212.9756631703763
 31
-0.0000000004818749
  0
LINE
  5
165E
330
70
100
AcDbEntity
  8
KUTAI
100
AcDbLine
 10
546.4059702942327
 20
168.2492562991843
 30
-0.0000000004818749
 11
548.705970294231
 21
170.5492562991836
 31
-0.0000000004818749
  0
ARC
  5
165F
330
70
100
AcDbEntity
  8
KUTAI
100
AcDbCircle
 10
551.4059702942327
 20
167.9999987708375
 30
-0.0000000004818749
 40
2.7
100
AcDbArc
 50
180.0
 51
270.0
  0
ARC
  5
1660
330
70
100
AcDbEntity
  8
KUTAI
100
AcDbCircle
 10
641.4059702942317
 20
257.9999987708375
 30
-0.0000000004818749
 40
2.7
100
AcDbArc
 50
0.0
 51
90.0
  0
ARC
  5
1661
330
70
100
AcDbEntity
  8
KUTAI
100
AcDbCircle
 10
551.4059702942327
 20
257.9999987708375
 30
-0.0000000004818749
 40
2.7
100
AcDbArc
 50
90.0
 51
180.0
  0
LINE
  5
1662
330
70
100
AcDbEntity
  8
KUTAI
100
AcDbLine
 10
551.4059702942327
 20
260.6999987708383
 30
-0.0000000004818749
 11
641.4059702942317
 21
260.6999987708383
 31
-0.0000000004818749
  0
LINE
  5
1663
330
70
100
AcDbEntity
  8
KUTAI
100
AcDbLine
 10
644.1059702942325
 20
257.9999987708375
 30
-0.0000000004818749
 11
644.1059702942325
 21
167.9999987708375
 31
-0.0000000004818749
  0
LINE
  5
1664
330
70
100
AcDbEntity
  8
KUTAI
100
AcDbLine
 10
551.4059702942327
 20
165.2999987708404
 30
-0.0000000004818749
 11
641.4059702942317
 21
165.2999987708404
 31
-0.0000000004818749
  0
LINE
  5
1665
330
70
100
AcDbEntity
  8
KUTAI
100
AcDbLine
 10
548.705970294231
 20
257.9999987708375
 30
-0.0000000004818749
 11
548.705970294231
 21
167.9999987708375
 31
-0.0000000004818749
  0
ARC
  5
1666
330
70
100
AcDbEntity
  8
KUTAI
100
AcDbCircle
 10
551.4059702942327
 20
167.9999987708375
 30
-0.0000000004818749
 40
5.0
100
AcDbArc
 50
180.0
 51
270.0
  0
ARC
  5
1667
330
70
100
AcDbEntity
  8
KUTAI
100
AcDbCircle
 10
641.4059702942317
 20
257.9999987708375
 30
-0.0000000004818749
 40
5.0
100
AcDbArc
 50
0.0
 51
90.0
  0
ARC
  5
1668
330
70
100
AcDbEntity
  8
KUTAI
100
AcDbCircle
 10
551.4059702942327
 20
257.9999987708375
 30
-0.0000000004818749
 40
5.0
100
AcDbArc
 50
90.0
 51
180.0
  0
LINE
  5
1669
330
70
100
AcDbEntity
  8
KUTAI
100
AcDbLine
 10
646.4059702942318
 20
257.9999987708375
 30
-0.0000000004818749
 11
646.4059702942318
 21
167.9999987708375
 31
-0.0000000004818749
  0
LINE
  5
166A
330
70
100
AcDbEntity
  8
KUTAI
100
AcDbLine
 10
546.4059702942327
 20
257.9999987708375
 30
-0.0000000004818749
 11
546.4059702942327
 21
167.9999987708375
 31
-0.0000000004818749
  0
LINE
  5
166B
330
70
100
AcDbEntity
  8
KUTAI
100
AcDbLine
 10
551.4059702942327
 20
162.9999987708375
 30
-0.0000000004818749
 11
641.4059702942317
 21
162.9999987708375
 31
-0.0000000004818749
  0
LINE
  5
166C
330
70
100
AcDbEntity
  8
KUTAI
100
AcDbLine
 10
551.4059702942327
 20
262.9999987708375
 30
-0.0000000004818749
 11
641.4059702942317
 21
262.9999987708375
 31
-0.0000000004818749
  0
LINE
  5
166D
330
70
100
AcDbEntity
  8
KUTAI
100
AcDbLine
 10
546.4059702942327
 20
253.1020700415707
 30
-0.0000000004818749
 11
548.705970294231
 21
255.4020700415691
 31
-0.0000000004818749
  0
ARC
  5
166E
330
70
100
AcDbEntity
  8
KUTAI
100
AcDbCircle
 10
641.4059702942317
 20
167.9999987708375
 30
-0.0000000004818749
 40
2.7
100
AcDbArc
 50
270.0
 51
0.0
  0
ARC
  5
166F
330
70
100
AcDbEntity
  8
KUTAI
100
AcDbCircle
 10
641.4059702942317
 20
167.9999987708375
 30
-0.0000000004818749
 40
5.0
100
AcDbArc
 50
270.0
 51
0.0
  0
INSERT
  5
1670
330
70
100
AcDbEntity
  8
YAKUMONO
100
AcDbBlockReference
  2
01止縁C15
 10
435.9059697942324
 20
265.9999987708375
 30
-0.0000000004818749
 41
-1.0
 50
270.0
  0
LINE
  5
1671
330
70
100
AcDbEntity
  8
KUTAI
100
AcDbLine
 10
371.4059702942308
 20
262.9999987708375
 30
-0.0000000004818749
 11
275.4059702942326
 21
262.9999987708321
 31
-0.0000000004818749
  0
LINE
  5
1672
330
70
100
AcDbEntity
  8
KUTAI
  6
DASHED2
100
AcDbLine
 10
371.4059702942308
 20
242.9999987708375
 30
-0.0000000004800559
 11
275.4059702942326
 21
242.9999987708375
 31
-0.0000000004831195
  0
LINE
  5
1673
330
70
100
AcDbEntity
  8
KUTAI
100
AcDbLine
 10
371.4059702942308
 20
262.9999987708375
 30
-0.0000000004818749
 11
371.4059702942308
 21
162.9999987708375
 31
-0.0000000004818749
  0
LINE
  5
1674
330
70
100
AcDbEntity
  8
KUTAI
  6
DASHED2
100
AcDbLine
 10
371.4059702942308
 20
182.9999987708375
 30
-0.0000000004818749
 11
275.4059702942326
 21
182.9999987708375
 31
-0.0000000004818749
  0
LINE
  5
1675
330
70
100
AcDbEntity
  8
KUTAI
100
AcDbLine
 10
371.4059702942308
 20
162.9999987708375
 30
-0.0000000004818749
 11
275.4059702942326
 21
162.9999987708311
 31
-0.0000000004818749
  0
LINE
  5
1676
330
70
100
AcDbEntity
  8
BOUSUISI
100
AcDbLine
 10
483.9059702942327
 20
265.7499987708375
 30
-0.0000000004818749
 11
448.4059702942325
 21
265.7499987708375
 31
-0.0000000004818749
  0
LINE
  5
1677
330
70
100
AcDbEntity
  8
SONOTABUZAI
100
AcDbLine
 10
526.4059702942335
 20
332.9999987708375
 30
-0.0000000004818749
 11
549.4059702942336
 21
332.9999987708375
 31
-0.0000000004818749
  0
LINE
  5
1678
330
70
100
AcDbEntity
  8
SONOTABUZAI
100
AcDbLine
 10
533.4059702942336
 20
311.4999987708375
 30
-0.0000000004818749
 11
541.4059702942336
 21
311.4999987708375
 31
-0.0000000004818749
  0
LINE
  5
1679
330
70
100
AcDbEntity
  8
SONOTABUZAI
100
AcDbLine
 10
541.4059702942336
 20
312.9999987708375
 30
-0.0000000004818749
 11
541.4059702942336
 21
331.4999987708375
 31
-0.0000000004818749
  0
LINE
  5
167A
330
70
100
AcDbEntity
  8
SONOTABUZAI
100
AcDbLine
 10
533.4059702942336
 20
312.9999987708375
 30
-0.0000000004818749
 11
541.4059702942336
 21
312.9999987708375
 31
-0.0000000004818749
  0
LINE
  5
167B
330
70
100
AcDbEntity
  8
SONOTABUZAI
100
AcDbLine
 10
542.9059702942335
 20
331.4999987708375
 30
-0.0000000004818749
 11
547.9059702942335
 21
331.4999987708375
 31
-0.0000000004818749
  0
LINE
  5
167C
330
70
100
AcDbEntity
  8
SONOTABUZAI
100
AcDbLine
 10
547.9059702942335
 20
327.4999987708375
 30
-0.0000000004818749
 11
549.4059702942336
 21
327.4999987708375
 31
-0.0000000004818749
  0
LINE
  5
167D
330
70
100
AcDbEntity
  8
SONOTABUZAI
100
AcDbLine
 10
547.9059702942335
 20
327.4999987708375
 30
-0.0000000004818749
 11
547.9059702942335
 21
331.4999987708375
 31
-0.0000000004818749
  0
LINE
  5
167E
330
70
100
AcDbEntity
  8
SONOTABUZAI
100
AcDbLine
 10
549.4059702942336
 20
327.4999987708375
 30
-0.0000000004818749
 11
549.4059702942336
 21
332.9999987708375
 31
-0.0000000004818749
  0
LINE
  5
167F
330
70
100
AcDbEntity
  8
SONOTABUZAI
100
AcDbLine
 10
533.4059702942336
 20
311.4999987708375
 30
-0.0000000004818749
 11
533.4059702942336
 21
312.9999987708375
 31
-0.0000000004818749
  0
LINE
  5
1680
330
70
100
AcDbEntity
  8
SONOTABUZAI
100
AcDbLine
 10
526.4059702942335
 20
331.4999987708375
 30
-0.0000000004818749
 11
526.4059702942335
 21
332.9999987708375
 31
-0.0000000004818749
  0
LINE
  5
1681
330
70
100
AcDbEntity
  8
SONOTABUZAI
100
AcDbLine
 10
526.4059702942335
 20
331.4999987708375
 30
-0.0000000004818749
 11
541.4059702942336
 21
331.4999987708375
 31
-0.0000000004818749
  0
LINE
  5
1682
330
70
100
AcDbEntity
  8
KUTAI
100
AcDbLine
 10
656.4059702942336
 20
162.9999987708375
 30
-0.0000000004818749
 11
656.4059702942336
 21
262.9999987708375
 31
-0.0000000004818749
  0
LINE
  5
1683
330
70
100
AcDbEntity
  8
KUTAI
100
AcDbLine
 10
656.4059702942336
 20
162.9999987708375
 30
-0.0000000004818749
 11
752.4059702942336
 21
162.999998770843
 31
-0.0000000004818749
  0
LINE
  5
1684
330
70
100
AcDbEntity
  8
KUTAI
  6
DASHED2
100
AcDbLine
 10
656.4059702942336
 20
182.9999987708375
 30
-0.0000000004800559
 11
752.4059702942336
 21
182.9999987708375
 31
-0.0000000004800559
  0
LINE
  5
1685
330
70
100
AcDbEntity
  8
KUTAI
100
AcDbLine
 10
656.4059702942336
 20
262.9999987708375
 30
-0.0000000004818749
 11
752.4059702942336
 21
263.000022193251
 31
-0.0000000004818749
  0
LINE
  5
1686
330
70
100
AcDbEntity
  8
KUTAI
  6
DASHED2
100
AcDbLine
 10
656.4059702942336
 20
242.9999987708375
 30
-0.0000000004818749
 11
752.4059702942336
 21
242.9999987708375
 31
-0.0000000004818749
  0
LINE
  5
1687
330
70
100
AcDbEntity
  8
SONOTABUZAI
100
AcDbLine
 10
579.4059702942336
 20
264.4999987708375
 30
-0.0000000004818749
 11
542.9059702942335
 21
264.4999987708375
 31
-0.0000000004818749
  0
LINE
  5
1688
330
70
100
AcDbEntity
  8
SONOTABUZAI
100
AcDbLine
 10
579.4059702942336
 20
262.9999987708375
 30
-0.0000000004818749
 11
526.4059702942335
 21
262.9999987708375
 31
-0.0000000004818749
  0
LINE
  5
1689
330
70
100
AcDbEntity
  8
SONOTABUZAI
100
AcDbLine
 10
541.4059702942336
 20
264.4999987708375
 30
-0.0000000004818749
 11
526.4059702942335
 21
264.4999987708375
 31
-0.0000000004818749
  0
LINE
  5
168A
330
70
100
AcDbEntity
  8
SONOTABUZAI
100
AcDbLine
 10
526.4059702942335
 20
262.9999987708375
 30
-0.0000000004818749
 11
526.4059702942335
 21
264.4999987708375
 31
-0.0000000004818749
  0
LINE
  5
168B
330
70
100
AcDbEntity
  8
SONOTABUZAI
100
AcDbLine
 10
541.4059702942336
 20
264.4999987708375
 30
-0.0000000004818749
 11
541.4059702942336
 21
311.4999987708375
 31
-0.0000000004818749
  0
LINE
  5
168C
330
70
100
AcDbEntity
  8
SONOTABUZAI
100
AcDbLine
 10
542.9059702942335
 20
264.4999987708375
 30
-0.0000000004818749
 11
542.9059702942335
 21
331.4999987708375
 31
-0.0000000004818749
  0
LINE
  5
168D
330
70
100
AcDbEntity
  8
SONOTABUZAI
100
AcDbLine
 10
479.9059702942327
 20
327.4999987708375
 30
-0.0000000004818749
 11
478.4059702942327
 21
327.4999987708375
 31
-0.0000000004818749
  0
LINE
  5
168E
330
70
100
AcDbEntity
  8
SONOTABUZAI
100
AcDbLine
 10
479.9059702942327
 20
327.4999987708375
 30
-0.0000000004818749
 11
479.9059702942327
 21
331.4999987708375
 31
-0.0000000004818749
  0
LINE
  5
168F
330
70
100
AcDbEntity
  8
SONOTABUZAI
100
AcDbLine
 10
478.4059702942327
 20
327.4999987708375
 30
-0.0000000004818749
 11
478.4059702942327
 21
332.9999987708375
 31
-0.0000000004818749
  0
LINE
  5
1690
330
70
100
AcDbEntity
  8
SONOTABUZAI
100
AcDbLine
 10
484.9059702942327
 20
331.4999987708375
 30
-0.0000000004818749
 11
479.9059702942327
 21
331.4999987708375
 31
-0.0000000004818749
  0
LINE
  5
1691
330
70
100
AcDbEntity
  8
SONOTABUZAI
100
AcDbLine
 10
484.9059702942327
 20
264.4999987708375
 30
-0.0000000004818749
 11
484.9059702942327
 21
331.4999987708375
 31
-0.0000000004818749
  0
LINE
  5
1692
330
70
100
AcDbEntity
  8
SONOTABUZAI
100
AcDbLine
 10
486.4059702942326
 20
284.4999987708375
 30
-0.0000000004818749
 11
486.4059702942326
 21
331.4999987708375
 31
-0.0000000004818749
  0
LINE
  5
1693
330
70
100
AcDbEntity
  8
SONOTABUZAI
100
AcDbLine
 10
501.4059702942309
 20
332.9999987708375
 30
-0.0000000004818749
 11
478.4059702942327
 21
332.9999987708375
 31
-0.0000000004818749
  0
LINE
  5
1694
330
70
100
AcDbEntity
  8
SONOTABUZAI
100
AcDbLine
 10
501.4059702942327
 20
331.4999987708375
 30
-0.0000000004818749
 11
486.4059702942326
 21
331.4999987708375
 31
-0.0000000004818749
  0
LINE
  5
1695
330
70
100
AcDbEntity
  8
SONOTABUZAI
100
AcDbLine
 10
501.4059702942327
 20
331.4999987708371
 30
-0.0000000004818749
 11
501.4059702942327
 21
332.9999987708375
 31
-0.0000000004818749
  0
LINE
  5
1696
330
70
100
AcDbEntity
  8
SONOTABUZAI
100
AcDbLine
 10
494.4059702942326
 20
282.9999987708375
 30
-0.0000000004818749
 11
494.4059702942326
 21
284.4999987708375
 31
-0.0000000004818749
  0
LINE
  5
1697
330
70
100
AcDbEntity
  8
SONOTABUZAI
100
AcDbLine
 10
494.4059702942326
 20
284.4999987708375
 30
-0.0000000004818749
 11
486.4059702942326
 21
284.4999987708375
 31
-0.0000000004818749
  0
LINE
  5
1698
330
70
100
AcDbEntity
  8
SONOTABUZAI
100
AcDbLine
 10
494.4059702942326
 20
282.9999987708375
 30
-0.0000000004818749
 11
486.4059702942326
 21
282.9999987708375
 31
-0.0000000004818749
  0
LINE
  5
1699
330
70
100
AcDbEntity
  8
SONOTABUZAI
100
AcDbLine
 10
486.4059702942326
 20
264.4999987708375
 30
-0.0000000004818749
 11
486.4059702942326
 21
282.9999987708375
 31
-0.0000000004818749
  0
LINE
  5
169A
330
70
100
AcDbEntity
  8
SONOTABUZAI
100
AcDbLine
 10
448.4059702942325
 20
262.9999987708375
 30
-0.0000000004818749
 11
501.4059702942327
 21
262.9999987708375
 31
-0.0000000004818749
  0
LINE
  5
169B
330
70
100
AcDbEntity
  8
SONOTABUZAI
100
AcDbLine
 10
486.4059702942326
 20
264.4999987708375
 30
-0.0000000004818749
 11
501.4059702942327
 21
264.4999987708375
 31
-0.0000000004818749
  0
LINE
  5
169C
330
70
100
AcDbEntity
  8
SONOTABUZAI
100
AcDbLine
 10
501.4059702942327
 20
262.9999987708375
 30
-0.0000000004818749
 11
501.4059702942327
 21
264.499998770837
 31
-0.0000000004818749
  0
LINE
  5
169D
330
70
100
AcDbEntity
  8
SONOTABUZAI
100
AcDbLine
 10
448.4059702942325
 20
262.9999987708375
 30
-0.0000000004818749
 11
448.4059702942325
 21
264.4999987708375
 31
-0.0000000004818749
  0
LINE
  5
169E
330
70
100
AcDbEntity
  8
SONOTABUZAI
100
AcDbLine
 10
448.4059702942325
 20
264.4999987708375
 30
-0.0000000004818749
 11
484.9059702942327
 21
264.4999987708375
 31
-0.0000000004818749
  0
LINE
  5
169F
330
70
100
AcDbEntity
  8
SONOTABUZAI
100
AcDbLine
 10
579.4059702942336
 20
264.4999987708375
 30
-0.0000000004818749
 11
579.4059702942336
 21
262.9999987708375
 31
-0.0000000004818749
  0
LINE
  5
16A0
330
70
100
AcDbEntity
  8
SEIHIN
100
AcDbLine
 10
469.5559702942323
 20
267.5446495455503
 30
-0.0000000004818749
 11
275.4059702942326
 21
267.5446495455527
 31
-0.0000000004818749
  0
LINE
  5
16A1
330
70
100
AcDbEntity
  8
SEIHIN
100
AcDbLine
 10
469.5559702942323
 20
267.5446495455504
 30
-0.0000000004818749
 11
469.5559702942323
 21
282.5446495455504
 31
-0.0000000004818749
  0
LINE
  5
16A2
330
70
100
AcDbEntity
  8
SEIHIN
100
AcDbLine
 10
275.4059702942326
 20
282.5446495455504
 30
-0.0000000004818749
 11
469.5559702942323
 21
282.5446495455504
 31
-0.0000000004818749
  0
LINE
  5
16A3
330
70
100
AcDbEntity
  8
SEIHIN
100
AcDbLine
 10
275.4059702942326
 20
282.2746495455504
 30
-0.0000000004818749
 11
469.5559702942323
 21
282.2746495455504
 31
-0.0000000004818749
  0
ARC
  5
16A4
330
70
100
AcDbEntity
  8
SI-RINGU
100
AcDbCircle
 10
423.9059702942308
 20
278.0181622480682
 30
-0.0000000004818749
 40
7.819532056736568
100
AcDbArc
 50
35.37105670385769
 51
144.6289432961423
  0
HATCH
  5
16A5
330
70
100
AcDbEntity
  8
SI-RINGU
100
AcDbHatch
 10
0.0
 20
0.0
 30
-0.0000000004818749
210
0.0
220
0.0
230
1.0
  2
ANSI37
 70
     0
 71
     0
 91
        1
 92
        7
 72
     1
 73
     1
 93
        2
 10
430.282175618095
 20
282.5446495455504
 42
0.516458393667146
 10
417.5297649703683
 20
282.5446495455504
 42
0.0
 97
        0
 75
     0
 76
     1
 52
0.0
 41
0.6
 77
     0
 78
     2
 53
45.0
 43
423.9059702942308
 44
243.1623032368703
 45
1.347038418160372
 46
-1.347038418160372
 79
     0
 53
315.0
 43
423.9059702942308
 44
243.1623032368703
 45
-1.347038418160372
 46
-1.347038418160372
 79
     0
 47
0.0835028497599391
 98
        1
 10
425.77193004266
 20
283.450656847906
  0
LINE
  5
16A6
330
70
100
AcDbEntity
  8
BOUSUITE-PU
  6
DASHED2
100
AcDbLine
 10
448.4059702942325
 20
264.9999987708375
 30
-0.0000000004818749
 11
483.9059702942327
 21
264.9999987708375
 31
-0.0000000004818749
  0
LINE
  5
16A7
330
70
100
AcDbEntity
  8
BOUSUITE-PU
  6
DASHED2
100
AcDbLine
 10
433.9059702942326
 20
263.4999987708375
 30
-0.0000000004818749
 11
445.0040465055848
 21
263.4999987708375
 31
-0.0000000004818749
  0
ARC
  5
16A8
330
70
100
AcDbEntity
  8
BOUSUITE-PU
  6
DASHED2
100
AcDbCircle
 10
448.4059702942325
 20
262.9999987708375
 30
-0.0000000004818749
 40
2.0
100
AcDbArc
 50
90.0
 51
120.0000000000001
  0
LINE
  5
16A9
330
70
100
AcDbEntity
  8
BOUSUITE-PU
  6
DASHED2
100
AcDbLine
 10
447.4059702942326
 20
264.7320495784066
 30
-0.0000000004818749
 11
445.5040465055848
 21
263.633973367053
 31
-0.0000000004818749
  0
ARC
  5
16AA
330
70
100
AcDbEntity
  8
BOUSUITE-PU
  6
DASHED2
100
AcDbCircle
 10
445.0040465055848
 20
264.4999987708375
 30
-0.0000000004818749
 40
1.0
100
AcDbArc
 50
270.0
 51
300.0000000000001
  0
LINE
  5
16AB
330
70
100
AcDbEntity
  8
SI-RINGU
100
AcDbLine
 10
445.4417888797037
 20
285.1937162102304
 30
-0.0000000004818749
 11
442.792722215025
 21
282.5446495455504
 31
-0.0000000004818749
  0
HATCH
  5
16AC
330
70
100
AcDbEntity
  8
SI-RINGU
100
AcDbHatch
 10
0.0
 20
0.0
 30
-0.0000000004818749
210
0.0
220
0.0
230
1.0
  2
ANSI37
 70
     0
 71
     0
 91
        1
 92
        7
 72
     1
 73
     1
 93
        4
 10
442.792722215025
 20
282.5446495455504
 42
0.0
 10
444.292722215025
 20
282.5446495455504
 42
0.0
 10
446.4059702942326
 20
282.5446495455504
 42
-0.637070260806997
 10
445.256903629552
 20
285.0088309600788
 42
0.0
 97
        0
 75
     0
 76
     1
 52
270.0
 41
0.6
 77
     0
 78
     2
 53
225.0
 43
444.292722215025
 44
245.9553479961247
 45
-1.347038418160373
 46
1.347038418160372
 79
     0
 53
134.9999999999999
 43
444.292722215025
 44
245.9553479961247
 45
1.347038418160373
 46
1.347038418160372
 79
     0
 47
0.0103666473914323
 98
        1
 10
444.4646300083353
 20
283.1121420163359
  0
ARC
  5
16AD
330
70
100
AcDbEntity
  8
BOUSUISI
100
AcDbCircle
 10
448.4059702942325
 20
263.4999987708375
 30
-0.0000000004818749
 40
2.25
100
AcDbArc
 50
90.0
 51
120.0000000000001
  0
LINE
  5
16AE
330
70
100
AcDbEntity
  8
BOUSUISI
100
AcDbLine
 10
447.2809702942326
 20
265.4485559293526
 30
-0.0000000004818749
 11
445.3790465055848
 21
264.350479717999
 31
-0.0000000004818749
  0
ARC
  5
16AF
330
70
100
AcDbEntity
  8
BOUSUISI
100
AcDbCircle
 10
445.0040465055848
 20
264.9999987708375
 30
-0.0000000004818749
 40
0.75
100
AcDbArc
 50
270.0
 51
300.0000000000001
  0
LINE
  5
16B0
330
70
100
AcDbEntity
  8
BOUSUISI
100
AcDbLine
 10
275.4059702942317
 20
264.2499987708375
 30
-0.0000000004818749
 11
445.0040465055848
 21
264.2499987708375
 31
-0.0000000004818749
  0
INSERT
  5
16B1
330
70
100
AcDbEntity
  8
YAKUMONO
100
AcDbBlockReference
  2
01止縁C15
 10
591.9059707942356
 20
265.9999987708375
 30
-0.0000000004818749
 50
90.0
  0
LINE
  5
16B2
330
70
100
AcDbEntity
  8
BOUSUISI
100
AcDbLine
 10
543.9059702942336
 20
265.7499987708375
 30
-0.0000000004818749
 11
579.4059702942336
 21
265.7499987708375
 31
-0.0000000004818749
  0
LINE
  5
16B3
330
70
100
AcDbEntity
  8
SEIHIN
100
AcDbLine
 10
563.2559702942358
 20
267.5446495455504
 30
-0.0000000004818749
 11
752.4059702942345
 21
267.5446495455527
 31
-0.0000000004818749
  0
LINE
  5
16B4
330
70
100
AcDbEntity
  8
SEIHIN
100
AcDbLine
 10
563.2559702942358
 20
267.5446495455504
 30
-0.0000000004818749
 11
563.2559702942358
 21
282.5446495455504
 31
-0.0000000004818749
  0
LINE
  5
16B5
330
70
100
AcDbEntity
  8
SEIHIN
100
AcDbLine
 10
752.4059702942345
 20
282.5446495455504
 30
-0.0000000004818749
 11
563.2559702942358
 21
282.5446495455504
 31
-0.0000000004818749
  0
LINE
  5
16B6
330
70
100
AcDbEntity
  8
SEIHIN
100
AcDbLine
 10
752.4059702942345
 20
282.2746495455504
 30
-0.0000000004818749
 11
563.2559702942358
 21
282.2746495455504
 31
-0.0000000004818749
  0
ARC
  5
16B7
330
70
100
AcDbEntity
  8
SI-RINGU
100
AcDbCircle
 10
603.9059702942354
 20
278.0181622480682
 30
-0.0000000004818749
 40
7.819532056736568
100
AcDbArc
 50
35.37105670385769
 51
144.6289432961423
  0
HATCH
  5
16B8
330
70
100
AcDbEntity
  8
SI-RINGU
100
AcDbHatch
 10
0.0
 20
0.0
 30
-0.0000000004818749
210
0.0
220
0.0
230
1.0
  2
ANSI37
 70
     0
 71
     0
 91
        1
 92
        7
 72
     1
 73
     1
 93
        2
 10
597.5297649703711
 20
282.5446495455504
 42
-0.516458393667146
 10
610.2821756180978
 20
282.5446495455504
 42
0.0
 97
        0
 75
     0
 76
     1
 52
0.0
 41
0.6
 77
     0
 78
     2
 53
135.0
 43
603.9059702942354
 44
243.1623032368703
 45
-1.347038418160372
 46
-1.347038418160372
 79
     0
 53
225.0
 43
603.9059702942354
 44
243.1623032368703
 45
1.347038418160372
 46
-1.347038418160372
 79
     0
 47
0.0835028497599391
 98
        1
 10
602.0400105458061
 20
283.450656847906
  0
LINE
  5
16B9
330
70
100
AcDbEntity
  8
BOUSUITE-PU
  6
DASHED2
100
AcDbLine
 10
579.4059702942336
 20
264.9999987708375
 30
-0.0000000004818749
 11
543.9059702942336
 21
264.9999987708375
 31
-0.0000000004818749
  0
LINE
  5
16BA
330
70
100
AcDbEntity
  8
BOUSUITE-PU
  6
DASHED2
100
AcDbLine
 10
593.9059702942336
 20
263.4999987708375
 30
-0.0000000004818749
 11
582.8078940828813
 21
263.4999987708375
 31
-0.0000000004818749
  0
ARC
  5
16BB
330
70
100
AcDbEntity
  8
BOUSUITE-PU
  6
DASHED2
100
AcDbCircle
 10
579.4059702942336
 20
262.9999987708375
 30
-0.0000000004818749
 40
2.0
100
AcDbArc
 50
59.99999999999986
 51
90.0
  0
LINE
  5
16BC
330
70
100
AcDbEntity
  8
BOUSUITE-PU
  6
DASHED2
100
AcDbLine
 10
580.4059702942335
 20
264.7320495784066
 30
-0.0000000004818749
 11
582.3078940828813
 21
263.633973367053
 31
-0.0000000004818749
  0
ARC
  5
16BD
330
70
100
AcDbEntity
  8
BOUSUITE-PU
  6
DASHED2
100
AcDbCircle
 10
582.8078940828813
 20
264.4999987708375
 30
-0.0000000004818749
 40
1.0
100
AcDbArc
 50
239.9999999999998
 51
270.0
  0
LINE
  5
16BE
330
70
100
AcDbEntity
  8
SI-RINGU
100
AcDbLine
 10
582.3701517087624
 20
285.1937162102304
 30
-0.0000000004818749
 11
585.019218373443
 21
282.5446495455504
 31
-0.0000000004818749
  0
HATCH
  5
16BF
330
70
100
AcDbEntity
  8
SI-RINGU
100
AcDbHatch
 10
0.0
 20
0.0
 30
-0.0000000004818749
210
0.0
220
0.0
230
1.0
  2
ANSI37
 70
     0
 71
     0
 91
        1
 92
        7
 72
     1
 73
     1
 93
        4
 10
585.019218373443
 20
282.5446495455504
 42
0.0
 10
583.5192183734429
 20
282.5446495455504
 42
0.0
 10
581.4059702942354
 20
282.5446495455504
 42
0.637070260806997
 10
582.5550369589159
 20
285.0088309600788
 42
0.0
 97
        0
 75
     0
 76
     1
 52
270.0
 41
0.6
 77
     0
 78
     2
 53
315.0000000000001
 43
583.5192183734429
 44
245.9553479961247
 45
1.347038418160373
 46
1.347038418160372
 79
     0
 53
45.00000000000002
 43
583.5192183734429
 44
245.9553479961247
 45
-1.347038418160373
 46
1.347038418160372
 79
     0
 47
0.0103666473914323
 98
        1
 10
583.3473105801326
 20
283.1121420163359
  0
ARC
  5
16C0
330
70
100
AcDbEntity
  8
BOUSUISI
100
AcDbCircle
 10
579.4059702942336
 20
263.4999987708375
 30
-0.0000000004818749
 40
2.25
100
AcDbArc
 50
59.99999999999986
 51
90.0
  0
LINE
  5
16C1
330
70
100
AcDbEntity
  8
BOUSUISI
100
AcDbLine
 10
580.5309702942336
 20
265.4485559293526
 30
-0.0000000004818749
 11
582.4328940828813
 21
264.350479717999
 31
-0.0000000004818749
  0
ARC
  5
16C2
330
70
100
AcDbEntity
  8
BOUSUISI
100
AcDbCircle
 10
582.8078940828813
 20
264.9999987708375
 30
-0.0000000004818749
 40
0.75
100
AcDbArc
 50
239.9999999999998
 51
270.0
  0
LINE
  5
16C3
330
70
100
AcDbEntity
  8
BOUSUISI
100
AcDbLine
 10
752.4059702942326
 20
264.2499987708375
 30
-0.0000000004818749
 11
582.8078940828813
 21
264.2499987708375
 31
-0.0000000004818749
  0
LINE
  5
16C4
330
70
100
AcDbEntity
  8
MOJI
100
AcDbLine
 10
419.5433588778717
 20
326.0233038766178
 30
-0.0000000004818749
 11
444.5223573342558
 21
282.7584094279785
 31
-0.0000000004818749
  0
LINE
  5
16C5
330
70
100
AcDbEntity
  8
MOJI
100
AcDbLine
 10
419.5433588778708
 20
326.0233038766178
 30
-0.0000000004818749
 11
414.5433588778717
 21
326.0233038766178
 31
-0.0000000004818749
  0
LINE
  5
16C6
330
70
100
AcDbEntity
  8
MOJI
100
AcDbLine
 10
413.7496853710675
 20
298.4986295686543
 30
-0.0000000004818749
 11
421.5172677386171
 21
285.0447822560823
 31
-0.0000000009951413
  0
LINE
  5
16C7
330
70
100
AcDbEntity
  8
MOJI
100
AcDbLine
 10
413.7496853710675
 20
298.4986295686543
 30
-0.0000000004818749
 11
408.7496853710676
 21
298.4986295686543
 31
-0.0000000004818749
  0
LINE
  5
16C8
330
70
100
AcDbEntity
  8
MOJI
100
AcDbLine
 10
668.0872867771618
 20
302.3300868724474
 30
0.0000000001461593
 11
656.664159210441
 21
282.5446495455463
 31
-0.0000000002189554
  0
LINE
  5
16C9
330
70
100
AcDbEntity
  8
MOJI
100
AcDbLine
 10
673.3017788119427
 20
226.0597792337453
 30
-0.0000000004818749
 11
651.2526452817923
 21
264.2499987708377
 31
-0.0000000004818749
  0
LINE
  5
16CB
330
70
100
AcDbEntity
  8
MOJI
100
AcDbLine
 10
678.3017788119427
 20
226.0597792337453
 30
-0.0000000004818749
 11
673.3017788119427
 21
226.0597792337453
 31
-0.0000000004818749
  0
LINE
  5
16CD
330
70
100
AcDbEntity
  8
MOJI
100
AcDbLine
 10
628.4505661785392
 20
337.2380200628607
 30
-0.0000000004818749
 11
623.4505661785383
 21
337.2380200628607
 31
-0.0000000004818749
  0
LINE
  5
16CE
330
70
100
AcDbEntity
  8
MOJI
100
AcDbLine
 10
623.4505661785374
 20
337.2380200628607
 30
-0.0000000004818749
 11
581.2934110246747
 21
264.2196854337967
 31
-0.0000000004818749
  0
LINE
  5
16CF
330
70
100
AcDbEntity
  8
MOJI
100
AcDbLine
 10
648.124738710369
 20
121.9084791531382
 30
-0.0000000004818749
 11
643.124738710369
 21
121.9084791531379
 31
-0.0000000004818749
  0
LINE
  5
16D1
330
70
100
AcDbEntity
  8
MOJI
100
AcDbLine
 10
643.1037974779033
 20
121.9084791531379
 30
-0.0000000004818749
 11
619.3795975651951
 21
162.999998770837
 31
-0.0000000004818749
  0
LINE
  5
16D2
330
70
100
AcDbEntity
  8
MOJI
100
AcDbLine
 10
673.1082280096274
 20
302.3300868724474
 30
0.0000000001461593
 11
668.1082280096275
 21
302.3300868724474
 31
0.0000000001461593
  0
DIMENSION
  5
16D3
330
70
100
AcDbEntity
  8
SUNPO
 48
0.1
100
AcDbDimension
280
     0
  2
*D10
 10
526.4059702942309
 20
210.6856046953711
 30
-0.0000000004818749
 11
513.9059702942318
 21
215.1856046953711
 31
-0.0000000004818749
 70
    32
  1
W
 71
     5
 42
24.99999999999818
 73
     0
 74
     0
 75
     0
  3
CAD-DL
100
AcDbAlignedDimension
 13
501.4059702942327
 23
262.9999987707741
 33
-0.0000000004818749
 14
526.4059702942309
 24
262.9999987707741
 34
-0.0000000004818749
100
AcDbRotatedDimension
1001
ACAD
1000
DSTYLE
1002
{
1070
   176
1070
     0
1070
    41
1040
1.0
1070
    42
1040
5.0
1070
    44
1040
0.0
1002
}
  0
DIMENSION
  5
16D4
330
70
100
AcDbEntity
  8
SUNPO
 48
0.1
100
AcDbDimension
280
     0
  2
*D11
 10
772.358246935104
 20
267.5446495455529
 30
-0.0000000004155299
 11
767.8582469351039
 21
275.0446495455514
 31
-0.0000000004155299
 70
    32
 71
     5
 42
14.99999999999761
 73
     0
 74
     0
 75
     0
  3
CAD-DL
100
AcDbAlignedDimension
 13
752.4059702942336
 23
282.5446495455504
 33
-0.0000000004818749
 14
752.4059702942336
 24
267.5446495455528
 34
-0.0000000004818749
 50
90.0
100
AcDbRotatedDimension
1001
ACAD
1000
DSTYLE
1002
{
1070
   176
1070
     0
1070
    41
1040
1.0
1070
    42
1040
5.0
1070
    44
1040
0.0
1002
}
  0
DIMENSION
  5
16D5
330
70
100
AcDbEntity
  8
SUNPO
 48
0.1
100
AcDbDimension
280
     0
  2
*D12
 10
772.3579831833039
 20
163.0000084694555
 30
-0.0000000004818749
 11
767.8579831833038
 21
213.0000084694549
 31
-0.0000000004818749
 70
    32
 71
     5
 42
99.99999999999912
 73
     0
 74
     0
 75
     0
  3
CAD-DL
100
AcDbAlignedDimension
 13
752.4057065424317
 23
263.0000084694546
 33
-0.0000000004818749
 14
752.4057065424317
 24
163.0000084694555
 34
-0.0000000004818749
 50
90.0
100
AcDbRotatedDimension
1001
ACAD
1000
DSTYLE
1002
{
1070
   176
1070
     0
1070
    41
1040
1.0
1070
    42
1040
5.0
1070
    44
1040
0.0
1002
}
  0
LINE
  5
16D6
330
70
100
AcDbEntity
  8
MOJI
100
AcDbLine
 10
626.8629644637116
 20
320.7917568309263
 30
-0.0000000004818749
 11
631.8629644637117
 21
320.7917568309263
 31
-0.0000000004818749
  0
LINE
  5
16D8
330
70
100
AcDbEntity
  8
MOJI
100
AcDbLine
 10
626.8629644637116
 20
320.7917568309263
 30
-0.0000000004818749
 11
605.2548160285009
 21
283.3653458836475
 31
-0.0000000004818749
  0
TEXT
  5
16DA
330
70
100
AcDbEntity
  8
MOJI
100
AcDbText
 10
401.5759179226032
 20
298.2272734553212
 30
0.0
 40
5.0
  1
※
  7
CAD-DL
100
AcDbText
  0
HATCH
  5
16DC
330
70
100
AcDbEntity
  8
SI-RINGU
370
     9
100
AcDbHatch
 10
0.0
 20
0.0
 30
-0.0000000004818749
210
0.0
220
0.0
230
1.0
  2
ANSI37
 70
     0
 71
     0
 91
        1
 92
        7
 72
     1
 73
     1
 93
       11
 10
484.9059702942327
 20
293.0788682374875
 42
-0.1763603867713976
 10
472.9918502486884
 20
288.9981540784689
 42
-0.4016880972405861
 10
474.9059702942327
 20
286.9999987708357
 42
0.0
 10
474.9059702942327
 20
284.7399987708371
 42
-0.2134217685510711
 10
474.5726369683539
 20
283.9946427625022
 42
0.2134217665904584
 10
473.9059702942326
 20
282.5039307708349
 42
0.0
 10
473.9059702942326
 20
281.5060667708365
 42
0.2134217675705799
 10
474.5726369571725
 20
280.0153547666694
 42
-0.2134217665903527
 10
474.9059702942327
 20
279.2699987708361
 42
0.0
 10
474.9059702942327
 20
278.9981540784686
 42
0.0
 10
484.9059702942327
 20
278.9981540784686
 42
0.0
 97
        0
 75
     1
 76
     1
 52
0.0
 41
0.6
 77
     0
 78
     2
 53
45.0
 43
-3266.998863704695
 44
-8.135316723524553
 45
-1.347038418160372
 46
1.347038418160372
 79
     0
 53
135.0
 43
-3266.998863704695
 44
-8.135316723524553
 45
-1.347038418160372
 46
-1.347038418160372
 79
     0
 47
0.0854869339291901
 98
        1
 10
478.7098674899921
 20
285.3307397898809
1001
GradientColor1ACI
1070
     5
1001
GradientColor2ACI
1070
     2
1001
ACAD
1010
0.0
1020
0.0
1030
0.0
  0
HATCH
  5
16DD
330
70
100
AcDbEntity
  8
PACKING
370
     9
100
AcDbHatch
 10
0.0
 20
0.0
 30
-0.0000000004818749
210
0.0
220
0.0
230
1.0
  2
ANSI31
 70
     0
 71
     0
 91
        1
 92
        7
 72
     1
 73
     1
 93
        8
 10
478.9648630783763
 20
276.3845413365576
 42
0.4142135623730951
 10
475.9648630783763
 20
273.3845413365576
 42
0.0
 10
475.9648630783763
 20
271.3845413365576
 42
0.4142135623730951
 10
478.9648630783763
 20
268.3845413365576
 42
0.0
 10
480.9648630783763
 20
268.3845413365576
 42
0.4142135623730951
 10
483.9648630783763
 20
271.3845413365576
 42
0.0
 10
483.9648630783763
 20
273.3845413365576
 42
0.4142135623730951
 10
480.9648630783763
 20
276.3845413365576
 42
0.0
 97
        0
 75
     1
 76
     1
 52
0.0
 41
0.6
 77
     0
 78
     1
 53
45.0
 43
-3334.881078136406
 44
-8.135316723524553
 45
-1.347038418160372
 46
1.347038418160372
 79
     0
 47
0.0646122254205289
 98
        1
 10
480.3415052722707
 20
272.9155211031431
1001
GradientColor1ACI
1070
     5
1001
GradientColor2ACI
1070
     2
1001
ACAD
1010
0.0
1020
0.0
1030
0.0
  0
LINE
  5
16DE
330
70
100
AcDbEntity
  8
PACKING
370
     9
100
AcDbLine
 10
478.9648630783763
 20
276.3845413365576
 30
-0.0000000004818749
 11
480.9648630783763
 21
276.3845413365576
 31
-0.0000000004818749
  0
ARC
  5
16DF
330
70
100
AcDbEntity
  8
PACKING
370
     9
100
AcDbCircle
 10
478.9648630783763
 20
273.3845413365576
 30
-0.0000000004818749
 40
3.0
100
AcDbArc
 50
90.0
 51
180.0
  0
LINE
  5
16E0
330
70
100
AcDbEntity
  8
PACKING
370
     9
100
AcDbLine
 10
483.9648630783763
 20
273.3845413365576
 30
-0.0000000004818749
 11
483.9648630783763
 21
271.3845413365576
 31
-0.0000000004818749
  0
ARC
  5
16E1
330
70
100
AcDbEntity
  8
PACKING
370
     9
100
AcDbCircle
 10
480.9648630783763
 20
273.3845413365576
 30
-0.0000000004818749
 40
3.0
100
AcDbArc
 50
0.0
 51
90.0
  0
LINE
  5
16E2
330
70
100
AcDbEntity
  8
PACKING
370
     9
100
AcDbLine
 10
480.9648630783763
 20
268.3845413365576
 30
-0.0000000004818749
 11
478.9648630783763
 21
268.3845413365576
 31
-0.0000000004818749
  0
ARC
  5
16E3
330
70
100
AcDbEntity
  8
PACKING
370
     9
100
AcDbCircle
 10
480.9648630783763
 20
271.3845413365576
 30
-0.0000000004818749
 40
3.0
100
AcDbArc
 50
270.0
 51
0.0
  0
LINE
  5
16E4
330
70
100
AcDbEntity
  8
PACKING
370
     9
100
AcDbLine
 10
475.9648630783763
 20
271.3845413365576
 30
-0.0000000004818749
 11
475.9648630783763
 21
273.3845413365576
 31
-0.0000000004818749
  0
ARC
  5
16E5
330
70
100
AcDbEntity
  8
PACKING
370
     9
100
AcDbCircle
 10
478.9648630783763
 20
271.3845413365576
 30
-0.0000000004818749
 40
3.0
100
AcDbArc
 50
180.0
 51
270.0
  0
LINE
  5
16E6
330
70
100
AcDbEntity
  8
SI-RINGU
370
     9
100
AcDbLine
 10
484.9059702942327
 20
278.9981540784686
 30
-0.0000000004818749
 11
474.9059702942327
 21
278.9981540784686
 31
-0.0000000004818749
  0
ARC
  5
16E7
330
70
100
AcDbEntity
  8
SI-RINGU
370
     9
100
AcDbCircle
 10
473.3442052751293
 20
307.402099869178
 30
-0.0000000004818749
 40
18.40731851009317
100
AcDbArc
 50
268.6357932898391
 51
308.9105957543718
1001
ACAD
1000
ASC_BOUNDS
1002
{
1070
    19
1005
0
1002
}
  0
HATCH
  5
16E8
330
70
100
AcDbEntity
  8
SI-RINGU
370
     9
100
AcDbHatch
 10
0.0
 20
0.0
 30
-0.0000000004818749
210
0.0
220
0.0
230
1.0
  2
ANSI37
 70
     0
 71
     0
 91
        1
 92
        7
 72
     1
 73
     1
 93
       11
 10
552.9059702942354
 20
278.9981540784686
 42
0.0
 10
552.9059702942354
 20
279.2699987708361
 42
-0.213421768550807
 10
553.2393036201151
 20
280.0153547791698
 42
0.2134217665903527
 10
553.9059702942354
 20
281.5060667708365
 42
0.0
 10
553.9059702942354
 20
282.5039307708349
 42
0.2134217675707647
 10
553.2393036312956
 20
283.9946427750035
 42
-0.2134217665904583
 10
552.9059702942354
 20
284.7399987708371
 42
0.0
 10
552.9059702942354
 20
286.9999987708357
 42
-0.4016880972394563
 10
554.8200903397724
 20
288.9981540784686
 42
-0.1763603867713251
 10
542.9059702942354
 20
293.0788682374942
 42
0.0
 10
542.9059702942354
 20
278.9981540784686
 42
0.0
 97
        0
 75
     1
 76
     1
 52
0.0
 41
0.6
 77
     0
 78
     2
 53
45.0
 43
-3266.99886370469
 44
-8.135316723524553
 45
-1.347038418160372
 46
1.347038418160372
 79
     0
 53
135.0
 43
-3266.99886370469
 44
-8.135316723524553
 45
-1.347038418160372
 46
-1.347038418160372
 79
     0
 47
0.0646122254205289
 98
        1
 10
548.3530122369088
 20
282.9950256291642
1001
GradientColor1ACI
1070
     5
1001
GradientColor2ACI
1070
     2
1001
ACAD
1010
0.0
1020
0.0
1030
0.0
  0
ARC
  5
16E9
330
70
100
AcDbEntity
  8
SI-RINGU
370
     9
100
AcDbCircle
 10
554.467735313347
 20
307.402099869178
 30
-0.0000000004818749
 40
18.40731851009317
100
AcDbArc
 50
231.0894042456281
 51
271.3642067101609
1001
ACAD
1000
ASC_BOUNDS
1002
{
1070
    19
1005
0
1002
}
  0
LINE
  5
16EA
330
70
100
AcDbEntity
  8
SI-RINGU
370
     9
100
AcDbLine
 10
552.9059702942354
 20
278.9981540784686
 30
-0.0000000004818749
 11
542.9059702942354
 21
278.9981540784686
 31
-0.0000000004818749
  0
HATCH
  5
16EB
330
70
100
AcDbEntity
  8
PACKING
370
     9
100
AcDbHatch
 10
0.0
 20
0.0
 30
-0.0000000004818749
210
0.0
220
0.0
230
1.0
  2
ANSI31
 70
     0
 71
     0
 91
        1
 92
        7
 72
     1
 73
     1
 93
        8
 10
546.8470775100918
 20
276.3845413365576
 42
0.4142135623730951
 10
543.8470775100918
 20
273.3845413365576
 42
0.0
 10
543.8470775100918
 20
271.3845413365576
 42
0.4142135623730951
 10
546.8470775100918
 20
268.3845413365576
 42
0.0
 10
548.8470775100918
 20
268.3845413365576
 42
0.4142135623730951
 10
551.8470775100918
 20
271.3845413365576
 42
0.0
 10
551.8470775100918
 20
273.3845413365576
 42
0.4142135623730951
 10
548.8470775100918
 20
276.3845413365576
 42
0.0
 97
        0
 75
     1
 76
     1
 52
0.0
 41
0.6
 77
     0
 78
     1
 53
45.0
 43
-3266.99886370469
 44
-8.135316723524553
 45
-1.347038418160372
 46
1.347038418160372
 79
     0
 47
0.0646122254205289
 98
        1
 10
548.2237197039872
 20
272.9155211031431
1001
GradientColor1ACI
1070
     5
1001
GradientColor2ACI
1070
     2
1001
ACAD
1010
0.0
1020
0.0
1030
0.0
  0
LINE
  5
16EC
330
70
100
AcDbEntity
  8
PACKING
370
     9
100
AcDbLine
 10
546.8470775100918
 20
276.3845413365576
 30
-0.0000000004818749
 11
548.8470775100918
 21
276.3845413365576
 31
-0.0000000004818749
  0
ARC
  5
16ED
330
70
100
AcDbEntity
  8
PACKING
370
     9
100
AcDbCircle
 10
546.8470775100918
 20
273.3845413365576
 30
-0.0000000004818749
 40
3.0
100
AcDbArc
 50
90.0
 51
180.0
  0
LINE
  5
16EE
330
70
100
AcDbEntity
  8
PACKING
370
     9
100
AcDbLine
 10
551.8470775100918
 20
273.3845413365576
 30
-0.0000000004818749
 11
551.8470775100918
 21
271.3845413365576
 31
-0.0000000004818749
  0
ARC
  5
16EF
330
70
100
AcDbEntity
  8
PACKING
370
     9
100
AcDbCircle
 10
548.8470775100918
 20
273.3845413365576
 30
-0.0000000004818749
 40
3.0
100
AcDbArc
 50
0.0
 51
90.0
  0
LINE
  5
16F0
330
70
100
AcDbEntity
  8
PACKING
370
     9
100
AcDbLine
 10
548.8470775100918
 20
268.3845413365576
 30
-0.0000000004818749
 11
546.8470775100918
 21
268.3845413365576
 31
-0.0000000004818749
  0
ARC
  5
16F1
330
70
100
AcDbEntity
  8
PACKING
370
     9
100
AcDbCircle
 10
548.8470775100918
 20
271.3845413365576
 30
-0.0000000004818749
 40
3.0
100
AcDbArc
 50
270.0
 51
0.0
  0
LINE
  5
16F2
330
70
100
AcDbEntity
  8
PACKING
370
     9
100
AcDbLine
 10
543.8470775100918
 20
271.3845413365576
 30
-0.0000000004818749
 11
543.8470775100918
 21
273.3845413365576
 31
-0.0000000004818749
  0
ARC
  5
16F3
330
70
100
AcDbEntity
  8
PACKING
370
     9
100
AcDbCircle
 10
546.8470775100918
 20
271.3845413365576
 30
-0.0000000004818749
 40
3.0
100
AcDbArc
 50
180.0
 51
270.0
  0
DIMENSION
  5
16F4
330
70
100
AcDbEntity
  8
SUNPO
 48
0.1
100
AcDbDimension
280
     0
  2
*D13
 10
552.9059702942354
 20
305.9423199443033
 30
-0.0000000004818749
 11
547.905970294239
 21
305.9423199443033
 31
-0.0000000004818749
 70
   160
 71
     5
 42
9.999999999992724
 73
     0
 74
     0
 75
     0
  3
CAD-DL
100
AcDbAlignedDimension
 13
542.9059702942427
 23
293.0788682374879
 33
-0.0000000004818749
 14
552.9059702942354
 24
286.9999987708352
 34
-0.0000000004818749
100
AcDbRotatedDimension
1001
ACAD
1000
DSTYLE
1002
{
1070
   176
1070
     0
1070
    41
1040
1.0
1070
    42
1040
5.0
1070
    44
1040
0.0
1002
}
  0
LINE
  5
16F5
330
70
100
AcDbEntity
  8
MOJI
100
AcDbLine
 10
435.9777627204788
 20
367.7824660132101
 30
-0.0000000004818749
 11
482.7448280209932
 21
286.7795327918329
 31
-0.0000000004818749
  0
LINE
  5
16F6
330
70
100
AcDbEntity
  8
MOJI
100
AcDbLine
 10
435.9777627204788
 20
367.7824660132101
 30
-0.0000000004818749
 11
430.9777627204788
 21
367.7824660132101
 31
-0.0000000004818749
  0
LINE
  5
16F8
330
70
100
AcDbEntity
  8
MOJI
100
AcDbLine
 10
436.4258626172071
 20
347.8130807401458
 30
-0.0000000004818749
 11
479.5333554477097
 21
273.1487129708087
 31
-0.0000000004818749
  0
LINE
  5
16F9
330
70
100
AcDbEntity
  8
MOJI
100
AcDbLine
 10
436.4258626172071
 20
347.8130807401458
 30
-0.0000000004818749
 11
431.4258626172071
 21
347.8130807401458
 31
-0.0000000004818749
  0
LINE
  5
16FB
330
70
100
AcDbEntity
  8
MOJI
100
AcDbLine
 10
623.464454074458
 20
352.4910086630967
 30
-0.0000000004818749
 11
583.3970287599954
 21
283.0921922899786
 31
-0.0000000004818749
  0
LINE
  5
16FC
330
70
100
AcDbEntity
  8
MOJI
100
AcDbLine
 10
628.4644540744579
 20
352.4910086630967
 30
-0.0000000004818749
 11
623.4644540744571
 21
352.4910086630967
 31
-0.0000000004818749
  0
LINE
  5
16FE
330
70
100
AcDbEntity
  8
MOJI
100
AcDbLine
 10
623.7004490114327
 20
367.9629728731821
 30
-0.0000000004818749
 11
618.7004490114318
 21
367.9629728731821
 31
-0.0000000004818749
  0
LINE
  5
16FF
330
70
100
AcDbEntity
  8
MOJI
100
AcDbLine
 10
618.7004490114318
 20
367.9629728731821
 30
-0.0000000004818749
 11
573.1111546574343
 21
288.9999987708375
 31
-0.0000000004818749
  0
DIMENSION
  5
1701
330
70
100
AcDbEntity
  8
SUNPO
 48
0.1
100
AcDbDimension
280
     0
  2
*D14
 10
563.2559702942339
 20
241.0337533254124
 30
-0.0000000009637499
 11
573.8149619705686
 21
238.1521846190326
 31
-0.0000000009637499
 70
   160
  1
≧10
 71
     5
 42
9.999999999998181
 73
     0
 74
     0
 75
     0
  3
CAD-DL
100
AcDbAlignedDimension
 13
553.2559702942357
 23
267.4999987708373
 33
-0.0000000004818749
 14
563.2559702942339
 24
267.5446495455499
 34
-0.0000000004818749
100
AcDbRotatedDimension
1001
ACAD
1000
DSTYLE
1002
{
1070
   176
1070
     0
1070
    41
1040
1.0
1070
    42
1040
5.0
1070
    44
1040
0.0
1002
}
  0
MTEXT
  5
1A05
330
70
100
AcDbEntity
  8
WAKU
 48
0.4999999993549407
100
AcDbMText
 10
374.9999977972373
 20
15.99999978558344
 30
0.0
 40
4.999999993549406
 41
200.2574173176324
 46
0.0
 71
     5
 72
     5
  1
開口部01（止縁C15・捨板（15×85））
  7
WAKU
 73
     1
 44
1.0
  0
MTEXT
  5
1A06
330
70
100
AcDbEntity
  8
WAKU
 48
0.4999999993549407
100
AcDbMText
 10
374.9999977972373
 20
25.99999977268226
 30
0.0
 40
4.999999993549406
 41
200.2574173176324
 46
0.0
 71
     5
 72
     5
  1
銘壁　新築
  7
WAKU
 73
     1
 44
1.0
  0
TEXT
  5
1A12
330
70
100
AcDbEntity
  8
MOJI
100
AcDbText
 10
69.89566837214607
 20
442.0006925820953
 30
0.0
 40
5.0
  1
４×19以上）
 50
0.0000000000014388
  7
CAD-DL
 11
69.89566837214602
 21
444.5006925820952
 31
0.0
100
AcDbText
 73
     2
  0
TEXT
  5
1A13
330
70
100
AcDbEntity
  8
MOJI
100
AcDbText
 10
23.35825418375573
 20
449.1392260325094
 30
0.0
 40
5.0
  1
ドリルビス（シンワッシャー
 50
0.0000000000014388
  7
CAD-DL
 11
23.35825418375566
 21
451.6392260325093
 31
0.0
100
AcDbText
 73
     2
  0
TEXT
  5
1A2A
330
70
100
AcDbEntity
  8
MOJI
100
AcDbText
 10
631.6643786804205
 20
318.5887091527199
 30
0.0
 40
5.0
  1
ドリルビス（シンワッシャー4×19以上）
 50
0.0000000000014388
  7
CAD-DL
 11
631.6643786804204
 21
321.0887091527199
 31
0.0
100
AcDbText
 73
     2
  0
TEXT
  5
1A2C
330
70
100
AcDbEntity
  8
MOJI
100
AcDbText
 10
70.01811390318086
 20
111.8343951416674
 30
0.0
 40
5.0
  1
４×19以上）
 50
0.0000000000014388
  7
CAD-DL
 11
70.0181139031808
 21
114.3343951416674
 31
0.0
100
AcDbText
 73
     2
  0
TEXT
  5
1A2D
330
70
100
AcDbEntity
  8
MOJI
100
AcDbText
 10
23.48069971479051
 20
118.9729285920815
 30
0.0
 40
5.0
  1
ドリルビス（シンワッシャー
 50
0.0000000000014388
  7
CAD-DL
 11
23.48069971479045
 21
121.4729285920815
 31
0.0
100
AcDbText
 73
     2
  0
INSERT
  5
1A3A
102
{ACAD_REACTORS
330
1A3B
102
}
330
70
100
AcDbEntity
  8
YAKUMONO
100
AcDbBlockReference
  2
01止縁C15
 10
150.2074913840724
 20
395.3641145902702
 30
-0.0000000004818749
 50
180.0
  0
TEXT
  5
1A43
330
70
100
AcDbEntity
  8
MOJI
100
AcDbText
 10
76.34600378206852
 20
399.3335556733813
 30
0.0
 40
5.0
  1
止縁C15
 50
0.0000000000014388
  7
CAD-DL
 11
76.34600378206847
 21
401.8335556733813
 31
0.0
100
AcDbText
 73
     2
  0
TEXT
  5
1A44
330
70
100
AcDbEntity
  8
MOJI
100
AcDbText
 10
14.51050430841753
 20
391.8465187534538
 30
0.0
 40
5.0
  1
（水抜き穴Φ5＠300現場加工）
 50
0.0000000000014388
  7
CAD-DL
 11
14.51050430841746
 21
394.3465187534538
 31
0.0
100
AcDbText
 73
     2
  0
TEXT
  5
1A64
330
70
100
AcDbEntity
  8
MOJI
100
AcDbText
 10
97.20426361417468
 20
472.4058050507154
 30
-0.0000000004818749
 40
5.0
  1
銘壁
  7
CAD-DL
 72
     2
 11
110.1991874720427
 21
474.9058050507153
 31
-0.0000000004818749
100
AcDbText
 73
     2
  0
TEXT
  5
1A65
330
70
100
AcDbEntity
  8
MOJI
100
AcDbText
 10
75.31735885405591
 20
494.274036530502
 30
-0.0000000004818749
 40
5.0
  1
防水テープ
  7
CAD-DL
 72
     2
 11
107.8046684987259
 21
496.774036530502
 31
-0.0000000004818749
100
AcDbText
 73
     2
  0
TEXT
  5
1A66
330
70
100
AcDbEntity
  8
MOJI
100
AcDbText
 10
36.52762707493521
 20
421.8789386177695
 30
0.0
 40
5.0
  1
シーリング（別途工事）
  7
CAD-DL
 72
     2
 11
107.9997082932093
 21
424.3789386177695
 31
0.0
100
AcDbText
 73
     2
  0
TEXT
  5
1A6C
330
70
100
AcDbEntity
  8
MOJI
100
AcDbText
 10
178.8467254477637
 20
493.8454290269936
 30
-0.0000000004742021
 40
5.0
  1
防水紙
 50
0.0000000000014388
  7
CAD-DL
 11
178.8467254477636
 21
496.3454290269935
 31
-0.0000000004742021
100
AcDbText
 73
     2
  0
TEXT
  5
1A6F
330
70
100
AcDbEntity
  8
MOJI
100
AcDbText
 10
178.8467254477637
 20
463.4931542382085
 30
-0.0000000004742021
 40
5.0
  1
捨板（15×85）
 50
0.0000000000014388
  7
CAD-DL
 11
178.8467254477636
 21
465.9931542382085
 31
-0.0000000004742021
100
AcDbText
 73
     2
  0
TEXT
  5
1A70
330
70
100
AcDbEntity
  8
MOJI
100
AcDbText
 10
179.9752549590012
 20
320.8464198236382
 30
-0.0000000004818749
 40
5.0
  1
両面防水テープ
 50
0.0000000000014388
  7
CAD-DL
 11
179.9752549590011
 21
323.3464198236382
 31
-0.0000000004818749
100
AcDbText
 73
     2
  0
TEXT
  5
1A73
330
70
100
AcDbEntity
  8
MOJI
100
AcDbText
 10
65.9267504157369
 20
292.1006158340589
 30
-0.0000000004818749
 40
5.0
  1
捨てシーリング
  7
CAD-DL
 72
     2
 11
111.408983918275
 21
294.600615834059
 31
-0.0000000004818749
100
AcDbText
 73
     2
  0
TEXT
  5
1A80
330
70
100
AcDbEntity
  8
MOJI
100
AcDbText
 10
28.68821446776434
 20
256.6707858110449
 30
-0.0000000004818749
 40
5.0
  1
バックアップ材（別途工事）
  7
CAD-DL
 72
     2
 11
113.1552195439065
 21
259.1707858110449
 31
-0.0000000004818749
100
AcDbText
 73
     2
  0
TEXT
  5
1A81
330
70
100
AcDbEntity
  8
MOJI
100
AcDbText
 10
33.16801802579012
 20
185.0734251942668
 30
-0.0000000004818749
 40
5.0
  1
シーリング（別途工事）
  7
CAD-DL
 72
     2
 11
104.6400992440642
 21
187.5734251942668
 31
-0.0000000004818749
100
AcDbText
 73
     2
  0
TEXT
  5
1A82
330
70
100
AcDbEntity
  8
MOJI
100
AcDbText
 10
82.31333950188838
 20
168.2577282917202
 30
0.0
 40
5.0
  1
止縁C15
 50
0.0000000000014388
  7
CAD-DL
 11
82.31333950188831
 21
170.7577282917202
 31
0.0
100
AcDbText
 73
     2
  0
TEXT
  5
1A83
330
70
100
AcDbEntity
  8
MOJI
100
AcDbText
 10
35.8173848279168
 20
146.3116659795099
 30
-0.0000000004818749
 40
5.0
  1
シーリング（別途工事）
  7
CAD-DL
 72
     2
 11
107.2894660461909
 21
148.8116659795099
 31
-0.0000000004818749
100
AcDbText
 73
     2
  0
TEXT
  5
1A84
330
70
100
AcDbEntity
  8
MOJI
100
AcDbText
 10
95.01514682912748
 20
74.59393318891972
 30
-0.0000000004818749
 40
5.0
  1
銘壁
  7
CAD-DL
 72
     2
 11
108.0100706869955
 21
77.09393318891972
 31
-0.0000000004818749
100
AcDbText
 73
     2
  0
TEXT
  5
1A87
330
70
100
AcDbEntity
  8
MOJI
100
AcDbText
 10
181.6733231777353
 20
59.13204989159368
 30
-0.0000000004742021
 40
5.0
  1
防水紙
 50
0.0000000000014388
  7
CAD-DL
 11
181.6733231777352
 21
61.63204989159368
 31
-0.0000000004742021
100
AcDbText
 73
     2
  0
TEXT
  5
1A88
330
70
100
AcDbEntity
  8
MOJI
100
AcDbText
 10
179.9752549590012
 20
244.4081324448144
 30
-0.0000000004818749
 40
5.0
  1
両面防水テープ
 50
0.0000000000014388
  7
CAD-DL
 11
179.9752549590011
 21
246.9081324448144
 31
-0.0000000004818749
100
AcDbText
 73
     2
  0
TEXT
  5
1A89
330
70
100
AcDbEntity
  8
MOJI
100
AcDbText
 10
275.3840728417181
 20
135.4633605380096
 30
-0.0000000004818749
 40
5.0
  1
□100×100×2.3以上
 50
0.0000000000014388
  7
CAD-DL
 11
275.3840728417181
 21
137.9633605380095
 31
-0.0000000004818749
100
AcDbText
 73
     2
  0
TEXT
  5
1A8C
330
70
100
AcDbEntity
  8
MOJI
100
AcDbText
 10
349.2725280106633
 20
295.9986295686543
 30
-0.0000000004818749
 40
5.0
  1
ビス頭シーリング　
  7
CAD-DL
 72
     2
 11
407.7496853710694
 21
298.4986295686543
 31
-0.0000000004818749
100
AcDbText
 73
     2
  0
TEXT
  5
1A8D
330
70
100
AcDbEntity
  8
MOJI
100
AcDbText
 10
358.5056815022063
 20
365.2824660132101
 30
-0.0000000004818749
 40
5.0
  1
シーリング（別途工事）
  7
CAD-DL
 72
     2
 11
429.9777627204804
 21
367.7824660132101
 31
-0.0000000004818749
100
AcDbText
 73
     2
  0
TEXT
  5
1A8E
330
70
100
AcDbEntity
  8
MOJI
100
AcDbText
 10
342.0712776595993
 20
323.5233038766178
 30
-0.0000000004818749
 40
5.0
  1
シーリング（別途工事）
  7
CAD-DL
 72
     2
 11
413.5433588778734
 21
326.0233038766178
 31
-0.0000000004818749
100
AcDbText
 73
     2
  0
TEXT
  5
1A8F
330
70
100
AcDbEntity
  8
MOJI
100
AcDbText
 10
345.9588575410666
 20
345.3130807401458
 30
-0.0000000004818749
 40
5.0
  1
バックアップ材（別途工事）
  7
CAD-DL
 72
     2
 11
430.4258626172087
 21
347.8130807401458
 31
-0.0000000004818749
100
AcDbText
 73
     2
  0
TEXT
  5
1A90
330
70
100
AcDbEntity
  8
MOJI
100
AcDbText
 10
626.0171472749381
 20
365.4629728731821
 30
-0.0000000004818749
 40
5.0
  1
止縁C15
 50
0.0000000000014388
  7
CAD-DL
 11
626.0171472749379
 21
367.9629728731821
 31
-0.0000000004818749
100
AcDbText
 73
     2
  0
TEXT
  5
1A91
330
70
100
AcDbEntity
  8
MOJI
100
AcDbText
 10
630.7811523379633
 20
349.9910086630968
 30
-0.0000000004818749
 40
5.0
  1
シーリング（別途工事）
 50
0.0000000000014388
  7
CAD-DL
 11
630.7811523379633
 21
352.4910086630967
 31
-0.0000000004818749
100
AcDbText
 73
     2
  0
TEXT
  5
1A92
330
70
100
AcDbEntity
  8
MOJI
100
AcDbText
 10
630.7672644420446
 20
334.7380200628607
 30
-0.0000000004818749
 40
5.0
  1
両面防水テープ
 50
0.0000000000014388
  7
CAD-DL
 11
630.7672644420445
 21
337.2380200628607
 31
-0.0000000004818749
100
AcDbText
 73
     2
  0
TEXT
  5
1A93
330
70
100
AcDbEntity
  8
MOJI
100
AcDbText
 10
675.4249262731328
 20
299.8300868724474
 30
0.0000000001461593
 40
5.0
  1
銘壁
 50
0.0000000000014388
  7
CAD-DL
 11
675.4249262731327
 21
302.3300868724474
 31
0.0000000001461593
100
AcDbText
 73
     2
  0
TEXT
  5
1A94
330
70
100
AcDbEntity
  8
MOJI
100
AcDbText
 10
680.6184770754481
 20
223.5597792337453
 30
-0.0000000004818749
 40
5.0
  1
防水紙
 50
0.0000000000014388
  7
CAD-DL
 11
680.618477075448
 21
226.0597792337453
 31
-0.0000000004818749
100
AcDbText
 73
     2
  0
TEXT
  5
1A95
330
70
100
AcDbEntity
  8
MOJI
100
AcDbText
 10
650.4414369738744
 20
119.4084791531381
 30
-0.0000000004818749
 40
5.0
  1
□100×100×2.3以上
 50
0.0000000000014388
  7
CAD-DL
 11
650.4414369738742
 21
121.9084791531382
 31
-0.0000000004818749
100
AcDbText
 73
     2
  0
ENDSEC
  0
SECTION
  2
OBJECTS
  0
DICTIONARY
  5
C
330
0
100
AcDbDictionary
281
     1
  3
ACAD_CIP_PREVIOUS_PRODUCT_INFO
350
AB4
  3
ACAD_COLOR
350
63
  3
ACAD_DETAILVIEWSTYLE
350
6A
  3
ACAD_GROUP
350
D
  3
ACAD_LAYOUT
350
62
  3
ACAD_MATERIAL
350
10
  3
ACAD_MLEADERSTYLE
350
66
  3
ACAD_MLINESTYLE
350
5F
  3
ACAD_PLOTSETTINGS
350
61
  3
ACAD_PLOTSTYLENAME
350
E
  3
ACAD_SCALELIST
350
42
  3
ACAD_SECTIONVIEWSTYLE
350
68
  3
ACAD_TABLESTYLE
350
64
  3
ACAD_VISUALSTYLE
350
29
  3
ACDB_RECOMPOSE_DATA
350
1AAB
  3
AcDbVariableDictionary
350
AA0
  3
AcDsDecomposeData
350
1AB1
  0
DICTIONARY
  5
CE0
330
8
100
AcDbDictionary
280
     1
281
     1
  0
DICTIONARY
  5
1277
330
2
100
AcDbDictionary
280
     1
281
     1
  3
ACAD_LAYERSTATES
360
1278
  0
DICTIONARY
  5
CD7
330
54
100
AcDbDictionary
280
     1
281
     1
  3
ADSK_XREC_LAYER_RECONCILED
360
CD8
  0
DICTIONARY
  5
92
330
91
100
AcDbDictionary
280
     1
281
     1
  3
ADSK_XREC_LAYER_RECONCILED
360
93
  0
DICTIONARY
  5
97
330
96
100
AcDbDictionary
280
     1
281
     1
  3
ADSK_XREC_LAYER_RECONCILED
360
98
  0
DICTIONARY
  5
9F
330
9E
100
AcDbDictionary
280
     1
281
     1
  3
ADSK_XREC_LAYER_RECONCILED
360
A0
  0
DICTIONARY
  5
A8
330
A7
100
AcDbDictionary
280
     1
281
     1
  3
ADSK_XREC_LAYER_RECONCILED
360
A9
  0
DICTIONARY
  5
BC
330
BB
100
AcDbDictionary
280
     1
281
     1
  3
ADSK_XREC_LAYER_RECONCILED
360
BD
  0
DICTIONARY
  5
C0
330
BF
100
AcDbDictionary
280
     1
281
     1
  3
ADSK_XREC_LAYER_RECONCILED
360
C1
  0
DICTIONARY
  5
F5
330
F4
100
AcDbDictionary
280
     1
281
     1
  3
ADSK_XREC_LAYER_RECONCILED
360
F6
  0
DICTIONARY
  5
120
330
11F
100
AcDbDictionary
280
     1
281
     1
  3
ADSK_XREC_LAYER_RECONCILED
360
121
  0
DICTIONARY
  5
159
330
158
100
AcDbDictionary
280
     1
281
     1
  3
ADSK_XREC_LAYER_RECONCILED
360
CD9
  0
DICTIONARY
  5
173
330
172
100
AcDbDictionary
280
     1
281
     1
  3
ADSK_XREC_LAYER_RECONCILED
360
174
  0
DICTIONARY
  5
179
330
178
100
AcDbDictionary
280
     1
281
     1
  3
ADSK_XREC_LAYER_RECONCILED
360
CDA
  0
DICTIONARY
  5
193
330
192
100
AcDbDictionary
280
     1
281
     1
  3
ADSK_XREC_LAYER_RECONCILED
360
194
  0
DICTIONARY
  5
338
330
337
100
AcDbDictionary
280
     1
281
     1
  3
ADSK_XREC_LAYER_RECONCILED
360
CDB
  0
DICTIONARY
  5
126D
330
126C
100
AcDbDictionary
280
     1
281
     1
  0
DICTIONARY
  5
126F
330
126E
100
AcDbDictionary
280
     1
281
     1
  0
DICTIONARY
  5
369
330
70
100
AcDbDictionary
280
     1
281
     1
  3
ACAD_SORTENTS
360
113A
  0
DICTIONARY
  5
118B
330
118A
100
AcDbDictionary
280
     1
281
     1
  0
DICTIONARY
  5
11BD
330
11BC
100
AcDbDictionary
280
     1
281
     1
  3
ACAD_SORTENTS
360
11BE
  0
XRECORD
  5
AB4
102
{ACAD_REACTORS
330
C
102
}
330
C
100
AcDbXrecord
280
     1
300
ACDLT
300
2017
300
86604ACDLT_2017_0F
  0
DICTIONARY
  5
63
102
{ACAD_REACTORS
330
C
102
}
330
C
100
AcDbDictionary
281
     1
  0
DICTIONARY
  5
6A
102
{ACAD_REACTORS
330
C
102
}
330
C
100
AcDbDictionary
281
     1
  3
Imperial24
350
6B
  3
Metric50
350
AAD
  0
DICTIONARY
  5
D
102
{ACAD_REACTORS
330
C
102
}
330
C
100
AcDbDictionary
281
     1
  3
*A1
350
1A39
  3
*A2
350
1A3B
  0
DICTIONARY
  5
62
102
{ACAD_REACTORS
330
C
102
}
330
C
100
AcDbDictionary
281
     1
  3
Model
350
73
  3
レイアウト1
350
6F
  3
レイアウト2
350
77
  0
DICTIONARY
  5
10
102
{ACAD_REACTORS
330
C
102
}
330
C
100
AcDbDictionary
281
     1
  3
ByBlock
350
19
  3
ByLayer
350
11
  3
Global
350
21
  0
DICTIONARY
  5
66
102
{ACAD_REACTORS
330
C
102
}
330
C
100
AcDbDictionary
281
     1
  3
Standard
350
67
  0
DICTIONARY
  5
5F
102
{ACAD_REACTORS
330
C
102
}
330
C
100
AcDbDictionary
281
     1
  3
Standard
350
60
  0
DICTIONARY
  5
61
102
{ACAD_REACTORS
330
C
102
}
330
C
100
AcDbDictionary
281
     1
  0
ACDBDICTIONARYWDFLT
  5
E
102
{ACAD_REACTORS
330
C
102
}
330
C
100
AcDbDictionary
281
     1
  3
Normal
350
F
  3
スタイル 1
350
8B
100
AcDbDictionaryWithDefault
340
F
  0
DICTIONARY
  5
42
102
{ACAD_REACTORS
330
C
102
}
330
C
100
AcDbDictionary
281
     1
  3
A0
350
43
  3
A1
350
44
  3
A2
350
45
  3
A3
350
46
  3
A4
350
47
  3
A5
350
48
  3
A6
350
49
  3
A7
350
4A
  3
A8
350
4B
  3
A9
350
4C
  3
B0
350
4D
  3
B1
350
4E
  3
B2
350
4F
  3
B3
350
50
  3
B4
350
51
  3
B5
350
52
  3
B6
350
53
  0
DICTIONARY
  5
68
102
{ACAD_REACTORS
330
C
102
}
330
C
100
AcDbDictionary
281
     1
  3
Imperial24
350
69
  3
Metric50
350
AAC
  0
DICTIONARY
  5
64
102
{ACAD_REACTORS
330
C
102
}
330
C
100
AcDbDictionary
281
     1
  3
Standard
350
65
  0
DICTIONARY
  5
29
102
{ACAD_REACTORS
330
C
102
}
330
C
100
AcDbDictionary
281
     1
  3
2dWireframe
350
2F
  3
Basic
350
2E
  3
Brighten
350
35
  3
ColorChange
350
39
  3
Conceptual
350
32
  3
Dim
350
34
  3
EdgeColorOff
350
41
  3
Facepattern
350
38
  3
Flat
350
2A
  3
FlatWithEdges
350
2B
  3
Gouraud
350
2C
  3
GouraudWithEdges
350
2D
  3
Hidden
350
31
  3
JitterOff
350
3F
  3
Linepattern
350
37
  3
OverhangOff
350
40
  3
Realistic
350
33
  3
Shaded
350
3E
  3
Shaded with edges
350
3D
  3
Shades of Gray
350
3A
  3
Sketchy
350
3B
  3
Thicken
350
36
  3
Wireframe
350
30
  3
X-Ray
350
3C
  0
XRECORD
  5
1AAB
102
{ACAD_REACTORS
330
C
102
}
330
C
100
AcDbXrecord
280
     1
 90
        1
330
65
  0
DICTIONARY
  5
AA0
102
{ACAD_REACTORS
330
C
102
}
330
C
100
AcDbDictionary
281
     1
  3
ANNOALLVISIBLE
350
AA6
  3
CANNOSCALE
350
AA7
  3
CMLEADERSTYLE
350
AA2
  3
CTABLESTYLE
350
AA1
  3
CVIEWDETAILSTYLE
350
AA3
  3
CVIEWSECTIONSTYLE
350
AA4
  3
LAYEREVAL
350
AA9
  3
LAYERNOTIFY
350
AAA
  3
LIGHTINGUNITS
350
AA8
  3
MSLTSCALE
350
AA5
  0
DICTIONARY
  5
1AB1
102
{ACAD_REACTORS
330
C
102
}
330
C
100
AcDbDictionary
281
     1
  3
AcDsRecords
350
1AB3
  3
AcDsSchemas
350
1AB2
1001
ACAD
1070
     2
  0
DICTIONARY
  5
1278
102
{ACAD_REACTORS
330
1277
102
}
330
1277
100
AcDbDictionary
281
     1
  0
XRECORD
  5
CD8
102
{ACAD_REACTORS
330
CD7
102
}
330
CD7
100
AcDbXrecord
280
     1
290
     1
  0
XRECORD
  5
93
102
{ACAD_REACTORS
330
92
102
}
330
92
100
AcDbXrecord
280
     1
290
     1
  0
XRECORD
  5
98
102
{ACAD_REACTORS
330
97
102
}
330
97
100
AcDbXrecord
280
     1
290
     1
  0
XRECORD
  5
A0
102
{ACAD_REACTORS
330
9F
102
}
330
9F
100
AcDbXrecord
280
     1
290
     1
  0
XRECORD
  5
A9
102
{ACAD_REACTORS
330
A8
102
}
330
A8
100
AcDbXrecord
280
     1
290
     1
  0
XRECORD
  5
BD
102
{ACAD_REACTORS
330
BC
102
}
330
BC
100
AcDbXrecord
280
     1
290
     1
  0
XRECORD
  5
C1
102
{ACAD_REACTORS
330
C0
102
}
330
C0
100
AcDbXrecord
280
     1
290
     1
  0
XRECORD
  5
F6
102
{ACAD_REACTORS
330
F5
102
}
330
F5
100
AcDbXrecord
280
     1
290
     1
  0
XRECORD
  5
121
102
{ACAD_REACTORS
330
120
102
}
330
120
100
AcDbXrecord
280
     1
290
     1
  0
XRECORD
  5
CD9
102
{ACAD_REACTORS
330
159
102
}
330
159
100
AcDbXrecord
280
     1
290
     1
  0
XRECORD
  5
174
102
{ACAD_REACTORS
330
173
102
}
330
173
100
AcDbXrecord
280
     1
290
     1
  0
XRECORD
  5
CDA
102
{ACAD_REACTORS
330
179
102
}
330
179
100
AcDbXrecord
280
     1
290
     1
  0
XRECORD
  5
194
102
{ACAD_REACTORS
330
193
102
}
330
193
100
AcDbXrecord
280
     1
290
     1
  0
XRECORD
  5
CDB
102
{ACAD_REACTORS
330
338
102
}
330
338
100
AcDbXrecord
280
     1
290
     1
  0
SORTENTSTABLE
  5
113A
102
{ACAD_REACTORS
330
369
102
}
330
369
100
AcDbSortentsTable
330
70
331
16F0
  5
16EC
331
168A
  5
1686
331
15D0
  5
15CC
331
1623
  5
161F
331
155A
  5
1556
331
14F2
  5
14F1
331
165E
  5
165A
331
15AD
  5
15A9
331
15B7
  5
15B3
331
1505
  5
1504
331
1671
  5
166D
331
16EA
  5
16E6
331
1541
  5
153C
331
160A
  5
1606
331
1645
  5
1641
331
1594
  5
1590
331
14EC
  5
14EB
331
16BE
  5
16BA
331
161D
  5
1619
331
14D9
  5
14D9
331
AE7
  5
C33
331
15A7
  5
15A3
331
5D7
  5
5DD
331
1A3A
  5
1A2A
331
1A66
  5
1A66
331
1678
  5
1674
331
16F1
  5
16ED
331
1548
  5
1541
331
168B
  5
1687
331
1624
  5
1620
331
155B
  5
1557
331
14F3
  5
14F2
331
15D1
  5
15CD
331
16D8
  5
16D3
331
165F
  5
165B
331
15AE
  5
15AA
331
15B8
  5
15B4
331
1506
  5
1505
331
AE8
  5
C30
331
1672
  5
166E
331
16EB
  5
16E7
331
1542
  5
153D
331
160B
  5
1607
331
1646
  5
1642
331
1595
  5
1591
331
14ED
  5
14EC
331
16BF
  5
16BB
331
161E
  5
161A
331
14DA
  5
14DA
331
7C9
  5
C21
331
1679
  5
1675
331
1520
  5
151C
331
16F2
  5
16EE
331
1549
  5
1542
331
168C
  5
1688
331
1625
  5
1621
331
155C
  5
1558
331
14F4
  5
14F3
331
15D2
  5
15CE
331
1660
  5
165C
331
15AF
  5
15AB
331
15B9
  5
15B5
331
1507
  5
1506
331
AE9
  5
C31
331
1673
  5
166F
331
16EC
  5
16E8
331
1543
  5
153F
331
160C
  5
1608
331
14DB
  5
14DB
331
1647
  5
1643
331
1596
  5
1592
331
14EE
  5
14ED
331
161F
  5
161B
331
CCC
  5
5CB
331
7CA
  5
C22
331
16A0
  5
169C
331
15C0
  5
15BC
331
167A
  5
1676
331
1521
  5
151D
331
16F3
  5
16EF
331
168D
  5
1689
331
15D3
  5
15CF
331
1626
  5
1622
331
155D
  5
1559
331
14F5
  5
14F4
331
154A
  5
1543
331
16DA
  5
16D5
331
1661
  5
165D
331
15BA
  5
15B6
331
1508
  5
1507
331
AEA
  5
C2E
331
1674
  5
1670
331
16ED
  5
16E9
331
1544
  5
1540
331
160D
  5
1609
331
1597
  5
1593
331
14EF
  5
14EE
331
14DC
  5
14DC
331
7CB
  5
C23
331
16A1
  5
169D
331
1628
  5
1624
331
15C1
  5
15BD
331
167B
  5
1677
331
1522
  5
151E
331
16F4
  5
16F0
331
168E
  5
168A
331
15D4
  5
15D0
331
1627
  5
1623
331
155E
  5
155A
331
14F6
  5
14F5
331
154B
  5
1544
331
1662
  5
165E
331
15BB
  5
15B7
331
1509
  5
1508
331
AEB
  5
C2F
331
1675
  5
1671
331
16EE
  5
16EA
331
160E
  5
160A
331
14DD
  5
14DD
331
7CC
  5
C24
331
1A70
  5
1A70
331
16A2
  5
169E
331
1629
  5
1625
331
1578
  5
1574
331
1510
  5
150F
331
167C
  5
1678
331
1523
  5
151F
331
15C2
  5
15BE
331
16F5
  5
16F1
331
168F
  5
168B
331
155F
  5
155B
331
14F7
  5
14F6
331
154C
  5
1548
331
16DC
  5
16D8
331
1663
  5
165F
331
15BC
  5
15B8
331
150A
  5
1509
331
1676
  5
1672
331
16EF
  5
16EB
331
160F
  5
160B
331
14DE
  5
14DE
331
AEC
  5
C26
331
1A05
  5
16FF
331
16A3
  5
169F
331
162A
  5
1626
331
1579
  5
1575
331
1511
  5
1510
331
167D
  5
1679
331
1524
  5
1520
331
15C3
  5
15BF
331
16F6
  5
16F2
331
1690
  5
168C
331
15D6
  5
15D2
331
1560
  5
155C
331
14F8
  5
14F7
331
154D
  5
1549
331
16DD
  5
16D9
331
1664
  5
1660
331
15BD
  5
15B9
331
150B
  5
150A
331
1677
  5
1673
331
14DF
  5
14DF
331
AED
  5
C25
331
1A06
  5
1700
331
1A6C
  5
1A6C
331
15F0
  5
15EC
331
16A4
  5
16A0
331
162B
  5
1627
331
157A
  5
1576
331
1512
  5
1511
331
167E
  5
167A
331
1525
  5
1521
331
1691
  5
168D
331
15D7
  5
15D3
331
1561
  5
155D
331
14F9
  5
14F8
331
154E
  5
154A
331
15C4
  5
15C0
331
16DE
  5
16DA
331
1665
  5
1661
331
15BE
  5
15BA
331
150C
  5
150B
331
AEE
  5
C1F
331
7CF
  5
C27
331
1698
  5
1694
331
15F1
  5
15ED
331
1568
  5
1564
331
16A5
  5
16A1
331
162C
  5
1628
331
157B
  5
1577
331
1513
  5
1512
331
167F
  5
167B
331
1526
  5
1522
331
16F8
  5
16F4
331
1692
  5
168E
331
15D8
  5
15D4
331
1562
  5
155E
331
14FA
  5
14F9
331
154F
  5
154B
331
15C5
  5
15C1
331
16DF
  5
16DB
331
1666
  5
1662
331
15BF
  5
15BB
331
150D
  5
150C
331
AEF
  5
C20
331
1699
  5
1695
331
15F2
  5
15EE
331
1569
  5
1565
331
16A6
  5
16A2
331
162D
  5
1629
331
157C
  5
1578
331
1514
  5
1513
331
1680
  5
167C
331
1527
  5
1523
331
16F9
  5
16F5
331
1693
  5
168F
331
1563
  5
155F
331
14FB
  5
14FA
331
1550
  5
154C
331
15C6
  5
15C2
331
1667
  5
1663
331
150E
  5
150D
331
14C1
  5
14C1
331
5D8
  5
5DE
331
1A6F
  5
1A6F
331
16C0
  5
16BC
331
15E0
  5
15DB
331
169A
  5
1696
331
15F3
  5
15EF
331
156A
  5
1566
331
16A7
  5
16A3
331
162E
  5
162A
331
157D
  5
1579
331
1515
  5
1514
331
1681
  5
167D
331
1528
  5
1524
331
1694
  5
1690
331
15DA
  5
15D6
331
1564
  5
1560
331
14FC
  5
14FB
331
1551
  5
154D
331
15C7
  5
15C3
331
150F
  5
150E
331
14C2
  5
14C2
331
5D9
  5
5DF
331
16C1
  5
16BD
331
1648
  5
1644
331
15E1
  5
15DC
331
169B
  5
1697
331
1516
  5
1A2D
331
156B
  5
1567
331
16A8
  5
16A4
331
162F
  5
162B
331
15C8
  5
15C4
331
1682
  5
167E
331
16FB
  5
16F7
331
1695
  5
1691
331
15DB
  5
15D7
331
1565
  5
1561
331
14FD
  5
14FC
331
1552
  5
154E
331
157E
  5
157A
331
14C3
  5
14C3
331
5DA
  5
5E0
331
1530
  5
152A
331
16C2
  5
16BE
331
1649
  5
1645
331
1598
  5
1594
331
15E2
  5
15DD
331
169C
  5
1698
331
1517
  5
1A38
331
15F5
  5
15F1
331
156C
  5
1568
331
16A9
  5
16A5
331
1630
  5
162C
331
15C9
  5
15C5
331
1683
  5
167F
331
152A
  5
1526
331
16FC
  5
16F8
331
1696
  5
1692
331
15DC
  5
15D8
331
1566
  5
1562
331
14FE
  5
14FD
331
1553
  5
154F
331
157F
  5
157B
331
14C4
  5
14C4
331
5DB
  5
5E1
331
5C8
  5
5CE
331
1A12
  5
1701
331
16B0
  5
16AC
331
16C3
  5
16BF
331
164A
  5
1646
331
1599
  5
1595
331
169D
  5
1699
331
15E3
  5
15DF
331
1518
  5
1A3A
331
15F6
  5
15F2
331
156D
  5
1569
331
16AA
  5
16A6
331
1631
  5
162D
331
15CA
  5
15C6
331
1684
  5
1680
331
152B
  5
1527
331
1697
  5
1693
331
1567
  5
1563
331
14FF
  5
14FE
331
1554
  5
1550
331
1580
  5
157C
331
14C5
  5
14C5
331
5C9
  5
5CF
331
1A13
  5
1702
331
1638
  5
1634
331
16B1
  5
16AD
331
1610
  5
160C
331
1532
  5
152B
331
16C4
  5
16C0
331
164B
  5
1647
331
159A
  5
1596
331
169E
  5
169A
331
15E4
  5
15E0
331
156E
  5
156A
331
16AB
  5
16A7
331
1632
  5
162E
331
1581
  5
157D
331
1519
  5
1515
331
1685
  5
1681
331
16FE
  5
16FA
331
1555
  5
1551
331
15CB
  5
15C7
331
14C6
  5
14C6
331
5CA
  5
5D0
331
1639
  5
1635
331
1588
  5
1584
331
16B2
  5
16AE
331
1611
  5
160D
331
16C5
  5
16C1
331
164C
  5
1648
331
159B
  5
1597
331
1533
  5
152D
331
169F
  5
169B
331
15E5
  5
15E1
331
14E0
  5
14E0
331
15F8
  5
15F4
331
156F
  5
156B
331
16AC
  5
16A8
331
1633
  5
162F
331
1582
  5
157E
331
151A
  5
1516
331
1686
  5
1682
331
152D
  5
1528
331
16FF
  5
16FB
331
15DF
  5
15DA
331
1556
  5
1552
331
15CC
  5
15C8
331
14C7
  5
14C7
331
163A
  5
1636
331
1589
  5
1585
331
16B3
  5
16AF
331
1612
  5
160E
331
16C6
  5
16C2
331
164D
  5
1649
331
159C
  5
1598
331
1534
  5
152E
331
15E6
  5
15E2
331
14E1
  5
14E1
331
1570
  5
156C
331
16AD
  5
16A9
331
1634
  5
1630
331
1583
  5
157F
331
151B
  5
1517
331
152E
  5
1529
331
15CD
  5
15C9
331
14C8
  5
14C8
331
1687
  5
1683
331
1557
  5
1553
331
5C6
  5
5CC
331
7D0
  5
C28
331
16E0
  5
16DC
331
1600
  5
15FC
331
163B
  5
1637
331
158A
  5
1586
331
16B4
  5
16B0
331
1613
  5
160F
331
16C7
  5
16C3
331
164E
  5
164A
331
159D
  5
1599
331
15E7
  5
15E3
331
14E2
  5
14E2
331
15FA
  5
15F6
331
1571
  5
156D
331
16AE
  5
16AA
331
1635
  5
1631
331
1584
  5
1580
331
151C
  5
1518
331
15CE
  5
15CA
331
14C9
  5
14C9
331
5C7
  5
5CD
331
7D1
  5
C29
331
AF0
  5
C1D
331
1A2A
  5
1A05
331
1A43
  5
1A43
331
1668
  5
1664
331
16E1
  5
16DD
331
1601
  5
15FD
331
14D0
  5
14D0
331
163C
  5
1638
331
158B
  5
1587
331
16B5
  5
16B1
331
1614
  5
1610
331
16C8
  5
16C4
331
164F
  5
164B
331
159E
  5
159A
331
1536
  5
1532
331
15E8
  5
15E4
331
14E3
  5
14E3
331
7D2
  5
C2A
331
15FB
  5
15F7
331
1572
  5
156E
331
16AF
  5
16AB
331
1636
  5
1632
331
1585
  5
1581
331
151D
  5
1519
331
15CF
  5
15CB
331
14CA
  5
14CA
331
7B9
  5
C10
331
AF1
  5
C18
331
1A44
  5
1A44
331
1669
  5
1665
331
16E2
  5
16DE
331
1539
  5
1534
331
1602
  5
15FE
331
14D1
  5
14D1
331
7C0
  5
C17
331
163D
  5
1639
331
158C
  5
1588
331
16B6
  5
16B2
331
1615
  5
1611
331
16C9
  5
16C5
331
1650
  5
164C
331
159F
  5
159B
331
1537
  5
1533
331
15E9
  5
15E5
331
14E4
  5
14E4
331
15FC
  5
15F8
331
1573
  5
156F
331
1637
  5
1633
331
1586
  5
1582
331
151E
  5
151A
331
14CB
  5
14CB
331
7D3
  5
C2B
331
1A2C
  5
1A06
331
166A
  5
1666
331
15B0
  5
15AC
331
16E3
  5
16DF
331
153A
  5
1535
331
1603
  5
15FF
331
14D2
  5
14D2
331
14E5
  5
1A2C
331
163E
  5
163A
331
158D
  5
1589
331
16B7
  5
16B3
331
1616
  5
1612
331
1651
  5
164D
331
15A0
  5
159C
331
15EA
  5
15E6
331
15FD
  5
15F9
331
1574
  5
1570
331
1587
  5
1583
331
151F
  5
151B
331
14CC
  5
14CC
331
7D4
  5
C2C
331
1A2D
  5
1A12
331
16D1
  5
16CD
331
1658
  5
1654
331
15B1
  5
15AD
331
166B
  5
1667
331
16E4
  5
16E0
331
153B
  5
1536
331
1604
  5
1600
331
14D3
  5
14D3
331
7C2
  5
C19
331
163F
  5
163B
331
158E
  5
158A
331
14E6
  5
14E5
331
16B8
  5
16B4
331
16CB
  5
16C7
331
1652
  5
164E
331
15A1
  5
159D
331
15EB
  5
15E7
331
1617
  5
1613
331
7D5
  5
C2D
331
15FE
  5
15FA
331
1575
  5
1571
331
14CD
  5
14CD
331
7BC
  5
C13
331
16D2
  5
16CE
331
1659
  5
1655
331
15A8
  5
15A4
331
1500
  5
14FF
331
15B2
  5
15AE
331
166C
  5
1668
331
16E5
  5
16E1
331
153C
  5
1537
331
1605
  5
1601
331
1640
  5
163C
331
158F
  5
158B
331
14E7
  5
14E6
331
16B9
  5
16B5
331
1618
  5
1614
331
14D4
  5
14D4
331
7C3
  5
C1A
331
1653
  5
164F
331
15A2
  5
159E
331
15EC
  5
15E8
331
5D2
  5
5D8
331
15FF
  5
15FB
331
1576
  5
1572
331
14CE
  5
14CE
331
7BD
  5
C14
331
16D3
  5
16CF
331
165A
  5
1656
331
15A9
  5
15A5
331
1501
  5
1500
331
15B3
  5
15AF
331
166D
  5
1669
331
16E6
  5
16E2
331
153D
  5
1539
331
1606
  5
1602
331
1641
  5
163D
331
1590
  5
158C
331
14E8
  5
14E7
331
16BA
  5
16B6
331
1619
  5
1615
331
14D5
  5
14D5
331
16CD
  5
16C9
331
1654
  5
1650
331
15A3
  5
159F
331
5D3
  5
5D9
331
1577
  5
1573
331
14CF
  5
14CF
331
7BE
  5
C15
331
7C4
  5
C1B
331
1620
  5
161C
331
16D4
  5
16D0
331
165B
  5
1657
331
15AA
  5
15A6
331
1502
  5
1501
331
15B4
  5
15B0
331
AE4
  5
C34
331
166E
  5
166A
331
16E7
  5
16E3
331
1607
  5
1603
331
1642
  5
163E
331
1591
  5
158D
331
14E9
  5
14E8
331
16BB
  5
16B7
331
161A
  5
1616
331
14D6
  5
14D6
331
7C5
  5
C1C
331
16CE
  5
16CA
331
1655
  5
1651
331
15A4
  5
15A0
331
15EE
  5
15EA
331
7BF
  5
C16
331
5D4
  5
5DA
331
1688
  5
1684
331
1701
  5
16FD
331
1558
  5
1554
331
14F0
  5
14EF
331
16D5
  5
16D1
331
165C
  5
1658
331
15AB
  5
15A7
331
1503
  5
1502
331
15B5
  5
15B1
331
1621
  5
161D
331
166F
  5
166B
331
16E8
  5
16E4
331
153F
  5
153A
331
1608
  5
1604
331
1643
  5
163F
331
1592
  5
158E
331
14EA
  5
14E9
331
16BC
  5
16B8
331
161B
  5
1617
331
14D7
  5
14D7
331
AE5
  5
C35
331
16CF
  5
16CB
331
1656
  5
1652
331
15A5
  5
15A1
331
5D5
  5
5DB
331
1A64
  5
1A64
331
1689
  5
1685
331
1559
  5
1555
331
14F1
  5
14F0
331
16D6
  5
16D2
331
165D
  5
1659
331
15AC
  5
15A8
331
1504
  5
1503
331
15B6
  5
15B2
331
1622
  5
161E
331
AE6
  5
C32
331
1670
  5
166C
331
16E9
  5
16E5
331
1540
  5
153B
331
1609
  5
1605
331
1644
  5
1640
331
1593
  5
158F
331
14EB
  5
14EA
331
16BD
  5
16B9
331
161C
  5
1618
331
14D8
  5
14D8
331
7C7
  5
C1E
331
1657
  5
1653
331
15A6
  5
15A2
331
5D6
  5
5DC
331
1A65
  5
1A65
  0
SORTENTSTABLE
  5
11BE
102
{ACAD_REACTORS
330
11BD
102
}
330
11BD
100
AcDbSortentsTable
330
11BC
  0
ACDBDETAILVIEWSTYLE
  5
6B
102
{ACAD_XDICTIONARY
360
19F0
102
}
102
{ACAD_REACTORS
330
6A
102
}
330
6A
100
AcDbModelDocViewStyle
 70
     0
  3
Imperial24
290
     0
100
AcDbDetailViewStyle
 70
     0
 71
     0
 90
        3
 71
     1
340
55
 62
   256
 40
0.24
340
0
 62
   256
 40
0.24
300

 40
0.36
280
     3
 71
     2
340
5D
 90
       25
 62
   256
 71
     3
340
55
 62
   256
 40
0.24
 90
        1
 40
0.75
 90
        1
300
%<\AcVar ViewType \f "%tc1">% %<\AcVar ViewDetailId>%\PSCALE %<\AcVar ViewScale \f "%sn">%
 71
     4
340
5D
 90
       25
 62
   256
340
5D
 90
       25
 62
   256
280
     0
  0
ACDBDETAILVIEWSTYLE
  5
AAD
102
{ACAD_XDICTIONARY
360
19F4
102
}
102
{ACAD_REACTORS
330
6A
102
}
330
6A
100
AcDbModelDocViewStyle
 70
     0
  3
Metric50
290
     0
100
AcDbDetailViewStyle
 70
     0
 71
     0
 90
        3
 71
     1
340
55
 62
   256
 40
5.0
340
0
 62
   256
 40
5.0
300

 40
0.0
280
     1
 71
     2
340
5D
 90
       25
 62
   256
 71
     3
340
55
 62
   256
 40
5.0
 90
        0
 40
15.0
 90
        1
300
%<\AcVar ViewDetailId>% (%<\AcVar ViewScale \f "%sn">%)
 71
     4
340
5D
 90
       25
 62
   256
340
5D
 90
       25
 62
   256
280
     0
  0
GROUP
  5
1A39
102
{ACAD_REACTORS
330
D
102
}
330
D
100
AcDbGroup
300

 70
     1
 71
     1
  0
GROUP
  5
1A3B
102
{ACAD_REACTORS
330
D
102
}
330
D
100
AcDbGroup
300

 70
     1
 71
     1
340
1A3A
  0
LAYOUT
  5
73
102
{ACAD_XDICTIONARY
360
1933
102
}
102
{ACAD_REACTORS
330
62
102
}
330
62
100
AcDbPlotSettings
  1

  2
Adobe PDF
  4
A3
  6

 40
3.174999952316284
 41
3.174999952316284
 42
3.17498779296875
 43
3.17498779296875
 44
297.0318298339844
 45
420.1583251953125
 46
-3.159078764067686
 47
-3.09583100406121
 48
0.0
 49
0.0
140
0.0
141
0.0
142
1.0
143
8.027210301646546
 70
 11952
 72
     1
 73
     1
 74
     0
  7
monochrome.ctb
 75
     0
147
0.1245762802296184
 76
     1
 77
     2
 78
   300
148
1499.694673410332
149
540.7994879060133
100
AcDbLayout
  1
Model
 70
     1
 71
     0
 10
0.0
 20
0.0
 11
12.0
 21
9.0
 12
0.0
 22
0.0
 32
0.0
 14
0.0
 24
0.0
 34
0.0
 15
0.0
 25
0.0
 35
0.0
146
0.0
 13
0.0
 23
0.0
 33
0.0
 16
1.0
 26
0.0
 36
0.0
 17
0.0
 27
1.0
 37
0.0
 76
     0
330
70
331
57
1001
ACAD_PSEXT
1000
Adobe PDF
1000
Adobe PDF Converter
1000
Documents\*.pdf
1000

1070
     0
  0
LAYOUT
  5
6F
102
{ACAD_REACTORS
330
62
102
}
330
62
100
AcDbPlotSettings
  1

  2
ApeosPort-IV C4475
  4

  6

 40
0.0
 41
0.0
 42
0.0
 43
0.0
 44
0.0
 45
0.0
 46
0.0
 47
0.0
 48
0.0
 49
0.0
140
0.0
141
0.0
142
1.0
143
1.0
 70
   688
 72
     0
 73
     0
 74
     5
  7
monochrome.ctb
 75
    16
147
1.0
 76
     0
 77
     2
 78
   300
148
0.0
149
0.0
100
AcDbLayout
  1
レイアウト1
 70
     0
 71
     1
 10
0.0
 20
0.0
 11
12.0
 21
9.0
 12
0.0
 22
0.0
 32
0.0
 14
1.000000000000000E+20
 24
1.000000000000000E+20
 34
1.000000000000000E+20
 15
-1.000000000000000E+20
 25
-1.000000000000000E+20
 35
-1.000000000000000E+20
146
0.0
 13
0.0
 23
0.0
 33
0.0
 16
1.0
 26
0.0
 36
0.0
 17
0.0
 27
1.0
 37
0.0
 76
     0
330
6C
  0
LAYOUT
  5
77
102
{ACAD_REACTORS
330
62
102
}
330
62
100
AcDbPlotSettings
  1

  2
ApeosPort-IV C4475
  4

  6

 40
0.0
 41
0.0
 42
0.0
 43
0.0
 44
0.0
 45
0.0
 46
0.0
 47
0.0
 48
0.0
 49
0.0
140
0.0
141
0.0
142
1.0
143
1.0
 70
   688
 72
     0
 73
     0
 74
     5
  7
monochrome.ctb
 75
    16
147
1.0
 76
     0
 77
     2
 78
   300
148
0.0
149
0.0
100
AcDbLayout
  1
レイアウト2
 70
     1
 71
     2
 10
0.0
 20
0.0
 11
12.0
 21
9.0
 12
0.0
 22
0.0
 32
0.0
 14
0.0
 24
0.0
 34
0.0
 15
0.0
 25
0.0
 35
0.0
146
0.0
 13
0.0
 23
0.0
 33
0.0
 16
1.0
 26
0.0
 36
0.0
 17
0.0
 27
1.0
 37
0.0
 76
     0
330
74
  0
MATERIAL
  5
19
102
{ACAD_XDICTIONARY
360
1A
102
}
102
{ACAD_REACTORS
330
10
102
}
330
10
100
AcDbMaterial
  1
ByBlock
 72
     0
 43
0.0208333333333333
 43
0.0
 43
0.0
 43
0.0
 43
0.0
 43
0.0208333333333333
 43
0.0
 43
0.0
 43
0.0
 43
0.0
 43
1.0
 43
0.0
 43
0.0
 43
0.0
 43
0.0
 43
1.0
 77
     0
 47
0.0208333333333333
 47
0.0
 47
0.0
 47
0.0
 47
0.0
 47
0.0208333333333333
 47
0.0
 47
0.0
 47
0.0
 47
0.0
 47
1.0
 47
0.0
 47
0.0
 47
0.0
 47
0.0
 47
1.0
171
     0
 49
0.0208333333333333
 49
0.0
 49
0.0
 49
0.0
 49
0.0
 49
0.0208333333333333
 49
0.0
 49
0.0
 49
0.0
 49
0.0
 49
1.0
 49
0.0
 49
0.0
 49
0.0
 49
0.0
 49
1.0
175
     0
142
0.0208333333333333
142
0.0
142
0.0
142
0.0
142
0.0
142
0.0208333333333333
142
0.0
142
0.0
142
0.0
142
0.0
142
1.0
142
0.0
142
0.0
142
0.0
142
0.0
142
1.0
179
     0
144
0.0208333333333333
144
0.0
144
0.0
144
0.0
144
0.0
144
0.0208333333333333
144
0.0
144
0.0
144
0.0
144
0.0
144
1.0
144
0.0
144
0.0
144
0.0
144
0.0
144
1.0
147
0.0208333333333333
147
0.0
147
0.0
147
0.0
147
0.0
147
0.0208333333333333
147
0.0
147
0.0
147
0.0
147
0.0
147
1.0
147
0.0
147
0.0
147
0.0
147
0.0
147
1.0
  0
MATERIAL
  5
11
102
{ACAD_XDICTIONARY
360
12
102
}
102
{ACAD_REACTORS
330
10
102
}
330
10
100
AcDbMaterial
  1
ByLayer
 72
     0
 43
0.0208333333333333
 43
0.0
 43
0.0
 43
0.0
 43
0.0
 43
0.0208333333333333
 43
0.0
 43
0.0
 43
0.0
 43
0.0
 43
1.0
 43
0.0
 43
0.0
 43
0.0
 43
0.0
 43
1.0
 77
     0
 47
0.0208333333333333
 47
0.0
 47
0.0
 47
0.0
 47
0.0
 47
0.0208333333333333
 47
0.0
 47
0.0
 47
0.0
 47
0.0
 47
1.0
 47
0.0
 47
0.0
 47
0.0
 47
0.0
 47
1.0
171
     0
 49
0.0208333333333333
 49
0.0
 49
0.0
 49
0.0
 49
0.0
 49
0.0208333333333333
 49
0.0
 49
0.0
 49
0.0
 49
0.0
 49
1.0
 49
0.0
 49
0.0
 49
0.0
 49
0.0
 49
1.0
175
     0
142
0.0208333333333333
142
0.0
142
0.0
142
0.0
142
0.0
142
0.0208333333333333
142
0.0
142
0.0
142
0.0
142
0.0
142
1.0
142
0.0
142
0.0
142
0.0
142
0.0
142
1.0
179
     0
144
0.0208333333333333
144
0.0
144
0.0
144
0.0
144
0.0
144
0.0208333333333333
144
0.0
144
0.0
144
0.0
144
0.0
144
1.0
144
0.0
144
0.0
144
0.0
144
0.0
144
1.0
147
0.0208333333333333
147
0.0
147
0.0
147
0.0
147
0.0
147
0.0208333333333333
147
0.0
147
0.0
147
0.0
147
0.0
147
1.0
147
0.0
147
0.0
147
0.0
147
0.0
147
1.0
  0
MATERIAL
  5
21
102
{ACAD_XDICTIONARY
360
22
102
}
102
{ACAD_REACTORS
330
10
102
}
330
10
100
AcDbMaterial
  1
Global
 72
     0
 43
0.0208333333333333
 43
0.0
 43
0.0
 43
0.0
 43
0.0
 43
0.0208333333333333
 43
0.0
 43
0.0
 43
0.0
 43
0.0
 43
1.0
 43
0.0
 43
0.0
 43
0.0
 43
0.0
 43
1.0
 77
     0
 47
0.0208333333333333
 47
0.0
 47
0.0
 47
0.0
 47
0.0
 47
0.0208333333333333
 47
0.0
 47
0.0
 47
0.0
 47
0.0
 47
1.0
 47
0.0
 47
0.0
 47
0.0
 47
0.0
 47
1.0
171
     0
 49
0.0208333333333333
 49
0.0
 49
0.0
 49
0.0
 49
0.0
 49
0.0208333333333333
 49
0.0
 49
0.0
 49
0.0
 49
0.0
 49
1.0
 49
0.0
 49
0.0
 49
0.0
 49
0.0
 49
1.0
175
     0
142
0.0208333333333333
142
0.0
142
0.0
142
0.0
142
0.0
142
0.0208333333333333
142
0.0
142
0.0
142
0.0
142
0.0
142
1.0
142
0.0
142
0.0
142
0.0
142
0.0
142
1.0
179
     0
144
0.0208333333333333
144
0.0
144
0.0
144
0.0
144
0.0
144
0.0208333333333333
144
0.0
144
0.0
144
0.0
144
0.0
144
1.0
144
0.0
144
0.0
144
0.0
144
0.0
144
1.0
147
0.0208333333333333
147
0.0
147
0.0
147
0.0
147
0.0
147
0.0208333333333333
147
0.0
147
0.0
147
0.0
147
0.0
147
1.0
147
0.0
147
0.0
147
0.0
147
0.0
147
1.0
  0
MLEADERSTYLE
  5
67
102
{ACAD_XDICTIONARY
360
1AE4
102
}
102
{ACAD_REACTORS
330
66
102
}
330
66
100
AcDbMLeaderStyle
179
     2
170
     2
171
     1
172
     0
 90
        2
 40
0.0
 41
0.0
173
     1
 91
-1056964608
340
5B
 92
       -2
290
     1
 42
0.09
291
     1
 43
0.36
  3
Standard
 44
0.18
300

342
55
174
     1
178
     6
175
     1
176
     0
 93
-1056964608
 45
0.18
292
     0
297
     0
 46
0.18
 94
-1056964608
 47
1.0
 49
1.0
140
1.0
293
     1
141
0.0
294
     1
177
     0
142
1.0
295
     0
296
     0
143
0.125
271
     0
272
     9
273
     9
  0
MLINESTYLE
  5
60
102
{ACAD_REACTORS
330
5F
102
}
330
5F
100
AcDbMlineStyle
  2
STANDARD
 70
     0
  3

 62
   256
 51
90.0
 52
90.0
 71
     2
 49
0.5
 62
   256
  6
BYLAYER
 49
-0.5
 62
   256
  6
BYLAYER
  0
ACDBPLACEHOLDER
  5
F
102
{ACAD_REACTORS
330
E
102
}
330
E
  0
ACDBPLACEHOLDER
  5
8B
102
{ACAD_REACTORS
330
E
102
}
330
E
  0
SCALE
  5
43
102
{ACAD_REACTORS
330
42
102
}
330
42
100
AcDbScale
 70
     0
300
1:1
140
1.0
141
1.0
290
     1
  0
SCALE
  5
44
102
{ACAD_REACTORS
330
42
102
}
330
42
100
AcDbScale
 70
     0
300
1:2
140
1.0
141
2.0
290
     0
  0
SCALE
  5
45
102
{ACAD_REACTORS
330
42
102
}
330
42
100
AcDbScale
 70
     0
300
1:4
140
1.0
141
4.0
290
     0
  0
SCALE
  5
46
102
{ACAD_REACTORS
330
42
102
}
330
42
100
AcDbScale
 70
     0
300
1:5
140
1.0
141
5.0
290
     0
  0
SCALE
  5
47
102
{ACAD_REACTORS
330
42
102
}
330
42
100
AcDbScale
 70
     0
300
1:8
140
1.0
141
8.0
290
     0
  0
SCALE
  5
48
102
{ACAD_REACTORS
330
42
102
}
330
42
100
AcDbScale
 70
     0
300
1:10
140
1.0
141
10.0
290
     0
  0
SCALE
  5
49
102
{ACAD_REACTORS
330
42
102
}
330
42
100
AcDbScale
 70
     0
300
1:16
140
1.0
141
16.0
290
     0
  0
SCALE
  5
4A
102
{ACAD_REACTORS
330
42
102
}
330
42
100
AcDbScale
 70
     0
300
1:20
140
1.0
141
20.0
290
     0
  0
SCALE
  5
4B
102
{ACAD_REACTORS
330
42
102
}
330
42
100
AcDbScale
 70
     0
300
1:30
140
1.0
141
30.0
290
     0
  0
SCALE
  5
4C
102
{ACAD_REACTORS
330
42
102
}
330
42
100
AcDbScale
 70
     0
300
1:40
140
1.0
141
40.0
290
     0
  0
SCALE
  5
4D
102
{ACAD_REACTORS
330
42
102
}
330
42
100
AcDbScale
 70
     0
300
1:50
140
1.0
141
50.0
290
     0
  0
SCALE
  5
4E
102
{ACAD_REACTORS
330
42
102
}
330
42
100
AcDbScale
 70
     0
300
1:100
140
1.0
141
100.0
290
     0
  0
SCALE
  5
4F
102
{ACAD_REACTORS
330
42
102
}
330
42
100
AcDbScale
 70
     0
300
2:1
140
2.0
141
1.0
290
     0
  0
SCALE
  5
50
102
{ACAD_REACTORS
330
42
102
}
330
42
100
AcDbScale
 70
     0
300
4:1
140
4.0
141
1.0
290
     0
  0
SCALE
  5
51
102
{ACAD_REACTORS
330
42
102
}
330
42
100
AcDbScale
 70
     0
300
8:1
140
8.0
141
1.0
290
     0
  0
SCALE
  5
52
102
{ACAD_REACTORS
330
42
102
}
330
42
100
AcDbScale
 70
     0
300
10:1
140
10.0
141
1.0
290
     0
  0
SCALE
  5
53
102
{ACAD_REACTORS
330
42
102
}
330
42
100
AcDbScale
 70
     0
300
100:1
140
100.0
141
1.0
290
     0
  0
ACDBSECTIONVIEWSTYLE
  5
69
102
{ACAD_XDICTIONARY
360
19EE
102
}
102
{ACAD_REACTORS
330
68
102
}
330
68
100
AcDbModelDocViewStyle
 70
     0
  3
Imperial24
290
     0
100
AcDbSectionViewStyle
 70
     0
 71
     0
 90
       78
 71
     1
340
55
 62
   256
 40
0.24
340
0
340
0
 62
   256
 40
0.24
300
I, O, Q, S, X, Z
 40
0.48
 90
        3
 40
0.18
 90
        1
 71
     2
340
5D
 90
       25
 62
   256
340
5D
 90
       50
 62
   256
 40
0.24
 40
0.0
 40
0.24
 71
     3
340
55
 62
   256
 40
0.24
 90
        1
 40
0.75
 90
        1
300
%<\AcVar ViewType \f "%tc1">% %<\AcVar ViewSectionStartId>%-%<\AcVar ViewSectionEndId>%\PSCALE %<\AcVar ViewScale \f "%sn">%
 71
     4
 62
   256
 62
   257
300
ANSI31
 40
1.0
 90
        0
290
     0
290
     0
 90
        6
 40
0.0
 40
1.570796326794896
 40
0.2617993877991494
 40
1.308996938995747
 40
-0.2617993877991494
 40
1.832595714594046
  0
ACDBSECTIONVIEWSTYLE
  5
AAC
102
{ACAD_XDICTIONARY
360
19F2
102
}
102
{ACAD_REACTORS
330
68
102
}
330
68
100
AcDbModelDocViewStyle
 70
     0
  3
Metric50
290
     0
100
AcDbSectionViewStyle
 70
     0
 71
     0
 90
      102
 71
     1
340
55
 62
   256
 40
5.0
340
0
340
0
 62
   256
 40
5.0
300
I, O, Q, S, X, Z
 40
10.0
 90
        0
 40
2.5
 90
        0
 71
     2
340
5D
 90
       25
 62
   256
340
5D
 90
       50
 62
   256
 40
5.0
 40
2.5
 40
5.0
 71
     3
340
55
 62
   256
 40
5.0
 90
        0
 40
15.0
 90
        1
300
%<\AcVar ViewSectionStartId>%-%<\AcVar ViewSectionEndId>% (%<\AcVar ViewScale \f "%sn">%)
 71
     4
 62
   256
 62
   257
300
ANSI31
 40
1.0
 90
        0
290
     0
290
     0
 90
        6
 40
0.0
 40
1.570796326794896
 40
0.2617993877991494
 40
1.308996938995747
 40
-0.2617993877991494
 40
1.832595714594046
  0
TABLESTYLE
  5
65
102
{ACAD_XDICTIONARY
360
CDD
102
}
102
{ACAD_REACTORS
330
64
102
}
330
64
100
AcDbTableStyle
280
     0
  3
Standard
 70
     0
 71
     3
 40
1.5
 41
1.5
280
     0
281
     0
  7
STANDARD
140
4.5
170
     2
 62
     0
 63
     7
283
     0
 90
      512
 91
        0
  1

274
    -2
284
     1
 64
     0
275
    -2
285
     1
 65
     0
276
    -2
286
     1
 66
     0
277
    -2
287
     1
 67
     0
278
    -2
288
     1
 68
     0
279
    -2
289
     1
 69
     0
  7
STANDARD
140
6.0
170
     5
 62
     0
 63
     7
283
     0
 90
      512
 91
        0
  1

274
    -2
284
     1
 64
     0
275
    -2
285
     1
 65
     0
276
    -2
286
     1
 66
     0
277
    -2
287
     1
 67
     0
278
    -2
288
     1
 68
     0
279
    -2
289
     1
 69
     0
  7
STANDARD
140
4.5
170
     5
 62
     0
 63
     7
283
     0
 90
      512
 91
        0
  1

274
    -2
284
     1
 64
     0
275
    -2
285
     1
 65
     0
276
    -2
286
     1
 66
     0
277
    -2
287
     1
 67
     0
278
    -2
288
     1
 68
     0
279
    -2
289
     1
 69
     0
  0
VISUALSTYLE
  5
2F
102
{ACAD_XDICTIONARY
360
1ABE
102
}
102
{ACAD_REACTORS
330
29
102
}
330
29
100
AcDbVisualStyle
  2
2dWireframe
 70
     4
177
     2
291
     0
 71
     0
176
     1
 72
     2
176
     1
 73
     0
176
     1
 90
        0
176
     1
 40
0.6
176
     1
 41
30.0
176
     1
 63
     7
421
 16777215
176
     1
 74
     1
176
     1
 91
        4
176
     1
 64
     7
176
     1
 65
   257
176
     1
 75
     1
176
     1
175
     1
176
     1
 42
1.0
176
     1
 92
        0
176
     1
 66
   257
176
     1
 43
1.0
176
     1
 76
     1
176
     1
 77
     6
176
     1
 78
     2
176
     1
 67
     7
176
     1
 79
     5
176
     1
170
     0
176
     1
171
     0
176
     1
290
     0
176
     1
 93
        1
176
     1
 44
0.0
176
     1
173
     0
176
     1
1001
ACAD
1000
AcDbSavedByObjectVersion
1070
     0
  0
VISUALSTYLE
  5
2E
102
{ACAD_XDICTIONARY
360
1ABC
102
}
102
{ACAD_REACTORS
330
29
102
}
330
29
100
AcDbVisualStyle
  2
Basic
 70
     7
177
     2
291
     1
 71
     1
176
     1
 72
     0
176
     1
 73
     1
176
     1
 90
        0
176
     1
 40
0.6
176
     1
 41
30.0
176
     1
 63
     7
421
 16777215
176
     1
 74
     0
176
     1
 91
        4
176
     1
 64
     7
176
     1
 65
   257
176
     1
 75
     1
176
     1
175
     1
176
     1
 42
1.0
176
     1
 92
        8
176
     1
 66
     7
176
     1
 43
1.0
176
     1
 76
     1
176
     1
 77
     6
176
     1
 78
     2
176
     1
 67
     7
176
     1
 79
     5
176
     1
170
     0
176
     1
171
     0
176
     1
290
     0
176
     1
 93
        1
176
     1
 44
0.0
176
     1
173
     0
176
     1
1001
ACAD
1000
AcDbSavedByObjectVersion
1070
     0
  0
VISUALSTYLE
  5
35
102
{ACAD_XDICTIONARY
360
1ACA
102
}
102
{ACAD_REACTORS
330
29
102
}
330
29
100
AcDbVisualStyle
  2
Brighten
 70
    12
177
     2
291
     1
 71
     2
176
     1
 72
     2
176
     1
 73
     0
176
     1
 90
        0
176
     1
 40
0.6
176
     1
 41
30.0
176
     1
 63
     7
421
 16777215
176
     1
 74
     1
176
     1
 91
        4
176
     1
 64
     7
176
     1
 65
   257
176
     1
 75
     1
176
     1
175
     1
176
     1
 42
1.0
176
     1
 92
        8
176
     1
 66
     7
176
     1
 43
1.0
176
     1
 76
     1
176
     1
 77
     6
176
     1
 78
     2
176
     1
 67
     7
176
     1
 79
     5
176
     1
170
     0
176
     1
171
     0
176
     1
290
     0
176
     1
 93
        1
176
     1
 44
50.0
176
     1
173
     0
176
     1
1001
ACAD
1000
AcDbSavedByObjectVersion
1070
     0
  0
VISUALSTYLE
  5
39
102
{ACAD_XDICTIONARY
360
1AD2
102
}
102
{ACAD_REACTORS
330
29
102
}
330
29
100
AcDbVisualStyle
  2
ColorChange
 70
    16
177
     2
291
     1
 71
     2
176
     1
 72
     2
176
     1
 73
     3
176
     1
 90
        0
176
     1
 40
0.6
176
     1
 41
30.0
176
     1
 63
     8
421
  8421504
176
     1
 74
     1
176
     1
 91
        4
176
     1
 64
     7
176
     1
 65
   257
176
     1
 75
     1
176
     1
175
     1
176
     1
 42
1.0
176
     1
 92
        8
176
     1
 66
     8
424
  8421504
176
     1
 43
1.0
176
     1
 76
     1
176
     1
 77
     6
176
     1
 78
     2
176
     1
 67
     7
176
     1
 79
     5
176
     1
170
     0
176
     1
171
     0
176
     1
290
     0
176
     1
 93
        1
176
     1
 44
0.0
176
     1
173
     0
176
     1
1001
ACAD
1000
AcDbSavedByObjectVersion
1070
     0
  0
VISUALSTYLE
  5
32
102
{ACAD_XDICTIONARY
360
1AC4
102
}
102
{ACAD_REACTORS
330
29
102
}
330
29
100
AcDbVisualStyle
  2
Conceptual
 70
     9
177
     2
291
     0
 71
     3
176
     1
 72
     2
176
     1
 73
     0
176
     1
 90
        0
176
     1
 40
0.6
176
     1
 41
30.0
176
     1
 63
     7
421
 16777215
176
     1
 74
     2
176
     1
 91
        2
176
     1
 64
     7
176
     1
 65
   257
176
     1
 75
     1
176
     1
175
     1
176
     1
 42
179.0
176
     1
 92
        8
176
     1
 66
     7
176
     1
 43
1.0
176
     1
 76
     1
176
     1
 77
     6
176
     1
 78
     2
176
     1
 67
     7
176
     1
 79
     3
176
     1
170
     0
176
     1
171
     0
176
     1
290
     0
176
     1
 93
        1
176
     1
 44
0.0
176
     1
173
     0
176
     1
1001
ACAD
1000
AcDbSavedByObjectVersion
1070
     0
  0
VISUALSTYLE
  5
34
102
{ACAD_XDICTIONARY
360
1AC8
102
}
102
{ACAD_REACTORS
330
29
102
}
330
29
100
AcDbVisualStyle
  2
Dim
 70
    11
177
     2
291
     1
 71
     2
176
     1
 72
     2
176
     1
 73
     0
176
     1
 90
        0
176
     1
 40
0.6
176
     1
 41
30.0
176
     1
 63
     7
421
 16777215
176
     1
 74
     1
176
     1
 91
        4
176
     1
 64
     7
176
     1
 65
   257
176
     1
 75
     1
176
     1
175
     1
176
     1
 42
1.0
176
     1
 92
        8
176
     1
 66
     7
176
     1
 43
1.0
176
     1
 76
     1
176
     1
 77
     6
176
     1
 78
     2
176
     1
 67
     7
176
     1
 79
     5
176
     1
170
     0
176
     1
171
     0
176
     1
290
     0
176
     1
 93
        1
176
     1
 44
-50.0
176
     1
173
     0
176
     1
1001
ACAD
1000
AcDbSavedByObjectVersion
1070
     0
  0
VISUALSTYLE
  5
41
102
{ACAD_XDICTIONARY
360
1AE2
102
}
102
{ACAD_REACTORS
330
29
102
}
330
29
100
AcDbVisualStyle
  2
EdgeColorOff
 70
    22
177
     2
291
     1
 71
     2
176
     0
 72
     2
176
     0
 73
     0
176
     0
 90
        0
176
     0
 40
0.6
176
     0
 41
30.0
176
     0
 63
     7
421
 16777215
176
     0
 74
     1
176
     0
 91
        4
176
     0
 64
     7
176
     0
 65
   257
176
     0
 75
     1
176
     0
175
     1
176
     0
 42
1.0
176
     0
 92
        8
176
     2
 66
     7
176
     0
 43
1.0
176
     0
 76
     1
176
     0
 77
     6
176
     0
 78
     2
176
     0
 67
     7
176
     0
 79
     5
176
     0
170
     0
176
     0
171
     0
176
     0
290
     0
176
     0
 93
        1
176
     0
 44
0.0
176
     0
173
     0
176
     0
1001
ACAD
1000
AcDbSavedByObjectVersion
1070
     0
  0
VISUALSTYLE
  5
38
102
{ACAD_XDICTIONARY
360
1AD0
102
}
102
{ACAD_REACTORS
330
29
102
}
330
29
100
AcDbVisualStyle
  2
Facepattern
 70
    15
177
     2
291
     1
 71
     2
176
     1
 72
     2
176
     1
 73
     0
176
     1
 90
        0
176
     1
 40
0.6
176
     1
 41
30.0
176
     1
 63
     7
421
 16777215
176
     1
 74
     1
176
     1
 91
        4
176
     1
 64
     7
176
     1
 65
   257
176
     1
 75
     1
176
     1
175
     1
176
     1
 42
1.0
176
     1
 92
        8
176
     1
 66
     7
176
     1
 43
1.0
176
     1
 76
     1
176
     1
 77
     6
176
     1
 78
     2
176
     1
 67
     7
176
     1
 79
     5
176
     1
170
     0
176
     1
171
     0
176
     1
290
     0
176
     1
 93
        1
176
     1
 44
0.0
176
     1
173
     0
176
     1
1001
ACAD
1000
AcDbSavedByObjectVersion
1070
     0
  0
VISUALSTYLE
  5
2A
102
{ACAD_XDICTIONARY
360
1AB4
102
}
102
{ACAD_REACTORS
330
29
102
}
330
29
100
AcDbVisualStyle
  2
Flat
 70
     0
177
     2
291
     1
 71
     2
176
     1
 72
     1
176
     1
 73
     1
176
     1
 90
        2
176
     1
 40
0.6
176
     1
 41
30.0
176
     1
 63
     7
421
 16777215
176
     1
 74
     0
176
     1
 91
        0
176
     1
 64
     7
176
     1
 65
   257
176
     1
 75
     1
176
     1
175
     1
176
     1
 42
1.0
176
     1
 92
        8
176
     1
 66
     7
176
     1
 43
1.0
176
     1
 76
     1
176
     1
 77
     6
176
     1
 78
     2
176
     1
 67
     7
176
     1
 79
     5
176
     1
170
     0
176
     1
171
     0
176
     1
290
     0
176
     1
 93
       13
176
     1
 44
0.0
176
     1
173
     0
176
     1
1001
ACAD
1000
AcDbSavedByObjectVersion
1070
     0
  0
VISUALSTYLE
  5
2B
102
{ACAD_XDICTIONARY
360
1AB6
102
}
102
{ACAD_REACTORS
330
29
102
}
330
29
100
AcDbVisualStyle
  2
FlatWithEdges
 70
     1
177
     2
291
     1
 71
     2
176
     1
 72
     1
176
     1
 73
     1
176
     1
 90
        2
176
     1
 40
0.6
176
     1
 41
30.0
176
     1
 63
     7
421
 16777215
176
     1
 74
     1
176
     1
 91
        0
176
     1
 64
     7
176
     1
 65
   257
176
     1
 75
     1
176
     1
175
     1
176
     1
 42
1.0
176
     1
 92
        0
176
     1
 66
   257
176
     1
 43
1.0
176
     1
 76
     1
176
     1
 77
     6
176
     1
 78
     2
176
     1
 67
     7
176
     1
 79
     5
176
     1
170
     0
176
     1
171
     0
176
     1
290
     0
176
     1
 93
       13
176
     1
 44
0.0
176
     1
173
     0
176
     1
1001
ACAD
1000
AcDbSavedByObjectVersion
1070
     0
  0
VISUALSTYLE
  5
2C
102
{ACAD_XDICTIONARY
360
1AB8
102
}
102
{ACAD_REACTORS
330
29
102
}
330
29
100
AcDbVisualStyle
  2
Gouraud
 70
     2
177
     2
291
     1
 71
     2
176
     1
 72
     2
176
     1
 73
     1
176
     1
 90
        2
176
     1
 40
0.6
176
     1
 41
30.0
176
     1
 63
     7
421
 16777215
176
     1
 74
     0
176
     1
 91
        0
176
     1
 64
     7
176
     1
 65
   257
176
     1
 75
     1
176
     1
175
     1
176
     1
 42
1.0
176
     1
 92
        0
176
     1
 66
     7
176
     1
 43
1.0
176
     1
 76
     1
176
     1
 77
     6
176
     1
 78
     2
176
     1
 67
     7
176
     1
 79
     5
176
     1
170
     0
176
     1
171
     0
176
     1
290
     0
176
     1
 93
       13
176
     1
 44
0.0
176
     1
173
     0
176
     1
1001
ACAD
1000
AcDbSavedByObjectVersion
1070
     0
  0
VISUALSTYLE
  5
2D
102
{ACAD_XDICTIONARY
360
1ABA
102
}
102
{ACAD_REACTORS
330
29
102
}
330
29
100
AcDbVisualStyle
  2
GouraudWithEdges
 70
     3
177
     2
291
     1
 71
     2
176
     1
 72
     2
176
     1
 73
     1
176
     1
 90
        2
176
     1
 40
0.6
176
     1
 41
30.0
176
     1
 63
     7
421
 16777215
176
     1
 74
     1
176
     1
 91
        0
176
     1
 64
     7
176
     1
 65
   257
176
     1
 75
     1
176
     1
175
     1
176
     1
 42
1.0
176
     1
 92
        0
176
     1
 66
   257
176
     1
 43
1.0
176
     1
 76
     1
176
     1
 77
     6
176
     1
 78
     2
176
     1
 67
     7
176
     1
 79
     5
176
     1
170
     0
176
     1
171
     0
176
     1
290
     0
176
     1
 93
       13
176
     1
 44
0.0
176
     1
173
     0
176
     1
1001
ACAD
1000
AcDbSavedByObjectVersion
1070
     0
  0
VISUALSTYLE
  5
31
102
{ACAD_XDICTIONARY
360
1AC2
102
}
102
{ACAD_REACTORS
330
29
102
}
330
29
100
AcDbVisualStyle
  2
Hidden
 70
     6
177
     2
291
     0
 71
     1
176
     1
 72
     2
176
     1
 73
     2
176
     1
 90
        0
176
     1
 40
0.6
176
     1
 41
30.0
176
     1
 63
     7
421
 16777215
176
     1
 74
     2
176
     1
 91
        2
176
     1
 64
     7
176
     1
 65
   257
176
     1
 75
     2
176
     1
175
     1
176
     1
 42
40.0
176
     1
 92
        0
176
     1
 66
   257
176
     1
 43
1.0
176
     1
 76
     1
176
     1
 77
     6
176
     1
 78
     2
176
     1
 67
     7
176
     1
 79
     3
176
     1
170
     0
176
     1
171
     0
176
     1
290
     0
176
     1
 93
        1
176
     1
 44
0.0
176
     1
173
     0
176
     1
1001
ACAD
1000
AcDbSavedByObjectVersion
1070
     0
  0
VISUALSTYLE
  5
3F
102
{ACAD_XDICTIONARY
360
1ADE
102
}
102
{ACAD_REACTORS
330
29
102
}
330
29
100
AcDbVisualStyle
  2
JitterOff
 70
    20
177
     2
291
     1
 71
     2
176
     0
 72
     2
176
     0
 73
     0
176
     0
 90
        0
176
     0
 40
0.6
176
     0
 41
30.0
176
     0
 63
     7
421
 16777215
176
     0
 74
     1
176
     0
 91
        4
176
     0
 64
     7
176
     0
 65
   257
176
     0
 75
     1
176
     0
175
     1
176
     0
 42
1.0
176
     0
 92
       10
176
     2
 66
     7
176
     0
 43
1.0
176
     0
 76
     1
176
     0
 77
     6
176
     0
 78
     2
176
     0
 67
     7
176
     0
 79
     5
176
     0
170
     0
176
     0
171
     0
176
     0
290
     0
176
     0
 93
        1
176
     0
 44
0.0
176
     0
173
     0
176
     0
1001
ACAD
1000
AcDbSavedByObjectVersion
1070
     0
  0
VISUALSTYLE
  5
37
102
{ACAD_XDICTIONARY
360
1ACE
102
}
102
{ACAD_REACTORS
330
29
102
}
330
29
100
AcDbVisualStyle
  2
Linepattern
 70
    14
177
     2
291
     1
 71
     2
176
     1
 72
     2
176
     1
 73
     0
176
     1
 90
        0
176
     1
 40
0.6
176
     1
 41
30.0
176
     1
 63
     7
421
 16777215
176
     1
 74
     1
176
     1
 91
        4
176
     1
 64
     7
176
     1
 65
   257
176
     1
 75
     7
176
     1
175
     7
176
     1
 42
1.0
176
     1
 92
        8
176
     1
 66
     7
176
     1
 43
1.0
176
     1
 76
     1
176
     1
 77
     6
176
     1
 78
     2
176
     1
 67
     7
176
     1
 79
     5
176
     1
170
     0
176
     1
171
     0
176
     1
290
     0
176
     1
 93
        1
176
     1
 44
0.0
176
     1
173
     0
176
     1
1001
ACAD
1000
AcDbSavedByObjectVersion
1070
     0
  0
VISUALSTYLE
  5
40
102
{ACAD_XDICTIONARY
360
1AE0
102
}
102
{ACAD_REACTORS
330
29
102
}
330
29
100
AcDbVisualStyle
  2
OverhangOff
 70
    21
177
     2
291
     1
 71
     2
176
     0
 72
     2
176
     0
 73
     0
176
     0
 90
        0
176
     0
 40
0.6
176
     0
 41
30.0
176
     0
 63
     7
421
 16777215
176
     0
 74
     1
176
     0
 91
        4
176
     0
 64
     7
176
     0
 65
   257
176
     0
 75
     1
176
     0
175
     1
176
     0
 42
1.0
176
     0
 92
        9
176
     2
 66
     7
176
     0
 43
1.0
176
     0
 76
     1
176
     0
 77
     6
176
     0
 78
     2
176
     0
 67
     7
176
     0
 79
     5
176
     0
170
     0
176
     0
171
     0
176
     0
290
     0
176
     0
 93
        1
176
     0
 44
0.0
176
     0
173
     0
176
     0
1001
ACAD
1000
AcDbSavedByObjectVersion
1070
     0
  0
VISUALSTYLE
  5
33
102
{ACAD_XDICTIONARY
360
1AC6
102
}
102
{ACAD_REACTORS
330
29
102
}
330
29
100
AcDbVisualStyle
  2
Realistic
 70
     8
177
     2
291
     0
 71
     2
176
     1
 72
     2
176
     1
 73
     0
176
     1
 90
        2
176
     1
 40
0.6
176
     1
 41
30.0
176
     1
 63
     7
421
 16777215
176
     1
 74
     0
176
     1
 91
        0
176
     1
 64
     7
176
     1
 65
   257
176
     1
 75
     1
176
     1
175
     1
176
     1
 42
1.0
176
     1
 92
        8
176
     1
 66
   257
176
     1
 43
1.0
176
     1
 76
     1
176
     1
 77
     6
176
     1
 78
     2
176
     1
 67
     7
176
     1
 79
     3
176
     1
170
     0
176
     1
171
     0
176
     1
290
     0
176
     1
 93
       13
176
     1
 44
0.0
176
     1
173
     0
176
     1
1001
ACAD
1000
AcDbSavedByObjectVersion
1070
     0
  0
VISUALSTYLE
  5
3E
102
{ACAD_XDICTIONARY
360
1ADC
102
}
102
{ACAD_REACTORS
330
29
102
}
330
29
100
AcDbVisualStyle
  2
Shaded
 70
    27
177
     2
291
     0
 71
     2
176
     1
 72
     2
176
     1
 73
     1
176
     1
 90
        2
176
     1
 40
0.6
176
     1
 41
30.0
176
     1
 63
     7
421
 16777215
176
     1
 74
     0
176
     1
 91
        4
176
     1
 64
     7
176
     1
 65
   257
176
     1
 75
     1
176
     1
175
     1
176
     1
 42
1.0
176
     1
 92
        8
176
     1
 66
   257
176
     1
 43
1.0
176
     1
 76
     1
176
     1
 77
     6
176
     1
 78
     2
176
     1
 67
     8
425
  7895160
176
     1
 79
     3
176
     1
170
     0
176
     1
171
     0
176
     1
290
     0
176
     1
 93
        5
176
     1
 44
0.0
176
     1
173
     0
176
     1
1001
ACAD
1000
AcDbSavedByObjectVersion
1070
     0
  0
VISUALSTYLE
  5
3D
102
{ACAD_XDICTIONARY
360
1ADA
102
}
102
{ACAD_REACTORS
330
29
102
}
330
29
100
AcDbVisualStyle
  2
Shaded with edges
 70
    26
177
     2
291
     0
 71
     2
176
     1
 72
     2
176
     1
 73
     1
176
     1
 90
        2
176
     1
 40
0.6
176
     1
 41
30.0
176
     1
 63
     7
421
 16777215
176
     1
 74
     1
176
     1
 91
        2
176
     1
 64
     7
176
     1
 65
   257
176
     1
 75
     2
176
     1
175
     1
176
     1
 42
1.0
176
     1
 92
        8
176
     1
 66
   257
176
     1
 43
1.0
176
     1
 76
     1
176
     1
 77
     6
176
     1
 78
     2
176
     1
 67
     7
176
     1
 79
     3
176
     1
170
     0
176
     1
171
     0
176
     1
290
     0
176
     1
 93
        5
176
     1
 44
0.0
176
     1
173
     0
176
     1
1001
ACAD
1000
AcDbSavedByObjectVersion
1070
     0
  0
VISUALSTYLE
  5
3A
102
{ACAD_XDICTIONARY
360
1AD4
102
}
102
{ACAD_REACTORS
330
29
102
}
330
29
100
AcDbVisualStyle
  2
Shades of Gray
 70
    23
177
     2
291
     0
 71
     2
176
     1
 72
     2
176
     1
 73
     3
176
     1
 90
        0
176
     1
 40
0.6
176
     1
 41
30.0
176
     1
 63
     7
421
 16777215
176
     1
 74
     2
176
     1
 91
        2
176
     1
 64
     7
176
     1
 65
     7
176
     1
 75
     1
176
     1
175
     1
176
     1
 42
40.0
176
     1
 92
        8
176
     1
 66
     7
176
     1
 43
1.0
176
     1
 76
     1
176
     1
 77
     6
176
     1
 78
     2
176
     1
 67
     7
176
     1
 79
     3
176
     1
170
     0
176
     1
171
     0
176
     1
290
     0
176
     1
 93
        1
176
     1
 44
0.0
176
     1
173
     0
176
     1
1001
ACAD
1000
AcDbSavedByObjectVersion
1070
     0
  0
VISUALSTYLE
  5
3B
102
{ACAD_XDICTIONARY
360
1AD6
102
}
102
{ACAD_REACTORS
330
29
102
}
330
29
100
AcDbVisualStyle
  2
Sketchy
 70
    24
177
     2
291
     0
 71
     1
176
     1
 72
     2
176
     1
 73
     2
176
     1
 90
        0
176
     1
 40
0.6
176
     1
 41
30.0
176
     1
 63
     7
421
 16777215
176
     1
 74
     2
176
     1
 91
        2
176
     1
 64
     7
176
     1
 65
     7
176
     1
 75
     1
176
     1
175
     1
176
     1
 42
40.0
176
     1
 92
       11
176
     1
 66
     7
176
     1
 43
1.0
176
     1
 76
     1
176
     1
 77
     6
176
     1
 78
     2
176
     1
 67
     7
176
     1
 79
     6
176
     1
170
     0
176
     1
171
     0
176
     1
290
     0
176
     1
 93
        1
176
     1
 44
0.0
176
     1
173
     0
176
     1
1001
ACAD
1000
AcDbSavedByObjectVersion
1070
     0
  0
VISUALSTYLE
  5
36
102
{ACAD_XDICTIONARY
360
1ACC
102
}
102
{ACAD_REACTORS
330
29
102
}
330
29
100
AcDbVisualStyle
  2
Thicken
 70
    13
177
     2
291
     1
 71
     2
176
     1
 72
     2
176
     1
 73
     0
176
     1
 90
        0
176
     1
 40
0.6
176
     1
 41
30.0
176
     1
 63
     7
421
 16777215
176
     1
 74
     1
176
     1
 91
        4
176
     1
 64
     7
176
     1
 65
   257
176
     1
 75
     1
176
     1
175
     1
176
     1
 42
1.0
176
     1
 92
       12
176
     1
 66
     7
176
     1
 43
1.0
176
     1
 76
     1
176
     1
 77
     6
176
     1
 78
     2
176
     1
 67
     7
176
     1
 79
     5
176
     1
170
     0
176
     1
171
     0
176
     1
290
     0
176
     1
 93
        1
176
     1
 44
0.0
176
     1
173
     0
176
     1
1001
ACAD
1000
AcDbSavedByObjectVersion
1070
     0
  0
VISUALSTYLE
  5
30
102
{ACAD_XDICTIONARY
360
1AC0
102
}
102
{ACAD_REACTORS
330
29
102
}
330
29
100
AcDbVisualStyle
  2
Wireframe
 70
     5
177
     2
291
     0
 71
     0
176
     1
 72
     2
176
     1
 73
     0
176
     1
 90
        0
176
     1
 40
0.6
176
     1
 41
30.0
176
     1
 63
     7
421
 16777215
176
     1
 74
     1
176
     1
 91
        4
176
     1
 64
     7
176
     1
 65
   257
176
     1
 75
     1
176
     1
175
     1
176
     1
 42
1.0
176
     1
 92
        0
176
     1
 66
   257
176
     1
 43
1.0
176
     1
 76
     1
176
     1
 77
     6
176
     1
 78
     2
176
     1
 67
     7
176
     1
 79
     3
176
     1
170
     0
176
     1
171
     0
176
     1
290
     0
176
     1
 93
        1
176
     1
 44
0.0
176
     1
173
     0
176
     1
1001
ACAD
1000
AcDbSavedByObjectVersion
1070
     0
  0
VISUALSTYLE
  5
3C
102
{ACAD_XDICTIONARY
360
1AD8
102
}
102
{ACAD_REACTORS
330
29
102
}
330
29
100
AcDbVisualStyle
  2
X-Ray
 70
    25
177
     2
291
     0
 71
     2
176
     1
 72
     2
176
     1
 73
     1
176
     1
 90
        1
176
     1
 40
0.5
176
     1
 41
30.0
176
     1
 63
     7
421
 16777215
176
     1
 74
     1
176
     1
 91
        0
176
     1
 64
     7
176
     1
 65
   257
176
     1
 75
     1
176
     1
175
     1
176
     1
 42
1.0
176
     1
 92
        8
176
     1
 66
     7
176
     1
 43
1.0
176
     1
 76
     1
176
     1
 77
     6
176
     1
 78
     2
176
     1
 67
     7
176
     1
 79
     3
176
     1
170
     0
176
     1
171
     0
176
     1
290
     0
176
     1
 93
       13
176
     1
 44
0.0
176
     1
173
     0
176
     1
1001
ACAD
1000
AcDbSavedByObjectVersion
1070
     0
  0
DICTIONARYVAR
  5
AA6
102
{ACAD_REACTORS
330
AA0
102
}
330
AA0
100
DictionaryVariables
280
     0
  1
0
  0
DICTIONARYVAR
  5
AA7
102
{ACAD_REACTORS
330
AA0
102
}
330
AA0
100
DictionaryVariables
280
     0
  1
1:1
  0
DICTIONARYVAR
  5
AA2
102
{ACAD_REACTORS
330
AA0
102
}
330
AA0
100
DictionaryVariables
280
     0
  1
STANDARD
  0
DICTIONARYVAR
  5
AA1
102
{ACAD_REACTORS
330
AA0
102
}
330
AA0
100
DictionaryVariables
280
     0
  1
STANDARD
  0
DICTIONARYVAR
  5
AA3
102
{ACAD_REACTORS
330
AA0
102
}
330
AA0
100
DictionaryVariables
280
     0
  1
Imperial24
  0
DICTIONARYVAR
  5
AA4
102
{ACAD_REACTORS
330
AA0
102
}
330
AA0
100
DictionaryVariables
280
     0
  1
Imperial24
  0
DICTIONARYVAR
  5
AA9
102
{ACAD_REACTORS
330
AA0
102
}
330
AA0
100
DictionaryVariables
280
     0
  1
1
  0
DICTIONARYVAR
  5
AAA
102
{ACAD_REACTORS
330
AA0
102
}
330
AA0
100
DictionaryVariables
280
     0
  1
15
  0
DICTIONARYVAR
  5
AA8
102
{ACAD_REACTORS
330
AA0
102
}
330
AA0
100
DictionaryVariables
280
     0
  1
0
  0
DICTIONARYVAR
  5
AA5
102
{ACAD_REACTORS
330
AA0
102
}
330
AA0
100
DictionaryVariables
280
     0
  1
0
  0
DICTIONARY
  5
1AB3
102
{ACAD_REACTORS
330
1AB1
102
}
330
1AB1
100
AcDbDictionary
281
     1
  0
DICTIONARY
  5
1AB2
102
{ACAD_REACTORS
330
1AB1
102
}
330
1AB1
100
AcDbDictionary
281
     1
  3
2137697860416
350
1AAC
  3
2137697860432
350
1AAD
  3
2137697860448
350
1AAE
  3
2137697860464
350
1AAF
  3
2137697860480
350
1AB0
  0
DICTIONARY
  5
19F0
330
6B
100
AcDbDictionary
280
     1
281
     1
  3
ACAD_XREC_ROUNDTRIP
360
1AE7
  0
DICTIONARY
  5
19F4
330
AAD
100
AcDbDictionary
280
     1
281
     1
  3
ACAD_XREC_ROUNDTRIP
360
1AE9
  0
DICTIONARY
  5
1933
330
73
100
AcDbDictionary
280
     1
281
     1
  0
DICTIONARY
  5
1A
330
19
100
AcDbDictionary
280
     1
281
     1
  3
BUMPTILE
360
1C
  3
DIFFUSETILE
360
1B
  3
OPACITYTILE
360
1F
  3
REFLECTIONTILE
360
1E
  3
REFRACTIONTILE
360
20
  3
SPECULARTILE
360
1D
  0
DICTIONARY
  5
12
330
11
100
AcDbDictionary
280
     1
281
     1
  3
BUMPTILE
360
14
  3
DIFFUSETILE
360
13
  3
OPACITYTILE
360
17
  3
REFLECTIONTILE
360
16
  3
REFRACTIONTILE
360
18
  3
SPECULARTILE
360
15
  0
DICTIONARY
  5
22
330
21
100
AcDbDictionary
280
     1
281
     1
  3
BUMPTILE
360
24
  3
DIFFUSETILE
360
23
  3
OPACITYTILE
360
27
  3
REFLECTIONTILE
360
26
  3
REFRACTIONTILE
360
28
  3
SPECULARTILE
360
25
  0
DICTIONARY
  5
1AE4
330
67
100
AcDbDictionary
280
     1
281
     1
  3
ACAD_XREC_ROUNDTRIP
360
1AE5
  0
DICTIONARY
  5
19EE
330
69
100
AcDbDictionary
280
     1
281
     1
  3
ACAD_XREC_ROUNDTRIP
360
1AE6
  0
DICTIONARY
  5
19F2
330
AAC
100
AcDbDictionary
280
     1
281
     1
  3
ACAD_XREC_ROUNDTRIP
360
1AE8
  0
DICTIONARY
  5
CDD
330
65
100
AcDbDictionary
280
     1
281
     1
  3
ACAD_ROUNDTRIP_2008_TABLESTYLE_CELLSTYLEMAP
360
1AAA
  0
DICTIONARY
  5
1ABE
330
2F
100
AcDbDictionary
280
     1
281
     1
  3
ACAD_XREC_ROUNDTRIP
360
1ABF
  0
DICTIONARY
  5
1ABC
330
2E
100
AcDbDictionary
280
     1
281
     1
  3
ACAD_XREC_ROUNDTRIP
360
1ABD
  0
DICTIONARY
  5
1ACA
330
35
100
AcDbDictionary
280
     1
281
     1
  3
ACAD_XREC_ROUNDTRIP
360
1ACB
  0
DICTIONARY
  5
1AD2
330
39
100
AcDbDictionary
280
     1
281
     1
  3
ACAD_XREC_ROUNDTRIP
360
1AD3
  0
DICTIONARY
  5
1AC4
330
32
100
AcDbDictionary
280
     1
281
     1
  3
ACAD_XREC_ROUNDTRIP
360
1AC5
  0
DICTIONARY
  5
1AC8
330
34
100
AcDbDictionary
280
     1
281
     1
  3
ACAD_XREC_ROUNDTRIP
360
1AC9
  0
DICTIONARY
  5
1AE2
330
41
100
AcDbDictionary
280
     1
281
     1
  3
ACAD_XREC_ROUNDTRIP
360
1AE3
  0
DICTIONARY
  5
1AD0
330
38
100
AcDbDictionary
280
     1
281
     1
  3
ACAD_XREC_ROUNDTRIP
360
1AD1
  0
DICTIONARY
  5
1AB4
330
2A
100
AcDbDictionary
280
     1
281
     1
  3
ACAD_XREC_ROUNDTRIP
360
1AB5
  0
DICTIONARY
  5
1AB6
330
2B
100
AcDbDictionary
280
     1
281
     1
  3
ACAD_XREC_ROUNDTRIP
360
1AB7
  0
DICTIONARY
  5
1AB8
330
2C
100
AcDbDictionary
280
     1
281
     1
  3
ACAD_XREC_ROUNDTRIP
360
1AB9
  0
DICTIONARY
  5
1ABA
330
2D
100
AcDbDictionary
280
     1
281
     1
  3
ACAD_XREC_ROUNDTRIP
360
1ABB
  0
DICTIONARY
  5
1AC2
330
31
100
AcDbDictionary
280
     1
281
     1
  3
ACAD_XREC_ROUNDTRIP
360
1AC3
  0
DICTIONARY
  5
1ADE
330
3F
100
AcDbDictionary
280
     1
281
     1
  3
ACAD_XREC_ROUNDTRIP
360
1ADF
  0
DICTIONARY
  5
1ACE
330
37
100
AcDbDictionary
280
     1
281
     1
  3
ACAD_XREC_ROUNDTRIP
360
1ACF
  0
DICTIONARY
  5
1AE0
330
40
100
AcDbDictionary
280
     1
281
     1
  3
ACAD_XREC_ROUNDTRIP
360
1AE1
  0
DICTIONARY
  5
1AC6
330
33
100
AcDbDictionary
280
     1
281
     1
  3
ACAD_XREC_ROUNDTRIP
360
1AC7
  0
DICTIONARY
  5
1ADC
330
3E
100
AcDbDictionary
280
     1
281
     1
  3
ACAD_XREC_ROUNDTRIP
360
1ADD
  0
DICTIONARY
  5
1ADA
330
3D
100
AcDbDictionary
280
     1
281
     1
  3
ACAD_XREC_ROUNDTRIP
360
1ADB
  0
DICTIONARY
  5
1AD4
330
3A
100
AcDbDictionary
280
     1
281
     1
  3
ACAD_XREC_ROUNDTRIP
360
1AD5
  0
DICTIONARY
  5
1AD6
330
3B
100
AcDbDictionary
280
     1
281
     1
  3
ACAD_XREC_ROUNDTRIP
360
1AD7
  0
DICTIONARY
  5
1ACC
330
36
100
AcDbDictionary
280
     1
281
     1
  3
ACAD_XREC_ROUNDTRIP
360
1ACD
  0
DICTIONARY
  5
1AC0
330
30
100
AcDbDictionary
280
     1
281
     1
  3
ACAD_XREC_ROUNDTRIP
360
1AC1
  0
DICTIONARY
  5
1AD8
330
3C
100
AcDbDictionary
280
     1
281
     1
  3
ACAD_XREC_ROUNDTRIP
360
1AD9
  0
XRECORD
  5
1AAC
102
{ACAD_REACTORS
330
1AB2
102
}
330
1AB2
100
AcDbXrecord
280
     1
  1
AcDb_Thumbnail_Schema
102
{ATTRRECORD
341
1AAD
  2
AcDbDs::TreatedAsObjectData
280
     1
291
     1
102
ATTRRECORD}
102
{ATTRRECORD
341
1AAE
  2
AcDbDs::Legacy
280
     1
291
     1
102
ATTRRECORD}
  2
AcDbDs::ID
280
    10
 91
        8
102
{ATTRRECORD
341
1AAF
  2
AcDs:Indexable
280
     1
291
     1
102
ATTRRECORD}
102
{ATTRRECORD
341
1AB0
  2
AcDbDs::HandleAttribute
280
     7
282
     1
102
ATTRRECORD}
  2
Thumbnail_Data
280
    15
 91
        0
  0
XRECORD
  5
1AAD
102
{ACAD_REACTORS
330
1AB2
102
}
330
1AB2
100
AcDbXrecord
280
     1
  1
AcDbDs::TreatedAsObjectDataSchema
  2
AcDbDs::TreatedAsObjectData
280
     1
 91
        0
  0
XRECORD
  5
1AAE
102
{ACAD_REACTORS
330
1AB2
102
}
330
1AB2
100
AcDbXrecord
280
     1
  1
AcDbDs::LegacySchema
  2
AcDbDs::Legacy
280
     1
 91
        0
  0
XRECORD
  5
1AAF
102
{ACAD_REACTORS
330
1AB2
102
}
330
1AB2
100
AcDbXrecord
280
     1
  1
AcDbDs::IndexedPropertySchema
  2
AcDs:Indexable
280
     1
 91
        0
  0
XRECORD
  5
1AB0
102
{ACAD_REACTORS
330
1AB2
102
}
330
1AB2
100
AcDbXrecord
280
     1
  1
AcDbDs::HandleAttributeSchema
  2
AcDbDs::HandleAttribute
280
     7
 91
        1
284
     1
  0
XRECORD
  5
1AE7
102
{ACAD_REACTORS
330
19F0
102
}
330
19F0
100
AcDbXrecord
280
     1
102
DISPLAYNAME
  1
Imperial24
102
FLAGS
 90
        0
  0
XRECORD
  5
1AE9
102
{ACAD_REACTORS
330
19F4
102
}
330
19F4
100
AcDbXrecord
280
     1
102
DISPLAYNAME
  1
Metric50
102
FLAGS
 90
        0
  0
XRECORD
  5
1C
102
{ACAD_REACTORS
330
1A
102
}
330
1A
100
AcDbXrecord
280
     1
270
     1
271
     1
  0
XRECORD
  5
1B
102
{ACAD_REACTORS
330
1A
102
}
330
1A
100
AcDbXrecord
280
     1
270
     1
271
     1
  0
XRECORD
  5
1F
102
{ACAD_REACTORS
330
1A
102
}
330
1A
100
AcDbXrecord
280
     1
270
     1
271
     1
  0
XRECORD
  5
1E
102
{ACAD_REACTORS
330
1A
102
}
330
1A
100
AcDbXrecord
280
     1
270
     1
271
     1
  0
XRECORD
  5
20
102
{ACAD_REACTORS
330
1A
102
}
330
1A
100
AcDbXrecord
280
     1
270
     1
271
     1
  0
XRECORD
  5
1D
102
{ACAD_REACTORS
330
1A
102
}
330
1A
100
AcDbXrecord
280
     1
270
     1
271
     1
  0
XRECORD
  5
14
102
{ACAD_REACTORS
330
12
102
}
330
12
100
AcDbXrecord
280
     1
270
     1
271
     1
  0
XRECORD
  5
13
102
{ACAD_REACTORS
330
12
102
}
330
12
100
AcDbXrecord
280
     1
270
     1
271
     1
  0
XRECORD
  5
17
102
{ACAD_REACTORS
330
12
102
}
330
12
100
AcDbXrecord
280
     1
270
     1
271
     1
  0
XRECORD
  5
16
102
{ACAD_REACTORS
330
12
102
}
330
12
100
AcDbXrecord
280
     1
270
     1
271
     1
  0
XRECORD
  5
18
102
{ACAD_REACTORS
330
12
102
}
330
12
100
AcDbXrecord
280
     1
270
     1
271
     1
  0
XRECORD
  5
15
102
{ACAD_REACTORS
330
12
102
}
330
12
100
AcDbXrecord
280
     1
270
     1
271
     1
  0
XRECORD
  5
24
102
{ACAD_REACTORS
330
22
102
}
330
22
100
AcDbXrecord
280
     1
270
     1
271
     1
  0
XRECORD
  5
23
102
{ACAD_REACTORS
330
22
102
}
330
22
100
AcDbXrecord
280
     1
270
     1
271
     1
  0
XRECORD
  5
27
102
{ACAD_REACTORS
330
22
102
}
330
22
100
AcDbXrecord
280
     1
270
     1
271
     1
  0
XRECORD
  5
26
102
{ACAD_REACTORS
330
22
102
}
330
22
100
AcDbXrecord
280
     1
270
     1
271
     1
  0
XRECORD
  5
28
102
{ACAD_REACTORS
330
22
102
}
330
22
100
AcDbXrecord
280
     1
270
     1
271
     1
  0
XRECORD
  5
25
102
{ACAD_REACTORS
330
22
102
}
330
22
100
AcDbXrecord
280
     1
270
     1
271
     1
  0
XRECORD
  5
1AE5
102
{ACAD_REACTORS
330
1AE4
102
}
330
1AE4
100
AcDbXrecord
280
     1
102
ACAD_ROUNDTRIP_2012_MLEADER_STYLE
298
     1
  0
XRECORD
  5
1AE6
102
{ACAD_REACTORS
330
19EE
102
}
330
19EE
100
AcDbXrecord
280
     1
102
DISPLAYNAME
  1
Imperial24
102
FLAGS
 90
        0
  0
XRECORD
  5
1AE8
102
{ACAD_REACTORS
330
19F2
102
}
330
19F2
100
AcDbXrecord
280
     1
102
DISPLAYNAME
  1
Metric50
102
FLAGS
 90
        0
  0
CELLSTYLEMAP
  5
1AAA
102
{ACAD_REACTORS
330
CDD
102
}
330
CDD
100
AcDbCellStyleMap
 90
        3
300
CELLSTYLE
  1
TABLEFORMAT_BEGIN
 90
        5
170
     1
 91
        0
 92
    32768
 62
   257
 93
        1
300
CONTENTFORMAT
  1
CONTENTFORMAT_BEGIN
 90
        0
 91
        0
 92
      512
 93
        0
300

 40
0.0
140
1.0
 94
        5
 62
     0
340
55
144
6.0
309
CONTENTFORMAT_END
171
     1
301
MARGIN
  1
CELLMARGIN_BEGIN
 40
1.5
 40
1.5
 40
1.5
 40
1.5
 40
4.5
 40
4.5
309
CELLMARGIN_END
 94
        6
 95
        1
302
GRIDFORMAT
  1
GRIDFORMAT_BEGIN
 90
        0
 91
        1
 62
     0
 92
       -2
340
0
 93
        0
 40
1.125
309
GRIDFORMAT_END
 95
        2
302
GRIDFORMAT
  1
GRIDFORMAT_BEGIN
 90
        0
 91
        1
 62
     0
 92
       -2
340
0
 93
        0
 40
1.125
309
GRIDFORMAT_END
 95
        4
302
GRIDFORMAT
  1
GRIDFORMAT_BEGIN
 90
        0
 91
        1
 62
     0
 92
       -2
340
0
 93
        0
 40
1.125
309
GRIDFORMAT_END
 95
        8
302
GRIDFORMAT
  1
GRIDFORMAT_BEGIN
 90
        0
 91
        1
 62
     0
 92
       -2
340
0
 93
        0
 40
1.125
309
GRIDFORMAT_END
 95
       16
302
GRIDFORMAT
  1
GRIDFORMAT_BEGIN
 90
        0
 91
        1
 62
     0
 92
       -2
340
0
 93
        0
 40
1.125
309
GRIDFORMAT_END
 95
       32
302
GRIDFORMAT
  1
GRIDFORMAT_BEGIN
 90
        0
 91
        1
 62
     0
 92
       -2
340
0
 93
        0
 40
1.125
309
GRIDFORMAT_END
309
TABLEFORMAT_END
  1
CELLSTYLE_BEGIN
 90
        1
 91
        1
300
_TITLE
309
CELLSTYLE_END
300
CELLSTYLE
  1
TABLEFORMAT_BEGIN
 90
        5
170
     1
 91
        0
 92
        0
 62
   257
 93
        1
300
CONTENTFORMAT
  1
CONTENTFORMAT_BEGIN
 90
        0
 91
        0
 92
      512
 93
        0
300

 40
0.0
140
1.0
 94
        5
 62
     0
340
55
144
4.5
309
CONTENTFORMAT_END
171
     1
301
MARGIN
  1
CELLMARGIN_BEGIN
 40
1.5
 40
1.5
 40
1.5
 40
1.5
 40
4.5
 40
4.5
309
CELLMARGIN_END
 94
        6
 95
        1
302
GRIDFORMAT
  1
GRIDFORMAT_BEGIN
 90
        0
 91
        1
 62
     0
 92
       -2
340
0
 93
        0
 40
1.125
309
GRIDFORMAT_END
 95
        2
302
GRIDFORMAT
  1
GRIDFORMAT_BEGIN
 90
        0
 91
        1
 62
     0
 92
       -2
340
0
 93
        0
 40
1.125
309
GRIDFORMAT_END
 95
        4
302
GRIDFORMAT
  1
GRIDFORMAT_BEGIN
 90
        0
 91
        1
 62
     0
 92
       -2
340
0
 93
        0
 40
1.125
309
GRIDFORMAT_END
 95
        8
302
GRIDFORMAT
  1
GRIDFORMAT_BEGIN
 90
        0
 91
        1
 62
     0
 92
       -2
340
0
 93
        0
 40
1.125
309
GRIDFORMAT_END
 95
       16
302
GRIDFORMAT
  1
GRIDFORMAT_BEGIN
 90
        0
 91
        1
 62
     0
 92
       -2
340
0
 93
        0
 40
1.125
309
GRIDFORMAT_END
 95
       32
302
GRIDFORMAT
  1
GRIDFORMAT_BEGIN
 90
        0
 91
        1
 62
     0
 92
       -2
340
0
 93
        0
 40
1.125
309
GRIDFORMAT_END
309
TABLEFORMAT_END
  1
CELLSTYLE_BEGIN
 90
        2
 91
        1
300
_HEADER
309
CELLSTYLE_END
300
CELLSTYLE
  1
TABLEFORMAT_BEGIN
 90
        5
170
     1
 91
        0
 92
        0
 62
   257
 93
        1
300
CONTENTFORMAT
  1
CONTENTFORMAT_BEGIN
 90
        0
 91
        0
 92
      512
 93
        0
300

 40
0.0
140
1.0
 94
        2
 62
     0
340
55
144
4.5
309
CONTENTFORMAT_END
171
     1
301
MARGIN
  1
CELLMARGIN_BEGIN
 40
1.5
 40
1.5
 40
1.5
 40
1.5
 40
4.5
 40
4.5
309
CELLMARGIN_END
 94
        6
 95
        1
302
GRIDFORMAT
  1
GRIDFORMAT_BEGIN
 90
        0
 91
        1
 62
     0
 92
       -2
340
0
 93
        0
 40
1.125
309
GRIDFORMAT_END
 95
        2
302
GRIDFORMAT
  1
GRIDFORMAT_BEGIN
 90
        0
 91
        1
 62
     0
 92
       -2
340
0
 93
        0
 40
1.125
309
GRIDFORMAT_END
 95
        4
302
GRIDFORMAT
  1
GRIDFORMAT_BEGIN
 90
        0
 91
        1
 62
     0
 92
       -2
340
0
 93
        0
 40
1.125
309
GRIDFORMAT_END
 95
        8
302
GRIDFORMAT
  1
GRIDFORMAT_BEGIN
 90
        0
 91
        1
 62
     0
 92
       -2
340
0
 93
        0
 40
1.125
309
GRIDFORMAT_END
 95
       16
302
GRIDFORMAT
  1
GRIDFORMAT_BEGIN
 90
        0
 91
        1
 62
     0
 92
       -2
340
0
 93
        0
 40
1.125
309
GRIDFORMAT_END
 95
       32
302
GRIDFORMAT
  1
GRIDFORMAT_BEGIN
 90
        0
 91
        1
 62
     0
 92
       -2
340
0
 93
        0
 40
1.125
309
GRIDFORMAT_END
309
TABLEFORMAT_END
  1
CELLSTYLE_BEGIN
 90
        3
 91
        2
300
_DATA
309
CELLSTYLE_END
  0
XRECORD
  5
1ABF
102
{ACAD_REACTORS
330
1ABE
102
}
330
1ABE
100
AcDbXrecord
280
     1
102
RTVSPost2010Prop28
280
     1
102
RTVSPost2010PropOp28
 70
     1
102
RTVSPost2010Prop29
280
     1
102
RTVSPost2010PropOp29
 70
     1
102
RTVSPost2010Prop30
280
     0
102
RTVSPost2010PropOp30
 70
     1
102
RTVSPost2010Prop31
280
     0
102
RTVSPost2010PropOp31
 70
     1
102
RTVSPost2010Prop32
280
     0
102
RTVSPost2010PropOp32
 70
     1
102
RTVSPost2010Prop33
280
     0
102
RTVSPost2010PropOp33
 70
     1
102
RTVSPost2010Prop34
280
     0
102
RTVSPost2010PropOp34
 70
     1
102
RTVSPost2010Prop35
280
     0
102
RTVSPost2010PropOp35
 70
     1
102
RTVSPost2010Prop36
280
     0
102
RTVSPost2010PropOp36
 70
     1
102
RTVSPost2010Prop37
 90
       50
102
RTVSPost2010PropOp37
 70
     1
102
RTVSPost2010Prop38
140
0.0
102
RTVSPost2010PropOp38
 70
     1
102
RTVSPost2010Prop39
140
1.0
102
RTVSPost2010PropOp39
 70
     1
102
RTVSPost2010Prop40
 90
        0
102
RTVSPost2010PropOp40
 70
     1
102
RTVSPost2010Prop41ColorIndex
 90
       18
102
RTVSPost2010Prop41ColorRGB
 90
        0
102
RTVSPost2010PropOp41
 70
     1
102
RTVSPost2010Prop42
 90
       50
102
RTVSPost2010PropOp42
 70
     1
102
RTVSPost2010Prop43
 90
        3
102
RTVSPost2010PropOp43
 70
     1
102
RTVSPost2010Prop44ColorIndex
 90
        5
102
RTVSPost2010Prop44ColorRGB
 90
      255
102
RTVSPost2010PropOp44
 70
     1
102
RTVSPost2010Prop45
280
     0
102
RTVSPost2010PropOp45
 70
     1
102
RTVSPost2010Prop46
 90
       50
102
RTVSPost2010PropOp46
 70
     1
102
RTVSPost2010Prop47
 90
       50
102
RTVSPost2010PropOp47
 70
     1
102
RTVSPost2010Prop48
 90
       50
102
RTVSPost2010PropOp48
 70
     1
102
RTVSPost2010Prop49
280
     0
102
RTVSPost2010PropOp49
 70
     1
102
RTVSPost2010Prop50
 90
       50
102
RTVSPost2010PropOp50
 70
     1
102
RTVSPost2010Prop51ColorIndex
 90
      256
102
RTVSPost2010Prop51ColorRGB
 90
-16777216
102
RTVSPost2010PropOp51
 70
     0
102
RTVSPost2010Prop52
140
1.0
102
RTVSPost2010PropOp52
 70
     0
102
RTVSPost2010Prop53
 90
        2
102
RTVSPost2010PropOp53
 70
     1
102
RTVSPost2010Prop54
  1
strokes_ogs.tif
102
RTVSPost2010PropOp54
 70
     1
102
RTVSPost2010Prop55
280
     0
102
RTVSPost2010PropOp55
 70
     1
102
RTVSPost2010Prop56
140
1.0
102
RTVSPost2010PropOp56
 70
     1
102
RTVSPost2010Prop57
140
1.0
102
RTVSPost2010PropOp57
 70
     1
  0
XRECORD
  5
1ABD
102
{ACAD_REACTORS
330
1ABC
102
}
330
1ABC
100
AcDbXrecord
280
     1
102
RTVSPost2010Prop28
280
     0
102
RTVSPost2010PropOp28
 70
     1
102
RTVSPost2010Prop29
280
     1
102
RTVSPost2010PropOp29
 70
     1
102
RTVSPost2010Prop30
280
     1
102
RTVSPost2010PropOp30
 70
     1
102
RTVSPost2010Prop31
280
     0
102
RTVSPost2010PropOp31
 70
     1
102
RTVSPost2010Prop32
280
     0
102
RTVSPost2010PropOp32
 70
     1
102
RTVSPost2010Prop33
280
     0
102
RTVSPost2010PropOp33
 70
     1
102
RTVSPost2010Prop34
280
     0
102
RTVSPost2010PropOp34
 70
     1
102
RTVSPost2010Prop35
280
     0
102
RTVSPost2010PropOp35
 70
     1
102
RTVSPost2010Prop36
280
     0
102
RTVSPost2010PropOp36
 70
     1
102
RTVSPost2010Prop37
 90
       50
102
RTVSPost2010PropOp37
 70
     1
102
RTVSPost2010Prop38
140
0.0
102
RTVSPost2010PropOp38
 70
     1
102
RTVSPost2010Prop39
140
1.0
102
RTVSPost2010PropOp39
 70
     1
102
RTVSPost2010Prop40
 90
        0
102
RTVSPost2010PropOp40
 70
     1
102
RTVSPost2010Prop41ColorIndex
 90
       18
102
RTVSPost2010Prop41ColorRGB
 90
        0
102
RTVSPost2010PropOp41
 70
     1
102
RTVSPost2010Prop42
 90
       50
102
RTVSPost2010PropOp42
 70
     1
102
RTVSPost2010Prop43
 90
        3
102
RTVSPost2010PropOp43
 70
     1
102
RTVSPost2010Prop44ColorIndex
 90
        5
102
RTVSPost2010Prop44ColorRGB
 90
      255
102
RTVSPost2010PropOp44
 70
     1
102
RTVSPost2010Prop45
280
     0
102
RTVSPost2010PropOp45
 70
     1
102
RTVSPost2010Prop46
 90
       50
102
RTVSPost2010PropOp46
 70
     1
102
RTVSPost2010Prop47
 90
       50
102
RTVSPost2010PropOp47
 70
     1
102
RTVSPost2010Prop48
 90
       50
102
RTVSPost2010PropOp48
 70
     1
102
RTVSPost2010Prop49
280
     0
102
RTVSPost2010PropOp49
 70
     1
102
RTVSPost2010Prop50
 90
       50
102
RTVSPost2010PropOp50
 70
     1
102
RTVSPost2010Prop51ColorIndex
 90
      256
102
RTVSPost2010Prop51ColorRGB
 90
-16777216
102
RTVSPost2010PropOp51
 70
     0
102
RTVSPost2010Prop52
140
1.0
102
RTVSPost2010PropOp52
 70
     0
102
RTVSPost2010Prop53
 90
        2
102
RTVSPost2010PropOp53
 70
     1
102
RTVSPost2010Prop54
  1
strokes_ogs.tif
102
RTVSPost2010PropOp54
 70
     1
102
RTVSPost2010Prop55
280
     0
102
RTVSPost2010PropOp55
 70
     1
102
RTVSPost2010Prop56
140
1.0
102
RTVSPost2010PropOp56
 70
     1
102
RTVSPost2010Prop57
140
1.0
102
RTVSPost2010PropOp57
 70
     1
  0
XRECORD
  5
1ACB
102
{ACAD_REACTORS
330
1ACA
102
}
330
1ACA
100
AcDbXrecord
280
     1
102
RTVSPost2010Prop28
280
     0
102
RTVSPost2010PropOp28
 70
     1
102
RTVSPost2010Prop29
280
     1
102
RTVSPost2010PropOp29
 70
     1
102
RTVSPost2010Prop30
280
     1
102
RTVSPost2010PropOp30
 70
     1
102
RTVSPost2010Prop31
280
     0
102
RTVSPost2010PropOp31
 70
     1
102
RTVSPost2010Prop32
280
     0
102
RTVSPost2010PropOp32
 70
     1
102
RTVSPost2010Prop33
280
     0
102
RTVSPost2010PropOp33
 70
     1
102
RTVSPost2010Prop34
280
     0
102
RTVSPost2010PropOp34
 70
     1
102
RTVSPost2010Prop35
280
     0
102
RTVSPost2010PropOp35
 70
     1
102
RTVSPost2010Prop36
280
     0
102
RTVSPost2010PropOp36
 70
     1
102
RTVSPost2010Prop37
 90
       50
102
RTVSPost2010PropOp37
 70
     1
102
RTVSPost2010Prop38
140
0.0
102
RTVSPost2010PropOp38
 70
     1
102
RTVSPost2010Prop39
140
1.0
102
RTVSPost2010PropOp39
 70
     1
102
RTVSPost2010Prop40
 90
        0
102
RTVSPost2010PropOp40
 70
     1
102
RTVSPost2010Prop41ColorIndex
 90
       18
102
RTVSPost2010Prop41ColorRGB
 90
        0
102
RTVSPost2010PropOp41
 70
     1
102
RTVSPost2010Prop42
 90
       50
102
RTVSPost2010PropOp42
 70
     1
102
RTVSPost2010Prop43
 90
        3
102
RTVSPost2010PropOp43
 70
     1
102
RTVSPost2010Prop44ColorIndex
 90
        5
102
RTVSPost2010Prop44ColorRGB
 90
      255
102
RTVSPost2010PropOp44
 70
     1
102
RTVSPost2010Prop45
280
     0
102
RTVSPost2010PropOp45
 70
     1
102
RTVSPost2010Prop46
 90
       50
102
RTVSPost2010PropOp46
 70
     1
102
RTVSPost2010Prop47
 90
       50
102
RTVSPost2010PropOp47
 70
     1
102
RTVSPost2010Prop48
 90
       50
102
RTVSPost2010PropOp48
 70
     1
102
RTVSPost2010Prop49
280
     0
102
RTVSPost2010PropOp49
 70
     1
102
RTVSPost2010Prop50
 90
       50
102
RTVSPost2010PropOp50
 70
     1
102
RTVSPost2010Prop51ColorIndex
 90
      256
102
RTVSPost2010Prop51ColorRGB
 90
-16777216
102
RTVSPost2010PropOp51
 70
     0
102
RTVSPost2010Prop52
140
1.0
102
RTVSPost2010PropOp52
 70
     0
102
RTVSPost2010Prop53
 90
        2
102
RTVSPost2010PropOp53
 70
     1
102
RTVSPost2010Prop54
  1
strokes_ogs.tif
102
RTVSPost2010PropOp54
 70
     1
102
RTVSPost2010Prop55
280
     0
102
RTVSPost2010PropOp55
 70
     1
102
RTVSPost2010Prop56
140
1.0
102
RTVSPost2010PropOp56
 70
     1
102
RTVSPost2010Prop57
140
1.0
102
RTVSPost2010PropOp57
 70
     1
  0
XRECORD
  5
1AD3
102
{ACAD_REACTORS
330
1AD2
102
}
330
1AD2
100
AcDbXrecord
280
     1
102
RTVSPost2010Prop28
280
     0
102
RTVSPost2010PropOp28
 70
     1
102
RTVSPost2010Prop29
280
     1
102
RTVSPost2010PropOp29
 70
     1
102
RTVSPost2010Prop30
280
     1
102
RTVSPost2010PropOp30
 70
     1
102
RTVSPost2010Prop31
280
     0
102
RTVSPost2010PropOp31
 70
     1
102
RTVSPost2010Prop32
280
     0
102
RTVSPost2010PropOp32
 70
     1
102
RTVSPost2010Prop33
280
     0
102
RTVSPost2010PropOp33
 70
     1
102
RTVSPost2010Prop34
280
     0
102
RTVSPost2010PropOp34
 70
     1
102
RTVSPost2010Prop35
280
     0
102
RTVSPost2010PropOp35
 70
     1
102
RTVSPost2010Prop36
280
     0
102
RTVSPost2010PropOp36
 70
     1
102
RTVSPost2010Prop37
 90
       50
102
RTVSPost2010PropOp37
 70
     1
102
RTVSPost2010Prop38
140
0.0
102
RTVSPost2010PropOp38
 70
     1
102
RTVSPost2010Prop39
140
1.0
102
RTVSPost2010PropOp39
 70
     1
102
RTVSPost2010Prop40
 90
        0
102
RTVSPost2010PropOp40
 70
     1
102
RTVSPost2010Prop41ColorIndex
 90
       18
102
RTVSPost2010Prop41ColorRGB
 90
        0
102
RTVSPost2010PropOp41
 70
     1
102
RTVSPost2010Prop42
 90
       50
102
RTVSPost2010PropOp42
 70
     1
102
RTVSPost2010Prop43
 90
        3
102
RTVSPost2010PropOp43
 70
     1
102
RTVSPost2010Prop44ColorIndex
 90
        5
102
RTVSPost2010Prop44ColorRGB
 90
      255
102
RTVSPost2010PropOp44
 70
     1
102
RTVSPost2010Prop45
280
     0
102
RTVSPost2010PropOp45
 70
     1
102
RTVSPost2010Prop46
 90
       50
102
RTVSPost2010PropOp46
 70
     1
102
RTVSPost2010Prop47
 90
       50
102
RTVSPost2010PropOp47
 70
     1
102
RTVSPost2010Prop48
 90
       50
102
RTVSPost2010PropOp48
 70
     1
102
RTVSPost2010Prop49
280
     0
102
RTVSPost2010PropOp49
 70
     1
102
RTVSPost2010Prop50
 90
       50
102
RTVSPost2010PropOp50
 70
     1
102
RTVSPost2010Prop51ColorIndex
 90
      256
102
RTVSPost2010Prop51ColorRGB
 90
-16777216
102
RTVSPost2010PropOp51
 70
     0
102
RTVSPost2010Prop52
140
1.0
102
RTVSPost2010PropOp52
 70
     0
102
RTVSPost2010Prop53
 90
        2
102
RTVSPost2010PropOp53
 70
     1
102
RTVSPost2010Prop54
  1
strokes_ogs.tif
102
RTVSPost2010PropOp54
 70
     1
102
RTVSPost2010Prop55
280
     0
102
RTVSPost2010PropOp55
 70
     1
102
RTVSPost2010Prop56
140
1.0
102
RTVSPost2010PropOp56
 70
     1
102
RTVSPost2010Prop57
140
1.0
102
RTVSPost2010PropOp57
 70
     1
  0
XRECORD
  5
1AC5
102
{ACAD_REACTORS
330
1AC4
102
}
330
1AC4
100
AcDbXrecord
280
     1
102
RTVSPost2010Prop28
280
     0
102
RTVSPost2010PropOp28
 70
     1
102
RTVSPost2010Prop29
280
     1
102
RTVSPost2010PropOp29
 70
     1
102
RTVSPost2010Prop30
280
     1
102
RTVSPost2010PropOp30
 70
     1
102
RTVSPost2010Prop31
280
     0
102
RTVSPost2010PropOp31
 70
     1
102
RTVSPost2010Prop32
280
     0
102
RTVSPost2010PropOp32
 70
     1
102
RTVSPost2010Prop33
280
     0
102
RTVSPost2010PropOp33
 70
     1
102
RTVSPost2010Prop34
280
     0
102
RTVSPost2010PropOp34
 70
     1
102
RTVSPost2010Prop35
280
     0
102
RTVSPost2010PropOp35
 70
     1
102
RTVSPost2010Prop36
280
     0
102
RTVSPost2010PropOp36
 70
     1
102
RTVSPost2010Prop37
 90
       50
102
RTVSPost2010PropOp37
 70
     1
102
RTVSPost2010Prop38
140
0.0
102
RTVSPost2010PropOp38
 70
     1
102
RTVSPost2010Prop39
140
1.0
102
RTVSPost2010PropOp39
 70
     1
102
RTVSPost2010Prop40
 90
        0
102
RTVSPost2010PropOp40
 70
     1
102
RTVSPost2010Prop41ColorIndex
 90
       18
102
RTVSPost2010Prop41ColorRGB
 90
        0
102
RTVSPost2010PropOp41
 70
     1
102
RTVSPost2010Prop42
 90
       50
102
RTVSPost2010PropOp42
 70
     1
102
RTVSPost2010Prop43
 90
        3
102
RTVSPost2010PropOp43
 70
     1
102
RTVSPost2010Prop44ColorIndex
 90
        5
102
RTVSPost2010Prop44ColorRGB
 90
      255
102
RTVSPost2010PropOp44
 70
     1
102
RTVSPost2010Prop45
280
     0
102
RTVSPost2010PropOp45
 70
     1
102
RTVSPost2010Prop46
 90
       50
102
RTVSPost2010PropOp46
 70
     1
102
RTVSPost2010Prop47
 90
       50
102
RTVSPost2010PropOp47
 70
     1
102
RTVSPost2010Prop48
 90
       50
102
RTVSPost2010PropOp48
 70
     1
102
RTVSPost2010Prop49
280
     0
102
RTVSPost2010PropOp49
 70
     1
102
RTVSPost2010Prop50
 90
       50
102
RTVSPost2010PropOp50
 70
     1
102
RTVSPost2010Prop51ColorIndex
 90
      256
102
RTVSPost2010Prop51ColorRGB
 90
-16777216
102
RTVSPost2010PropOp51
 70
     0
102
RTVSPost2010Prop52
140
1.0
102
RTVSPost2010PropOp52
 70
     0
102
RTVSPost2010Prop53
 90
        2
102
RTVSPost2010PropOp53
 70
     1
102
RTVSPost2010Prop54
  1
strokes_ogs.tif
102
RTVSPost2010PropOp54
 70
     1
102
RTVSPost2010Prop55
280
     0
102
RTVSPost2010PropOp55
 70
     1
102
RTVSPost2010Prop56
140
1.0
102
RTVSPost2010PropOp56
 70
     1
102
RTVSPost2010Prop57
140
1.0
102
RTVSPost2010PropOp57
 70
     1
  0
XRECORD
  5
1AC9
102
{ACAD_REACTORS
330
1AC8
102
}
330
1AC8
100
AcDbXrecord
280
     1
102
RTVSPost2010Prop28
280
     0
102
RTVSPost2010PropOp28
 70
     1
102
RTVSPost2010Prop29
280
     1
102
RTVSPost2010PropOp29
 70
     1
102
RTVSPost2010Prop30
280
     1
102
RTVSPost2010PropOp30
 70
     1
102
RTVSPost2010Prop31
280
     0
102
RTVSPost2010PropOp31
 70
     1
102
RTVSPost2010Prop32
280
     0
102
RTVSPost2010PropOp32
 70
     1
102
RTVSPost2010Prop33
280
     0
102
RTVSPost2010PropOp33
 70
     1
102
RTVSPost2010Prop34
280
     0
102
RTVSPost2010PropOp34
 70
     1
102
RTVSPost2010Prop35
280
     0
102
RTVSPost2010PropOp35
 70
     1
102
RTVSPost2010Prop36
280
     0
102
RTVSPost2010PropOp36
 70
     1
102
RTVSPost2010Prop37
 90
       50
102
RTVSPost2010PropOp37
 70
     1
102
RTVSPost2010Prop38
140
0.0
102
RTVSPost2010PropOp38
 70
     1
102
RTVSPost2010Prop39
140
1.0
102
RTVSPost2010PropOp39
 70
     1
102
RTVSPost2010Prop40
 90
        0
102
RTVSPost2010PropOp40
 70
     1
102
RTVSPost2010Prop41ColorIndex
 90
       18
102
RTVSPost2010Prop41ColorRGB
 90
        0
102
RTVSPost2010PropOp41
 70
     1
102
RTVSPost2010Prop42
 90
       50
102
RTVSPost2010PropOp42
 70
     1
102
RTVSPost2010Prop43
 90
        3
102
RTVSPost2010PropOp43
 70
     1
102
RTVSPost2010Prop44ColorIndex
 90
        5
102
RTVSPost2010Prop44ColorRGB
 90
      255
102
RTVSPost2010PropOp44
 70
     1
102
RTVSPost2010Prop45
280
     0
102
RTVSPost2010PropOp45
 70
     1
102
RTVSPost2010Prop46
 90
       50
102
RTVSPost2010PropOp46
 70
     1
102
RTVSPost2010Prop47
 90
       50
102
RTVSPost2010PropOp47
 70
     1
102
RTVSPost2010Prop48
 90
       50
102
RTVSPost2010PropOp48
 70
     1
102
RTVSPost2010Prop49
280
     0
102
RTVSPost2010PropOp49
 70
     1
102
RTVSPost2010Prop50
 90
       50
102
RTVSPost2010PropOp50
 70
     1
102
RTVSPost2010Prop51ColorIndex
 90
      256
102
RTVSPost2010Prop51ColorRGB
 90
-16777216
102
RTVSPost2010PropOp51
 70
     0
102
RTVSPost2010Prop52
140
1.0
102
RTVSPost2010PropOp52
 70
     0
102
RTVSPost2010Prop53
 90
        2
102
RTVSPost2010PropOp53
 70
     1
102
RTVSPost2010Prop54
  1
strokes_ogs.tif
102
RTVSPost2010PropOp54
 70
     1
102
RTVSPost2010Prop55
280
     0
102
RTVSPost2010PropOp55
 70
     1
102
RTVSPost2010Prop56
140
1.0
102
RTVSPost2010PropOp56
 70
     1
102
RTVSPost2010Prop57
140
1.0
102
RTVSPost2010PropOp57
 70
     1
  0
XRECORD
  5
1AE3
102
{ACAD_REACTORS
330
1AE2
102
}
330
1AE2
100
AcDbXrecord
280
     1
102
RTVSPost2010Prop28
280
     0
102
RTVSPost2010PropOp28
 70
     0
102
RTVSPost2010Prop29
280
     1
102
RTVSPost2010PropOp29
 70
     0
102
RTVSPost2010Prop30
280
     1
102
RTVSPost2010PropOp30
 70
     0
102
RTVSPost2010Prop31
280
     0
102
RTVSPost2010PropOp31
 70
     0
102
RTVSPost2010Prop32
280
     0
102
RTVSPost2010PropOp32
 70
     0
102
RTVSPost2010Prop33
280
     0
102
RTVSPost2010PropOp33
 70
     0
102
RTVSPost2010Prop34
280
     0
102
RTVSPost2010PropOp34
 70
     0
102
RTVSPost2010Prop35
280
     0
102
RTVSPost2010PropOp35
 70
     0
102
RTVSPost2010Prop36
280
     0
102
RTVSPost2010PropOp36
 70
     0
102
RTVSPost2010Prop37
 90
       50
102
RTVSPost2010PropOp37
 70
     0
102
RTVSPost2010Prop38
140
0.0
102
RTVSPost2010PropOp38
 70
     0
102
RTVSPost2010Prop39
140
1.0
102
RTVSPost2010PropOp39
 70
     0
102
RTVSPost2010Prop40
 90
        0
102
RTVSPost2010PropOp40
 70
     0
102
RTVSPost2010Prop41ColorIndex
 90
       18
102
RTVSPost2010Prop41ColorRGB
 90
        0
102
RTVSPost2010PropOp41
 70
     0
102
RTVSPost2010Prop42
 90
       50
102
RTVSPost2010PropOp42
 70
     0
102
RTVSPost2010Prop43
 90
        3
102
RTVSPost2010PropOp43
 70
     0
102
RTVSPost2010Prop44ColorIndex
 90
        5
102
RTVSPost2010Prop44ColorRGB
 90
      255
102
RTVSPost2010PropOp44
 70
     0
102
RTVSPost2010Prop45
280
     0
102
RTVSPost2010PropOp45
 70
     0
102
RTVSPost2010Prop46
 90
       50
102
RTVSPost2010PropOp46
 70
     0
102
RTVSPost2010Prop47
 90
       50
102
RTVSPost2010PropOp47
 70
     0
102
RTVSPost2010Prop48
 90
       50
102
RTVSPost2010PropOp48
 70
     0
102
RTVSPost2010Prop49
280
     0
102
RTVSPost2010PropOp49
 70
     0
102
RTVSPost2010Prop50
 90
       50
102
RTVSPost2010PropOp50
 70
     0
102
RTVSPost2010Prop51ColorIndex
 90
      256
102
RTVSPost2010Prop51ColorRGB
 90
-16777216
102
RTVSPost2010PropOp51
 70
     0
102
RTVSPost2010Prop52
140
1.0
102
RTVSPost2010PropOp52
 70
     0
102
RTVSPost2010Prop53
 90
        2
102
RTVSPost2010PropOp53
 70
     0
102
RTVSPost2010Prop54
  1
strokes_ogs.tif
102
RTVSPost2010PropOp54
 70
     0
102
RTVSPost2010Prop55
280
     0
102
RTVSPost2010PropOp55
 70
     0
102
RTVSPost2010Prop56
140
1.0
102
RTVSPost2010PropOp56
 70
     0
102
RTVSPost2010Prop57
140
1.0
102
RTVSPost2010PropOp57
 70
     0
  0
XRECORD
  5
1AD1
102
{ACAD_REACTORS
330
1AD0
102
}
330
1AD0
100
AcDbXrecord
280
     1
102
RTVSPost2010Prop28
280
     0
102
RTVSPost2010PropOp28
 70
     1
102
RTVSPost2010Prop29
280
     1
102
RTVSPost2010PropOp29
 70
     1
102
RTVSPost2010Prop30
280
     1
102
RTVSPost2010PropOp30
 70
     1
102
RTVSPost2010Prop31
280
     0
102
RTVSPost2010PropOp31
 70
     1
102
RTVSPost2010Prop32
280
     0
102
RTVSPost2010PropOp32
 70
     1
102
RTVSPost2010Prop33
280
     0
102
RTVSPost2010PropOp33
 70
     1
102
RTVSPost2010Prop34
280
     0
102
RTVSPost2010PropOp34
 70
     1
102
RTVSPost2010Prop35
280
     0
102
RTVSPost2010PropOp35
 70
     1
102
RTVSPost2010Prop36
280
     0
102
RTVSPost2010PropOp36
 70
     1
102
RTVSPost2010Prop37
 90
       50
102
RTVSPost2010PropOp37
 70
     1
102
RTVSPost2010Prop38
140
0.0
102
RTVSPost2010PropOp38
 70
     1
102
RTVSPost2010Prop39
140
1.0
102
RTVSPost2010PropOp39
 70
     1
102
RTVSPost2010Prop40
 90
        0
102
RTVSPost2010PropOp40
 70
     1
102
RTVSPost2010Prop41ColorIndex
 90
       18
102
RTVSPost2010Prop41ColorRGB
 90
        0
102
RTVSPost2010PropOp41
 70
     1
102
RTVSPost2010Prop42
 90
       50
102
RTVSPost2010PropOp42
 70
     1
102
RTVSPost2010Prop43
 90
        3
102
RTVSPost2010PropOp43
 70
     1
102
RTVSPost2010Prop44ColorIndex
 90
        5
102
RTVSPost2010Prop44ColorRGB
 90
      255
102
RTVSPost2010PropOp44
 70
     1
102
RTVSPost2010Prop45
280
     0
102
RTVSPost2010PropOp45
 70
     1
102
RTVSPost2010Prop46
 90
       50
102
RTVSPost2010PropOp46
 70
     1
102
RTVSPost2010Prop47
 90
       50
102
RTVSPost2010PropOp47
 70
     1
102
RTVSPost2010Prop48
 90
       50
102
RTVSPost2010PropOp48
 70
     1
102
RTVSPost2010Prop49
280
     0
102
RTVSPost2010PropOp49
 70
     1
102
RTVSPost2010Prop50
 90
       50
102
RTVSPost2010PropOp50
 70
     1
102
RTVSPost2010Prop51ColorIndex
 90
      256
102
RTVSPost2010Prop51ColorRGB
 90
-16777216
102
RTVSPost2010PropOp51
 70
     0
102
RTVSPost2010Prop52
140
1.0
102
RTVSPost2010PropOp52
 70
     0
102
RTVSPost2010Prop53
 90
        2
102
RTVSPost2010PropOp53
 70
     1
102
RTVSPost2010Prop54
  1
strokes_ogs.tif
102
RTVSPost2010PropOp54
 70
     1
102
RTVSPost2010Prop55
280
     0
102
RTVSPost2010PropOp55
 70
     1
102
RTVSPost2010Prop56
140
1.0
102
RTVSPost2010PropOp56
 70
     1
102
RTVSPost2010Prop57
140
1.0
102
RTVSPost2010PropOp57
 70
     1
  0
XRECORD
  5
1AB5
102
{ACAD_REACTORS
330
1AB4
102
}
330
1AB4
100
AcDbXrecord
280
     1
102
RTVSPost2010Prop28
280
     0
102
RTVSPost2010PropOp28
 70
     1
102
RTVSPost2010Prop29
280
     1
102
RTVSPost2010PropOp29
 70
     1
102
RTVSPost2010Prop30
280
     1
102
RTVSPost2010PropOp30
 70
     1
102
RTVSPost2010Prop31
280
     0
102
RTVSPost2010PropOp31
 70
     1
102
RTVSPost2010Prop32
280
     0
102
RTVSPost2010PropOp32
 70
     1
102
RTVSPost2010Prop33
280
     0
102
RTVSPost2010PropOp33
 70
     1
102
RTVSPost2010Prop34
280
     0
102
RTVSPost2010PropOp34
 70
     1
102
RTVSPost2010Prop35
280
     0
102
RTVSPost2010PropOp35
 70
     1
102
RTVSPost2010Prop36
280
     0
102
RTVSPost2010PropOp36
 70
     1
102
RTVSPost2010Prop37
 90
       50
102
RTVSPost2010PropOp37
 70
     1
102
RTVSPost2010Prop38
140
0.0
102
RTVSPost2010PropOp38
 70
     1
102
RTVSPost2010Prop39
140
1.0
102
RTVSPost2010PropOp39
 70
     1
102
RTVSPost2010Prop40
 90
        0
102
RTVSPost2010PropOp40
 70
     1
102
RTVSPost2010Prop41ColorIndex
 90
       18
102
RTVSPost2010Prop41ColorRGB
 90
        0
102
RTVSPost2010PropOp41
 70
     1
102
RTVSPost2010Prop42
 90
       50
102
RTVSPost2010PropOp42
 70
     1
102
RTVSPost2010Prop43
 90
        3
102
RTVSPost2010PropOp43
 70
     1
102
RTVSPost2010Prop44ColorIndex
 90
        5
102
RTVSPost2010Prop44ColorRGB
 90
      255
102
RTVSPost2010PropOp44
 70
     1
102
RTVSPost2010Prop45
280
     0
102
RTVSPost2010PropOp45
 70
     1
102
RTVSPost2010Prop46
 90
       50
102
RTVSPost2010PropOp46
 70
     1
102
RTVSPost2010Prop47
 90
       50
102
RTVSPost2010PropOp47
 70
     1
102
RTVSPost2010Prop48
 90
       50
102
RTVSPost2010PropOp48
 70
     1
102
RTVSPost2010Prop49
280
     0
102
RTVSPost2010PropOp49
 70
     1
102
RTVSPost2010Prop50
 90
       50
102
RTVSPost2010PropOp50
 70
     1
102
RTVSPost2010Prop51ColorIndex
 90
      256
102
RTVSPost2010Prop51ColorRGB
 90
-16777216
102
RTVSPost2010PropOp51
 70
     0
102
RTVSPost2010Prop52
140
1.0
102
RTVSPost2010PropOp52
 70
     0
102
RTVSPost2010Prop53
 90
        2
102
RTVSPost2010PropOp53
 70
     1
102
RTVSPost2010Prop54
  1
strokes_ogs.tif
102
RTVSPost2010PropOp54
 70
     1
102
RTVSPost2010Prop55
280
     0
102
RTVSPost2010PropOp55
 70
     1
102
RTVSPost2010Prop56
140
1.0
102
RTVSPost2010PropOp56
 70
     1
102
RTVSPost2010Prop57
140
1.0
102
RTVSPost2010PropOp57
 70
     1
  0
XRECORD
  5
1AB7
102
{ACAD_REACTORS
330
1AB6
102
}
330
1AB6
100
AcDbXrecord
280
     1
102
RTVSPost2010Prop28
280
     0
102
RTVSPost2010PropOp28
 70
     1
102
RTVSPost2010Prop29
280
     1
102
RTVSPost2010PropOp29
 70
     1
102
RTVSPost2010Prop30
280
     1
102
RTVSPost2010PropOp30
 70
     1
102
RTVSPost2010Prop31
280
     0
102
RTVSPost2010PropOp31
 70
     1
102
RTVSPost2010Prop32
280
     0
102
RTVSPost2010PropOp32
 70
     1
102
RTVSPost2010Prop33
280
     0
102
RTVSPost2010PropOp33
 70
     1
102
RTVSPost2010Prop34
280
     0
102
RTVSPost2010PropOp34
 70
     1
102
RTVSPost2010Prop35
280
     0
102
RTVSPost2010PropOp35
 70
     1
102
RTVSPost2010Prop36
280
     0
102
RTVSPost2010PropOp36
 70
     1
102
RTVSPost2010Prop37
 90
       50
102
RTVSPost2010PropOp37
 70
     1
102
RTVSPost2010Prop38
140
0.0
102
RTVSPost2010PropOp38
 70
     1
102
RTVSPost2010Prop39
140
1.0
102
RTVSPost2010PropOp39
 70
     1
102
RTVSPost2010Prop40
 90
        0
102
RTVSPost2010PropOp40
 70
     1
102
RTVSPost2010Prop41ColorIndex
 90
       18
102
RTVSPost2010Prop41ColorRGB
 90
        0
102
RTVSPost2010PropOp41
 70
     1
102
RTVSPost2010Prop42
 90
       50
102
RTVSPost2010PropOp42
 70
     1
102
RTVSPost2010Prop43
 90
        3
102
RTVSPost2010PropOp43
 70
     1
102
RTVSPost2010Prop44ColorIndex
 90
        5
102
RTVSPost2010Prop44ColorRGB
 90
      255
102
RTVSPost2010PropOp44
 70
     1
102
RTVSPost2010Prop45
280
     0
102
RTVSPost2010PropOp45
 70
     1
102
RTVSPost2010Prop46
 90
       50
102
RTVSPost2010PropOp46
 70
     1
102
RTVSPost2010Prop47
 90
       50
102
RTVSPost2010PropOp47
 70
     1
102
RTVSPost2010Prop48
 90
       50
102
RTVSPost2010PropOp48
 70
     1
102
RTVSPost2010Prop49
280
     0
102
RTVSPost2010PropOp49
 70
     1
102
RTVSPost2010Prop50
 90
       50
102
RTVSPost2010PropOp50
 70
     1
102
RTVSPost2010Prop51ColorIndex
 90
      256
102
RTVSPost2010Prop51ColorRGB
 90
-16777216
102
RTVSPost2010PropOp51
 70
     0
102
RTVSPost2010Prop52
140
1.0
102
RTVSPost2010PropOp52
 70
     0
102
RTVSPost2010Prop53
 90
        2
102
RTVSPost2010PropOp53
 70
     1
102
RTVSPost2010Prop54
  1
strokes_ogs.tif
102
RTVSPost2010PropOp54
 70
     1
102
RTVSPost2010Prop55
280
     0
102
RTVSPost2010PropOp55
 70
     1
102
RTVSPost2010Prop56
140
1.0
102
RTVSPost2010PropOp56
 70
     1
102
RTVSPost2010Prop57
140
1.0
102
RTVSPost2010PropOp57
 70
     1
  0
XRECORD
  5
1AB9
102
{ACAD_REACTORS
330
1AB8
102
}
330
1AB8
100
AcDbXrecord
280
     1
102
RTVSPost2010Prop28
280
     0
102
RTVSPost2010PropOp28
 70
     1
102
RTVSPost2010Prop29
280
     1
102
RTVSPost2010PropOp29
 70
     1
102
RTVSPost2010Prop30
280
     1
102
RTVSPost2010PropOp30
 70
     1
102
RTVSPost2010Prop31
280
     0
102
RTVSPost2010PropOp31
 70
     1
102
RTVSPost2010Prop32
280
     0
102
RTVSPost2010PropOp32
 70
     1
102
RTVSPost2010Prop33
280
     0
102
RTVSPost2010PropOp33
 70
     1
102
RTVSPost2010Prop34
280
     0
102
RTVSPost2010PropOp34
 70
     1
102
RTVSPost2010Prop35
280
     0
102
RTVSPost2010PropOp35
 70
     1
102
RTVSPost2010Prop36
280
     0
102
RTVSPost2010PropOp36
 70
     1
102
RTVSPost2010Prop37
 90
       50
102
RTVSPost2010PropOp37
 70
     1
102
RTVSPost2010Prop38
140
0.0
102
RTVSPost2010PropOp38
 70
     1
102
RTVSPost2010Prop39
140
1.0
102
RTVSPost2010PropOp39
 70
     1
102
RTVSPost2010Prop40
 90
        0
102
RTVSPost2010PropOp40
 70
     1
102
RTVSPost2010Prop41ColorIndex
 90
       18
102
RTVSPost2010Prop41ColorRGB
 90
        0
102
RTVSPost2010PropOp41
 70
     1
102
RTVSPost2010Prop42
 90
       50
102
RTVSPost2010PropOp42
 70
     1
102
RTVSPost2010Prop43
 90
        3
102
RTVSPost2010PropOp43
 70
     1
102
RTVSPost2010Prop44ColorIndex
 90
        5
102
RTVSPost2010Prop44ColorRGB
 90
      255
102
RTVSPost2010PropOp44
 70
     1
102
RTVSPost2010Prop45
280
     0
102
RTVSPost2010PropOp45
 70
     1
102
RTVSPost2010Prop46
 90
       50
102
RTVSPost2010PropOp46
 70
     1
102
RTVSPost2010Prop47
 90
       50
102
RTVSPost2010PropOp47
 70
     1
102
RTVSPost2010Prop48
 90
       50
102
RTVSPost2010PropOp48
 70
     1
102
RTVSPost2010Prop49
280
     0
102
RTVSPost2010PropOp49
 70
     1
102
RTVSPost2010Prop50
 90
       50
102
RTVSPost2010PropOp50
 70
     1
102
RTVSPost2010Prop51ColorIndex
 90
      256
102
RTVSPost2010Prop51ColorRGB
 90
-16777216
102
RTVSPost2010PropOp51
 70
     0
102
RTVSPost2010Prop52
140
1.0
102
RTVSPost2010PropOp52
 70
     0
102
RTVSPost2010Prop53
 90
        2
102
RTVSPost2010PropOp53
 70
     1
102
RTVSPost2010Prop54
  1
strokes_ogs.tif
102
RTVSPost2010PropOp54
 70
     1
102
RTVSPost2010Prop55
280
     0
102
RTVSPost2010PropOp55
 70
     1
102
RTVSPost2010Prop56
140
1.0
102
RTVSPost2010PropOp56
 70
     1
102
RTVSPost2010Prop57
140
1.0
102
RTVSPost2010PropOp57
 70
     1
  0
XRECORD
  5
1ABB
102
{ACAD_REACTORS
330
1ABA
102
}
330
1ABA
100
AcDbXrecord
280
     1
102
RTVSPost2010Prop28
280
     0
102
RTVSPost2010PropOp28
 70
     1
102
RTVSPost2010Prop29
280
     1
102
RTVSPost2010PropOp29
 70
     1
102
RTVSPost2010Prop30
280
     1
102
RTVSPost2010PropOp30
 70
     1
102
RTVSPost2010Prop31
280
     0
102
RTVSPost2010PropOp31
 70
     1
102
RTVSPost2010Prop32
280
     0
102
RTVSPost2010PropOp32
 70
     1
102
RTVSPost2010Prop33
280
     0
102
RTVSPost2010PropOp33
 70
     1
102
RTVSPost2010Prop34
280
     0
102
RTVSPost2010PropOp34
 70
     1
102
RTVSPost2010Prop35
280
     0
102
RTVSPost2010PropOp35
 70
     1
102
RTVSPost2010Prop36
280
     0
102
RTVSPost2010PropOp36
 70
     1
102
RTVSPost2010Prop37
 90
       50
102
RTVSPost2010PropOp37
 70
     1
102
RTVSPost2010Prop38
140
0.0
102
RTVSPost2010PropOp38
 70
     1
102
RTVSPost2010Prop39
140
1.0
102
RTVSPost2010PropOp39
 70
     1
102
RTVSPost2010Prop40
 90
        0
102
RTVSPost2010PropOp40
 70
     1
102
RTVSPost2010Prop41ColorIndex
 90
       18
102
RTVSPost2010Prop41ColorRGB
 90
        0
102
RTVSPost2010PropOp41
 70
     1
102
RTVSPost2010Prop42
 90
       50
102
RTVSPost2010PropOp42
 70
     1
102
RTVSPost2010Prop43
 90
        3
102
RTVSPost2010PropOp43
 70
     1
102
RTVSPost2010Prop44ColorIndex
 90
        5
102
RTVSPost2010Prop44ColorRGB
 90
      255
102
RTVSPost2010PropOp44
 70
     1
102
RTVSPost2010Prop45
280
     0
102
RTVSPost2010PropOp45
 70
     1
102
RTVSPost2010Prop46
 90
       50
102
RTVSPost2010PropOp46
 70
     1
102
RTVSPost2010Prop47
 90
       50
102
RTVSPost2010PropOp47
 70
     1
102
RTVSPost2010Prop48
 90
       50
102
RTVSPost2010PropOp48
 70
     1
102
RTVSPost2010Prop49
280
     0
102
RTVSPost2010PropOp49
 70
     1
102
RTVSPost2010Prop50
 90
       50
102
RTVSPost2010PropOp50
 70
     1
102
RTVSPost2010Prop51ColorIndex
 90
      256
102
RTVSPost2010Prop51ColorRGB
 90
-16777216
102
RTVSPost2010PropOp51
 70
     0
102
RTVSPost2010Prop52
140
1.0
102
RTVSPost2010PropOp52
 70
     0
102
RTVSPost2010Prop53
 90
        2
102
RTVSPost2010PropOp53
 70
     1
102
RTVSPost2010Prop54
  1
strokes_ogs.tif
102
RTVSPost2010PropOp54
 70
     1
102
RTVSPost2010Prop55
280
     0
102
RTVSPost2010PropOp55
 70
     1
102
RTVSPost2010Prop56
140
1.0
102
RTVSPost2010PropOp56
 70
     1
102
RTVSPost2010Prop57
140
1.0
102
RTVSPost2010PropOp57
 70
     1
  0
XRECORD
  5
1AC3
102
{ACAD_REACTORS
330
1AC2
102
}
330
1AC2
100
AcDbXrecord
280
     1
102
RTVSPost2010Prop28
280
     0
102
RTVSPost2010PropOp28
 70
     1
102
RTVSPost2010Prop29
280
     1
102
RTVSPost2010PropOp29
 70
     1
102
RTVSPost2010Prop30
280
     1
102
RTVSPost2010PropOp30
 70
     1
102
RTVSPost2010Prop31
280
     0
102
RTVSPost2010PropOp31
 70
     1
102
RTVSPost2010Prop32
280
     0
102
RTVSPost2010PropOp32
 70
     1
102
RTVSPost2010Prop33
280
     0
102
RTVSPost2010PropOp33
 70
     1
102
RTVSPost2010Prop34
280
     0
102
RTVSPost2010PropOp34
 70
     1
102
RTVSPost2010Prop35
280
     0
102
RTVSPost2010PropOp35
 70
     1
102
RTVSPost2010Prop36
280
     0
102
RTVSPost2010PropOp36
 70
     1
102
RTVSPost2010Prop37
 90
       50
102
RTVSPost2010PropOp37
 70
     1
102
RTVSPost2010Prop38
140
0.0
102
RTVSPost2010PropOp38
 70
     1
102
RTVSPost2010Prop39
140
1.0
102
RTVSPost2010PropOp39
 70
     1
102
RTVSPost2010Prop40
 90
        0
102
RTVSPost2010PropOp40
 70
     1
102
RTVSPost2010Prop41ColorIndex
 90
       18
102
RTVSPost2010Prop41ColorRGB
 90
        0
102
RTVSPost2010PropOp41
 70
     1
102
RTVSPost2010Prop42
 90
       50
102
RTVSPost2010PropOp42
 70
     1
102
RTVSPost2010Prop43
 90
        3
102
RTVSPost2010PropOp43
 70
     1
102
RTVSPost2010Prop44ColorIndex
 90
        5
102
RTVSPost2010Prop44ColorRGB
 90
      255
102
RTVSPost2010PropOp44
 70
     1
102
RTVSPost2010Prop45
280
     0
102
RTVSPost2010PropOp45
 70
     1
102
RTVSPost2010Prop46
 90
       50
102
RTVSPost2010PropOp46
 70
     1
102
RTVSPost2010Prop47
 90
       50
102
RTVSPost2010PropOp47
 70
     1
102
RTVSPost2010Prop48
 90
       50
102
RTVSPost2010PropOp48
 70
     1
102
RTVSPost2010Prop49
280
     0
102
RTVSPost2010PropOp49
 70
     1
102
RTVSPost2010Prop50
 90
       50
102
RTVSPost2010PropOp50
 70
     1
102
RTVSPost2010Prop51ColorIndex
 90
      256
102
RTVSPost2010Prop51ColorRGB
 90
-16777216
102
RTVSPost2010PropOp51
 70
     0
102
RTVSPost2010Prop52
140
1.0
102
RTVSPost2010PropOp52
 70
     0
102
RTVSPost2010Prop53
 90
        2
102
RTVSPost2010PropOp53
 70
     1
102
RTVSPost2010Prop54
  1
strokes_ogs.tif
102
RTVSPost2010PropOp54
 70
     1
102
RTVSPost2010Prop55
280
     0
102
RTVSPost2010PropOp55
 70
     1
102
RTVSPost2010Prop56
140
1.0
102
RTVSPost2010PropOp56
 70
     1
102
RTVSPost2010Prop57
140
1.0
102
RTVSPost2010PropOp57
 70
     1
  0
XRECORD
  5
1ADF
102
{ACAD_REACTORS
330
1ADE
102
}
330
1ADE
100
AcDbXrecord
280
     1
102
RTVSPost2010Prop28
280
     0
102
RTVSPost2010PropOp28
 70
     0
102
RTVSPost2010Prop29
280
     1
102
RTVSPost2010PropOp29
 70
     0
102
RTVSPost2010Prop30
280
     1
102
RTVSPost2010PropOp30
 70
     0
102
RTVSPost2010Prop31
280
     0
102
RTVSPost2010PropOp31
 70
     0
102
RTVSPost2010Prop32
280
     0
102
RTVSPost2010PropOp32
 70
     0
102
RTVSPost2010Prop33
280
     0
102
RTVSPost2010PropOp33
 70
     0
102
RTVSPost2010Prop34
280
     0
102
RTVSPost2010PropOp34
 70
     0
102
RTVSPost2010Prop35
280
     0
102
RTVSPost2010PropOp35
 70
     0
102
RTVSPost2010Prop36
280
     0
102
RTVSPost2010PropOp36
 70
     0
102
RTVSPost2010Prop37
 90
       50
102
RTVSPost2010PropOp37
 70
     0
102
RTVSPost2010Prop38
140
0.0
102
RTVSPost2010PropOp38
 70
     0
102
RTVSPost2010Prop39
140
1.0
102
RTVSPost2010PropOp39
 70
     0
102
RTVSPost2010Prop40
 90
        0
102
RTVSPost2010PropOp40
 70
     0
102
RTVSPost2010Prop41ColorIndex
 90
       18
102
RTVSPost2010Prop41ColorRGB
 90
        0
102
RTVSPost2010PropOp41
 70
     0
102
RTVSPost2010Prop42
 90
       50
102
RTVSPost2010PropOp42
 70
     0
102
RTVSPost2010Prop43
 90
        3
102
RTVSPost2010PropOp43
 70
     0
102
RTVSPost2010Prop44ColorIndex
 90
        5
102
RTVSPost2010Prop44ColorRGB
 90
      255
102
RTVSPost2010PropOp44
 70
     0
102
RTVSPost2010Prop45
280
     0
102
RTVSPost2010PropOp45
 70
     0
102
RTVSPost2010Prop46
 90
       50
102
RTVSPost2010PropOp46
 70
     0
102
RTVSPost2010Prop47
 90
       50
102
RTVSPost2010PropOp47
 70
     0
102
RTVSPost2010Prop48
 90
       50
102
RTVSPost2010PropOp48
 70
     0
102
RTVSPost2010Prop49
280
     0
102
RTVSPost2010PropOp49
 70
     0
102
RTVSPost2010Prop50
 90
       50
102
RTVSPost2010PropOp50
 70
     0
102
RTVSPost2010Prop51ColorIndex
 90
      256
102
RTVSPost2010Prop51ColorRGB
 90
-16777216
102
RTVSPost2010PropOp51
 70
     0
102
RTVSPost2010Prop52
140
1.0
102
RTVSPost2010PropOp52
 70
     0
102
RTVSPost2010Prop53
 90
        2
102
RTVSPost2010PropOp53
 70
     0
102
RTVSPost2010Prop54
  1
strokes_ogs.tif
102
RTVSPost2010PropOp54
 70
     0
102
RTVSPost2010Prop55
280
     0
102
RTVSPost2010PropOp55
 70
     0
102
RTVSPost2010Prop56
140
1.0
102
RTVSPost2010PropOp56
 70
     0
102
RTVSPost2010Prop57
140
1.0
102
RTVSPost2010PropOp57
 70
     0
  0
XRECORD
  5
1ACF
102
{ACAD_REACTORS
330
1ACE
102
}
330
1ACE
100
AcDbXrecord
280
     1
102
RTVSPost2010Prop28
280
     0
102
RTVSPost2010PropOp28
 70
     1
102
RTVSPost2010Prop29
280
     1
102
RTVSPost2010PropOp29
 70
     1
102
RTVSPost2010Prop30
280
     1
102
RTVSPost2010PropOp30
 70
     1
102
RTVSPost2010Prop31
280
     0
102
RTVSPost2010PropOp31
 70
     1
102
RTVSPost2010Prop32
280
     0
102
RTVSPost2010PropOp32
 70
     1
102
RTVSPost2010Prop33
280
     0
102
RTVSPost2010PropOp33
 70
     1
102
RTVSPost2010Prop34
280
     0
102
RTVSPost2010PropOp34
 70
     1
102
RTVSPost2010Prop35
280
     0
102
RTVSPost2010PropOp35
 70
     1
102
RTVSPost2010Prop36
280
     0
102
RTVSPost2010PropOp36
 70
     1
102
RTVSPost2010Prop37
 90
       50
102
RTVSPost2010PropOp37
 70
     1
102
RTVSPost2010Prop38
140
0.0
102
RTVSPost2010PropOp38
 70
     1
102
RTVSPost2010Prop39
140
1.0
102
RTVSPost2010PropOp39
 70
     1
102
RTVSPost2010Prop40
 90
        0
102
RTVSPost2010PropOp40
 70
     1
102
RTVSPost2010Prop41ColorIndex
 90
       18
102
RTVSPost2010Prop41ColorRGB
 90
        0
102
RTVSPost2010PropOp41
 70
     1
102
RTVSPost2010Prop42
 90
       50
102
RTVSPost2010PropOp42
 70
     1
102
RTVSPost2010Prop43
 90
        3
102
RTVSPost2010PropOp43
 70
     1
102
RTVSPost2010Prop44ColorIndex
 90
        5
102
RTVSPost2010Prop44ColorRGB
 90
      255
102
RTVSPost2010PropOp44
 70
     1
102
RTVSPost2010Prop45
280
     0
102
RTVSPost2010PropOp45
 70
     1
102
RTVSPost2010Prop46
 90
       50
102
RTVSPost2010PropOp46
 70
     1
102
RTVSPost2010Prop47
 90
       50
102
RTVSPost2010PropOp47
 70
     1
102
RTVSPost2010Prop48
 90
       50
102
RTVSPost2010PropOp48
 70
     1
102
RTVSPost2010Prop49
280
     0
102
RTVSPost2010PropOp49
 70
     1
102
RTVSPost2010Prop50
 90
       50
102
RTVSPost2010PropOp50
 70
     1
102
RTVSPost2010Prop51ColorIndex
 90
      256
102
RTVSPost2010Prop51ColorRGB
 90
-16777216
102
RTVSPost2010PropOp51
 70
     0
102
RTVSPost2010Prop52
140
1.0
102
RTVSPost2010PropOp52
 70
     0
102
RTVSPost2010Prop53
 90
        2
102
RTVSPost2010PropOp53
 70
     1
102
RTVSPost2010Prop54
  1
strokes_ogs.tif
102
RTVSPost2010PropOp54
 70
     1
102
RTVSPost2010Prop55
280
     0
102
RTVSPost2010PropOp55
 70
     1
102
RTVSPost2010Prop56
140
1.0
102
RTVSPost2010PropOp56
 70
     1
102
RTVSPost2010Prop57
140
1.0
102
RTVSPost2010PropOp57
 70
     1
  0
XRECORD
  5
1AE1
102
{ACAD_REACTORS
330
1AE0
102
}
330
1AE0
100
AcDbXrecord
280
     1
102
RTVSPost2010Prop28
280
     0
102
RTVSPost2010PropOp28
 70
     0
102
RTVSPost2010Prop29
280
     1
102
RTVSPost2010PropOp29
 70
     0
102
RTVSPost2010Prop30
280
     1
102
RTVSPost2010PropOp30
 70
     0
102
RTVSPost2010Prop31
280
     0
102
RTVSPost2010PropOp31
 70
     0
102
RTVSPost2010Prop32
280
     0
102
RTVSPost2010PropOp32
 70
     0
102
RTVSPost2010Prop33
280
     0
102
RTVSPost2010PropOp33
 70
     0
102
RTVSPost2010Prop34
280
     0
102
RTVSPost2010PropOp34
 70
     0
102
RTVSPost2010Prop35
280
     0
102
RTVSPost2010PropOp35
 70
     0
102
RTVSPost2010Prop36
280
     0
102
RTVSPost2010PropOp36
 70
     0
102
RTVSPost2010Prop37
 90
       50
102
RTVSPost2010PropOp37
 70
     0
102
RTVSPost2010Prop38
140
0.0
102
RTVSPost2010PropOp38
 70
     0
102
RTVSPost2010Prop39
140
1.0
102
RTVSPost2010PropOp39
 70
     0
102
RTVSPost2010Prop40
 90
        0
102
RTVSPost2010PropOp40
 70
     0
102
RTVSPost2010Prop41ColorIndex
 90
       18
102
RTVSPost2010Prop41ColorRGB
 90
        0
102
RTVSPost2010PropOp41
 70
     0
102
RTVSPost2010Prop42
 90
       50
102
RTVSPost2010PropOp42
 70
     0
102
RTVSPost2010Prop43
 90
        3
102
RTVSPost2010PropOp43
 70
     0
102
RTVSPost2010Prop44ColorIndex
 90
        5
102
RTVSPost2010Prop44ColorRGB
 90
      255
102
RTVSPost2010PropOp44
 70
     0
102
RTVSPost2010Prop45
280
     0
102
RTVSPost2010PropOp45
 70
     0
102
RTVSPost2010Prop46
 90
       50
102
RTVSPost2010PropOp46
 70
     0
102
RTVSPost2010Prop47
 90
       50
102
RTVSPost2010PropOp47
 70
     0
102
RTVSPost2010Prop48
 90
       50
102
RTVSPost2010PropOp48
 70
     0
102
RTVSPost2010Prop49
280
     0
102
RTVSPost2010PropOp49
 70
     0
102
RTVSPost2010Prop50
 90
       50
102
RTVSPost2010PropOp50
 70
     0
102
RTVSPost2010Prop51ColorIndex
 90
      256
102
RTVSPost2010Prop51ColorRGB
 90
-16777216
102
RTVSPost2010PropOp51
 70
     0
102
RTVSPost2010Prop52
140
1.0
102
RTVSPost2010PropOp52
 70
     0
102
RTVSPost2010Prop53
 90
        2
102
RTVSPost2010PropOp53
 70
     0
102
RTVSPost2010Prop54
  1
strokes_ogs.tif
102
RTVSPost2010PropOp54
 70
     0
102
RTVSPost2010Prop55
280
     0
102
RTVSPost2010PropOp55
 70
     0
102
RTVSPost2010Prop56
140
1.0
102
RTVSPost2010PropOp56
 70
     0
102
RTVSPost2010Prop57
140
1.0
102
RTVSPost2010PropOp57
 70
     0
  0
XRECORD
  5
1AC7
102
{ACAD_REACTORS
330
1AC6
102
}
330
1AC6
100
AcDbXrecord
280
     1
102
RTVSPost2010Prop28
280
     0
102
RTVSPost2010PropOp28
 70
     1
102
RTVSPost2010Prop29
280
     1
102
RTVSPost2010PropOp29
 70
     1
102
RTVSPost2010Prop30
280
     1
102
RTVSPost2010PropOp30
 70
     1
102
RTVSPost2010Prop31
280
     0
102
RTVSPost2010PropOp31
 70
     1
102
RTVSPost2010Prop32
280
     0
102
RTVSPost2010PropOp32
 70
     1
102
RTVSPost2010Prop33
280
     0
102
RTVSPost2010PropOp33
 70
     1
102
RTVSPost2010Prop34
280
     0
102
RTVSPost2010PropOp34
 70
     1
102
RTVSPost2010Prop35
280
     0
102
RTVSPost2010PropOp35
 70
     1
102
RTVSPost2010Prop36
280
     0
102
RTVSPost2010PropOp36
 70
     1
102
RTVSPost2010Prop37
 90
       50
102
RTVSPost2010PropOp37
 70
     1
102
RTVSPost2010Prop38
140
0.0
102
RTVSPost2010PropOp38
 70
     1
102
RTVSPost2010Prop39
140
1.0
102
RTVSPost2010PropOp39
 70
     1
102
RTVSPost2010Prop40
 90
        0
102
RTVSPost2010PropOp40
 70
     1
102
RTVSPost2010Prop41ColorIndex
 90
       18
102
RTVSPost2010Prop41ColorRGB
 90
        0
102
RTVSPost2010PropOp41
 70
     1
102
RTVSPost2010Prop42
 90
       50
102
RTVSPost2010PropOp42
 70
     1
102
RTVSPost2010Prop43
 90
        3
102
RTVSPost2010PropOp43
 70
     1
102
RTVSPost2010Prop44ColorIndex
 90
        5
102
RTVSPost2010Prop44ColorRGB
 90
      255
102
RTVSPost2010PropOp44
 70
     1
102
RTVSPost2010Prop45
280
     0
102
RTVSPost2010PropOp45
 70
     1
102
RTVSPost2010Prop46
 90
       50
102
RTVSPost2010PropOp46
 70
     1
102
RTVSPost2010Prop47
 90
       50
102
RTVSPost2010PropOp47
 70
     1
102
RTVSPost2010Prop48
 90
       50
102
RTVSPost2010PropOp48
 70
     1
102
RTVSPost2010Prop49
280
     0
102
RTVSPost2010PropOp49
 70
     1
102
RTVSPost2010Prop50
 90
       50
102
RTVSPost2010PropOp50
 70
     1
102
RTVSPost2010Prop51ColorIndex
 90
      256
102
RTVSPost2010Prop51ColorRGB
 90
-16777216
102
RTVSPost2010PropOp51
 70
     0
102
RTVSPost2010Prop52
140
1.0
102
RTVSPost2010PropOp52
 70
     0
102
RTVSPost2010Prop53
 90
        2
102
RTVSPost2010PropOp53
 70
     1
102
RTVSPost2010Prop54
  1
strokes_ogs.tif
102
RTVSPost2010PropOp54
 70
     1
102
RTVSPost2010Prop55
280
     0
102
RTVSPost2010PropOp55
 70
     1
102
RTVSPost2010Prop56
140
1.0
102
RTVSPost2010PropOp56
 70
     1
102
RTVSPost2010Prop57
140
1.0
102
RTVSPost2010PropOp57
 70
     1
  0
XRECORD
  5
1ADD
102
{ACAD_REACTORS
330
1ADC
102
}
330
1ADC
100
AcDbXrecord
280
     1
102
RTVSPost2010Prop28
280
     0
102
RTVSPost2010PropOp28
 70
     1
102
RTVSPost2010Prop29
280
     1
102
RTVSPost2010PropOp29
 70
     1
102
RTVSPost2010Prop30
280
     1
102
RTVSPost2010PropOp30
 70
     1
102
RTVSPost2010Prop31
280
     0
102
RTVSPost2010PropOp31
 70
     1
102
RTVSPost2010Prop32
280
     0
102
RTVSPost2010PropOp32
 70
     1
102
RTVSPost2010Prop33
280
     0
102
RTVSPost2010PropOp33
 70
     1
102
RTVSPost2010Prop34
280
     0
102
RTVSPost2010PropOp34
 70
     1
102
RTVSPost2010Prop35
280
     0
102
RTVSPost2010PropOp35
 70
     1
102
RTVSPost2010Prop36
280
     0
102
RTVSPost2010PropOp36
 70
     1
102
RTVSPost2010Prop37
 90
       50
102
RTVSPost2010PropOp37
 70
     1
102
RTVSPost2010Prop38
140
0.0
102
RTVSPost2010PropOp38
 70
     1
102
RTVSPost2010Prop39
140
1.0
102
RTVSPost2010PropOp39
 70
     1
102
RTVSPost2010Prop40
 90
        0
102
RTVSPost2010PropOp40
 70
     1
102
RTVSPost2010Prop41ColorIndex
 90
       18
102
RTVSPost2010Prop41ColorRGB
 90
        0
102
RTVSPost2010PropOp41
 70
     1
102
RTVSPost2010Prop42
 90
       50
102
RTVSPost2010PropOp42
 70
     1
102
RTVSPost2010Prop43
 90
        3
102
RTVSPost2010PropOp43
 70
     1
102
RTVSPost2010Prop44ColorIndex
 90
        5
102
RTVSPost2010Prop44ColorRGB
 90
      255
102
RTVSPost2010PropOp44
 70
     1
102
RTVSPost2010Prop45
280
     0
102
RTVSPost2010PropOp45
 70
     1
102
RTVSPost2010Prop46
 90
       50
102
RTVSPost2010PropOp46
 70
     1
102
RTVSPost2010Prop47
 90
       50
102
RTVSPost2010PropOp47
 70
     1
102
RTVSPost2010Prop48
 90
       50
102
RTVSPost2010PropOp48
 70
     1
102
RTVSPost2010Prop49
280
     0
102
RTVSPost2010PropOp49
 70
     1
102
RTVSPost2010Prop50
 90
       50
102
RTVSPost2010PropOp50
 70
     1
102
RTVSPost2010Prop51ColorIndex
 90
      256
102
RTVSPost2010Prop51ColorRGB
 90
-16777216
102
RTVSPost2010PropOp51
 70
     0
102
RTVSPost2010Prop52
140
1.0
102
RTVSPost2010PropOp52
 70
     0
102
RTVSPost2010Prop53
 90
        2
102
RTVSPost2010PropOp53
 70
     1
102
RTVSPost2010Prop54
  1
strokes_ogs.tif
102
RTVSPost2010PropOp54
 70
     1
102
RTVSPost2010Prop55
280
     0
102
RTVSPost2010PropOp55
 70
     1
102
RTVSPost2010Prop56
140
1.0
102
RTVSPost2010PropOp56
 70
     1
102
RTVSPost2010Prop57
140
1.0
102
RTVSPost2010PropOp57
 70
     1
  0
XRECORD
  5
1ADB
102
{ACAD_REACTORS
330
1ADA
102
}
330
1ADA
100
AcDbXrecord
280
     1
102
RTVSPost2010Prop28
280
     0
102
RTVSPost2010PropOp28
 70
     1
102
RTVSPost2010Prop29
280
     1
102
RTVSPost2010PropOp29
 70
     1
102
RTVSPost2010Prop30
280
     1
102
RTVSPost2010PropOp30
 70
     1
102
RTVSPost2010Prop31
280
     0
102
RTVSPost2010PropOp31
 70
     1
102
RTVSPost2010Prop32
280
     0
102
RTVSPost2010PropOp32
 70
     1
102
RTVSPost2010Prop33
280
     0
102
RTVSPost2010PropOp33
 70
     1
102
RTVSPost2010Prop34
280
     0
102
RTVSPost2010PropOp34
 70
     1
102
RTVSPost2010Prop35
280
     0
102
RTVSPost2010PropOp35
 70
     1
102
RTVSPost2010Prop36
280
     0
102
RTVSPost2010PropOp36
 70
     1
102
RTVSPost2010Prop37
 90
       50
102
RTVSPost2010PropOp37
 70
     1
102
RTVSPost2010Prop38
140
0.0
102
RTVSPost2010PropOp38
 70
     1
102
RTVSPost2010Prop39
140
1.0
102
RTVSPost2010PropOp39
 70
     1
102
RTVSPost2010Prop40
 90
        0
102
RTVSPost2010PropOp40
 70
     1
102
RTVSPost2010Prop41ColorIndex
 90
       18
102
RTVSPost2010Prop41ColorRGB
 90
        0
102
RTVSPost2010PropOp41
 70
     1
102
RTVSPost2010Prop42
 90
       50
102
RTVSPost2010PropOp42
 70
     1
102
RTVSPost2010Prop43
 90
        3
102
RTVSPost2010PropOp43
 70
     1
102
RTVSPost2010Prop44ColorIndex
 90
        5
102
RTVSPost2010Prop44ColorRGB
 90
      255
102
RTVSPost2010PropOp44
 70
     1
102
RTVSPost2010Prop45
280
     0
102
RTVSPost2010PropOp45
 70
     1
102
RTVSPost2010Prop46
 90
       50
102
RTVSPost2010PropOp46
 70
     1
102
RTVSPost2010Prop47
 90
       50
102
RTVSPost2010PropOp47
 70
     1
102
RTVSPost2010Prop48
 90
       50
102
RTVSPost2010PropOp48
 70
     1
102
RTVSPost2010Prop49
280
     0
102
RTVSPost2010PropOp49
 70
     1
102
RTVSPost2010Prop50
 90
       50
102
RTVSPost2010PropOp50
 70
     1
102
RTVSPost2010Prop51ColorIndex
 90
      256
102
RTVSPost2010Prop51ColorRGB
 90
-16777216
102
RTVSPost2010PropOp51
 70
     0
102
RTVSPost2010Prop52
140
1.0
102
RTVSPost2010PropOp52
 70
     0
102
RTVSPost2010Prop53
 90
        2
102
RTVSPost2010PropOp53
 70
     1
102
RTVSPost2010Prop54
  1
strokes_ogs.tif
102
RTVSPost2010PropOp54
 70
     1
102
RTVSPost2010Prop55
280
     0
102
RTVSPost2010PropOp55
 70
     1
102
RTVSPost2010Prop56
140
1.0
102
RTVSPost2010PropOp56
 70
     1
102
RTVSPost2010Prop57
140
1.0
102
RTVSPost2010PropOp57
 70
     1
  0
XRECORD
  5
1AD5
102
{ACAD_REACTORS
330
1AD4
102
}
330
1AD4
100
AcDbXrecord
280
     1
102
RTVSPost2010Prop28
280
     0
102
RTVSPost2010PropOp28
 70
     1
102
RTVSPost2010Prop29
280
     1
102
RTVSPost2010PropOp29
 70
     1
102
RTVSPost2010Prop30
280
     1
102
RTVSPost2010PropOp30
 70
     1
102
RTVSPost2010Prop31
280
     0
102
RTVSPost2010PropOp31
 70
     1
102
RTVSPost2010Prop32
280
     0
102
RTVSPost2010PropOp32
 70
     1
102
RTVSPost2010Prop33
280
     0
102
RTVSPost2010PropOp33
 70
     1
102
RTVSPost2010Prop34
280
     0
102
RTVSPost2010PropOp34
 70
     1
102
RTVSPost2010Prop35
280
     0
102
RTVSPost2010PropOp35
 70
     1
102
RTVSPost2010Prop36
280
     0
102
RTVSPost2010PropOp36
 70
     1
102
RTVSPost2010Prop37
 90
       50
102
RTVSPost2010PropOp37
 70
     1
102
RTVSPost2010Prop38
140
0.0
102
RTVSPost2010PropOp38
 70
     1
102
RTVSPost2010Prop39
140
1.0
102
RTVSPost2010PropOp39
 70
     1
102
RTVSPost2010Prop40
 90
        0
102
RTVSPost2010PropOp40
 70
     1
102
RTVSPost2010Prop41ColorIndex
 90
       18
102
RTVSPost2010Prop41ColorRGB
 90
        0
102
RTVSPost2010PropOp41
 70
     1
102
RTVSPost2010Prop42
 90
       50
102
RTVSPost2010PropOp42
 70
     1
102
RTVSPost2010Prop43
 90
        3
102
RTVSPost2010PropOp43
 70
     1
102
RTVSPost2010Prop44ColorIndex
 90
        5
102
RTVSPost2010Prop44ColorRGB
 90
      255
102
RTVSPost2010PropOp44
 70
     1
102
RTVSPost2010Prop45
280
     0
102
RTVSPost2010PropOp45
 70
     1
102
RTVSPost2010Prop46
 90
       50
102
RTVSPost2010PropOp46
 70
     1
102
RTVSPost2010Prop47
 90
       50
102
RTVSPost2010PropOp47
 70
     1
102
RTVSPost2010Prop48
 90
       50
102
RTVSPost2010PropOp48
 70
     1
102
RTVSPost2010Prop49
280
     0
102
RTVSPost2010PropOp49
 70
     1
102
RTVSPost2010Prop50
 90
       50
102
RTVSPost2010PropOp50
 70
     1
102
RTVSPost2010Prop51ColorIndex
 90
      256
102
RTVSPost2010Prop51ColorRGB
 90
-16777216
102
RTVSPost2010PropOp51
 70
     0
102
RTVSPost2010Prop52
140
1.0
102
RTVSPost2010PropOp52
 70
     0
102
RTVSPost2010Prop53
 90
        2
102
RTVSPost2010PropOp53
 70
     1
102
RTVSPost2010Prop54
  1
strokes_ogs.tif
102
RTVSPost2010PropOp54
 70
     1
102
RTVSPost2010Prop55
280
     0
102
RTVSPost2010PropOp55
 70
     1
102
RTVSPost2010Prop56
140
1.0
102
RTVSPost2010PropOp56
 70
     1
102
RTVSPost2010Prop57
140
1.0
102
RTVSPost2010PropOp57
 70
     1
  0
XRECORD
  5
1AD7
102
{ACAD_REACTORS
330
1AD6
102
}
330
1AD6
100
AcDbXrecord
280
     1
102
RTVSPost2010Prop28
280
     0
102
RTVSPost2010PropOp28
 70
     1
102
RTVSPost2010Prop29
280
     1
102
RTVSPost2010PropOp29
 70
     1
102
RTVSPost2010Prop30
280
     1
102
RTVSPost2010PropOp30
 70
     1
102
RTVSPost2010Prop31
280
     0
102
RTVSPost2010PropOp31
 70
     1
102
RTVSPost2010Prop32
280
     0
102
RTVSPost2010PropOp32
 70
     1
102
RTVSPost2010Prop33
280
     0
102
RTVSPost2010PropOp33
 70
     1
102
RTVSPost2010Prop34
280
     0
102
RTVSPost2010PropOp34
 70
     1
102
RTVSPost2010Prop35
280
     0
102
RTVSPost2010PropOp35
 70
     1
102
RTVSPost2010Prop36
280
     0
102
RTVSPost2010PropOp36
 70
     1
102
RTVSPost2010Prop37
 90
       50
102
RTVSPost2010PropOp37
 70
     1
102
RTVSPost2010Prop38
140
0.0
102
RTVSPost2010PropOp38
 70
     1
102
RTVSPost2010Prop39
140
1.0
102
RTVSPost2010PropOp39
 70
     1
102
RTVSPost2010Prop40
 90
        0
102
RTVSPost2010PropOp40
 70
     1
102
RTVSPost2010Prop41ColorIndex
 90
       18
102
RTVSPost2010Prop41ColorRGB
 90
        0
102
RTVSPost2010PropOp41
 70
     1
102
RTVSPost2010Prop42
 90
       50
102
RTVSPost2010PropOp42
 70
     1
102
RTVSPost2010Prop43
 90
        3
102
RTVSPost2010PropOp43
 70
     1
102
RTVSPost2010Prop44ColorIndex
 90
        5
102
RTVSPost2010Prop44ColorRGB
 90
      255
102
RTVSPost2010PropOp44
 70
     1
102
RTVSPost2010Prop45
280
     0
102
RTVSPost2010PropOp45
 70
     1
102
RTVSPost2010Prop46
 90
       50
102
RTVSPost2010PropOp46
 70
     1
102
RTVSPost2010Prop47
 90
       50
102
RTVSPost2010PropOp47
 70
     1
102
RTVSPost2010Prop48
 90
       50
102
RTVSPost2010PropOp48
 70
     1
102
RTVSPost2010Prop49
280
     0
102
RTVSPost2010PropOp49
 70
     1
102
RTVSPost2010Prop50
 90
       50
102
RTVSPost2010PropOp50
 70
     1
102
RTVSPost2010Prop51ColorIndex
 90
      256
102
RTVSPost2010Prop51ColorRGB
 90
-16777216
102
RTVSPost2010PropOp51
 70
     0
102
RTVSPost2010Prop52
140
1.0
102
RTVSPost2010PropOp52
 70
     0
102
RTVSPost2010Prop53
 90
        2
102
RTVSPost2010PropOp53
 70
     1
102
RTVSPost2010Prop54
  1
strokes_ogs.tif
102
RTVSPost2010PropOp54
 70
     1
102
RTVSPost2010Prop55
280
     0
102
RTVSPost2010PropOp55
 70
     1
102
RTVSPost2010Prop56
140
1.0
102
RTVSPost2010PropOp56
 70
     1
102
RTVSPost2010Prop57
140
1.0
102
RTVSPost2010PropOp57
 70
     1
  0
XRECORD
  5
1ACD
102
{ACAD_REACTORS
330
1ACC
102
}
330
1ACC
100
AcDbXrecord
280
     1
102
RTVSPost2010Prop28
280
     0
102
RTVSPost2010PropOp28
 70
     1
102
RTVSPost2010Prop29
280
     1
102
RTVSPost2010PropOp29
 70
     1
102
RTVSPost2010Prop30
280
     1
102
RTVSPost2010PropOp30
 70
     1
102
RTVSPost2010Prop31
280
     0
102
RTVSPost2010PropOp31
 70
     1
102
RTVSPost2010Prop32
280
     0
102
RTVSPost2010PropOp32
 70
     1
102
RTVSPost2010Prop33
280
     0
102
RTVSPost2010PropOp33
 70
     1
102
RTVSPost2010Prop34
280
     0
102
RTVSPost2010PropOp34
 70
     1
102
RTVSPost2010Prop35
280
     0
102
RTVSPost2010PropOp35
 70
     1
102
RTVSPost2010Prop36
280
     0
102
RTVSPost2010PropOp36
 70
     1
102
RTVSPost2010Prop37
 90
       50
102
RTVSPost2010PropOp37
 70
     1
102
RTVSPost2010Prop38
140
0.0
102
RTVSPost2010PropOp38
 70
     1
102
RTVSPost2010Prop39
140
1.0
102
RTVSPost2010PropOp39
 70
     1
102
RTVSPost2010Prop40
 90
        0
102
RTVSPost2010PropOp40
 70
     1
102
RTVSPost2010Prop41ColorIndex
 90
       18
102
RTVSPost2010Prop41ColorRGB
 90
        0
102
RTVSPost2010PropOp41
 70
     1
102
RTVSPost2010Prop42
 90
       50
102
RTVSPost2010PropOp42
 70
     1
102
RTVSPost2010Prop43
 90
        3
102
RTVSPost2010PropOp43
 70
     1
102
RTVSPost2010Prop44ColorIndex
 90
        5
102
RTVSPost2010Prop44ColorRGB
 90
      255
102
RTVSPost2010PropOp44
 70
     1
102
RTVSPost2010Prop45
280
     0
102
RTVSPost2010PropOp45
 70
     1
102
RTVSPost2010Prop46
 90
       50
102
RTVSPost2010PropOp46
 70
     1
102
RTVSPost2010Prop47
 90
       50
102
RTVSPost2010PropOp47
 70
     1
102
RTVSPost2010Prop48
 90
       50
102
RTVSPost2010PropOp48
 70
     1
102
RTVSPost2010Prop49
280
     0
102
RTVSPost2010PropOp49
 70
     1
102
RTVSPost2010Prop50
 90
       50
102
RTVSPost2010PropOp50
 70
     1
102
RTVSPost2010Prop51ColorIndex
 90
      256
102
RTVSPost2010Prop51ColorRGB
 90
-16777216
102
RTVSPost2010PropOp51
 70
     0
102
RTVSPost2010Prop52
140
1.0
102
RTVSPost2010PropOp52
 70
     0
102
RTVSPost2010Prop53
 90
        2
102
RTVSPost2010PropOp53
 70
     1
102
RTVSPost2010Prop54
  1
strokes_ogs.tif
102
RTVSPost2010PropOp54
 70
     1
102
RTVSPost2010Prop55
280
     0
102
RTVSPost2010PropOp55
 70
     1
102
RTVSPost2010Prop56
140
1.0
102
RTVSPost2010PropOp56
 70
     1
102
RTVSPost2010Prop57
140
1.0
102
RTVSPost2010PropOp57
 70
     1
  0
XRECORD
  5
1AC1
102
{ACAD_REACTORS
330
1AC0
102
}
330
1AC0
100
AcDbXrecord
280
     1
102
RTVSPost2010Prop28
280
     0
102
RTVSPost2010PropOp28
 70
     1
102
RTVSPost2010Prop29
280
     1
102
RTVSPost2010PropOp29
 70
     1
102
RTVSPost2010Prop30
280
     1
102
RTVSPost2010PropOp30
 70
     1
102
RTVSPost2010Prop31
280
     0
102
RTVSPost2010PropOp31
 70
     1
102
RTVSPost2010Prop32
280
     0
102
RTVSPost2010PropOp32
 70
     1
102
RTVSPost2010Prop33
280
     0
102
RTVSPost2010PropOp33
 70
     1
102
RTVSPost2010Prop34
280
     0
102
RTVSPost2010PropOp34
 70
     1
102
RTVSPost2010Prop35
280
     0
102
RTVSPost2010PropOp35
 70
     1
102
RTVSPost2010Prop36
280
     0
102
RTVSPost2010PropOp36
 70
     1
102
RTVSPost2010Prop37
 90
       50
102
RTVSPost2010PropOp37
 70
     1
102
RTVSPost2010Prop38
140
0.0
102
RTVSPost2010PropOp38
 70
     1
102
RTVSPost2010Prop39
140
1.0
102
RTVSPost2010PropOp39
 70
     1
102
RTVSPost2010Prop40
 90
        0
102
RTVSPost2010PropOp40
 70
     1
102
RTVSPost2010Prop41ColorIndex
 90
       18
102
RTVSPost2010Prop41ColorRGB
 90
        0
102
RTVSPost2010PropOp41
 70
     1
102
RTVSPost2010Prop42
 90
       50
102
RTVSPost2010PropOp42
 70
     1
102
RTVSPost2010Prop43
 90
        3
102
RTVSPost2010PropOp43
 70
     1
102
RTVSPost2010Prop44ColorIndex
 90
        5
102
RTVSPost2010Prop44ColorRGB
 90
      255
102
RTVSPost2010PropOp44
 70
     1
102
RTVSPost2010Prop45
280
     0
102
RTVSPost2010PropOp45
 70
     1
102
RTVSPost2010Prop46
 90
       50
102
RTVSPost2010PropOp46
 70
     1
102
RTVSPost2010Prop47
 90
       50
102
RTVSPost2010PropOp47
 70
     1
102
RTVSPost2010Prop48
 90
       50
102
RTVSPost2010PropOp48
 70
     1
102
RTVSPost2010Prop49
280
     0
102
RTVSPost2010PropOp49
 70
     1
102
RTVSPost2010Prop50
 90
       50
102
RTVSPost2010PropOp50
 70
     1
102
RTVSPost2010Prop51ColorIndex
 90
      256
102
RTVSPost2010Prop51ColorRGB
 90
-16777216
102
RTVSPost2010PropOp51
 70
     0
102
RTVSPost2010Prop52
140
1.0
102
RTVSPost2010PropOp52
 70
     0
102
RTVSPost2010Prop53
 90
        2
102
RTVSPost2010PropOp53
 70
     1
102
RTVSPost2010Prop54
  1
strokes_ogs.tif
102
RTVSPost2010PropOp54
 70
     1
102
RTVSPost2010Prop55
280
     0
102
RTVSPost2010PropOp55
 70
     1
102
RTVSPost2010Prop56
140
1.0
102
RTVSPost2010PropOp56
 70
     1
102
RTVSPost2010Prop57
140
1.0
102
RTVSPost2010PropOp57
 70
     1
  0
XRECORD
  5
1AD9
102
{ACAD_REACTORS
330
1AD8
102
}
330
1AD8
100
AcDbXrecord
280
     1
102
RTVSPost2010Prop28
280
     0
102
RTVSPost2010PropOp28
 70
     1
102
RTVSPost2010Prop29
280
     1
102
RTVSPost2010PropOp29
 70
     1
102
RTVSPost2010Prop30
280
     1
102
RTVSPost2010PropOp30
 70
     1
102
RTVSPost2010Prop31
280
     0
102
RTVSPost2010PropOp31
 70
     1
102
RTVSPost2010Prop32
280
     0
102
RTVSPost2010PropOp32
 70
     1
102
RTVSPost2010Prop33
280
     0
102
RTVSPost2010PropOp33
 70
     1
102
RTVSPost2010Prop34
280
     0
102
RTVSPost2010PropOp34
 70
     1
102
RTVSPost2010Prop35
280
     0
102
RTVSPost2010PropOp35
 70
     1
102
RTVSPost2010Prop36
280
     0
102
RTVSPost2010PropOp36
 70
     1
102
RTVSPost2010Prop37
 90
       50
102
RTVSPost2010PropOp37
 70
     1
102
RTVSPost2010Prop38
140
0.0
102
RTVSPost2010PropOp38
 70
     1
102
RTVSPost2010Prop39
140
1.0
102
RTVSPost2010PropOp39
 70
     1
102
RTVSPost2010Prop40
 90
        0
102
RTVSPost2010PropOp40
 70
     1
102
RTVSPost2010Prop41ColorIndex
 90
       18
102
RTVSPost2010Prop41ColorRGB
 90
        0
102
RTVSPost2010PropOp41
 70
     1
102
RTVSPost2010Prop42
 90
       50
102
RTVSPost2010PropOp42
 70
     1
102
RTVSPost2010Prop43
 90
        3
102
RTVSPost2010PropOp43
 70
     1
102
RTVSPost2010Prop44ColorIndex
 90
        5
102
RTVSPost2010Prop44ColorRGB
 90
      255
102
RTVSPost2010PropOp44
 70
     1
102
RTVSPost2010Prop45
280
     0
102
RTVSPost2010PropOp45
 70
     1
102
RTVSPost2010Prop46
 90
       50
102
RTVSPost2010PropOp46
 70
     1
102
RTVSPost2010Prop47
 90
       50
102
RTVSPost2010PropOp47
 70
     1
102
RTVSPost2010Prop48
 90
       50
102
RTVSPost2010PropOp48
 70
     1
102
RTVSPost2010Prop49
280
     0
102
RTVSPost2010PropOp49
 70
     1
102
RTVSPost2010Prop50
 90
       50
102
RTVSPost2010PropOp50
 70
     1
102
RTVSPost2010Prop51ColorIndex
 90
      256
102
RTVSPost2010Prop51ColorRGB
 90
-16777216
102
RTVSPost2010PropOp51
 70
     0
102
RTVSPost2010Prop52
140
1.0
102
RTVSPost2010PropOp52
 70
     0
102
RTVSPost2010Prop53
 90
        2
102
RTVSPost2010PropOp53
 70
     1
102
RTVSPost2010Prop54
  1
strokes_ogs.tif
102
RTVSPost2010PropOp54
 70
     1
102
RTVSPost2010Prop55
280
     0
102
RTVSPost2010PropOp55
 70
     1
102
RTVSPost2010Prop56
140
1.0
102
RTVSPost2010PropOp56
 70
     1
102
RTVSPost2010Prop57
140
1.0
102
RTVSPost2010PropOp57
 70
     1
  0
ENDSEC
  0
EOF
