  0
SECTION
  2
HEADER
  9
$ACADVER
  1
AC1024
  9
$ACADMAINTVER
 70
   225
  9
$DWGCODEPAGE
  3
ANSI_932
  9
$LASTSAVEDBY
  1
takanashi
  9
$CUSTOMPROPERTYTAG
  1
AmdtFileType
  9
$CUSTOMPROPERTY
  1
84
  9
$INSBASE
 10
0.0
 20
0.0
 30
0.0
  9
$EXTMIN
 10
29.99473712936106
 20
21.96186471039232
 30
-0.0000000000963955
  9
$EXTMAX
 10
810.0247224950681
 20
572.0174571344418
 30
0.0000000000000205
  9
$LIMMIN
 10
-0.0791567889075395
 20
-0.0159211882485977
  9
$LIMMAX
 10
420.079168406405
 20
297.0159086457359
  9
$ORTHOMODE
 70
     0
  9
$REGENMODE
 70
     1
  9
$FILLMODE
 70
     1
  9
$QTEXTMODE
 70
     0
  9
$MIRRTEXT
 70
     1
  9
$LTSCALE
 40
0.2
  9
$ATTMODE
 70
     1
  9
$TEXTSIZE
 40
2.5
  9
$TRACEWID
 40
1.0
  9
$TEXTSTYLE
  7
STANDARD
  9
$CLAYER
  8
0
  9
$CELTYPE
  6
ByLayer
  9
$CECOLOR
 62
   256
  9
$CELTSCALE
 40
0.2
  9
$DISPSILH
 70
     0
  9
$DIMSCALE
 40
1.0
  9
$DIMASZ
 40
2.5
  9
$DIMEXO
 40
1.0
  9
$DIMDLI
 40
10.0
  9
$DIMRND
 40
0.0
  9
$DIMDLE
 40
0.0
  9
$DIMEXE
 40
1.0
  9
$DIMTP
 40
0.1
  9
$DIMTM
 40
0.1
  9
$DIMTXT
 40
3.5
  9
$DIMCEN
 40
0.0
  9
$DIMTSZ
 40
0.0
  9
$DIMTOL
 70
     0
  9
$DIMLIM
 70
     0
  9
$DIMTIH
 70
     0
  9
$DIMTOH
 70
     0
  9
$DIMSE1
 70
     0
  9
$DIMSE2
 70
     0
  9
$DIMTAD
 70
     1
  9
$DIMZIN
 70
     8
  9
$DIMBLK
  1

  9
$DIMASO
 70
     1
  9
$DIMSHO
 70
     1
  9
$DIMPOST
  1

  9
$DIMAPOST
  1
"
  9
$DIMALT
 70
     0
  9
$DIMALTD
 70
     2
  9
$DIMALTF
 40
0.0393701
  9
$DIMLFAC
 40
1.0
  9
$DIMTOFL
 70
     1
  9
$DIMTVP
 40
0.0
  9
$DIMTIX
 70
     0
  9
$DIMSOXD
 70
     0
  9
$DIMSAH
 70
     0
  9
$DIMBLK1
  1

  9
$DIMBLK2
  1

  9
$DIMSTYLE
  2
AM_ISO
  9
$DIMCLRD
 70
   256
  9
$DIMCLRE
 70
   256
  9
$DIMCLRT
 70
     2
  9
$DIMTFAC
 40
0.71
  9
$DIMGAP
 40
1.5
  9
$DIMJUST
 70
     0
  9
$DIMSD1
 70
     0
  9
$DIMSD2
 70
     0
  9
$DIMTOLJ
 70
     0
  9
$DIMTZIN
 70
     8
  9
$DIMALTZ
 70
     0
  9
$DIMALTTZ
 70
     0
  9
$DIMUPT
 70
     0
  9
$DIMDEC
 70
     2
  9
$DIMTDEC
 70
     3
  9
$DIMALTU
 70
     2
  9
$DIMALTTD
 70
     4
  9
$DIMTXSTY
  7
STANDARD
  9
$DIMAUNIT
 70
     0
  9
$DIMADEC
 70
     0
  9
$DIMALTRND
 40
0.0
  9
$DIMAZIN
 70
     2
  9
$DIMDSEP
 70
    46
  9
$DIMATFIT
 70
     3
  9
$DIMFRAC
 70
     0
  9
$DIMLDRBLK
  1

  9
$DIMLUNIT
 70
     2
  9
$DIMLWD
 70
    -1
  9
$DIMLWE
 70
    -1
  9
$DIMTMOVE
 70
     0
  9
$DIMFXL
 40
1.0
  9
$DIMFXLON
 70
     0
  9
$DIMJOGANG
 40
0.7853981633974483
  9
$DIMTFILL
 70
     0
  9
$DIMTFILLCLR
 70
     0
  9
$DIMARCSYM
 70
     0
  9
$DIMLTYPE
  6

  9
$DIMLTEX1
  6

  9
$DIMLTEX2
  6

  9
$DIMTXTDIRECTION
 70
     0
  9
$LUNITS
 70
     2
  9
$LUPREC
 70
     2
  9
$SKETCHINC
 40
1.0
  9
$FILLETRAD
 40
2.5
  9
$AUNITS
 70
     0
  9
$AUPREC
 70
     0
  9
$MENU
  1
.
  9
$ELEVATION
 40
0.0
  9
$PELEVATION
 40
0.0
  9
$THICKNESS
 40
0.0
  9
$LIMCHECK
 70
     0
  9
$CHAMFERA
 40
2.5
  9
$CHAMFERB
 40
2.5
  9
$CHAMFERC
 40
20.0
  9
$CHAMFERD
 40
0.0
  9
$SKPOLY
 70
     0
  9
$TDCREATE
 40
2457815.719699074
  9
$TDUCREATE
 40
2457815.344699618
  9
$TDUPDATE
 40
2459720.580844908
  9
$TDUUPDATE
 40
2459720.205844908
  9
$TDINDWG
 40
0.1160448958
  9
$TDUSRTIMER
 40
0.1160448958
  9
$USRTIMER
 70
     1
  9
$ANGBASE
 50
0.0
  9
$ANGDIR
 70
     0
  9
$PDMODE
 70
     0
  9
$PDSIZE
 40
0.0
  9
$PLINEWID
 40
0.0
  9
$SPLFRAME
 70
     0
  9
$SPLINETYPE
 70
     6
  9
$SPLINESEGS
 70
     8
  9
$HANDSEED
  5
D23
  9
$SURFTAB1
 70
     6
  9
$SURFTAB2
 70
     6
  9
$SURFTYPE
 70
     6
  9
$SURFU
 70
     6
  9
$SURFV
 70
     6
  9
$UCSBASE
  2

  9
$UCSNAME
  2

  9
$UCSORG
 10
0.0
 20
0.0
 30
0.0
  9
$UCSXDIR
 10
1.0
 20
0.0
 30
0.0
  9
$UCSYDIR
 10
0.0
 20
1.0
 30
0.0
  9
$UCSORTHOREF
  2

  9
$UCSORTHOVIEW
 70
     0
  9
$UCSORGTOP
 10
0.0
 20
0.0
 30
0.0
  9
$UCSORGBOTTOM
 10
0.0
 20
0.0
 30
0.0
  9
$UCSORGLEFT
 10
0.0
 20
0.0
 30
0.0
  9
$UCSORGRIGHT
 10
0.0
 20
0.0
 30
0.0
  9
$UCSORGFRONT
 10
0.0
 20
0.0
 30
0.0
  9
$UCSORGBACK
 10
0.0
 20
0.0
 30
0.0
  9
$PUCSBASE
  2

  9
$PUCSNAME
  2

  9
$PUCSORG
 10
0.0
 20
0.0
 30
0.0
  9
$PUCSXDIR
 10
1.0
 20
0.0
 30
0.0
  9
$PUCSYDIR
 10
0.0
 20
1.0
 30
0.0
  9
$PUCSORTHOREF
  2

  9
$PUCSORTHOVIEW
 70
     0
  9
$PUCSORGTOP
 10
0.0
 20
0.0
 30
0.0
  9
$PUCSORGBOTTOM
 10
0.0
 20
0.0
 30
0.0
  9
$PUCSORGLEFT
 10
0.0
 20
0.0
 30
0.0
  9
$PUCSORGRIGHT
 10
0.0
 20
0.0
 30
0.0
  9
$PUCSORGFRONT
 10
0.0
 20
0.0
 30
0.0
  9
$PUCSORGBACK
 10
0.0
 20
0.0
 30
0.0
  9
$USERI1
 70
     0
  9
$USERI2
 70
     0
  9
$USERI3
 70
     0
  9
$USERI4
 70
     0
  9
$USERI5
 70
     0
  9
$USERR1
 40
0.0
  9
$USERR2
 40
0.0
  9
$USERR3
 40
0.0
  9
$USERR4
 40
0.0
  9
$USERR5
 40
0.0
  9
$WORLDVIEW
 70
     1
  9
$SHADEDGE
 70
     3
  9
$SHADEDIF
 70
    70
  9
$TILEMODE
 70
     1
  9
$MAXACTVP
 70
    64
  9
$PINSBASE
 10
0.0
 20
0.0
 30
0.0
  9
$PLIMCHECK
 70
     0
  9
$PEXTMIN
 10
1.000000000000000E+20
 20
1.000000000000000E+20
 30
1.000000000000000E+20
  9
$PEXTMAX
 10
-1.000000000000000E+20
 20
-1.000000000000000E+20
 30
-1.000000000000000E+20
  9
$PLIMMIN
 10
0.0
 20
0.0
  9
$PLIMMAX
 10
12.0
 20
9.0
  9
$UNITMODE
 70
     0
  9
$VISRETAIN
 70
     1
  9
$PLINEGEN
 70
     0
  9
$PSLTSCALE
 70
     0
  9
$TREEDEPTH
 70
  3020
  9
$CMLSTYLE
  2
Standard
  9
$CMLJUST
 70
     0
  9
$CMLSCALE
 40
20.0
  9
$PROXYGRAPHICS
 70
     1
  9
$MEASUREMENT
 70
     1
  9
$CELWEIGHT
370
    -1
  9
$ENDCAPS
280
     0
  9
$JOINSTYLE
280
     0
  9
$LWDISPLAY
290
     0
  9
$INSUNITS
 70
     4
  9
$HYPERLINKBASE
  1

  9
$STYLESHEET
  1
monochrome.ctb
  9
$XEDIT
290
     1
  9
$CEPSNTYPE
380
     0
  9
$PSTYLEMODE
290
     1
  9
$FINGERPRINTGUID
  2
{783A9EDB-F8DE-4487-8812-5E7109B06054}
  9
$VERSIONGUID
  2
{3727C696-A013-4B45-9DC2-D76F9332039A}
  9
$EXTNAMES
290
     1
  9
$PSVPSCALE
 40
0.0
  9
$OLESTARTUP
290
     0
  9
$SORTENTS
280
   127
  9
$INDEXCTL
280
     0
  9
$HIDETEXT
280
     1
  9
$XCLIPFRAME
280
     2
  9
$HALOGAP
280
     0
  9
$OBSCOLOR
 70
   257
  9
$OBSLTYPE
280
     0
  9
$INTERSECTIONDISPLAY
280
     0
  9
$INTERSECTIONCOLOR
 70
   257
  9
$DIMASSOC
280
     2
  9
$PROJECTNAME
  1

  9
$CAMERADISPLAY
290
     0
  9
$LENSLENGTH
 40
50.0
  9
$CAMERAHEIGHT
 40
0.0
  9
$STEPSPERSEC
 40
2.0
  9
$STEPSIZE
 40
6.0
  9
$3DDWFPREC
 40
2.0
  9
$PSOLWIDTH
 40
0.25
  9
$PSOLHEIGHT
 40
4.0
  9
$LOFTANG1
 40
1.570796326794896
  9
$LOFTANG2
 40
1.570796326794896
  9
$LOFTMAG1
 40
0.0
  9
$LOFTMAG2
 40
0.0
  9
$LOFTPARAM
 70
     7
  9
$LOFTNORMALS
280
     1
  9
$LATITUDE
 40
37.795
  9
$LONGITUDE
 40
-122.394
  9
$NORTHDIRECTION
 40
0.0
  9
$TIMEZONE
 70
 -8000
  9
$LIGHTGLYPHDISPLAY
280
     1
  9
$TILEMODELIGHTSYNCH
280
     1
  9
$CMATERIAL
347
11
  9
$SOLIDHIST
280
     0
  9
$SHOWHIST
280
     1
  9
$DWFFRAME
280
     2
  9
$DGNFRAME
280
     0
  9
$REALWORLDSCALE
290
     1
  9
$INTERFERECOLOR
 62
     1
  9
$INTERFEREOBJVS
345
33
  9
$INTERFEREVPVS
346
30
  9
$CSHADOW
280
     0
  9
$SHADOWPLANELOCATION
 40
0.0
  0
ENDSEC
  0
SECTION
  2
CLASSES
  0
CLASS
  1
ACDBDICTIONARYWDFLT
  2
AcDbDictionaryWithDefault
  3
ObjectDBX Classes
 90
        0
 91
        1
280
     0
281
     0
  0
CLASS
  1
MATERIAL
  2
AcDbMaterial
  3
ObjectDBX Classes
 90
     1153
 91
        3
280
     0
281
     0
  0
CLASS
  1
VISUALSTYLE
  2
AcDbVisualStyle
  3
ObjectDBX Classes
 90
     4095
 91
       24
280
     0
281
     0
  0
CLASS
  1
SCALE
  2
AcDbScale
  3
ObjectDBX Classes
 90
     1153
 91
       17
280
     0
281
     0
  0
CLASS
  1
TABLESTYLE
  2
AcDbTableStyle
  3
ObjectDBX Classes
 90
     4095
 91
        1
280
     0
281
     0
  0
CLASS
  1
MLEADERSTYLE
  2
AcDbMLeaderStyle
  3
ACDB_MLEADERSTYLE_CLASS
 90
     4095
 91
        1
280
     0
281
     0
  0
CLASS
  1
ACDBSECTIONVIEWSTYLE
  2
AcDbSectionViewStyle
  3
ObjectDBX Classes
 90
     1025
 91
        2
280
     0
281
     0
  0
CLASS
  1
ACDBDETAILVIEWSTYLE
  2
AcDbDetailViewStyle
  3
ObjectDBX Classes
 90
     1025
 91
        2
280
     0
281
     0
  0
CLASS
  1
SORTENTSTABLE
  2
AcDbSortentsTable
  3
ObjectDBX Classes
 90
        0
 91
        2
280
     0
281
     0
  0
CLASS
  1
DICTIONARYVAR
  2
AcDbDictionaryVar
  3
ObjectDBX Classes
 90
        0
 91
       10
280
     0
281
     0
  0
CLASS
  1
CELLSTYLEMAP
  2
AcDbCellStyleMap
  3
ObjectDBX Classes
 90
     1152
 91
        3
280
     0
281
     0
  0
CLASS
  1
DIMASSOC
  2
AcDbDimAssoc
  3
"AcDbDimAssoc|Product Desc:     AcDim ARX App For Dimension|Company:          Autodesk, Inc.|WEB Address:      www.autodesk.com"
 90
        0
 91
        3
280
     0
281
     0
  0
ENDSEC
  0
SECTION
  2
TABLES
  0
TABLE
  2
VPORT
  5
8
102
{ACAD_XDICTIONARY
360
209
102
}
330
0
100
AcDbSymbolTable
 70
     1
  0
VPORT
  5
57
330
8
100
AcDbSymbolTableRecord
100
AcDbViewportTableRecord
  2
*Active
 70
     0
 10
0.0
 20
0.0
 11
1.0
 21
1.0
 12
404.9727828530802
 22
286.0007679730967
 13
0.0
 23
0.0
 14
10.0
 24
10.0
 15
10.0
 25
10.0
 16
0.0
 26
0.0
 36
1.0
 17
0.0
 27
0.0
 37
0.0
 40
576.0476476442533
 41
1.879391100702576
 42
50.0
 43
0.0
 44
0.0
 50
0.0
 51
0.0
 71
     0
 72
   100
 73
     1
 74
     1
 75
     0
 76
     0
 77
     0
 78
     0
281
     0
 65
     1
110
0.0
120
0.0
130
0.0
111
1.0
121
0.0
131
0.0
112
0.0
122
1.0
132
0.0
 79
     0
146
0.0
348
2F
 60
     0
 61
     5
292
     1
282
     1
141
0.0
142
0.0
 63
   250
421
  3355443
1001
ACAD_NAV_VCDISPLAY
1070
     3
  0
ENDTAB
  0
TABLE
  2
LTYPE
  5
5
330
0
100
AcDbSymbolTable
 70
     8
  0
LTYPE
  5
5B
330
5
100
AcDbSymbolTableRecord
100
AcDbLinetypeTableRecord
  2
ByBlock
 70
     0
  3

 72
    65
 73
     0
 40
0.0
  0
LTYPE
  5
5C
330
5
100
AcDbSymbolTableRecord
100
AcDbLinetypeTableRecord
  2
ByLayer
 70
     0
  3

 72
    65
 73
     0
 40
0.0
  0
LTYPE
  5
5D
330
5
100
AcDbSymbolTableRecord
100
AcDbLinetypeTableRecord
  2
Continuous
 70
     0
  3
Solid line
 72
    65
 73
     0
 40
0.0
  0
LTYPE
  5
7C
330
5
100
AcDbSymbolTableRecord
100
AcDbLinetypeTableRecord
  2
Amconstr
 70
     0
  3
_______________________
 72
    65
 73
     2
 40
9999.0
 49
9999.0
 74
     0
 49
0.0
 74
     0
  0
LTYPE
  5
7D
330
5
100
AcDbSymbolTableRecord
100
AcDbLinetypeTableRecord
  2
DASHED2
 70
     0
  3
Dashed (.5x) _ _ _ _ _ _ _ _ _ _ _ _ _ _ _ _ _
 72
    65
 73
     2
 40
9.524999999999996
 49
6.349999999999997
 74
     0
 49
-3.174999999999998
 74
     0
  0
LTYPE
  5
7E
330
5
100
AcDbSymbolTableRecord
100
AcDbLinetypeTableRecord
  2
CENTERX2
 70
     0
  3
Center (2x) ________  __  ________  __  _____
 72
    65
 73
     4
 40
101.6
 49
63.5
 74
     0
 49
-12.7
 74
     0
 49
12.7
 74
     0
 49
-12.7
 74
     0
  0
LTYPE
  5
7F
330
5
100
AcDbSymbolTableRecord
100
AcDbLinetypeTableRecord
  2
細い実線
 70
     0
  3
______________________________________________________________
 72
    65
 73
     0
 40
0.0
  0
LTYPE
  5
5F3
330
5
100
AcDbSymbolTableRecord
100
AcDbLinetypeTableRecord
  2
CENTER2
 70
     0
  3
Center (.5x) ___ _ ___ _ ___ _ ___ _ ___ _ ___
 72
    65
 73
     4
 40
28.575
 49
19.05
 74
     0
 49
-3.174999999999998
 74
     0
 49
3.174999999999998
 74
     0
 49
-3.174999999999998
 74
     0
  0
ENDTAB
  0
TABLE
  2
LAYER
  5
2
102
{ACAD_XDICTIONARY
360
1F7
102
}
330
0
100
AcDbSymbolTable
 70
    16
  0
LAYER
  5
54
102
{ACAD_XDICTIONARY
360
1F1
102
}
330
2
100
AcDbSymbolTableRecord
100
AcDbLayerTableRecord
  2
0
 70
     0
 62
     7
  6
Continuous
370
    -3
390
F
347
21
1001
AcAecLayerStandard
1000

1000

  0
LAYER
  5
79
330
2
100
AcDbSymbolTableRecord
100
AcDbLayerTableRecord
  2
Defpoints
 70
     0
 62
     7
  6
Continuous
290
     0
370
    -3
390
F
347
21
1001
AcAecLayerStandard
1000

1000

  0
LAYER
  5
8E
102
{ACAD_XDICTIONARY
360
8F
102
}
330
2
100
AcDbSymbolTableRecord
100
AcDbLayerTableRecord
  2
WAKU
 70
     0
 62
     7
  6
Continuous
370
    -3
390
F
347
21
  0
LAYER
  5
93
102
{ACAD_XDICTIONARY
360
94
102
}
330
2
100
AcDbSymbolTableRecord
100
AcDbLayerTableRecord
  2
KUTAI
 70
     0
 62
     2
  6
Continuous
370
    -3
390
8B
347
21
  0
LAYER
  5
BA
102
{ACAD_XDICTIONARY
360
BB
102
}
330
2
100
AcDbSymbolTableRecord
100
AcDbLayerTableRecord
  2
SEIHIN
 70
     0
 62
     4
  6
Continuous
370
    -3
390
F
347
21
  0
LAYER
  5
BF
102
{ACAD_XDICTIONARY
360
C0
102
}
330
2
100
AcDbSymbolTableRecord
100
AcDbLayerTableRecord
  2
BISUKUGI
 70
     0
 62
     6
  6
Continuous
370
    -3
390
F
347
21
  0
LAYER
  5
D7
102
{ACAD_XDICTIONARY
360
D8
102
}
330
2
100
AcDbSymbolTableRecord
100
AcDbLayerTableRecord
  2
YAKUMONO
 70
     0
 62
     3
  6
Continuous
370
    -3
390
F
347
21
  0
LAYER
  5
E6
102
{ACAD_XDICTIONARY
360
E7
102
}
330
2
100
AcDbSymbolTableRecord
100
AcDbLayerTableRecord
  2
MOJI
 70
     0
 62
     7
  6
Continuous
370
    -3
390
F
347
21
  0
LAYER
  5
F4
102
{ACAD_XDICTIONARY
360
F5
102
}
330
2
100
AcDbSymbolTableRecord
100
AcDbLayerTableRecord
  2
BOUSUISI
 70
     0
 62
     1
  6
Continuous
370
    -3
390
8B
347
21
  0
LAYER
  5
138
102
{ACAD_XDICTIONARY
360
139
102
}
330
2
100
AcDbSymbolTableRecord
100
AcDbLayerTableRecord
  2
SI-RINGU
 70
     0
 62
     9
  6
Continuous
370
    -3
390
8B
347
21
  0
LAYER
  5
15E
102
{ACAD_XDICTIONARY
360
15F
102
}
330
2
100
AcDbSymbolTableRecord
100
AcDbLayerTableRecord
  2
BOUSUITE-PU
 70
     0
 62
     8
  6
Continuous
370
    -3
390
F
347
21
  0
LAYER
  5
171
102
{ACAD_XDICTIONARY
360
172
102
}
330
2
100
AcDbSymbolTableRecord
100
AcDbLayerTableRecord
  2
YAKUMONO2
 70
     0
 62
    32
  6
Continuous
370
    -3
390
8B
347
21
  0
LAYER
  5
5F4
102
{ACAD_XDICTIONARY
360
5F5
102
}
330
2
100
AcDbSymbolTableRecord
100
AcDbLayerTableRecord
  2
SUNPO
 70
     0
 62
     2
  6
Continuous
370
    -3
390
F
347
21
  0
LAYER
  5
5F6
102
{ACAD_XDICTIONARY
360
5F7
102
}
330
2
100
AcDbSymbolTableRecord
100
AcDbLayerTableRecord
  2
HIKIDASI
 70
     0
 62
     7
  6
Continuous
370
     5
390
F
347
21
  0
LAYER
  5
5F8
102
{ACAD_XDICTIONARY
360
5F9
102
}
330
2
100
AcDbSymbolTableRecord
100
AcDbLayerTableRecord
  2
SUNPOU
 70
     0
 62
     7
  6
Continuous
370
     5
390
F
347
21
  0
LAYER
  5
5FA
102
{ACAD_XDICTIONARY
360
5FB
102
}
330
2
100
AcDbSymbolTableRecord
100
AcDbLayerTableRecord
  2
TEKUSU
 70
     0
 62
     7
  6
Continuous
370
    -3
390
F
347
21
  0
ENDTAB
  0
TABLE
  2
STYLE
  5
3
330
0
100
AcDbSymbolTable
 70
     4
  0
STYLE
  5
55
330
3
100
AcDbSymbolTableRecord
100
AcDbTextStyleTableRecord
  2
STANDARD
 70
     0
 40
0.0
 41
1.0
 50
0.0
 71
     0
 42
2.5
  3

  4

1001
ACAD
1000
MS Gothic
1071
    32817
  0
STYLE
  5
5A
330
3
100
AcDbSymbolTableRecord
100
AcDbTextStyleTableRecord
  2
Annotative
 70
     0
 40
0.0
 41
1.0
 50
0.0
 71
     0
 42
0.2
  3

  4

1001
AcadAnnotative
1000
AnnotativeData
1002
{
1070
     1
1070
     1
1002
}
1001
ACAD
1000
MS Gothic
1071
    32817
  0
STYLE
  5
7A
330
3
100
AcDbSymbolTableRecord
100
AcDbTextStyleTableRecord
  2
CAD-DL
 70
     0
 40
0.0
 41
1.0
 50
0.0
 71
     0
 42
5.0
  3

  4

1001
ACAD
1000
MS Gothic
1071
    32817
  0
STYLE
  5
7B
330
3
100
AcDbSymbolTableRecord
100
AcDbTextStyleTableRecord
  2
WAKU
 70
     0
 40
5.0
 41
1.0
 50
0.0
 71
     0
 42
5.0
  3

  4

1001
ACAD
1000
MS Gothic
1071
    32817
  0
ENDTAB
  0
TABLE
  2
VIEW
  5
6
330
0
100
AcDbSymbolTable
 70
     4
  0
ENDTAB
  0
TABLE
  2
UCS
  5
7
330
0
100
AcDbSymbolTable
 70
     0
  0
ENDTAB
  0
TABLE
  2
APPID
  5
9
330
0
100
AcDbSymbolTable
 70
    10
  0
APPID
  5
56
330
9
100
AcDbSymbolTableRecord
100
AcDbRegAppTableRecord
  2
ACAD
 70
     0
  0
APPID
  5
5E
330
9
100
AcDbSymbolTableRecord
100
AcDbRegAppTableRecord
  2
AcadAnnotative
 70
     0
  0
APPID
  5
78
330
9
100
AcDbSymbolTableRecord
100
AcDbRegAppTableRecord
  2
ACAD_PSEXT
 70
     0
  0
APPID
  5
1D1
330
9
100
AcDbSymbolTableRecord
100
AcDbRegAppTableRecord
  2
AcAecLayerStandard
 70
     0
  0
APPID
  5
1ED
330
9
100
AcDbSymbolTableRecord
100
AcDbRegAppTableRecord
  2
ACAD_EXEMPT_FROM_CAD_STANDARDS
 70
     0
  0
APPID
  5
1FD
330
9
100
AcDbSymbolTableRecord
100
AcDbRegAppTableRecord
  2
ACAD_NAV_VCDISPLAY
 70
     0
  0
APPID
  5
23F
330
9
100
AcDbSymbolTableRecord
100
AcDbRegAppTableRecord
  2
ACAD_MLEADERVER
 70
     0
  0
APPID
  5
5FD
330
9
100
AcDbSymbolTableRecord
100
AcDbRegAppTableRecord
  2
ACAD_DSTYLE_DIMJAG
 70
     0
  0
APPID
  5
5FE
330
9
100
AcDbSymbolTableRecord
100
AcDbRegAppTableRecord
  2
ACAD_DSTYLE_DIMTALN
 70
     0
  0
APPID
  5
94F
330
9
100
AcDbSymbolTableRecord
100
AcDbRegAppTableRecord
  2
AcadAnnoPO
 70
     0
  0
ENDTAB
  0
TABLE
  2
DIMSTYLE
  5
A
330
0
100
AcDbSymbolTable
 70
     6
100
AcDbDimStyleTable
 71
     1
340
8A
  0
DIMSTYLE
105
58
330
A
100
AcDbSymbolTableRecord
100
AcDbDimStyleTableRecord
  2
Standard
 70
     0
340
55
  0
DIMSTYLE
105
59
330
A
100
AcDbSymbolTableRecord
100
AcDbDimStyleTableRecord
  2
Annotative
 70
     0
340
55
1001
AcadAnnotative
1000
AnnotativeData
1002
{
1070
     1
1070
     1
1002
}
  0
DIMSTYLE
105
80
102
{ACAD_REACTORS
330
7D1
330
7D2
330
7EB
102
}
330
A
100
AcDbSymbolTableRecord
100
AcDbDimStyleTableRecord
  2
CAD-DL
 70
     0
 41
2.0
 42
2.0
 43
10.0
 44
2.0
 73
     0
 74
     0
 77
     3
 78
     8
140
5.0
141
0.0
143
0.0394
145
1.0
147
2.0
176
   256
178
   256
271
     0
272
     0
279
     1
284
     8
285
     8
286
     8
340
7A
341
82
342
85
371
    -1
  0
DIMSTYLE
105
8A
330
A
100
AcDbSymbolTableRecord
100
AcDbDimStyleTableRecord
  2
AM_ISO
 70
     0
  4
"
 41
2.5
 42
1.0
 43
10.0
 44
1.0
 47
0.1
 48
0.1
 73
     0
 74
     0
 77
     1
 78
     8
 79
     2
140
3.5
141
0.0
143
0.0393701
146
0.71
147
1.5
172
     1
176
   256
177
   256
178
     2
271
     2
272
     3
274
     4
283
     0
284
     8
340
55
371
    -1
372
    -1
  0
DIMSTYLE
105
5FC
330
A
100
AcDbSymbolTableRecord
100
AcDbDimStyleTableRecord
  2
ISO-25
 70
     0
 41
2.5
 42
0.625
 43
3.75
 44
1.25
 73
     0
 74
     0
 77
     1
 78
     8
140
2.5
141
2.5
143
0.03937007874016
147
0.625
171
     3
172
     1
271
     2
272
     2
274
     3
278
    44
283
     0
284
     8
340
55
  0
ENDTAB
  0
TABLE
  2
BLOCK_RECORD
  5
1
330
0
100
AcDbSymbolTable
 70
    13
  0
BLOCK_RECORD
  5
70
102
{ACAD_XDICTIONARY
360
1CF
102
}
330
1
100
AcDbSymbolTableRecord
100
AcDbBlockTableRecord
  2
*Model_Space
340
73
 70
     0
280
     1
281
     0
  0
BLOCK_RECORD
  5
6C
330
1
100
AcDbSymbolTableRecord
100
AcDbBlockTableRecord
  2
*Paper_Space
340
6F
 70
     0
280
     1
281
     0
  0
BLOCK_RECORD
  5
74
330
1
100
AcDbSymbolTableRecord
100
AcDbBlockTableRecord
  2
*Paper_Space0
340
77
 70
     0
280
     1
281
     0
  0
BLOCK_RECORD
  5
82
330
1
100
AcDbSymbolTableRecord
100
AcDbBlockTableRecord
  2
_None
340
0
 70
     0
280
     1
281
     0
  0
BLOCK_RECORD
  5
85
330
1
100
AcDbSymbolTableRecord
100
AcDbBlockTableRecord
  2
_DOT
340
0
310
2800000020000000200000000100080000000000000400000000000000000000000000000000000000000000000080000080000000808000800000008000800080800000C0C0C000C0DCC000F0CAA6000020400000206000002080000020A0000020C0000020E00000400000004020000040400000406000004080000040A0
310
000040C0000040E00000600000006020000060400000606000006080000060A0000060C0000060E00000800000008020000080400000806000008080000080A0000080C0000080E00000A0000000A0200000A0400000A0600000A0800000A0A00000A0C00000A0E00000C0000000C0200000C0400000C0600000C0800000C0
310
A00000C0C00000C0E00000E0000000E0200000E0400000E0600000E0800000E0A00000E0C00000E0E00040000000400020004000400040006000400080004000A0004000C0004000E00040200000402020004020400040206000402080004020A0004020C0004020E000404000004040200040404000404060004040800040
310
40A0004040C0004040E00040600000406020004060400040606000406080004060A0004060C0004060E00040800000408020004080400040806000408080004080A0004080C0004080E00040A0000040A0200040A0400040A0600040A0800040A0A00040A0C00040A0E00040C0000040C0200040C0400040C0600040C08000
310
40C0A00040C0C00040C0E00040E0000040E0200040E0400040E0600040E0800040E0A00040E0C00040E0E00080000000800020008000400080006000800080008000A0008000C0008000E00080200000802020008020400080206000802080008020A0008020C0008020E00080400000804020008040400080406000804080
310
008040A0008040C0008040E00080600000806020008060400080606000806080008060A0008060C0008060E00080800000808020008080400080806000808080008080A0008080C0008080E00080A0000080A0200080A0400080A0600080A0800080A0A00080A0C00080A0E00080C0000080C0200080C0400080C0600080C0
310
800080C0A00080C0C00080C0E00080E0000080E0200080E0400080E0600080E0800080E0A00080E0C00080E0E000C0000000C0002000C0004000C0006000C0008000C000A000C000C000C000E000C0200000C0202000C0204000C0206000C0208000C020A000C020C000C020E000C0400000C0402000C0404000C0406000C0
310
408000C040A000C040C000C040E000C0600000C0602000C0604000C0606000C0608000C060A000C060C000C060E000C0800000C0802000C0804000C0806000C0808000C080A000C080C000C080E000C0A00000C0A02000C0A04000C0A06000C0A08000C0A0A000C0A0C000C0A0E000C0C00000C0C02000C0C04000C0C06000
310
C0C08000C0C0A000F0FBFF00A4A0A000808080000000FF0000FF000000FFFF00FF000000FF00FF00FFFF0000FFFFFF0000000000000000000000000000000000000000000000000000000000000000000000000000000000000000000000000000000000000000000000000000000000000000000000000000000000000000
310
000000000000000000000000000000000000000000000000000000000000000000000000000000000000000000000000000000000000000000000000000000000000000000000000000000000000000000000000000000000000000000000000000000FFFFFFFFFFFFFFFFFFFFFFFFFF000000000000000000000000000000
310
000000FF00FF000000000000000000FF00FF0000000000000000000000000000000000FF00FF000000000000000000FF00FF00000000000000000000000000000000FF000000FF00000000000000FF00000000000000000000000000000000000000FF000000FF00000000000000FF00000000000000000000000000000000
310
0000FF0000000000FF0000000000FF00000000000000000000000000000000000000FF0000000000FF0000000000FF000000000000000000000000000000000000FF00000000000000FF000000FF00000000000000000000000000000000000000FF00000000000000FF000000FF0000000000000000000000000000000000
310
00FF000000000000000000FF00FF00000000000000000000000000000000000000FF000000000000000000FFFFFF00000000FFFF00FFFFFFFFFFFFFFFFFFFFFFFFFFFFFFFFFFFFFFFFFFFFFFFFFFFFFFFFFF000000000000000000000000000000FF000000000000000000FF00FF0000000000000000000000000000000000
310
0000FF0000000000000000FF000000FF00000000000000000000000000000000000000FF00000000000000FF000000FF00000000000000000000000000000000000000FF000000000000FF0000000000FF00000000000000000000000000000000000000FF0000000000FF0000000000FF0000000000000000000000000000
310
000000000000FF000000FF00000000000000FF00000000000000000000000000000000000000FF000000FF00000000000000FF0000000000000000000000000000000000000000FF00FF000000000000000000FF00FF0000000000000000000000000000000000FF00FF000000000000000000FF00FF000000000000000000
310
000000000000000000FFFFFFFFFFFFFFFFFFFFFFFFFF000000000000000000000000000000000000000000000000000000000000000000000000000000000000000000000000000000000000000000000000000000000000000000000000000000000000000000000000000000000000000000000000000000000000000000
310
0000000000000000000000000000000000000000000000000000000000000000000000000000000000000000000000000000000000000000
102
{BLKREFS
331
9A5
331
9A6
331
8BC
331
8BD
331
8C5
331
8C6
102
}
 70
     0
280
     1
281
     0
  0
BLOCK_RECORD
  5
C2
330
1
100
AcDbSymbolTableRecord
100
AcDbBlockTableRecord
  2
S　φ4.2×25
340
0
310
2800000020000000200000000100080000000000000400000000000000000000000000000000000000000000000080000080000000808000800000008000800080800000C0C0C000C0DCC000F0CAA6000020400000206000002080000020A0000020C0000020E00000400000004020000040400000406000004080000040A0
310
000040C0000040E00000600000006020000060400000606000006080000060A0000060C0000060E00000800000008020000080400000806000008080000080A0000080C0000080E00000A0000000A0200000A0400000A0600000A0800000A0A00000A0C00000A0E00000C0000000C0200000C0400000C0600000C0800000C0
310
A00000C0C00000C0E00000E0000000E0200000E0400000E0600000E0800000E0A00000E0C00000E0E00040000000400020004000400040006000400080004000A0004000C0004000E00040200000402020004020400040206000402080004020A0004020C0004020E000404000004040200040404000404060004040800040
310
40A0004040C0004040E00040600000406020004060400040606000406080004060A0004060C0004060E00040800000408020004080400040806000408080004080A0004080C0004080E00040A0000040A0200040A0400040A0600040A0800040A0A00040A0C00040A0E00040C0000040C0200040C0400040C0600040C08000
310
40C0A00040C0C00040C0E00040E0000040E0200040E0400040E0600040E0800040E0A00040E0C00040E0E00080000000800020008000400080006000800080008000A0008000C0008000E00080200000802020008020400080206000802080008020A0008020C0008020E00080400000804020008040400080406000804080
310
008040A0008040C0008040E00080600000806020008060400080606000806080008060A0008060C0008060E00080800000808020008080400080806000808080008080A0008080C0008080E00080A0000080A0200080A0400080A0600080A0800080A0A00080A0C00080A0E00080C0000080C0200080C0400080C0600080C0
310
800080C0A00080C0C00080C0E00080E0000080E0200080E0400080E0600080E0800080E0A00080E0C00080E0E000C0000000C0002000C0004000C0006000C0008000C000A000C000C000C000E000C0200000C0202000C0204000C0206000C0208000C020A000C020C000C020E000C0400000C0402000C0404000C0406000C0
310
408000C040A000C040C000C040E000C0600000C0602000C0604000C0606000C0608000C060A000C060C000C060E000C0800000C0802000C0804000C0806000C0808000C080A000C080C000C080E000C0A00000C0A02000C0A04000C0A06000C0A08000C0A0A000C0A0C000C0A0E000C0C00000C0C02000C0C04000C0C06000
310
C0C08000C0C0A000F0FBFF00A4A0A000808080000000FF0000FF000000FFFF00FF000000FF00FF00FFFF0000FFFFFF0000000000000000000000000000000000000000000000000000000000000000000000000000000000000000000000000000000000000000000000000000000000000000000000000000000000000000
310
00000000000000000000000000000000000000000000000000000000000000000000000000000000000000000000000000000000000000000000000000000000000000000000000000000000000000000000000000000000000000000000000000000000000000000000000000000000000000000000000000000000000000
310
00000000000000000000000000000000000000000000000000000000000000000000000000000000000000000000000000000000000000000000000000000000000000000000000000000000000000000000000000000000000000000000000000000000000000000000000000000000000000000000000000000000000000
310
00000000000000000000000000000000000000000000000000000000000000000000000000000000000000000000000000000000000000000000000000000000000000000000000000000000FDFD000000000000000000000000000000000000000000000000000000000000FDFD00000000000000000000FDFDFDFDFDFDFD
310
FDFDFDFDFDFDFDFDFDFDFDFDFDFDFD000000000000FDFDFDFDFDFDFDFDFDFDFDFDFDFDFD000000000000000000FDFD00000000000000000000FDFD00FD00000000000000FDFDFDFDFDFDFDFDFDFDFDFDFDFDFD000000000000FDFDFDFDFDFDFDFDFDFDFDFDFDFDFDFDFDFDFDFDFDFD00000000000000000000000000000000
310
0000000000000000000000000000FDFD000000000000000000000000000000000000000000000000000000000000FDFD00000000000000000000000000000000000000000000000000000000000000000000000000000000000000000000000000000000000000000000000000000000000000000000000000000000000000
310
00000000000000000000000000000000000000000000000000000000000000000000000000000000000000000000000000000000000000000000000000000000000000000000000000000000000000000000000000000000000000000000000000000000000000000000000000000000000000000000000000000000000000
310
00000000000000000000000000000000000000000000000000000000000000000000000000000000000000000000000000000000000000000000000000000000000000000000000000000000000000000000000000000000000000000000000000000000000000000000000000000000000000000000000000000000000000
310
0000000000000000000000000000000000000000000000000000000000000000000000000000000000000000000000000000000000000000
 70
     4
280
     1
281
     0
  0
BLOCK_RECORD
  5
11E
330
1
100
AcDbSymbolTableRecord
100
AcDbBlockTableRecord
  2
S φ4.2×45　シンワッシャー
340
0
310
2800000020000000200000000100080000000000000400000000000000000000000000000000000000000000000080000080000000808000800000008000800080800000C0C0C000C0DCC000F0CAA6000020400000206000002080000020A0000020C0000020E00000400000004020000040400000406000004080000040A0
310
000040C0000040E00000600000006020000060400000606000006080000060A0000060C0000060E00000800000008020000080400000806000008080000080A0000080C0000080E00000A0000000A0200000A0400000A0600000A0800000A0A00000A0C00000A0E00000C0000000C0200000C0400000C0600000C0800000C0
310
A00000C0C00000C0E00000E0000000E0200000E0400000E0600000E0800000E0A00000E0C00000E0E00040000000400020004000400040006000400080004000A0004000C0004000E00040200000402020004020400040206000402080004020A0004020C0004020E000404000004040200040404000404060004040800040
310
40A0004040C0004040E00040600000406020004060400040606000406080004060A0004060C0004060E00040800000408020004080400040806000408080004080A0004080C0004080E00040A0000040A0200040A0400040A0600040A0800040A0A00040A0C00040A0E00040C0000040C0200040C0400040C0600040C08000
310
40C0A00040C0C00040C0E00040E0000040E0200040E0400040E0600040E0800040E0A00040E0C00040E0E00080000000800020008000400080006000800080008000A0008000C0008000E00080200000802020008020400080206000802080008020A0008020C0008020E00080400000804020008040400080406000804080
310
008040A0008040C0008040E00080600000806020008060400080606000806080008060A0008060C0008060E00080800000808020008080400080806000808080008080A0008080C0008080E00080A0000080A0200080A0400080A0600080A0800080A0A00080A0C00080A0E00080C0000080C0200080C0400080C0600080C0
310
800080C0A00080C0C00080C0E00080E0000080E0200080E0400080E0600080E0800080E0A00080E0C00080E0E000C0000000C0002000C0004000C0006000C0008000C000A000C000C000C000E000C0200000C0202000C0204000C0206000C0208000C020A000C020C000C020E000C0400000C0402000C0404000C0406000C0
310
408000C040A000C040C000C040E000C0600000C0602000C0604000C0606000C0608000C060A000C060C000C060E000C0800000C0802000C0804000C0806000C0808000C080A000C080C000C080E000C0A00000C0A02000C0A04000C0A06000C0A08000C0A0A000C0A0C000C0A0E000C0C00000C0C02000C0C04000C0C06000
310
C0C08000C0C0A000F0FBFF00A4A0A000808080000000FF0000FF000000FFFF00FF000000FF00FF00FFFF0000FFFFFF0000000000000000000000000000000000000000000000000000000000000000000000000000000000000000000000000000000000000000000000000000000000000000000000000000000000000000
310
00000000000000000000000000000000000000000000000000000000000000000000000000000000000000000000000000000000000000000000000000000000000000000000000000000000000000000000000000000000000000000000000000000000000000000000000000000000000000000000000000000000000000
310
00000000000000000000000000000000000000000000000000000000000000000000000000000000000000000000000000000000000000000000000000000000000000000000000000000000000000000000000000000000000000000000000000000000000000000000000000000000000000000000000000000000000000
310
0000000000000000000000000000000000000000000000000000000000000000000000000000000000000000000000000000000000000000000000000000000000000000000000000000000000000000000000000000000000000000000000000000000000000000000000000000FD0000000000000000FDFDFDFDFDFDFDFD
310
FDFDFDFDFDFDFDFDFDFDFDFDFDFDFDFD0000000000FDFDFDFDFDFDFDFDFDFDFDFDFDFDFD0000000000000000000000FD0000000000000000FD00FD000000000000000000FDFDFDFDFDFDFDFDFDFDFDFDFDFDFD0000000000FDFDFDFDFDFDFDFDFDFDFDFDFDFDFDFDFDFDFDFDFDFDFDFD000000000000000000000000000000
310
00000000000000000000000000000000FD0000000000000000000000000000000000000000000000000000000000000000000000000000000000000000000000000000000000000000000000000000000000000000000000000000000000000000000000000000000000000000000000000000000000000000000000000000
310
00000000000000000000000000000000000000000000000000000000000000000000000000000000000000000000000000000000000000000000000000000000000000000000000000000000000000000000000000000000000000000000000000000000000000000000000000000000000000000000000000000000000000
310
00000000000000000000000000000000000000000000000000000000000000000000000000000000000000000000000000000000000000000000000000000000000000000000000000000000000000000000000000000000000000000000000000000000000000000000000000000000000000000000000000000000000000
310
0000000000000000000000000000000000000000000000000000000000000000000000000000000000000000000000000000000000000000
 70
     4
280
     1
281
     0
  0
BLOCK_RECORD
  5
81F
330
1
100
AcDbSymbolTableRecord
100
AcDbBlockTableRecord
  2
*D5
340
0
 70
     0
280
     1
281
     0
  0
BLOCK_RECORD
  5
82B
330
1
100
AcDbSymbolTableRecord
100
AcDbBlockTableRecord
  2
*D6
340
0
 70
     0
280
     1
281
     0
  0
BLOCK_RECORD
  5
837
330
1
100
AcDbSymbolTableRecord
100
AcDbBlockTableRecord
  2
*D7
340
0
 70
     0
280
     1
281
     0
  0
BLOCK_RECORD
  5
AFF
330
1
100
AcDbSymbolTableRecord
100
AcDbBlockTableRecord
  2
*D8
340
0
 70
     0
280
     1
281
     0
  0
BLOCK_RECORD
  5
B2F
330
1
100
AcDbSymbolTableRecord
100
AcDbBlockTableRecord
  2
*D10
340
0
 70
     0
280
     1
281
     0
  0
BLOCK_RECORD
  5
B4B
330
1
100
AcDbSymbolTableRecord
100
AcDbBlockTableRecord
  2
*D11
340
0
 70
     0
280
     1
281
     0
  0
ENDTAB
  0
ENDSEC
  0
SECTION
  2
BLOCKS
  0
BLOCK
  5
71
330
70
100
AcDbEntity
  8
0
100
AcDbBlockBegin
  2
*Model_Space
 70
     0
 10
0.0
 20
0.0
 30
0.0
  3
*Model_Space
  1

  0
ENDBLK
  5
72
330
70
100
AcDbEntity
  8
0
100
AcDbBlockEnd
  0
BLOCK
  5
6D
330
6C
100
AcDbEntity
 67
     1
  8
0
100
AcDbBlockBegin
  2
*Paper_Space
 70
     0
 10
0.0
 20
0.0
 30
0.0
  3
*Paper_Space
  1

  0
ENDBLK
  5
6E
330
6C
100
AcDbEntity
 67
     1
  8
0
100
AcDbBlockEnd
  0
BLOCK
  5
75
330
74
100
AcDbEntity
 67
     1
  8
0
100
AcDbBlockBegin
  2
*Paper_Space0
 70
     0
 10
0.0
 20
0.0
 30
0.0
  3
*Paper_Space0
  1

  0
ENDBLK
  5
76
330
74
100
AcDbEntity
 67
     1
  8
0
100
AcDbBlockEnd
  0
BLOCK
  5
83
330
82
100
AcDbEntity
  8
0
100
AcDbBlockBegin
  2
_None
 70
     0
 10
0.0
 20
0.0
 30
0.0
  3
_None
  1

  0
ENDBLK
  5
84
330
82
100
AcDbEntity
  8
0
100
AcDbBlockEnd
  0
BLOCK
  5
86
330
85
100
AcDbEntity
  8
0
100
AcDbBlockBegin
  2
_DOT
 70
     0
 10
0.0
 20
0.0
 30
0.0
  3
_DOT
  1

  0
LWPOLYLINE
  5
87
330
85
100
AcDbEntity
  8
0
  6
ByBlock
 62
     0
100
AcDbPolyline
 90
        2
 70
     1
 43
0.5
 10
-0.25
 20
0.0
 42
1.0
 10
0.25
 20
0.0
 42
1.0
  0
LINE
  5
88
330
85
100
AcDbEntity
  8
0
  6
ByBlock
 62
     0
100
AcDbLine
 10
-0.5
 20
0.0
 30
0.0
 11
-1.0
 21
0.0
 31
0.0
  0
ENDBLK
  5
89
330
85
100
AcDbEntity
  8
0
100
AcDbBlockEnd
  0
BLOCK
  5
C3
330
C2
100
AcDbEntity
  8
0
100
AcDbBlockBegin
  2
S　φ4.2×25
 70
     0
 10
0.0
 20
0.0
 30
0.0
  3
S　φ4.2×25
  1

  0
ARC
  5
C4
330
C2
100
AcDbEntity
  8
BISUKUGI
100
AcDbCircle
 10
0.8792705549419679
 20
-2.103647225290159
 30
0.0
 40
2.0
100
AcDbArc
 50
243.919387275907
 51
273.460747776051
  0
ARC
  5
C5
330
C2
100
AcDbEntity
  8
BISUKUGI
100
AcDbCircle
 10
-24.97643152934086
 20
0.5066408256054729
 30
0.0
 40
2.0
100
AcDbArc
 50
345.3259155108848
 51
44.161210162238
  0
LINE
  5
C6
330
C2
100
AcDbEntity
  8
BISUKUGI
100
AcDbLine
 10
-20.50000000000057
 20
-2.100000000003546
 30
0.0
 11
-20.50000000000057
 21
2.099999999995815
 31
0.0
  0
LINE
  5
C7
330
C2
100
AcDbEntity
  8
BISUKUGI
100
AcDbLine
 10
-25.0
 20
-0.0000000000056843
 30
0.0
 11
-23.54166666667321
 21
1.899999999994406
 31
0.0
  0
LINE
  5
C8
330
C2
100
AcDbEntity
  8
BISUKUGI
100
AcDbLine
 10
-25.0
 20
-0.0000000000056843
 30
0.0
 11
-23.49190363349658
 21
-1.90000000000532
 31
0.0
  0
LINE
  5
C9
330
C2
100
AcDbEntity
  8
BISUKUGI
100
AcDbLine
 10
0.0
 20
2.099999999994223
 30
0.0
 11
-20.50000000000046
 21
2.099999999994223
 31
0.0
  0
LINE
  5
CA
330
C2
100
AcDbEntity
  8
BISUKUGI
100
AcDbLine
 10
0.0
 20
-2.100000000005592
 30
0.0
 11
-20.50000000000046
 21
-2.100000000005138
 31
0.0
  0
LINE
  5
CB
330
C2
100
AcDbEntity
  8
BISUKUGI
100
AcDbLine
 10
0.0
 20
3.900000000001114
 30
0.0
 11
-0.0000000000002274
 21
-3.900000000001114
 31
0.0
  0
LINE
  5
CC
330
C2
100
AcDbEntity
  8
BISUKUGI
  6
CENTERX2
100
AcDbLine
 10
-28.00000000000057
 20
-0.0000000000050022
 30
0.0
 11
5.899999999999861
 21
0.0000000000010232
 31
0.0
  0
LINE
  5
CD
330
C2
100
AcDbEntity
  8
BISUKUGI
100
AcDbLine
 10
-20.50000000000057
 20
1.899999999994406
 30
0.0
 11
-23.54166666667321
 21
1.899999999994406
 31
0.0
  0
LINE
  5
CE
330
C2
100
AcDbEntity
  8
BISUKUGI
100
AcDbLine
 10
-20.50000000000046
 20
-1.900000000005206
 30
0.0
 11
-23.49190363349658
 21
-1.90000000000532
 31
0.0
  0
ARC
  5
CF
330
C2
100
AcDbEntity
  8
BISUKUGI
100
AcDbCircle
 10
-24.60979482408436
 20
-4.747733573205778
 30
0.0
 40
5.0
100
AcDbArc
 50
34.71862283375607
 51
71.72213565281452
  0
LINE
  5
D0
330
C2
100
AcDbEntity
  8
BISUKUGI
100
AcDbLine
 10
1.0
 20
4.100000000001158
 30
0.0
 11
1.0
 21
-4.099999999998884
 31
0.0
  0
ARC
  5
D1
330
C2
100
AcDbEntity
  8
BISUKUGI
100
AcDbCircle
 10
-2.473684210526243
 20
0.0000000000010232
 30
0.0
 40
5.373684210526199
100
AcDbArc
 50
310.2726068564893
 51
49.72739314351061
  0
ARC
  5
D2
330
C2
100
AcDbEntity
  8
BISUKUGI
100
AcDbCircle
 10
0.8792705549419679
 20
2.103647225290159
 30
0.0
 40
2.0
100
AcDbArc
 50
86.53925222394901
 51
116.080612724093
  0
ENDBLK
  5
D3
330
C2
100
AcDbEntity
  8
0
100
AcDbBlockEnd
  0
BLOCK
  5
11F
330
11E
100
AcDbEntity
  8
0
100
AcDbBlockBegin
  2
S φ4.2×45　シンワッシャー
 70
     0
 10
0.0
 20
0.0
 30
0.0
  3
S φ4.2×45　シンワッシャー
  1

  0
ARC
  5
120
330
11E
100
AcDbEntity
  8
BISUKUGI
100
AcDbCircle
 10
-5.089033838700514
 20
0.0000000000002274
 30
0.0
 40
7.597415320579115
100
AcDbArc
 50
320.8174087950902
 51
39.18259120489159
  0
LINE
  5
121
330
11E
100
AcDbEntity
  8
BISUKUGI
100
AcDbLine
 10
0.0
 20
-5.300000000001318
 30
0.0
 11
0.0
 21
5.300000000001318
 31
0.0
  0
LINE
  5
122
330
11E
100
AcDbEntity
  8
BISUKUGI
100
AcDbLine
 10
0.7999999999997272
 20
5.300000000001205
 30
0.0
 11
0.7999999999997272
 21
-5.300000000001205
 31
0.0
  0
ARC
  5
123
330
11E
100
AcDbEntity
  8
BISUKUGI
100
AcDbCircle
 10
0.3999999999998636
 20
4.999999999998066
 30
0.0
 40
0.5000000000018418
100
AcDbArc
 50
36.86989764613193
 51
143.1301023538485
  0
ARC
  5
124
330
11E
100
AcDbEntity
  8
BISUKUGI
100
AcDbCircle
 10
0.3999999999998636
 20
-4.999999999998066
 30
0.0
 40
0.5000000000018418
100
AcDbArc
 50
216.8698976461515
 51
323.130102353868
  0
ARC
  5
125
330
11E
100
AcDbEntity
  8
BISUKUGI
100
AcDbCircle
 10
-43.43521733585952
 20
-4.984487724017867
 30
0.0
 40
5.0
100
AcDbArc
 50
38.08992903059093
 51
85.48557195627548
  0
ARC
  5
126
330
11E
100
AcDbEntity
  8
BISUKUGI
100
AcDbCircle
 10
-44.97643152934085
 20
0.5066408255997886
 30
0.0
 40
2.0
100
AcDbArc
 50
345.3259155108912
 51
44.161210162238
  0
LINE
  5
127
330
11E
100
AcDbEntity
  8
BISUKUGI
100
AcDbLine
 10
-39.5
 20
-2.100000000005366
 30
0.0
 11
-39.5
 21
2.099999999993996
 31
0.0
  0
LINE
  5
128
330
11E
100
AcDbEntity
  8
BISUKUGI
100
AcDbLine
 10
-45.0
 20
-0.0000000000113687
 30
0.0
 11
-43.54166666667322
 21
1.899999999988721
 31
0.0
  0
LINE
  5
129
330
11E
100
AcDbEntity
  8
BISUKUGI
100
AcDbLine
 10
-45.0
 20
-0.0000000000113687
 30
0.0
 11
-43.49190363349658
 21
-1.900000000011004
 31
0.0
  0
LINE
  5
12A
330
11E
100
AcDbEntity
  8
BISUKUGI
100
AcDbLine
 10
0.0
 20
2.099999999994223
 30
0.0
 11
-39.50000000000012
 21
2.099999999994423
 31
0.0
  0
LINE
  5
12B
330
11E
100
AcDbEntity
  8
BISUKUGI
100
AcDbLine
 10
0.0
 20
-2.100000000005592
 30
0.0
 11
-39.50000000000012
 21
-2.099999999997776
 31
0.0
  0
LINE
  5
12C
330
11E
100
AcDbEntity
  8
BISUKUGI
  6
CENTERX2
100
AcDbLine
 10
-47.99999999999568
 20
-0.0000000000056843
 30
0.0
 11
5.499437301599299
 21
0.0
 31
0.0
  0
LINE
  5
12D
330
11E
100
AcDbEntity
  8
BISUKUGI
100
AcDbLine
 10
-39.49999999999988
 20
1.899999999988721
 30
0.0
 11
-43.54166666667322
 21
1.899999999988721
 31
0.0
  0
LINE
  5
12E
330
11E
100
AcDbEntity
  8
BISUKUGI
100
AcDbLine
 10
-39.5
 20
-1.900000000010776
 30
0.0
 11
-43.49190363349658
 21
-1.900000000011004
 31
0.0
  0
ENDBLK
  5
12F
330
11E
100
AcDbEntity
  8
0
100
AcDbBlockEnd
  0
BLOCK
  5
820
330
81F
100
AcDbEntity
  8
0
 48
0.2
100
AcDbBlockBegin
  2
*D5
 70
     1
 10
0.0
 20
0.0
 30
0.0
  3
*D5
  1

  0
LINE
  5
8B9
330
81F
100
AcDbEntity
  8
SUNPO
 62
     0
440
 16777216
 48
0.1
370
    -2
100
AcDbLine
 10
627.1063929295796
 20
379.6395402264314
 30
0.0
 11
642.0586695704121
 21
379.6395402264315
 31
0.0
  0
LINE
  5
8BA
330
81F
100
AcDbEntity
  8
SUNPO
 62
     0
440
 16777216
 48
0.1
370
    -2
100
AcDbLine
 10
627.1063929295796
 20
364.6395402264314
 30
0.0
 11
642.0586695704121
 21
364.6395402264314
 31
0.0
  0
LINE
  5
8BB
330
81F
100
AcDbEntity
  8
SUNPO
 62
     0
440
 16777216
 48
0.1
100
AcDbLine
 10
642.0586695704121
 20
378.6395402264314
 30
0.0
 11
642.0586695704121
 21
365.6395402264315
 31
0.0
  0
INSERT
  5
8BC
330
81F
100
AcDbEntity
  8
SUNPO
 62
     0
440
 16777216
 48
0.1
100
AcDbBlockReference
  2
_DOT
 10
642.0586695704121
 20
379.6395402264315
 30
0.0
 50
90.0
  0
INSERT
  5
8BD
330
81F
100
AcDbEntity
  8
SUNPO
 62
     0
440
 16777216
 48
0.1
100
AcDbBlockReference
  2
_DOT
 10
642.0586695704121
 20
364.6395402264314
 30
0.0
 50
270.0
  0
MTEXT
  5
8BE
330
81F
100
AcDbEntity
  8
SUNPO
440
 16777216
 48
0.1
100
AcDbMText
 10
637.5586695704121
 20
372.1395402264312
 30
0.0
 40
5.0
 41
0.0
 46
0.0
 71
     5
 72
     1
  1
\A1;15
  7
CAD-DL
 11
0.0000000000000001
 21
1.0
 31
0.0
 73
     1
 44
1.0
  0
POINT
  5
8BF
330
81F
100
AcDbEntity
  8
Defpoints
 62
     0
440
 16777216
 48
0.1
100
AcDbPoint
 10
622.1063929295796
 20
379.6395402264314
 30
0.0
  0
POINT
  5
8C0
330
81F
100
AcDbEntity
  8
Defpoints
 62
     0
440
 16777216
 48
0.1
100
AcDbPoint
 10
622.1063929295796
 20
364.6395402264314
 30
0.0
  0
POINT
  5
8C1
330
81F
100
AcDbEntity
  8
Defpoints
 62
     0
440
 16777216
 48
0.1
100
AcDbPoint
 10
642.0586695704121
 20
364.6395402264314
 30
0.0
  0
ENDBLK
  5
821
330
81F
100
AcDbEntity
  8
0
 48
0.2
100
AcDbBlockEnd
  0
BLOCK
  5
82C
330
82B
100
AcDbEntity
  8
0
 48
0.2
100
AcDbBlockBegin
  2
*D6
 70
     1
 10
0.0
 20
0.0
 30
0.0
  3
*D6
  1

  0
LINE
  5
8C2
330
82B
100
AcDbEntity
  8
SUNPO
 62
     0
440
 16777216
 48
0.1
370
    -2
100
AcDbLine
 10
627.1063929295796
 20
360.4139259365636
 30
0.0
 11
642.0586695704139
 21
360.4139259365637
 31
0.0
  0
LINE
  5
8C3
330
82B
100
AcDbEntity
  8
SUNPO
 62
     0
440
 16777216
 48
0.1
370
    -2
100
AcDbLine
 10
627.1063929295796
 20
260.4139259365636
 30
0.0
 11
642.0586695704139
 21
260.4139259365637
 31
0.0
  0
LINE
  5
8C4
330
82B
100
AcDbEntity
  8
SUNPO
 62
     0
440
 16777216
 48
0.1
100
AcDbLine
 10
642.0586695704139
 20
359.4139259365637
 30
0.0
 11
642.0586695704139
 21
261.4139259365637
 31
0.0
  0
INSERT
  5
8C5
330
82B
100
AcDbEntity
  8
SUNPO
 62
     0
440
 16777216
 48
0.1
100
AcDbBlockReference
  2
_DOT
 10
642.0586695704139
 20
360.4139259365637
 30
0.0
 50
90.0
  0
INSERT
  5
8C6
330
82B
100
AcDbEntity
  8
SUNPO
 62
     0
440
 16777216
 48
0.1
100
AcDbBlockReference
  2
_DOT
 10
642.0586695704139
 20
260.4139259365637
 30
0.0
 50
270.0
  0
MTEXT
  5
8C7
330
82B
100
AcDbEntity
  8
SUNPO
440
 16777216
 48
0.1
100
AcDbMText
 10
637.5586695704139
 20
310.4139259365634
 30
0.0
 40
5.0
 41
0.0
 46
0.0
 71
     5
 72
     1
  1
\A1;100
  7
CAD-DL
 11
0.0000000000000001
 21
1.0
 31
0.0
 73
     1
 44
1.0
  0
POINT
  5
8C8
330
82B
100
AcDbEntity
  8
Defpoints
 62
     0
440
 16777216
 48
0.1
100
AcDbPoint
 10
622.1063929295796
 20
360.4139259365636
 30
0.0
  0
POINT
  5
8C9
330
82B
100
AcDbEntity
  8
Defpoints
 62
     0
440
 16777216
 48
0.1
100
AcDbPoint
 10
622.1063929295796
 20
260.4139259365636
 30
0.0
  0
POINT
  5
8CA
330
82B
100
AcDbEntity
  8
Defpoints
 62
     0
440
 16777216
 48
0.1
100
AcDbPoint
 10
642.0586695704139
 20
260.4139259365637
 30
0.0
  0
ENDBLK
  5
82D
330
82B
100
AcDbEntity
  8
0
 48
0.2
100
AcDbBlockEnd
  0
BLOCK
  5
838
330
837
100
AcDbEntity
  8
0
 48
0.2
100
AcDbBlockBegin
  2
*D7
 70
     1
 10
0.0
 20
0.0
 30
0.0
  3
*D7
  1

  0
LINE
  5
9A2
330
837
100
AcDbEntity
  8
SUNPO
 62
     0
440
 16777216
 48
0.1
370
    -2
100
AcDbLine
 10
387.1063929295795
 20
359.6395402264313
 30
0.0
 11
387.1063929295795
 21
319.0574668020369
 31
0.0
  0
LINE
  5
9A3
330
837
100
AcDbEntity
  8
SUNPO
 62
     0
440
 16777216
 48
0.1
370
    -2
100
AcDbLine
 10
427.1063929295794
 20
335.9019496689204
 30
0.0
 11
427.1063929295794
 21
319.0574668020369
 31
0.0
  0
LINE
  5
9A4
330
837
100
AcDbEntity
  8
SUNPO
 62
     0
440
 16777216
 48
0.1
100
AcDbLine
 10
388.1063929295795
 20
319.0574668020369
 30
0.0
 11
426.1063929295795
 21
319.0574668020369
 31
0.0
  0
INSERT
  5
9A5
330
837
100
AcDbEntity
  8
SUNPO
 62
     0
440
 16777216
 48
0.1
100
AcDbBlockReference
  2
_DOT
 10
387.1063929295795
 20
319.0574668020369
 30
0.0
 50
180.0
  0
INSERT
  5
9A6
330
837
100
AcDbEntity
  8
SUNPO
 62
     0
440
 16777216
 48
0.1
100
AcDbBlockReference
  2
_DOT
 10
427.1063929295794
 20
319.0574668020369
 30
0.0
  0
MTEXT
  5
9A7
330
837
100
AcDbEntity
  8
SUNPO
440
 16777216
 48
0.1
100
AcDbMText
 10
407.1063929295794
 20
323.5574668020369
 30
0.0
 40
5.0
 41
0.0
 46
0.0
 71
     5
 72
     1
  1
\A1;40
  7
CAD-DL
 73
     1
 44
1.0
  0
POINT
  5
9A8
330
837
100
AcDbEntity
  8
Defpoints
 62
     0
440
 16777216
 48
0.1
100
AcDbPoint
 10
387.1063929295795
 20
364.6395402264313
 30
0.0
  0
POINT
  5
9A9
330
837
100
AcDbEntity
  8
Defpoints
 62
     0
440
 16777216
 48
0.1
100
AcDbPoint
 10
427.1063929295794
 20
340.9019496689204
 30
0.0
  0
POINT
  5
9AA
330
837
100
AcDbEntity
  8
Defpoints
 62
     0
440
 16777216
 48
0.1
100
AcDbPoint
 10
427.1063929295794
 20
319.0574668020369
 30
0.0
  0
ENDBLK
  5
839
330
837
100
AcDbEntity
  8
0
 48
0.2
100
AcDbBlockEnd
  0
BLOCK
  5
B00
330
AFF
100
AcDbEntity
  8
0
 62
     2
 48
0.2
100
AcDbBlockBegin
  2
*D8
 70
     1
 10
0.0
 20
0.0
 30
0.0
  3
*D8
  1

  0
LINE
  5
B1F
330
AFF
100
AcDbEntity
  8
SUNPO
440
 16777216
 48
0.2
100
AcDbLine
 10
284.7735221852591
 20
348.1357277945831
 30
0.0
 11
284.7735221852591
 21
357.2608987384003
 31
0.0
  0
LINE
  5
B20
330
AFF
100
AcDbEntity
  8
SUNPO
440
 16777216
 48
0.2
100
AcDbLine
 10
319.77352218526
 20
343.1357277945822
 30
0.0
 11
319.77352218526
 21
357.2608987384003
 31
0.0
  0
LINE
  5
B21
330
AFF
100
AcDbEntity
  8
SUNPO
440
 16777216
 48
0.2
100
AcDbLine
 10
287.2735221852591
 20
356.2608987384003
 30
0.0
 11
317.2735221852601
 21
356.2608987384003
 31
0.0
  0
SOLID
  5
B22
330
AFF
100
AcDbEntity
  8
SUNPO
440
 16777216
 48
0.2
100
AcDbTrace
 10
287.2735221852591
 20
356.677565405067
 30
0.0
 11
287.2735221852591
 21
355.8442320717337
 31
0.0
 12
284.7735221852591
 22
356.2608987384003
 32
0.0
 13
284.7735221852591
 23
356.2608987384003
 33
0.0
  0
SOLID
  5
B23
330
AFF
100
AcDbEntity
  8
SUNPO
440
 16777216
 48
0.2
100
AcDbTrace
 10
317.2735221852601
 20
356.677565405067
 30
0.0
 11
317.2735221852601
 21
355.8442320717337
 31
0.0
 12
319.77352218526
 22
356.2608987384003
 32
0.0
 13
319.77352218526
 23
356.2608987384003
 33
0.0
  0
MTEXT
  5
B24
330
AFF
100
AcDbEntity
  8
SUNPO
 62
     2
440
 16777216
 48
0.2
100
AcDbMText
 10
302.2735221852596
 20
359.5108987384003
 30
0.0
 40
3.5
 41
0.0
 46
0.0
 71
     5
 72
     1
  1
35
 73
     1
 44
1.0
  0
POINT
  5
B25
330
AFF
100
AcDbEntity
  8
Defpoints
 62
     0
440
 16777216
 48
0.2
100
AcDbPoint
 10
284.7735221852591
 20
347.1357277945831
 30
0.0
  0
POINT
  5
B26
330
AFF
100
AcDbEntity
  8
Defpoints
 62
     0
440
 16777216
 48
0.2
100
AcDbPoint
 10
319.77352218526
 20
342.1357277945822
 30
0.0
  0
POINT
  5
B27
330
AFF
100
AcDbEntity
  8
Defpoints
 62
     0
440
 16777216
 48
0.2
100
AcDbPoint
 10
319.77352218526
 20
356.2608987384003
 30
0.0
  0
ENDBLK
  5
B01
330
AFF
100
AcDbEntity
  8
0
 62
     2
 48
0.2
100
AcDbBlockEnd
  0
BLOCK
  5
B30
330
B2F
100
AcDbEntity
  8
0
 62
     2
 48
0.2
100
AcDbBlockBegin
  2
*D10
 70
     1
 10
0.0
 20
0.0
 30
0.0
  3
*D10
  1

  0
LINE
  5
B3E
330
B2F
100
AcDbEntity
  8
SUNPO
440
 16777216
 48
0.2
100
AcDbLine
 10
314.7735221852593
 20
344.6357277945824
 30
0.0
 11
337.2496227886329
 21
344.6357277945824
 31
0.0
  0
LINE
  5
B3F
330
B2F
100
AcDbEntity
  8
SUNPO
440
 16777216
 48
0.2
100
AcDbLine
 10
314.7735221852593
 20
339.6357277945823
 30
0.0
 11
337.2496227886329
 21
339.6357277945823
 31
0.0
  0
LINE
  5
B40
330
B2F
100
AcDbEntity
  8
SUNPO
440
 16777216
 48
0.2
100
AcDbLine
 10
336.2496227886329
 20
347.1357277945823
 30
0.0
 11
336.2496227886329
 21
349.6357277945823
 31
0.0
  0
LINE
  5
B41
330
B2F
100
AcDbEntity
  8
SUNPO
440
 16777216
 48
0.2
100
AcDbLine
 10
336.2496227886329
 20
337.1357277945823
 30
0.0
 11
336.2496227886329
 21
334.6357277945823
 31
0.0
  0
LINE
  5
B42
330
B2F
100
AcDbEntity
  8
SUNPO
440
 16777216
 48
0.2
100
AcDbLine
 10
336.2496227886329
 20
344.6357277945824
 30
0.0
 11
336.2496227886329
 21
339.6357277945823
 31
0.0
  0
SOLID
  5
B43
330
B2F
100
AcDbEntity
  8
SUNPO
440
 16777216
 48
0.2
100
AcDbTrace
 10
335.8329561219662
 20
347.1357277945823
 30
0.0
 11
336.6662894552996
 21
347.1357277945823
 31
0.0
 12
336.2496227886329
 22
344.6357277945824
 32
0.0
 13
336.2496227886329
 23
344.6357277945824
 33
0.0
  0
SOLID
  5
B44
330
B2F
100
AcDbEntity
  8
SUNPO
440
 16777216
 48
0.2
100
AcDbTrace
 10
335.8329561219662
 20
337.1357277945823
 30
0.0
 11
336.6662894552996
 21
337.1357277945823
 31
0.0
 12
336.2496227886329
 22
339.6357277945823
 32
0.0
 13
336.2496227886329
 23
339.6357277945823
 33
0.0
  0
MTEXT
  5
B45
330
B2F
100
AcDbEntity
  8
SUNPO
 62
     2
440
 16777216
 48
0.2
100
AcDbMText
 10
332.9996227886329
 20
342.1357277945822
 30
0.0
 40
3.5
 41
0.0
 46
0.0
 71
     5
 72
     1
  1
5
 11
0.0000000000000001
 21
1.0
 31
0.0
 73
     1
 44
1.0
  0
POINT
  5
B46
330
B2F
100
AcDbEntity
  8
Defpoints
 62
     0
440
 16777216
 48
0.2
100
AcDbPoint
 10
313.7735221852592
 20
344.6357277945824
 30
0.0
  0
POINT
  5
B47
330
B2F
100
AcDbEntity
  8
Defpoints
 62
     0
440
 16777216
 48
0.2
100
AcDbPoint
 10
313.7735221852592
 20
339.6357277945823
 30
0.0
  0
POINT
  5
B48
330
B2F
100
AcDbEntity
  8
Defpoints
 62
     0
440
 16777216
 48
0.2
100
AcDbPoint
 10
336.2496227886329
 20
339.6357277945823
 30
0.0
  0
ENDBLK
  5
B31
330
B2F
100
AcDbEntity
  8
0
 62
     2
 48
0.2
100
AcDbBlockEnd
  0
BLOCK
  5
B4C
330
B4B
100
AcDbEntity
  8
0
 62
     2
 48
0.2
100
AcDbBlockBegin
  2
*D11
 70
     1
 10
0.0
 20
0.0
 30
0.0
  3
*D11
  1

  0
LINE
  5
B58
330
B4B
100
AcDbEntity
  8
SUNPO
440
 16777216
 48
0.2
100
AcDbLine
 10
282.8735221852593
 20
347.1357277945823
 30
0.0
 11
273.1154994574128
 21
347.1357277945823
 31
0.0
  0
LINE
  5
B59
330
B4B
100
AcDbEntity
  8
SUNPO
440
 16777216
 48
0.2
100
AcDbLine
 10
282.8735221852593
 20
337.1357277945823
 30
0.0
 11
273.1154994574128
 21
337.1357277945823
 31
0.0
  0
LINE
  5
B5A
330
B4B
100
AcDbEntity
  8
SUNPO
440
 16777216
 48
0.2
100
AcDbLine
 10
274.1154994574129
 20
344.6357277945823
 30
0.0
 11
274.1154994574129
 21
339.6357277945823
 31
0.0
  0
SOLID
  5
B5B
330
B4B
100
AcDbEntity
  8
SUNPO
440
 16777216
 48
0.2
100
AcDbTrace
 10
273.6988327907462
 20
344.6357277945823
 30
0.0
 11
274.5321661240796
 21
344.6357277945823
 31
0.0
 12
274.1154994574129
 22
347.1357277945823
 32
0.0
 13
274.1154994574129
 23
347.1357277945823
 33
0.0
  0
SOLID
  5
B5C
330
B4B
100
AcDbEntity
  8
SUNPO
440
 16777216
 48
0.2
100
AcDbTrace
 10
273.6988327907462
 20
339.6357277945823
 30
0.0
 11
274.5321661240796
 21
339.6357277945823
 31
0.0
 12
274.1154994574129
 22
337.1357277945823
 32
0.0
 13
274.1154994574129
 23
337.1357277945823
 33
0.0
  0
MTEXT
  5
B5D
330
B4B
100
AcDbEntity
  8
SUNPO
 62
     2
440
 16777216
 48
0.2
100
AcDbMText
 10
270.8654994574128
 20
342.1357277945822
 30
0.0
 40
3.5
 41
0.0
 46
0.0
 71
     5
 72
     1
  1
10
 11
0.0000000000000001
 21
1.0
 31
0.0
 73
     1
 44
1.0
  0
POINT
  5
B5E
330
B4B
100
AcDbEntity
  8
Defpoints
 62
     0
440
 16777216
 48
0.2
100
AcDbPoint
 10
283.8735221852593
 20
347.1357277945823
 30
0.0
  0
POINT
  5
B5F
330
B4B
100
AcDbEntity
  8
Defpoints
 62
     0
440
 16777216
 48
0.2
100
AcDbPoint
 10
283.8735221852593
 20
337.1357277945823
 30
0.0
  0
POINT
  5
B60
330
B4B
100
AcDbEntity
  8
Defpoints
 62
     0
440
 16777216
 48
0.2
100
AcDbPoint
 10
274.1154994574129
 20
337.1357277945823
 30
0.0
  0
ENDBLK
  5
B4D
330
B4B
100
AcDbEntity
  8
0
 62
     2
 48
0.2
100
AcDbBlockEnd
  0
ENDSEC
  0
SECTION
  2
ENTITIES
  0
MTEXT
  5
91
330
70
100
AcDbEntity
  8
WAKU
 48
0.4999999993549407
100
AcDbMText
 10
599.9999992259296
 20
31.99999995871622
 30
0.0
 40
4.999999993549406
 41
40.37504605146475
 46
0.0
 71
     5
 72
     5
  1
st003-02-01
  7
WAKU
 73
     1
 44
1.0
  0
MTEXT
  5
9A
330
70
100
AcDbEntity
  8
WAKU
 48
0.4999999993549407
100
AcDbMText
 10
389.841722680592
 20
32.67482141958542
 30
0.0
 40
4.999999993549406
 41
200.2574173176324
 46
0.0
 71
     5
 72
     5
  1
銘壁　新築\P出隅01（3M／4M出隅キャップ15-25・出隅下地15N）
  7
WAKU
 73
     1
 44
1.0
  0
LINE
  5
9B
330
70
100
AcDbEntity
  8
WAKU
 48
0.4999999993549407
100
AcDbLine
 10
29.99999996129679
 20
41.99999994581503
 30
0.0
 11
809.9999989550038
 21
41.99999994581503
 31
0.0
  0
LINE
  5
9C
330
70
100
AcDbEntity
  8
WAKU
 48
0.4999999993549407
100
AcDbLine
 10
29.99999996129679
 20
21.9999999716174
 30
0.0
 11
809.9999989550038
 21
21.9999999716174
 31
0.0
  0
LINE
  5
9D
330
70
100
AcDbEntity
  8
WAKU
 48
0.4999999993549407
100
AcDbLine
 10
29.99999996129679
 20
571.9999992620521
 30
0.0
 11
29.99999996129679
 21
21.9999999716174
 31
0.0
  0
LINE
  5
9E
330
70
100
AcDbEntity
  8
WAKU
 48
0.4999999993549407
100
AcDbLine
 10
809.9999989550038
 20
571.9999992620521
 30
0.0
 11
29.99999996129679
 21
571.9999992620521
 31
0.0
  0
LINE
  5
9F
330
70
100
AcDbEntity
  8
WAKU
 48
0.4999999993549407
100
AcDbLine
 10
809.9999989550038
 20
21.9999999716174
 30
0.0
 11
809.9999989550038
 21
571.9999992620521
 31
0.0
  0
MTEXT
  5
A0
330
70
100
AcDbEntity
  8
WAKU
 48
0.4999999993549407
100
AcDbMText
 10
204.9999997355259
 20
31.99999995871622
 30
0.0
 40
4.999999993549406
 41
128.4454165366397
 46
0.0
 71
     5
 72
     5
  1
アイジーサイディング参考ディテール
  7
WAKU
 73
     1
 44
1.0
  0
LINE
  5
A1
330
70
100
AcDbEntity
  8
WAKU
 48
0.4999999993549407
100
AcDbLine
 10
127.9999998348652
 20
39.99999994839527
 30
0.0
 11
127.9999998348652
 21
23.99999996903716
 31
0.0
  0
LINE
  5
A2
330
70
100
AcDbEntity
  8
WAKU
 48
0.4999999993549407
100
AcDbLine
 10
31.99999995871656
 20
23.99999996903716
 30
0.0
 11
127.9999998348652
 21
23.99999996903716
 31
0.0
  0
LINE
  5
A3
330
70
100
AcDbEntity
  8
WAKU
 48
0.4999999993549407
100
AcDbLine
 10
31.99999995871656
 20
39.99999994839527
 30
0.0
 11
127.9999998348652
 21
39.99999994839527
 31
0.0
  0
LINE
  5
A4
330
70
100
AcDbEntity
  8
WAKU
 48
0.4999999993549407
100
AcDbLine
 10
129.9999998322849
 20
41.99999994581503
 30
0.0
 11
129.9999998322849
 21
21.9999999716174
 31
0.0
  0
MTEXT
  5
A5
330
70
100
AcDbEntity
  8
WAKU
 48
0.4999999993549407
100
AcDbMText
 10
79.99999989679088
 20
31.99999995871622
 30
0.0
 40
5.999999992259287
 41
87.09146916313393
 46
0.0
 71
     5
 72
     5
  1
アイジー工業株式会社
  7
WAKU
 73
     1
 44
1.0
  0
LINE
  5
A6
330
70
100
AcDbEntity
  8
WAKU
 48
0.4999999993549407
100
AcDbLine
 10
31.99999995871656
 20
39.99999994839527
 30
0.0
 11
31.99999995871656
 21
23.99999996903716
 31
0.0
  0
MTEXT
  5
A7
330
70
100
AcDbEntity
  8
WAKU
 48
0.4999999993549407
100
AcDbMText
 10
284.9999996323164
 20
31.99999995871622
 30
0.0
 40
4.999999993549406
 41
6.55080958184702
 46
0.0
 71
     5
 72
     5
  1
名称
  7
WAKU
 73
     1
 44
1.0
  0
LINE
  5
A8
330
70
100
AcDbEntity
  8
WAKU
 48
0.4999999993549407
100
AcDbLine
 10
289.9999996258658
 20
41.99999994581503
 30
0.0
 11
289.9999996258658
 21
21.9999999716174
 31
0.0
  0
LINE
  5
A9
330
70
100
AcDbEntity
  8
WAKU
 48
0.4999999993549407
100
AcDbLine
 10
279.999999638767
 20
41.99999994581503
 30
0.0
 11
279.999999638767
 21
21.9999999716174
 31
0.0
  0
LINE
  5
AA
330
70
100
AcDbEntity
  8
WAKU
 48
0.4999999993549407
100
AcDbLine
 10
499.9999993549409
 20
41.99999994581503
 30
0.0
 11
499.9999993549409
 21
21.9999999716174
 31
0.0
  0
LINE
  5
AB
330
70
100
AcDbEntity
  8
WAKU
 48
0.4999999993549407
100
AcDbLine
 10
489.9999993678421
 20
21.9999999716174
 30
0.0
 11
489.9999993678421
 21
41.99999994581503
 31
0.0
  0
MTEXT
  5
AC
330
70
100
AcDbEntity
  8
WAKU
 48
0.4999999993549407
100
AcDbMText
 10
509.9999993420397
 20
31.99999995871622
 30
0.0
 40
4.999999993549406
 41
23.63255305418644
 46
0.0
 71
     5
 72
     5
  1
mm
  7
WAKU
 73
     1
 44
1.0
  0
MTEXT
  5
AD
330
70
100
AcDbEntity
  8
WAKU
 48
0.4999999993549407
100
AcDbMText
 10
549.999999290435
 20
31.99999995871622
 30
0.0
 40
4.999999993549406
 41
39.84429658334918
 46
0.0
 71
     5
 72
     5
  1
1/2（A3）
  7
WAKU
 73
     1
 44
1.0
  0
LINE
  5
AE
330
70
100
AcDbEntity
  8
WAKU
 48
0.4999999993549407
100
AcDbLine
 10
529.9999993162374
 20
41.99999994581503
 30
0.0
 11
529.9999993162374
 21
21.9999999716174
 31
0.0
  0
LINE
  5
AF
330
70
100
AcDbEntity
  8
WAKU
 48
0.4999999993549407
100
AcDbLine
 10
519.9999993291386
 20
41.99999994581503
 30
0.0
 11
519.9999993291386
 21
21.9999999716174
 31
0.0
  0
LINE
  5
B0
330
70
100
AcDbEntity
  8
WAKU
 48
0.4999999993549407
100
AcDbLine
 10
569.9999992646326
 20
41.99999994581503
 30
0.0
 11
569.9999992646326
 21
21.9999999716174
 31
0.0
  0
LINE
  5
B1
330
70
100
AcDbEntity
  8
WAKU
 48
0.4999999993549407
100
AcDbLine
 10
579.9999992517315
 20
41.99999994581503
 30
0.0
 11
579.9999992517315
 21
21.9999999716174
 31
0.0
  0
LINE
  5
B2
330
70
100
AcDbEntity
  8
WAKU
  6
DASHED2
 48
0.2499999996774703
100
AcDbLine
 10
629.9999991872256
 20
31.99999995871622
 30
0.0
 11
809.9999989550038
 21
31.99999995871622
 31
0.0
  0
LINE
  5
B3
330
70
100
AcDbEntity
  8
WAKU
 48
0.4999999993549407
100
AcDbLine
 10
629.9999991872256
 20
41.99999994581503
 30
0.0
 11
629.9999991872256
 21
21.9999999716174
 31
0.0
  0
LINE
  5
B4
330
70
100
AcDbEntity
  8
WAKU
 48
0.4999999993549407
100
AcDbLine
 10
619.9999992001267
 20
41.99999994581503
 30
0.0
 11
619.9999992001267
 21
21.9999999716174
 31
0.0
  0
MTEXT
  5
B5
330
70
100
AcDbEntity
  8
WAKU
 48
0.4999999993549407
100
AcDbMText
 10
494.9999993613915
 20
31.99999995871622
 30
0.0
 40
4.999999993549406
 41
6.55080958184702
 46
0.0
 71
     5
 72
     5
  1
単位
  7
WAKU
 73
     1
 44
1.0
  0
MTEXT
  5
B6
330
70
100
AcDbEntity
  8
WAKU
 48
0.4999999993549407
100
AcDbMText
 10
524.999999322688
 20
31.99999995871622
 30
0.0
 40
4.999999993549406
 41
6.55080958184702
 46
0.0
 71
     5
 72
     5
  1
縮尺
  7
WAKU
 73
     1
 44
1.0
  0
MTEXT
  5
B7
330
70
100
AcDbEntity
  8
WAKU
 48
0.4999999993549407
100
AcDbMText
 10
571.7245944672587
 20
31.99999995871622
 30
0.0
 40
4.999999993549406
 41
6.55080958184702
 46
0.0
 71
     4
 72
     5
  1
図番
  7
WAKU
 73
     1
 44
1.0
  0
MTEXT
  5
B8
330
70
100
AcDbEntity
  8
WAKU
 48
0.4999999993549407
100
AcDbMText
 10
624.9999991936761
 20
31.99999995871622
 30
0.0
 40
4.999999993549406
 41
6.55080958184702
 46
0.0
 71
     5
 72
     5
  1
特記
  7
WAKU
 73
     1
 44
1.0
  0
LINE
  5
712
330
70
100
AcDbEntity
  8
SEIHIN
100
AcDbLine
 10
372.8807786397136
 20
350.4139259365635
 30
0.0
 11
372.8807786397136
 21
115.4139259365635
 31
0.0
  0
LINE
  5
713
330
70
100
AcDbEntity
  8
SEIHIN
100
AcDbLine
 10
372.8807786397136
 20
350.4139259365635
 30
0.0
 11
357.8807786397136
 21
350.4139259365635
 31
0.0
  0
LINE
  5
714
330
70
100
AcDbEntity
  8
KUTAI
100
AcDbLine
 10
377.10639292958
 20
350.5159972072976
 30
0.0
 11
379.4063929295783
 21
352.815997207296
 31
0.0
  0
LINE
  5
715
330
70
100
AcDbEntity
  8
YAKUMONO
100
AcDbLine
 10
375.9033866351229
 20
361.0550638801594
 30
0.0
 11
358.9348257059437
 21
376.6647423525953
 31
0.0
  0
LINE
  5
716
330
70
100
AcDbEntity
  8
YAKUMONO
100
AcDbLine
 10
376.1510896761075
 20
361.3027669211412
 30
0.0
 11
375.9033866351229
 21
361.0550638801594
 31
0.0
  0
LINE
  5
717
330
70
100
AcDbEntity
  8
YAKUMONO
100
AcDbLine
 10
359.0952753723842
 20
376.9927111920921
 30
0.0
 11
376.1510896761075
 21
361.3027669211412
 31
0.0
  0
ARC
  5
718
330
70
100
AcDbEntity
  8
YAKUMONO
100
AcDbCircle
 10
358.608921489421
 20
374.419939090884
 30
0.0
 40
2.618338477781033
100
AcDbArc
 50
79.2951932722693
 51
169.9475642054316
  0
LINE
  5
719
330
70
100
AcDbEntity
  8
YAKUMONO
100
AcDbLine
 10
376.2084480568784
 20
361.360125301913
 30
0.0
 11
360.5185037723905
 21
378.4159396723605
 31
0.0
  0
LINE
  5
71A
330
70
100
AcDbEntity
  8
YAKUMONO
100
AcDbLine
 10
376.4561510978602
 20
361.6078283428994
 30
0.0
 11
376.2084480568784
 21
361.360125301913
 31
0.0
  0
LINE
  5
71B
330
70
100
AcDbEntity
  8
YAKUMONO
100
AcDbLine
 10
360.8464719183185
 20
378.57638856497
 30
0.0
 11
376.4561510978602
 21
361.6078283428994
 31
0.0
  0
ARC
  5
71C
330
70
100
AcDbEntity
  8
YAKUMONO
100
AcDbCircle
 10
358.6089216464907
 20
374.4199383649754
 30
0.0
 40
2.268339164855249
100
AcDbArc
 50
81.73941867097383
 51
169.1976230431362
  0
LINE
  5
71D
330
70
100
AcDbEntity
  8
YAKUMONO
100
AcDbLine
 10
369.9925445795771
 20
365.0431100636067
 30
0.0
 11
373.1071314064894
 21
363.6273883824003
 31
0.0
  0
LINE
  5
71E
330
70
100
AcDbEntity
  8
YAKUMONO
100
AcDbLine
 10
370.7474945028399
 20
365.7980599868694
 30
0.0
 11
369.9925445795771
 21
365.0431100636067
 31
0.0
  0
LINE
  5
71F
330
70
100
AcDbEntity
  8
YAKUMONO
100
AcDbLine
 10
372.4681049144147
 20
367.518670398447
 30
0.0
 11
373.8838268141372
 21
364.4040830908013
 31
0.0
  0
LINE
  5
720
330
70
100
AcDbEntity
  8
YAKUMONO
100
AcDbLine
 10
371.7123524337622
 20
366.7645924497917
 30
0.0
 11
372.4681049144147
 21
367.518670398447
 31
0.0
  0
LINE
  5
721
330
70
100
AcDbEntity
  8
BOUSUISI
100
AcDbLine
 10
622.1063929295794
 20
360.6639259365362
 30
0.0
 11
382.1063929295783
 21
360.6639259365636
 31
0.0
  0
LINE
  5
722
330
70
100
AcDbEntity
  8
BOUSUISI
100
AcDbLine
 10
376.85639292958
 20
285.6639259365636
 30
0.0
 11
376.85639292958
 21
355.4139259365635
 31
0.0
  0
LINE
  5
723
330
70
100
AcDbEntity
  8
KUTAI
100
AcDbLine
 10
382.1063929295802
 20
360.4139259365636
 30
0.0
 11
472.106392929579
 21
360.4139259365636
 31
0.0
  0
LINE
  5
724
330
70
100
AcDbEntity
  8
KUTAI
100
AcDbLine
 10
382.1063929295799
 20
260.4139259365636
 30
0.0
 11
472.106392929579
 21
260.4139259365636
 31
0.0
  0
LINE
  5
725
330
70
100
AcDbEntity
  8
KUTAI
100
AcDbLine
 10
377.10639292958
 20
355.4139259365635
 30
0.0
 11
377.10639292958
 21
265.4139259365635
 31
0.0
  0
LINE
  5
726
330
70
100
AcDbEntity
  8
KUTAI
100
AcDbLine
 10
477.106392929579
 20
355.4139259365635
 30
0.0
 11
477.106392929579
 21
265.4139259365635
 31
0.0
  0
ARC
  5
727
330
70
100
AcDbEntity
  8
KUTAI
100
AcDbCircle
 10
382.1063929295799
 20
355.4139259365635
 30
0.0
 40
5.0
100
AcDbArc
 50
90.0
 51
180.0
  0
ARC
  5
728
330
70
100
AcDbEntity
  8
KUTAI
100
AcDbCircle
 10
472.106392929579
 20
355.4139259365635
 30
0.0
 40
5.0
100
AcDbArc
 50
0.0
 51
90.0
  0
ARC
  5
729
330
70
100
AcDbEntity
  8
KUTAI
100
AcDbCircle
 10
472.106392929579
 20
265.4139259365635
 30
0.0
 40
5.0
100
AcDbArc
 50
270.0
 51
0.0
  0
ARC
  5
72A
330
70
100
AcDbEntity
  8
KUTAI
100
AcDbCircle
 10
382.1063929295799
 20
265.4139259365635
 30
0.0
 40
5.0
100
AcDbArc
 50
180.0
 51
270.0
  0
LINE
  5
72B
330
70
100
AcDbEntity
  8
KUTAI
100
AcDbLine
 10
379.4063929295783
 20
355.4139259365635
 30
0.0
 11
379.4063929295783
 21
265.4139259365635
 31
0.0
  0
LINE
  5
72C
330
70
100
AcDbEntity
  8
KUTAI
100
AcDbLine
 10
382.1063929295799
 20
262.7139259365665
 30
0.0
 11
472.106392929579
 21
262.7139259365665
 31
0.0
  0
LINE
  5
72D
330
70
100
AcDbEntity
  8
KUTAI
100
AcDbLine
 10
474.8063929295797
 20
355.4139259365635
 30
0.0
 11
474.8063929295797
 21
265.4139259365635
 31
0.0
  0
LINE
  5
72E
330
70
100
AcDbEntity
  8
KUTAI
100
AcDbLine
 10
382.1063929295802
 20
358.1139259365652
 30
0.0
 11
472.106392929579
 21
358.1139259365652
 31
0.0
  0
ARC
  5
72F
330
70
100
AcDbEntity
  8
KUTAI
100
AcDbCircle
 10
382.1063929295799
 20
355.4139259365635
 30
0.0
 40
2.7
100
AcDbArc
 50
90.0
 51
180.0
  0
ARC
  5
730
330
70
100
AcDbEntity
  8
KUTAI
100
AcDbCircle
 10
472.106392929579
 20
355.4139259365635
 30
0.0
 40
2.7
100
AcDbArc
 50
0.0
 51
90.0
  0
ARC
  5
731
330
70
100
AcDbEntity
  8
KUTAI
100
AcDbCircle
 10
382.1063929295799
 20
265.4139259365635
 30
0.0
 40
2.7
100
AcDbArc
 50
180.0
 51
270.0
  0
ARC
  5
732
330
70
100
AcDbEntity
  8
KUTAI
100
AcDbCircle
 10
472.106392929579
 20
265.4139259365635
 30
0.0
 40
2.7
100
AcDbArc
 50
270.0
 51
0.0
  0
LINE
  5
733
330
70
100
AcDbEntity
  8
KUTAI
100
AcDbLine
 10
377.10639292958
 20
265.6631834649112
 30
0.0
 11
379.4063929295783
 21
267.9631834649105
 31
0.0
  0
LINE
  5
734
330
70
100
AcDbEntity
  8
KUTAI
100
AcDbLine
 10
377.10639292958
 20
308.089590336104
 30
0.0
 11
379.4063929295783
 21
310.3895903361033
 31
0.0
  0
LINE
  5
735
330
70
100
AcDbEntity
  8
KUTAI
100
AcDbLine
 10
414.283542272425
 20
260.4139259365636
 30
0.0
 11
416.5835422724233
 21
262.7139259365665
 31
0.0
  0
LINE
  5
736
330
70
100
AcDbEntity
  8
KUTAI
100
AcDbLine
 10
456.7099491436177
 20
260.4139259365636
 30
0.0
 11
459.0099491436161
 21
262.7139259365665
 31
0.0
  0
LINE
  5
737
330
70
100
AcDbEntity
  8
KUTAI
100
AcDbLine
 10
377.10639292958
 20
347.68757008255
 30
0.0
 11
379.4063929295783
 21
349.987570082553
 31
0.0
  0
LINE
  5
738
330
70
100
AcDbEntity
  8
KUTAI
100
AcDbLine
 10
377.10639292958
 20
305.2611632113573
 30
0.0
 11
379.4063929295783
 21
307.5611632113602
 31
0.0
  0
LINE
  5
739
330
70
100
AcDbEntity
  8
KUTAI
100
AcDbLine
 10
377.5740964777554
 20
263.3024598883455
 30
0.0
 11
379.4195309663785
 21
265.1478943769641
 31
0.0
  0
LINE
  5
73A
330
70
100
AcDbEntity
  8
KUTAI
100
AcDbLine
 10
417.1119693971716
 20
260.4139259365636
 30
0.0
 11
419.4119693971709
 21
262.7139259365665
 31
0.0
  0
LINE
  5
73B
330
70
100
AcDbEntity
  8
KUTAI
100
AcDbLine
 10
459.5383762683644
 20
260.4139259365636
 30
0.0
 11
461.8383762683636
 21
262.7139259365665
 31
0.0
  0
LINE
  5
73C
330
70
100
AcDbEntity
  8
KUTAI
100
AcDbLine
 10
384.7043216588478
 20
358.1139259365652
 30
0.0
 11
387.004321658847
 21
360.4139259365636
 31
0.0
  0
LINE
  5
73D
330
70
100
AcDbEntity
  8
KUTAI
100
AcDbLine
 10
387.5327487835944
 20
358.1139259365652
 30
0.0
 11
389.8327487835937
 21
360.4139259365636
 31
0.0
  0
LINE
  5
73E
330
70
100
AcDbEntity
  8
KUTAI
100
AcDbLine
 10
429.9591556547869
 20
358.1139259365652
 30
0.0
 11
432.2591556547862
 21
360.4139259365636
 31
0.0
  0
LINE
  5
73F
330
70
100
AcDbEntity
  8
KUTAI
100
AcDbLine
 10
427.1307285300393
 20
358.1139259365652
 30
0.0
 11
429.4307285300395
 21
360.4139259365636
 31
0.0
  0
LINE
  5
740
330
70
100
AcDbEntity
  8
KUTAI
100
AcDbLine
 10
469.5571354012329
 20
358.1139259365652
 30
0.0
 11
471.8571354012332
 21
360.4139259365636
 31
0.0
  0
LINE
  5
741
330
70
100
AcDbEntity
  8
KUTAI
100
AcDbLine
 10
472.3724244891794
 20
358.1007878997659
 30
0.0
 11
474.2178589778025
 21
359.9462223883881
 31
0.0
  0
LINE
  5
742
330
70
100
AcDbEntity
  8
KUTAI
100
AcDbLine
 10
474.8063929295797
 20
320.9367765937165
 30
0.0
 11
477.106392929579
 21
323.2367765937185
 31
0.0
  0
LINE
  5
743
330
70
100
AcDbEntity
  8
KUTAI
100
AcDbLine
 10
474.8063929295797
 20
318.1083494689716
 30
0.0
 11
477.106392929579
 21
320.4083494689709
 31
0.0
  0
LINE
  5
744
330
70
100
AcDbEntity
  8
KUTAI
100
AcDbLine
 10
474.8063929295797
 20
278.5103697225238
 30
0.0
 11
477.106392929579
 21
280.8103697225267
 31
0.0
  0
LINE
  5
745
330
70
100
AcDbEntity
  8
KUTAI
100
AcDbLine
 10
474.8063929295797
 20
275.6819425977789
 30
0.0
 11
477.106392929579
 21
277.9819425977791
 31
0.0
  0
LINE
  5
746
330
70
100
AcDbEntity
  8
SEIHIN
100
AcDbLine
 10
357.8807786397136
 20
350.4139259365635
 30
0.0
 11
357.8807786397136
 21
115.4139259365635
 31
0.0
  0
LINE
  5
747
330
70
100
AcDbEntity
  8
SEIHIN
100
AcDbLine
 10
358.1507786397138
 20
350.4139259365635
 30
0.0
 11
358.1507786397138
 21
115.4139259365635
 31
0.0
  0
ARC
  5
748
330
70
100
AcDbEntity
  8
BOUSUISI
100
AcDbCircle
 10
382.1063929295799
 20
355.4139259365635
 30
0.0
 40
5.25
100
AcDbArc
 50
90.0
 51
180.0
  0
ARC
  5
749
330
70
100
AcDbEntity
  8
BOUSUISI
100
AcDbCircle
 10
382.1063929295799
 20
355.4139259365635
 30
0.0
 40
5.75
100
AcDbArc
 50
90.0
 51
180.0
  0
LINE
  5
74A
330
70
100
AcDbEntity
  8
BOUSUISI
100
AcDbLine
 10
376.3563929295795
 20
115.4139259365635
 30
0.0
 11
376.3563929295799
 21
355.4139259365635
 31
0.0
  0
LINE
  5
74B
330
70
100
AcDbEntity
  8
BOUSUISI
100
AcDbLine
 10
451.3563929295799
 20
361.1639259365554
 30
0.0
 11
382.1063929295802
 21
361.1639259365635
 31
0.0
  0
LINE
  5
74C
330
70
100
AcDbEntity
  8
SI-RINGU
100
AcDbLine
 10
357.8807786397136
 20
327.1395402264313
 30
0.0
 11
357.8807786397137
 21
348.7665208052528
 31
0.0
  0
LINE
  5
74D
330
70
100
AcDbEntity
  8
SI-RINGU
100
AcDbLine
 10
357.8807786397136
 20
348.7665208052528
 30
0.0
 11
356.3807786397136
 21
348.7665208052528
 31
0.0
  0
LINE
  5
74E
330
70
100
AcDbEntity
  8
SI-RINGU
100
AcDbLine
 10
357.8807786397136
 20
327.1395402264313
 30
0.0
 11
356.3807786397136
 21
327.1395402264313
 31
0.0
  0
LINE
  5
74F
330
70
100
AcDbEntity
  8
SI-RINGU
100
AcDbLine
 10
356.3807786397136
 20
327.1395402264313
 30
0.0
 11
356.3807786397136
 21
352.1395402264313
 31
0.0
  0
HATCH
  5
750
330
70
100
AcDbEntity
  8
SI-RINGU
100
AcDbHatch
 10
0.0
 20
0.0
 30
0.0
210
0.0
220
0.0
230
1.0
  2
ANSI37
 70
     0
 71
     0
 91
        1
 92
        1
 93
        4
 72
     1
 10
356.3807786397136
 20
327.1395402264313
 11
357.8807786397136
 21
327.1395402264313
 72
     1
 10
357.8807786397136
 20
327.1395402264313
 11
357.8807786397136
 21
348.7665208052528
 72
     1
 10
357.8807786397136
 20
348.7665208052528
 11
356.3807786397136
 21
348.7665208052528
 72
     1
 10
356.3807786397136
 20
348.7665208052528
 11
356.3807786397136
 21
327.1395402264313
 97
        0
 75
     0
 76
     1
 52
180.0
 41
0.6
 77
     0
 78
     2
 53
225.0
 43
355.7837402215526
 44
325.7925018082712
 45
1.347038418160372
 46
-1.347038418160372
 79
     0
 53
315.0
 43
355.7837402215526
 44
325.7925018082712
 45
1.347038418160372
 46
1.347038418160372
 79
     0
 98
        1
 10
357.0823120417006
 20
329.9127240060895
  0
LINE
  5
751
330
70
100
AcDbEntity
  8
YAKUMONO
100
AcDbLine
 10
354.3807786397138
 20
381.1395402264313
 30
0.0
 11
354.3807786397136
 21
327.1395402264313
 31
0.0
  0
ARC
  5
752
330
70
100
AcDbEntity
  8
YAKUMONO
100
AcDbCircle
 10
355.3807786397136
 20
327.1395402264313
 30
0.0
 40
1.0
100
AcDbArc
 50
180.0
 51
0.0
  0
LINE
  5
753
330
70
100
AcDbEntity
  8
YAKUMONO
100
AcDbLine
 10
356.3807786397138
 20
374.8450751760935
 30
0.0
 11
356.3807786397136
 21
327.1395402264313
 31
0.0
  0
ARC
  5
754
330
70
100
AcDbEntity
  8
YAKUMONO
100
AcDbCircle
 10
355.3807786397136
 20
327.1395402264313
 30
0.0
 40
0.65
100
AcDbArc
 50
180.0
 51
0.0
  0
LINE
  5
755
330
70
100
AcDbEntity
  8
YAKUMONO
100
AcDbLine
 10
354.7307786397133
 20
381.1395402264313
 30
0.0
 11
354.730778639713
 21
327.1395402264313
 31
0.0
  0
LINE
  5
756
330
70
100
AcDbEntity
  8
YAKUMONO
100
AcDbLine
 10
356.0307786397134
 20
374.8769684452288
 30
0.0
 11
356.0307786397132
 21
327.1395402264313
 31
0.0
  0
LINE
  5
757
330
70
100
AcDbEntity
  8
SEIHIN
100
AcDbLine
 10
387.1063929295795
 20
364.6395402264313
 30
0.0
 11
622.1063929295794
 21
364.6395402264313
 31
0.0
  0
LINE
  5
758
330
70
100
AcDbEntity
  8
SEIHIN
100
AcDbLine
 10
387.1063929295795
 20
364.6395402264313
 30
0.0
 11
387.1063929295795
 21
379.6395402264313
 31
0.0
  0
ARC
  5
759
330
70
100
AcDbEntity
  8
YAKUMONO
100
AcDbCircle
 10
363.100379775261
 20
378.9113973767241
 30
0.0
 40
2.618338477781033
100
AcDbArc
 50
100.0524357945817
 51
190.7048067277175
  0
ARC
  5
75A
330
70
100
AcDbEntity
  8
YAKUMONO
100
AcDbCircle
 10
363.1003805011697
 20
378.9113972196544
 30
0.0
 40
2.268339164855249
100
AcDbArc
 50
100.8023769568638
 51
188.2605813290392
  0
LINE
  5
75B
330
70
100
AcDbEntity
  8
SEIHIN
100
AcDbLine
 10
387.1063929295795
 20
379.6395402264313
 30
0.0
 11
622.1063929295794
 21
379.6395402264313
 31
0.0
  0
LINE
  5
75C
330
70
100
AcDbEntity
  8
SEIHIN
100
AcDbLine
 10
387.1063929295795
 20
379.3695402264313
 30
0.0
 11
622.1063929295794
 21
379.3695402264313
 31
0.0
  0
LINE
  5
75D
330
70
100
AcDbEntity
  8
SI-RINGU
100
AcDbLine
 10
410.3807786397135
 20
379.6395402264313
 30
0.0
 11
388.7537980608902
 21
379.6395402264313
 31
0.0
  0
LINE
  5
75E
330
70
100
AcDbEntity
  8
SI-RINGU
100
AcDbLine
 10
388.7537980608902
 20
379.6395402264313
 30
0.0
 11
388.7537980608902
 21
381.1395402264313
 31
0.0
  0
LINE
  5
75F
330
70
100
AcDbEntity
  8
SI-RINGU
100
AcDbLine
 10
410.3807786397135
 20
379.6395402264313
 30
0.0
 11
410.3807786397135
 21
381.1395402264313
 31
0.0
  0
LINE
  5
760
330
70
100
AcDbEntity
  8
SI-RINGU
100
AcDbLine
 10
410.3807786397135
 20
381.1395402264313
 30
0.0
 11
385.3807786397138
 21
381.1395402264313
 31
0.0
  0
HATCH
  5
761
330
70
100
AcDbEntity
  8
SI-RINGU
100
AcDbHatch
 10
0.0
 20
0.0
 30
0.0
210
0.0
220
0.0
230
1.0
  2
ANSI37
 70
     0
 71
     0
 91
        1
 92
        1
 93
        4
 72
     1
 10
410.3807786397135
 20
381.1395402264313
 11
410.3807786397135
 21
379.6395402264313
 72
     1
 10
410.3807786397135
 20
379.6395402264313
 11
388.7537980608902
 21
379.6395402264313
 72
     1
 10
388.7537980608902
 20
379.6395402264313
 11
388.7537980608902
 21
381.1395402264313
 72
     1
 10
388.7537980608902
 20
381.1395402264313
 11
410.3807786397135
 21
381.1395402264313
 97
        0
 75
     0
 76
     1
 52
180.0
 41
0.6
 77
     0
 78
     2
 53
44.99999999999999
 43
411.7278170578736
 44
381.7365786445914
 45
1.347038418160372
 46
-1.347038418160372
 79
     0
 53
315.0
 43
411.7278170578736
 44
381.7365786445914
 45
-1.347038418160372
 46
-1.347038418160372
 79
     0
 98
        1
 10
407.6075948600545
 20
380.4380068244443
  0
LINE
  5
762
330
70
100
AcDbEntity
  8
YAKUMONO
100
AcDbLine
 10
356.3807786397138
 20
383.1395402264313
 30
0.0
 11
410.3807786397135
 21
383.1395402264313
 31
0.0
  0
ARC
  5
763
330
70
100
AcDbEntity
  8
YAKUMONO
100
AcDbCircle
 10
410.3807786397135
 20
382.1395402264313
 30
0.0
 40
1.0
100
AcDbArc
 50
270.0
 51
90.0
  0
LINE
  5
764
330
70
100
AcDbEntity
  8
YAKUMONO
100
AcDbLine
 10
362.6752436900515
 20
381.1395402264313
 30
0.0
 11
410.3807786397135
 21
381.1395402264313
 31
0.0
  0
ARC
  5
765
330
70
100
AcDbEntity
  8
YAKUMONO
100
AcDbCircle
 10
410.3807786397135
 20
382.1395402264313
 30
0.0
 40
0.65
100
AcDbArc
 50
270.0
 51
90.0
  0
LINE
  5
766
330
70
100
AcDbEntity
  8
YAKUMONO
100
AcDbLine
 10
356.3807786397138
 20
382.7895402264309
 30
0.0
 11
410.3807786397135
 21
382.7895402264318
 31
0.0
  0
LINE
  5
767
330
70
100
AcDbEntity
  8
YAKUMONO
100
AcDbLine
 10
362.6433504209163
 20
381.4895402264316
 30
0.0
 11
410.3807786397135
 21
381.4895402264316
 31
0.0
  0
ARC
  5
768
330
70
100
AcDbEntity
  8
YAKUMONO
100
AcDbCircle
 10
356.3807786397138
 20
381.1395402264313
 30
0.0
 40
2.0
100
AcDbArc
 50
90.0
 51
180.0
  0
ARC
  5
769
330
70
100
AcDbEntity
  8
YAKUMONO
100
AcDbCircle
 10
356.3807786397138
 20
381.1395402264313
 30
0.0
 40
1.649999999999999
100
AcDbArc
 50
90.0
 51
180.0
  0
LINE
  5
76A
330
70
100
AcDbEntity
  8
KUTAI
100
AcDbLine
 10
487.106392929579
 20
260.4139259365636
 30
0.0
 11
622.1063929295794
 21
260.4139259365636
 31
0.0
  0
LINE
  5
76B
330
70
100
AcDbEntity
  8
KUTAI
  6
DASHED2
100
AcDbLine
 10
487.106392929579
 20
280.4139259365635
 30
0.0
 11
622.1063929295794
 21
280.4139259365635
 31
0.0
  0
LINE
  5
76C
330
70
100
AcDbEntity
  8
KUTAI
  6
DASHED2
100
AcDbLine
 10
487.106392929579
 20
340.4139259365635
 30
0.0
 11
622.1063929295794
 21
340.4139259365635
 31
0.0
  0
LINE
  5
76D
330
70
100
AcDbEntity
  8
KUTAI
100
AcDbLine
 10
487.106392929579
 20
360.4139259365636
 30
0.0
 11
622.1063929295794
 21
360.4139259365636
 31
0.0
  0
LINE
  5
76E
330
70
100
AcDbEntity
  8
KUTAI
100
AcDbLine
 10
477.106392929579
 20
250.4139259365635
 30
0.0
 11
377.10639292958
 21
250.4139259365635
 31
0.0
  0
LINE
  5
76F
330
70
100
AcDbEntity
  8
KUTAI
100
AcDbLine
 10
477.106392929579
 20
250.4139259365635
 30
0.0
 11
477.106392929579
 21
115.4139259365635
 31
0.0
  0
LINE
  5
770
330
70
100
AcDbEntity
  8
KUTAI
100
AcDbLine
 10
377.10639292958
 20
250.4139259365635
 30
0.0
 11
377.10639292958
 21
115.4139259365635
 31
0.0
  0
LINE
  5
771
330
70
100
AcDbEntity
  8
KUTAI
  6
DASHED2
100
AcDbLine
 10
457.106392929579
 20
250.4139259365635
 30
0.0
 11
457.106392929579
 21
115.4139259365635
 31
0.0
  0
LINE
  5
772
330
70
100
AcDbEntity
  8
KUTAI
  6
DASHED2
100
AcDbLine
 10
397.1063929295791
 20
250.4139259365635
 30
0.0
 11
397.1063929295791
 21
115.4139259365635
 31
0.0
  0
LINE
  5
773
330
70
100
AcDbEntity
  8
KUTAI
100
AcDbLine
 10
487.106392929579
 20
360.4139259365636
 30
0.0
 11
487.106392929579
 21
260.4139259365636
 31
0.0
  0
LINE
  5
774
330
70
100
AcDbEntity
  8
BOUSUITE-PU
  6
DASHED2
100
AcDbLine
 10
426.3563929295799
 20
361.9139259365554
 30
0.0
 11
450.9660796340752
 21
361.9139259365563
 31
0.0
  0
LINE
  5
775
330
70
100
AcDbEntity
  8
BOUSUITE-PU
  6
DASHED2
100
AcDbLine
 10
476.3563929295799
 20
361.4139259365526
 30
0.0
 11
454.0169775161547
 21
361.4139259365526
 31
0.0
  0
LINE
  5
776
330
70
100
AcDbEntity
  8
BOUSUITE-PU
  6
DASHED2
100
AcDbLine
 10
452.2601748595882
 20
361.7435550680008
 30
0.0
 11
452.9817013357417
 21
361.5502226313972
 31
0.0
  0
ARC
  5
777
330
70
100
AcDbEntity
  8
BOUSUITE-PU
  6
DASHED2
100
AcDbCircle
 10
450.9660796340752
 20
356.9139259365563
 30
0.0
 40
5.0
100
AcDbArc
 50
74.99999999999217
 51
90.0
  0
ARC
  5
778
330
70
100
AcDbEntity
  8
BOUSUITE-PU
  6
DASHED2
100
AcDbCircle
 10
454.0169775161547
 20
365.4139259365526
 30
0.0
 40
4.0
100
AcDbArc
 50
254.9999999999648
 51
270.0
  0
LINE
  5
779
330
70
100
AcDbEntity
  8
YAKUMONO2
100
AcDbLine
 10
412.4880944949557
 20
363.9508150655117
 30
0.0
 11
412.536805080292
 21
363.6042212414522
 31
0.0
  0
LINE
  5
77A
330
70
100
AcDbEntity
  8
YAKUMONO2
100
AcDbLine
 10
412.536805080292
 20
363.6042212414522
 30
0.0
 11
416.0027433208872
 21
364.0913270948124
 31
0.0
  0
LINE
  5
77B
330
70
100
AcDbEntity
  8
YAKUMONO2
100
AcDbLine
 10
412.4880944949557
 20
363.9508150655119
 30
0.0
 11
415.9540327355514
 21
364.4379209188719
 31
0.0
  0
LINE
  5
77C
330
70
100
AcDbEntity
  8
YAKUMONO2
100
AcDbLine
 10
402.2912564137885
 20
361.9360092095282
 30
0.0
 11
416.1104431419379
 21
361.4534325752307
 31
0.0
  0
LINE
  5
77D
330
70
100
AcDbEntity
  8
YAKUMONO2
100
AcDbLine
 10
402.3034712376346
 20
362.2857959989847
 30
0.0
 11
416.122657965784
 21
361.8032193646878
 31
0.0
  0
ARC
  5
77E
330
70
100
AcDbEntity
  8
YAKUMONO2
100
AcDbCircle
 10
416.1627923869917
 20
362.9525188157594
 30
0.0
 40
1.149999999999999
100
AcDbArc
 50
267.9999999999964
 51
98.00000000000089
  0
ARC
  5
77F
330
70
100
AcDbEntity
  8
YAKUMONO2
100
AcDbCircle
 10
416.1627923869917
 20
362.9525188157594
 30
0.0
 40
1.5
100
AcDbArc
 50
267.9999999999964
 51
98.00000000000089
  0
ARC
  5
780
330
70
100
AcDbEntity
  8
YAKUMONO2
100
AcDbCircle
 10
402.3732702310397
 20
364.284577653023
 30
0.0
 40
2.35
100
AcDbArc
 50
230.8352325276007
 51
267.9999999999964
  0
ARC
  5
781
330
70
100
AcDbEntity
  8
YAKUMONO2
100
AcDbCircle
 10
393.0341830876312
 20
364.6107057624212
 30
0.0
 40
2.35
100
AcDbArc
 50
267.9999999999964
 51
305.164767472407
  0
ARC
  5
782
330
70
100
AcDbEntity
  8
YAKUMONO2
100
AcDbCircle
 10
402.3732702310397
 20
364.284577653023
 30
0.0
 40
2.0
100
AcDbArc
 50
230.8352325276007
 51
267.9999999999964
  0
ARC
  5
783
330
70
100
AcDbEntity
  8
YAKUMONO2
100
AcDbCircle
 10
393.0341830876312
 20
364.610705762421
 30
0.0
 40
2.0
100
AcDbArc
 50
267.9999999999964
 51
305.164767472407
  0
LINE
  5
784
330
70
100
AcDbEntity
  8
YAKUMONO2
100
AcDbLine
 10
400.8891214999273
 20
362.4625451220461
 30
0.0
 11
398.4003476364063
 21
364.4897924454464
 31
0.0
  0
LINE
  5
785
330
70
100
AcDbEntity
  8
YAKUMONO2
100
AcDbLine
 10
401.1101649279651
 20
362.7339116692131
 30
0.0
 11
398.621391064444
 21
364.7611589926134
 31
0.0
  0
LINE
  5
786
330
70
100
AcDbEntity
  8
YAKUMONO2
100
AcDbLine
 10
394.3876179426198
 20
362.6895826291208
 30
0.0
 11
397.0117429027821
 21
364.5382835912646
 31
0.0
  0
LINE
  5
787
330
70
100
AcDbEntity
  8
YAKUMONO2
100
AcDbLine
 10
394.1860425386852
 20
362.9757073511013
 30
0.0
 11
396.8101674988478
 21
364.8244083132453
 31
0.0
  0
ARC
  5
788
330
70
100
AcDbEntity
  8
YAKUMONO2
100
AcDbCircle
 10
397.6740620871386
 20
363.5981595047558
 30
0.0
 40
1.149999999999999
100
AcDbArc
 50
50.83523252760068
 51
125.1647674724071
  0
ARC
  5
789
330
70
100
AcDbEntity
  8
YAKUMONO2
100
AcDbCircle
 10
397.6740620871386
 20
363.5981595047558
 30
0.0
 40
1.5
100
AcDbArc
 50
50.83523252760068
 51
125.1647674724071
  0
ARC
  5
78A
330
70
100
AcDbEntity
  8
YAKUMONO2
100
AcDbCircle
 10
383.4852144572845
 20
364.9441630948452
 30
0.0
 40
2.35
100
AcDbArc
 50
225.0000000000091
 51
268.0000000000094
  0
LINE
  5
78B
330
70
100
AcDbEntity
  8
YAKUMONO2
100
AcDbLine
 10
367.9879080471345
 20
377.1180676334188
 30
0.0
 11
381.8235135214964
 21
363.2824621590568
 31
0.0
  0
ARC
  5
78C
330
70
100
AcDbEntity
  8
YAKUMONO2
100
AcDbCircle
 10
383.4852144572843
 20
364.9441630948456
 30
0.0
 40
2.0
100
AcDbArc
 50
225.0000000000091
 51
268.0000000000094
  0
LINE
  5
78D
330
70
100
AcDbEntity
  8
YAKUMONO2
100
AcDbLine
 10
368.2353954205496
 20
377.365555006834
 30
0.0
 11
382.0710008949112
 21
363.5299495324725
 31
0.0
  0
LINE
  5
78E
330
70
100
AcDbEntity
  8
YAKUMONO2
100
AcDbLine
 10
383.4032006400337
 20
362.5955946513505
 30
0.0
 11
392.9521692703803
 21
362.2621373189265
 31
0.0
  0
LINE
  5
78F
330
70
100
AcDbEntity
  8
YAKUMONO2
100
AcDbLine
 10
383.4154154638794
 20
362.9453814408072
 30
0.0
 11
392.9643840942261
 21
362.6119241083831
 31
0.0
  0
LINE
  5
790
330
70
100
AcDbEntity
  8
YAKUMONO2
100
AcDbLine
 10
378.5802649581404
 20
362.302920171568
 30
0.0
 11
376.7280558761052
 21
361.7422763305896
 31
0.0
  0
LINE
  5
791
330
70
100
AcDbEntity
  8
YAKUMONO2
100
AcDbLine
 10
378.6816629114226
 20
361.9679299402624
 30
0.0
 11
376.8294538293879
 21
361.4072860992842
 31
0.0
  0
ARC
  5
792
330
70
100
AcDbEntity
  8
YAKUMONO2
100
AcDbCircle
 10
378.4354107391656
 20
362.7814776448617
 30
0.0
 40
0.85
100
AcDbArc
 50
286.8405014361803
 51
45.00000000000915
  0
ARC
  5
793
330
70
100
AcDbEntity
  8
YAKUMONO2
100
AcDbCircle
 10
378.4354107391656
 20
362.7814776448617
 30
0.0
 40
0.5
100
AcDbArc
 50
286.8405014361803
 51
45.00000000000915
  0
LINE
  5
794
330
70
100
AcDbEntity
  8
YAKUMONO2
100
AcDbLine
 10
375.501292503476
 20
358.7875595323158
 30
0.0
 11
376.0619363444544
 21
360.6397686143508
 31
0.0
  0
LINE
  5
795
330
70
100
AcDbEntity
  8
YAKUMONO2
100
AcDbLine
 10
375.1663022721703
 20
358.8889574855981
 30
0.0
 11
375.7269461131489
 21
360.7411665676331
 31
0.0
  0
ARC
  5
796
330
70
100
AcDbEntity
  8
YAKUMONO2
100
AcDbCircle
 10
374.6877447988766
 20
359.0338117045728
 30
0.0
 40
0.85
100
AcDbArc
 50
225.0000000000091
 51
343.1594985638264
  0
ARC
  5
797
330
70
100
AcDbEntity
  8
YAKUMONO2
100
AcDbCircle
 10
374.6877447988766
 20
359.0338117045728
 30
0.0
 40
0.5
100
AcDbArc
 50
225.0000000000091
 51
343.1594985638264
  0
LINE
  5
798
330
70
100
AcDbEntity
  8
YAKUMONO2
100
AcDbLine
 10
367.1570575792401
 20
365.8573921430231
 30
0.0
 11
374.3341914082835
 21
358.6802583139796
 31
0.0
  0
LINE
  5
799
330
70
100
AcDbEntity
  8
YAKUMONO2
100
AcDbLine
 10
366.9095702058249
 20
365.6099047696077
 30
0.0
 11
374.0867040348683
 21
358.4327709405644
 31
0.0
  0
ARC
  5
79A
330
70
100
AcDbEntity
  8
YAKUMONO2
100
AcDbCircle
 10
377.1626185330297
 20
360.3066039107088
 30
0.0
 40
1.149999999999999
100
AcDbArc
 50
106.8405014361802
 51
163.1594985638264
  0
ARC
  5
79B
330
70
100
AcDbEntity
  8
YAKUMONO2
100
AcDbCircle
 10
377.1626185330297
 20
360.3066039107088
 30
0.0
 40
1.5
100
AcDbArc
 50
106.8405014361802
 51
163.1594985638264
  0
LINE
  5
79C
330
70
100
AcDbEntity
  8
YAKUMONO2
100
AcDbLine
 10
371.6118303007154
 20
370.3121648644985
 30
0.0
 11
378.7889641297589
 21
363.135031035455
 31
0.0
  0
LINE
  5
79D
330
70
100
AcDbEntity
  8
YAKUMONO2
100
AcDbLine
 10
371.8593176741306
 20
370.5596522379134
 30
0.0
 11
379.0364515031741
 21
363.3825184088702
 31
0.0
  0
ARC
  5
79E
330
70
100
AcDbEntity
  8
YAKUMONO2
100
AcDbCircle
 10
370.904723519529
 20
369.6050580833117
 30
0.0
 40
1.35
100
AcDbArc
 50
45.00000000000915
 51
134.9999999999909
  0
ARC
  5
79F
330
70
100
AcDbEntity
  8
YAKUMONO2
100
AcDbCircle
 10
370.9047235195288
 20
369.6050580833119
 30
0.0
 40
1.0
100
AcDbArc
 50
45.00000000000915
 51
134.9999999999909
  0
ARC
  5
7A0
330
70
100
AcDbEntity
  8
YAKUMONO2
100
AcDbCircle
 10
369.0308905493846
 20
370.3475202035574
 30
0.0
 40
0.5
100
AcDbArc
 50
190.2605242530142
 51
314.9999999999908
  0
ARC
  5
7A1
330
70
100
AcDbEntity
  8
YAKUMONO2
100
AcDbCircle
 10
369.0308905493846
 20
370.3475202035574
 30
0.0
 40
0.85
100
AcDbArc
 50
190.2605242530142
 51
314.9999999999908
  0
LINE
  5
7A2
330
70
100
AcDbEntity
  8
YAKUMONO2
100
AcDbLine
 10
369.9501293649271
 20
370.5596522379134
 30
0.0
 11
369.3844439399778
 21
369.9939668129641
 31
0.0
  0
LINE
  5
7A3
330
70
100
AcDbEntity
  8
YAKUMONO2
100
AcDbLine
 10
370.1976167383421
 20
370.3121648644985
 30
0.0
 11
369.631931313393
 21
369.7464794395491
 31
0.0
  0
ARC
  5
7A4
330
70
100
AcDbEntity
  8
YAKUMONO2
100
AcDbCircle
 10
366.6883864582908
 20
372.9021563290073
 30
0.0
 40
1.35
100
AcDbArc
 50
10.26052425301425
 51
45.00000000000915
  0
ARC
  5
7A5
330
70
100
AcDbEntity
  8
YAKUMONO2
100
AcDbCircle
 10
366.6883864582908
 20
372.9021563290073
 30
0.0
 40
1.0
100
AcDbArc
 50
10.26052425301425
 51
45.00000000000915
  0
LINE
  5
7A6
330
70
100
AcDbEntity
  8
YAKUMONO2
100
AcDbLine
 10
366.1847857551084
 20
375.3149453413932
 30
0.0
 11
367.6429806128925
 21
373.8567504836091
 31
0.0
  0
LINE
  5
7A7
330
70
100
AcDbEntity
  8
YAKUMONO2
100
AcDbLine
 10
365.9372983816934
 20
375.0674579679778
 30
0.0
 11
367.3954932394773
 21
373.6092631101939
 31
0.0
  0
ARC
  5
7A8
330
70
100
AcDbEntity
  8
YAKUMONO2
100
AcDbCircle
 10
367.0863469011215
 20
376.2165064874058
 30
0.0
 40
1.275000000000084
100
AcDbArc
 50
45.00000000000915
 51
225.0000000000091
  0
ARC
  5
7A9
330
70
100
AcDbEntity
  8
YAKUMONO2
100
AcDbCircle
 10
367.0863469011215
 20
376.2165064874058
 30
0.0
 40
1.625000000000085
100
AcDbArc
 50
45.00000000000915
 51
225.0000000000091
  0
LINE
  5
7AA
330
70
100
AcDbEntity
  8
YAKUMONO2
100
AcDbLine
 10
368.0167972527091
 20
373.1426241257547
 30
0.0
 11
368.5388865514517
 21
370.2584580566142
 31
0.0
  0
LINE
  5
7AB
330
70
100
AcDbEntity
  8
YAKUMONO2
100
AcDbLine
 10
367.6723944541562
 20
373.0802806228944
 30
0.0
 11
368.1944837528988
 21
370.1961145537536
 31
0.0
  0
LINE
  5
7AC
330
70
100
AcDbEntity
  8
YAKUMONO2
100
AcDbLine
 10
364.3889418208442
 20
369.7968279895821
 30
0.0
 11
367.2731078899847
 21
369.2747386908397
 31
0.0
  0
ARC
  5
7AD
330
70
100
AcDbEntity
  8
YAKUMONO2
100
AcDbCircle
 10
367.1217022401809
 20
368.4383318943537
 30
0.0
 40
0.5
100
AcDbArc
 50
314.9999999999908
 51
79.73947574697904
  0
ARC
  5
7AE
330
70
100
AcDbEntity
  8
YAKUMONO2
100
AcDbCircle
 10
367.1217022401809
 20
368.4383318943537
 30
0.0
 40
0.85
100
AcDbArc
 50
314.9999999999908
 51
79.73947574697904
  0
LINE
  5
7AF
330
70
100
AcDbEntity
  8
YAKUMONO2
100
AcDbLine
 10
366.9095702058249
 20
367.5190930788112
 30
0.0
 11
367.4752556307741
 21
368.0847785037606
 31
0.0
  0
LINE
  5
7B0
330
70
100
AcDbEntity
  8
YAKUMONO2
100
AcDbLine
 10
367.1570575792401
 20
367.2716057053962
 30
0.0
 11
367.7227430041892
 21
367.8372911303454
 31
0.0
  0
ARC
  5
7B1
330
70
100
AcDbEntity
  8
YAKUMONO2
100
AcDbCircle
 10
367.8641643604267
 20
366.5644989242094
 30
0.0
 40
1.35
100
AcDbArc
 50
134.9999999999909
 51
225.0000000000091
  0
ARC
  5
7B2
330
70
100
AcDbEntity
  8
YAKUMONO2
100
AcDbCircle
 10
367.8641643604265
 20
366.5644989242096
 30
0.0
 40
1.0
100
AcDbArc
 50
134.9999999999909
 51
225.0000000000091
  0
ARC
  5
7B3
330
70
100
AcDbEntity
  8
YAKUMONO2
100
AcDbCircle
 10
364.5670661147311
 20
370.7808359854476
 30
0.0
 40
1.35
100
AcDbArc
 50
225.0000000000091
 51
259.739475746979
  0
ARC
  5
7B4
330
70
100
AcDbEntity
  8
YAKUMONO2
100
AcDbCircle
 10
364.5670661147311
 20
370.7808359854476
 30
0.0
 40
1.0
100
AcDbArc
 50
225.0000000000091
 51
259.739475746979
  0
LINE
  5
7B5
330
70
100
AcDbEntity
  8
YAKUMONO2
100
AcDbLine
 10
360.3511548103195
 20
369.4813143966041
 30
0.0
 11
374.1867602846813
 21
355.6457089222421
 31
0.0
  0
LINE
  5
7B6
330
70
100
AcDbEntity
  8
YAKUMONO2
100
AcDbLine
 10
360.1036674369043
 20
369.2338270231888
 30
0.0
 11
373.9392729112659
 21
355.3982215488273
 31
0.0
  0
LINE
  5
7B7
330
70
100
AcDbEntity
  8
YAKUMONO2
100
AcDbLine
 10
364.3265983179838
 20
369.4524251910291
 30
0.0
 11
367.2107643871243
 21
368.9303358922866
 31
0.0
  0
ARC
  5
7B8
330
70
100
AcDbEntity
  8
YAKUMONO2
100
AcDbCircle
 10
361.2527159563324
 20
370.3828755426168
 30
0.0
 40
1.275000000000084
100
AcDbArc
 50
45.00000000000915
 51
225.0000000000091
  0
ARC
  5
7B9
330
70
100
AcDbEntity
  8
YAKUMONO2
100
AcDbCircle
 10
361.2527159563324
 20
370.3828755426168
 30
0.0
 40
1.625000000000085
100
AcDbArc
 50
45.00000000000915
 51
225.0000000000091
  0
LINE
  5
7BA
330
70
100
AcDbEntity
  8
YAKUMONO2
100
AcDbLine
 10
362.1542771023454
 20
371.28443668863
 30
0.0
 11
363.6124719601294
 21
369.826241830846
 31
0.0
  0
LINE
  5
7BB
330
70
100
AcDbEntity
  8
YAKUMONO2
100
AcDbLine
 10
362.4017644757606
 20
371.5319240620451
 30
0.0
 11
363.8599593335446
 21
370.0737292042612
 31
0.0
  0
ARC
  5
7BC
330
70
100
AcDbEntity
  8
YAKUMONO2
100
AcDbCircle
 10
372.525059348893
 20
353.9840079864538
 30
0.0
 40
2.35
100
AcDbArc
 50
1.999999999990615
 51
45.00000000000915
  0
LINE
  5
7BD
330
70
100
AcDbEntity
  8
YAKUMONO2
100
AcDbLine
 10
374.8736277923879
 20
354.0660218037046
 30
0.0
 11
375.2070851248116
 21
344.5170531733581
 31
0.0
  0
ARC
  5
7BE
330
70
100
AcDbEntity
  8
YAKUMONO2
100
AcDbCircle
 10
372.525059348893
 20
353.9840079864541
 30
0.0
 40
2.0
100
AcDbArc
 50
1.999999999997133
 51
45.00000000000915
  0
LINE
  5
7BF
330
70
100
AcDbEntity
  8
YAKUMONO2
100
AcDbLine
 10
374.5238410029309
 20
354.0538069798591
 30
0.0
 11
374.8572983353554
 21
344.5048383495124
 31
0.0
  0
ARC
  5
7C0
330
70
100
AcDbEntity
  8
YAKUMONO2
100
AcDbCircle
 10
373.1846447907154
 20
335.0959522126984
 30
0.0
 40
2.35
100
AcDbArc
 50
1.999999999997133
 51
39.16476747239926
  0
ARC
  5
7C1
330
70
100
AcDbEntity
  8
YAKUMONO2
100
AcDbCircle
 10
373.1846447907154
 20
335.0959522126985
 30
0.0
 40
2.0
100
AcDbArc
 50
1.999999999997133
 51
39.16476747239926
  0
LINE
  5
7C2
330
70
100
AcDbEntity
  8
YAKUMONO2
100
AcDbLine
 10
375.0066773216921
 20
336.5801009438111
 30
0.0
 11
372.9794299982917
 21
339.068874807332
 31
0.0
  0
LINE
  5
7C3
330
70
100
AcDbEntity
  8
YAKUMONO2
100
AcDbLine
 10
374.7353107745251
 20
336.359057515773
 30
0.0
 11
372.7080634511251
 21
338.8478313792943
 31
0.0
  0
LINE
  5
7C4
330
70
100
AcDbEntity
  8
YAKUMONO2
100
AcDbLine
 10
374.7796398146177
 20
343.0816045011188
 30
0.0
 11
372.9309388524737
 21
340.4574795409561
 31
0.0
  0
LINE
  5
7C5
330
70
100
AcDbEntity
  8
YAKUMONO2
100
AcDbLine
 10
374.4935150926365
 20
343.2831799050532
 30
0.0
 11
372.6448141304925
 21
340.6590549448907
 31
0.0
  0
ARC
  5
7C6
330
70
100
AcDbEntity
  8
YAKUMONO2
100
AcDbCircle
 10
373.8710629389824
 20
339.7951603565999
 30
0.0
 40
1.149999999999999
100
AcDbArc
 50
144.8352325275883
 51
219.1647674723992
  0
ARC
  5
7C7
330
70
100
AcDbEntity
  8
YAKUMONO2
100
AcDbCircle
 10
373.8710629389824
 20
339.7951603565999
 30
0.0
 40
1.5
100
AcDbArc
 50
144.8352325275883
 51
219.1647674723992
  0
ARC
  5
7C8
330
70
100
AcDbEntity
  8
YAKUMONO2
100
AcDbCircle
 10
372.8585166813171
 20
344.435039356107
 30
0.0
 40
2.35
100
AcDbArc
 50
324.8352325275884
 51
1.999999999997133
  0
ARC
  5
7C9
330
70
100
AcDbEntity
  8
YAKUMONO2
100
AcDbCircle
 10
372.8585166813171
 20
344.4350393561072
 30
0.0
 40
2.0
100
AcDbArc
 50
324.8352325275884
 51
1.999999999997133
  0
LINE
  5
7CA
330
70
100
AcDbEntity
  8
YAKUMONO2
100
AcDbLine
 10
375.5332132342099
 20
335.1779660299496
 30
0.0
 11
376.0157898685073
 21
321.3587793018002
 31
0.0
  0
LINE
  5
7CB
330
70
100
AcDbEntity
  8
YAKUMONO2
100
AcDbLine
 10
375.1834264447537
 20
335.1657512061035
 30
0.0
 11
375.6660030790507
 21
321.3465644779546
 31
0.0
  0
LINE
  5
7CC
330
70
100
AcDbEntity
  8
YAKUMONO2
100
AcDbLine
 10
373.5184073782264
 20
324.9811279487823
 30
0.0
 11
373.8650012022861
 21
324.9324173634465
 31
0.0
  0
LINE
  5
7CD
330
70
100
AcDbEntity
  8
YAKUMONO2
100
AcDbLine
 10
373.8650012022861
 20
324.9324173634465
 30
0.0
 11
373.3778953489257
 21
321.4664791228508
 31
0.0
  0
LINE
  5
7CE
330
70
100
AcDbEntity
  8
YAKUMONO2
100
AcDbLine
 10
373.5184073782264
 20
324.9811279487825
 30
0.0
 11
373.0313015248665
 21
321.5151897081868
 31
0.0
  0
ARC
  5
7CF
330
70
100
AcDbEntity
  8
YAKUMONO2
100
AcDbCircle
 10
374.5167036279789
 20
321.3064300567465
 30
0.0
 40
1.149999999999999
100
AcDbArc
 50
171.9999999999992
 51
1.999999999997133
  0
ARC
  5
7D0
330
70
100
AcDbEntity
  8
YAKUMONO2
100
AcDbCircle
 10
374.5167036279789
 20
321.3064300567465
 30
0.0
 40
1.5
100
AcDbArc
 50
171.9999999999992
 51
1.999999999997133
  0
DIMENSION
  5
7D1
330
70
100
AcDbEntity
  8
SUNPO
 48
0.1
100
AcDbDimension
280
     0
  2
*D5
 10
642.0586695704121
 20
364.6395402264314
 30
0.0
 11
637.5586695704121
 21
372.1395402264312
 31
0.0
 70
    32
 71
     5
 42
15.0
 73
     0
 74
     0
 75
     0
  3
CAD-DL
100
AcDbAlignedDimension
 13
622.1063929295794
 23
379.6395402264313
 33
0.0
 14
622.1063929295794
 24
364.6395402264313
 34
0.0
 50
90.0
100
AcDbRotatedDimension
1001
ACAD
1000
DSTYLE
1002
{
1070
   176
1070
     0
1070
    41
1040
1.0
1070
    42
1040
5.0
1070
    44
1040
0.0
1002
}
  0
DIMENSION
  5
7D2
330
70
100
AcDbEntity
  8
SUNPO
 48
0.1
100
AcDbDimension
280
     0
  2
*D6
 10
642.0586695704139
 20
260.4139259365637
 30
0.0
 11
637.5586695704139
 21
310.4139259365634
 31
0.0
 70
    32
 71
     5
 42
100.0
 73
     0
 74
     0
 75
     0
  3
CAD-DL
100
AcDbAlignedDimension
 13
622.1063929295794
 23
360.4139259365636
 33
0.0
 14
622.1063929295794
 24
260.4139259365636
 34
0.0
 50
90.0
100
AcDbRotatedDimension
1001
ACAD
1000
DSTYLE
1002
{
1070
   176
1070
     0
1070
    41
1040
1.0
1070
    42
1040
5.0
1070
    44
1040
0.0
1002
}
  0
LINE
  5
7D3
330
70
100
AcDbEntity
  8
SUNPOU
  6
CENTER2
370
     9
100
AcDbLine
 10
262.0464071196741
 20
310.4139259365636
 30
0.0
 11
517.1063929295789
 21
310.4139259365636
 31
0.0
  0
LINE
  5
7D4
330
70
100
AcDbEntity
  8
SUNPOU
  6
CENTER2
370
     9
100
AcDbLine
 10
427.1063929295794
 20
220.4139259365636
 30
0.0
 11
427.1063929295794
 21
463.526545658017
 31
0.0
  0
LINE
  5
7D5
330
70
100
AcDbEntity
  8
MOJI
100
AcDbLine
 10
505.8515340747529
 20
228.3219646890437
 30
0.0
 11
500.8515340747528
 21
228.3219646890434
 31
0.0
  0
TEXT
  5
7D6
330
70
100
AcDbEntity
  8
MOJI
100
AcDbText
 10
507.7220211958914
 20
224.3219646890423
 30
0.0
 40
8.0
  1
□100×100×2.3以上
 50
0.0000000000014388
  7
CAD-DL
 11
507.7220211958914
 21
228.3219646890423
 31
0.0
100
AcDbText
 73
     2
  0
LINE
  5
7D7
330
70
100
AcDbEntity
  8
MOJI
100
AcDbLine
 10
500.8305928422871
 20
228.3219646890434
 30
0.0
 11
477.106392929579
 21
269.4134843067427
 31
0.0
  0
MTEXT
  5
7D8
330
70
100
AcDbEntity
  8
HIKIDASI
370
     9
100
AcDbMText
 10
444.1521659052512
 20
469.9447245510042
 30
-0.0000000000007958
 40
7.5
 41
34.5324350497724
 46
0.0
 71
     9
 72
     1
  1
胴縁芯
 73
     1
 44
1.0
  0
MTEXT
  5
7D9
330
70
100
AcDbEntity
  8
HIKIDASI
370
     9
100
AcDbMText
 10
227.829834717456
 20
314.9138161332723
 30
0.0
 40
7.5
 41
33.63515730339077
 46
0.0
 71
     1
 72
     5
  1
胴縁芯
 73
     1
 44
1.0
1001
ACAD
1000
ACAD_MTEXT_COLUMN_INFO_BEGIN
1070
    75
1070
     2
1070
    79
1070
     0
1070
    76
1070
     1
1070
    78
1070
     0
1070
    48
1040
33.63515730339077
1070
    49
1040
12.5
1070
    50
1070
     1
1040
0.0
1000
ACAD_MTEXT_COLUMN_INFO_END
  0
LINE
  5
7DA
330
70
100
AcDbEntity
  8
MOJI
100
AcDbLine
 10
342.8319415003707
 20
444.4541388144149
 30
0.0
 11
378.2319415004031
 21
383.1395402264313
 31
0.0
  0
LINE
  5
7DB
330
70
100
AcDbEntity
  8
MOJI
100
AcDbLine
 10
342.8319415003707
 20
444.4541388144149
 30
-0.000000000096375
 11
337.6414651224568
 21
444.4541388144149
 31
-0.000000000096375
  0
TEXT
  5
7DC
330
70
100
AcDbEntity
  8
MOJI
100
AcDbText
 10
217.6086850118432
 20
440.4541388144149
 30
0.0
 40
8.0
  1
3M／4M出隅キャップ15-25
  7
CAD-DL
 11
217.6086850118432
 21
444.4541388144149
 31
0.0
100
AcDbText
 73
     2
  0
LINE
  5
7DD
330
70
100
AcDbEntity
  8
MOJI
100
AcDbLine
 10
342.831941500371
 20
417.9353647092557
 30
0.0
 11
366.1511019800624
 21
377.5453939685845
 31
0.0
  0
LINE
  5
7DE
330
70
100
AcDbEntity
  8
MOJI
100
AcDbLine
 10
342.831941500371
 20
417.9353647092557
 30
0.0
 11
337.831941500371
 21
417.9353647092557
 31
0.0
  0
TEXT
  5
7DF
330
70
100
AcDbEntity
  8
MOJI
100
AcDbText
 10
279.5594927585906
 20
413.9353647092557
 30
0.0
 40
8.0
  1
出隅下地15N
  7
CAD-DL
 11
279.5594927585906
 21
417.9353647092557
 31
0.0
100
AcDbText
 73
     2
  0
TEXT
  5
7E0
330
70
100
AcDbEntity
  8
MOJI
100
AcDbText
 10
461.7396296746827
 20
390.6883773657743
 30
0.0
 40
8.0
  1
防水テープ
  7
CAD-DL
 11
461.7396296746827
 21
394.6883773657743
 31
0.0
100
AcDbText
 73
     2
  0
LINE
  5
7E1
330
70
100
AcDbEntity
  8
MOJI
100
AcDbLine
 10
460.7396296746822
 20
394.6883773657743
 30
0.0
 11
455.7396296746818
 21
394.6883773657743
 31
0.0
  0
LINE
  5
7E2
330
70
100
AcDbEntity
  8
MOJI
100
AcDbLine
 10
455.7396296746818
 20
394.6883773657743
 30
0.0
 11
436.8172913194824
 21
361.9139259365558
 31
0.0
  0
LINE
  5
7E3
330
70
100
AcDbEntity
  8
MOJI
100
AcDbLine
 10
432.5455899891196
 20
425.1369004625217
 30
0.0
 11
406.7680026322926
 21
380.4888094639533
 31
0.0
  0
LINE
  5
7E4
330
70
100
AcDbEntity
  8
MOJI
100
AcDbLine
 10
437.5455899891197
 20
425.1369004625217
 30
0.0
 11
432.5455899891192
 21
425.1369004625217
 31
0.0
  0
TEXT
  5
7E5
330
70
100
AcDbEntity
  8
MOJI
100
AcDbText
 10
438.5455899891201
 20
421.1369004625217
 30
0.0
 40
8.0
  1
捨てシーリング
  7
CAD-DL
 11
438.5455899891201
 21
425.1369004625217
 31
0.0
100
AcDbText
 73
     2
  0
LINE
  5
7E6
330
70
100
AcDbEntity
  8
MOJI
100
AcDbLine
 10
376.3563929295795
 20
254.7863514005591
 30
0.0
 11
343.0575553350098
 21
197.1110728537803
 31
0.0
  0
TEXT
  5
7E7
330
70
100
AcDbEntity
  8
MOJI
100
AcDbText
 10
306.2769513261835
 20
192.6765220283291
 30
0.0
 40
8.0
  1
防水紙
  7
CAD-DL
 72
     2
 11
337.4647685850667
 21
196.6765220283291
 31
0.0
100
AcDbText
 73
     2
  0
LINE
  5
7E8
330
70
100
AcDbEntity
  8
MOJI
100
AcDbLine
 10
343.0575553350098
 20
197.1110728537803
 30
0.0
 11
338.0575553350098
 21
197.1110728537803
 31
0.0
  0
LINE
  5
7E9
330
70
100
AcDbEntity
  8
MOJI
100
AcDbLine
 10
357.8807786397131
 20
185.7577680986456
 30
0.0
 11
337.8807786397129
 21
151.1167519472805
 31
0.0
  0
LINE
  5
7EA
330
70
100
AcDbEntity
  8
MOJI
100
AcDbLine
 10
337.8807786397129
 20
151.1167519472805
 30
0.0
 11
332.8807786397131
 21
151.1167519472805
 31
0.0
  0
DIMENSION
  5
7EB
330
70
100
AcDbEntity
  8
SUNPO
 48
0.1
100
AcDbDimension
280
     0
  2
*D7
 10
427.1063929295794
 20
319.0574668020369
 30
0.0
 11
407.1063929295794
 21
323.5574668020369
 31
0.0
 70
    32
 71
     5
 42
40.0
 73
     0
 74
     0
 75
     0
  3
CAD-DL
100
AcDbAlignedDimension
 13
387.1063929295795
 23
364.6395402264313
 33
0.0
 14
427.1063929295794
 24
340.9019496689204
 34
0.0
100
AcDbRotatedDimension
1001
ACAD
1000
DSTYLE
1002
{
1070
   176
1070
     0
1070
    41
1040
1.0
1070
    42
1040
5.0
1070
    44
1040
0.0
1002
}
  0
LINE
  5
81A
330
70
100
AcDbEntity
  8
MOJI
100
AcDbLine
 10
332.2938264150919
 20
280.391992421655
 30
0.0
 11
327.2938264150924
 21
280.391992421655
 31
0.0
  0
TEXT
  5
81C
330
70
100
AcDbEntity
  8
MOJI
100
AcDbText
 10
185.3038999708246
 20
276.3194496202679
 30
0.0
 40
8.0
  1
ドリルビス（平頭 4×30以上）
 50
0.0000000000014388
  7
CAD-DL
 11
185.3038999708244
 21
280.3194496202679
 31
0.0
100
AcDbText
 73
     2
  0
LINE
  5
81D
330
70
100
AcDbEntity
  8
MOJI
100
AcDbLine
 10
368.3557501016247
 20
342.8530764653335
 30
0.0
 11
332.2938264150919
 21
280.391992421655
 31
0.0
  0
TEXT
  5
81E
330
70
100
AcDbEntity
  8
MOJI
100
AcDbText
 10
310.389693901116
 20
147.1167519472805
 30
0.0
 40
8.0
  1
銘壁
  7
CAD-DL
 72
     2
 11
331.1815720737048
 21
151.1167519472805
 31
0.0
100
AcDbText
 73
     2
  0
LINE
  5
B68
330
70
100
AcDbEntity
  8
TEKUSU
100
AcDbLine
 10
357.8807786397135
 20
347.139540226432
 30
0.0
 11
357.8807786397135
 21
337.139540226431
 31
0.0
  0
LINE
  5
B69
330
70
100
AcDbEntity
  8
TEKUSU
  6
CENTER2
370
     5
100
AcDbLine
 10
397.4307786397135
 20
342.1395402264311
 30
0.0
 11
352.4307786397135
 21
342.1395402264311
 31
0.0
  0
LINE
  5
B6A
330
70
100
AcDbEntity
  8
TEKUSU
100
AcDbLine
 10
390.780778639714
 20
340.0395402264312
 30
0.0
 11
386.8807786397135
 21
340.0395402264312
 31
0.0
  0
LINE
  5
B6B
330
70
100
AcDbEntity
  8
TEKUSU
100
AcDbLine
 10
390.780778639714
 20
344.239540226431
 30
0.0
 11
386.8807786397135
 21
344.239540226431
 31
0.0
  0
LINE
  5
B6C
330
70
100
AcDbEntity
  8
TEKUSU
100
AcDbLine
 10
357.8807786397135
 20
337.139540226431
 30
0.0
 11
356.9807786397135
 21
337.139540226431
 31
0.0
  0
LINE
  5
B6D
330
70
100
AcDbEntity
  8
TEKUSU
100
AcDbLine
 10
357.8807786397135
 20
347.139540226431
 30
0.0
 11
356.9807786397135
 21
347.139540226431
 31
0.0
  0
LINE
  5
B6E
330
70
100
AcDbEntity
  8
TEKUSU
100
AcDbLine
 10
386.8807786397135
 20
339.6395402264311
 30
0.0
 11
379.4063929295783
 21
339.6395402264311
 31
0.0
  0
LINE
  5
B6F
330
70
100
AcDbEntity
  8
TEKUSU
100
AcDbLine
 10
386.8807786397135
 20
344.6395402264311
 30
0.0
 11
379.4063929295783
 21
344.6395402264311
 31
0.0
  0
LINE
  5
B70
330
70
100
AcDbEntity
  8
TEKUSU
100
AcDbLine
 10
386.8807786397135
 20
344.6395402264311
 30
0.0
 11
386.8807786397135
 21
339.6395402264311
 31
0.0
  0
LINE
  5
B71
330
70
100
AcDbEntity
  8
TEKUSU
100
AcDbLine
 10
356.9807786397135
 20
347.139540226432
 30
0.0
 11
356.9807786397135
 21
337.139540226431
 31
0.0
  0
LINE
  5
B72
330
70
100
AcDbEntity
  8
TEKUSU
100
AcDbLine
 10
392.8807786397135
 20
342.1395402264311
 30
0.0
 11
390.780778639714
 21
340.0395402264312
 31
0.0
  0
LINE
  5
B73
330
70
100
AcDbEntity
  8
TEKUSU
100
AcDbLine
 10
392.8807786397144
 20
342.1395402264311
 30
0.0
 11
390.780778639714
 21
344.239540226431
 31
0.0
  0
LINE
  5
B74
330
70
100
AcDbEntity
  8
TEKUSU
100
AcDbLine
 10
386.8807786397135
 20
343.0685869190347
 30
0.0
 11
392.8807786397144
 21
342.1395402264311
 31
0.0
  0
LINE
  5
B75
330
70
100
AcDbEntity
  8
TEKUSU
100
AcDbLine
 10
400.4633740083887
 20
379.6395402264315
 30
0.0
 11
390.4633740083878
 21
379.6395402264315
 31
0.0
  0
LINE
  5
B76
330
70
100
AcDbEntity
  8
TEKUSU
  6
CENTER2
370
     5
100
AcDbLine
 10
395.4633740083878
 20
340.0895402264314
 30
0.0
 11
395.4633740083878
 21
385.0895402264315
 31
0.0
  0
LINE
  5
B77
330
70
100
AcDbEntity
  8
TEKUSU
100
AcDbLine
 10
393.3633740083879
 20
346.739540226431
 30
0.0
 11
393.3633740083879
 21
350.6395402264315
 31
0.0
  0
LINE
  5
B78
330
70
100
AcDbEntity
  8
TEKUSU
100
AcDbLine
 10
397.5633740083877
 20
346.739540226431
 30
0.0
 11
397.5633740083877
 21
350.6395402264315
 31
0.0
  0
LINE
  5
B79
330
70
100
AcDbEntity
  8
TEKUSU
100
AcDbLine
 10
390.4633740083878
 20
379.6395402264315
 30
0.0
 11
390.4633740083878
 21
380.5395402264315
 31
0.0
  0
LINE
  5
B7A
330
70
100
AcDbEntity
  8
TEKUSU
100
AcDbLine
 10
400.4633740083877
 20
379.6395402264315
 30
0.0
 11
400.4633740083877
 21
380.5395402264315
 31
0.0
  0
LINE
  5
B7B
330
70
100
AcDbEntity
  8
TEKUSU
100
AcDbLine
 10
392.9633740083878
 20
350.6395402264315
 30
0.0
 11
392.9633740083879
 21
358.1139259365652
 31
0.0
  0
LINE
  5
B7C
330
70
100
AcDbEntity
  8
TEKUSU
100
AcDbLine
 10
397.9633740083879
 20
350.6395402264315
 30
0.0
 11
397.9633740083879
 21
358.1139259365652
 31
0.0
  0
LINE
  5
B7D
330
70
100
AcDbEntity
  8
TEKUSU
100
AcDbLine
 10
397.9633740083878
 20
350.6395402264315
 30
0.0
 11
392.9633740083878
 21
350.6395402264315
 31
0.0
  0
LINE
  5
B7E
330
70
100
AcDbEntity
  8
TEKUSU
100
AcDbLine
 10
400.4633740083887
 20
380.5395402264315
 30
0.0
 11
390.4633740083878
 21
380.5395402264315
 31
0.0
  0
LINE
  5
B7F
330
70
100
AcDbEntity
  8
TEKUSU
100
AcDbLine
 10
395.4633740083878
 20
344.6395402264315
 30
0.0
 11
393.3633740083879
 21
346.739540226431
 31
0.0
  0
LINE
  5
B80
330
70
100
AcDbEntity
  8
TEKUSU
100
AcDbLine
 10
395.4633740083878
 20
344.6395402264306
 30
0.0
 11
397.5633740083877
 21
346.739540226431
 31
0.0
  0
LINE
  5
B81
330
70
100
AcDbEntity
  8
TEKUSU
100
AcDbLine
 10
396.3924207009914
 20
350.6395402264315
 30
0.0
 11
395.4633740083878
 21
344.6395402264306
 31
0.0
  0
LINE
  5
C95
330
70
100
AcDbEntity
  8
TEKUSU
  6
DASHED2
 48
0.5
100
AcDbLine
 10
392.9633740083878
 20
358.1139259365652
 30
0.0
 11
392.9633740083878
 21
379.6395402264315
 31
0.0
  0
LINE
  5
C96
330
70
100
AcDbEntity
  8
TEKUSU
  6
DASHED2
 48
0.5
100
AcDbLine
 10
397.9633740083879
 20
358.1139259365652
 30
0.0
 11
397.9633740083878
 21
379.6395402264315
 31
0.0
  0
LINE
  5
C97
330
70
100
AcDbEntity
  8
TEKUSU
  6
DASHED2
 48
0.5
100
AcDbLine
 10
379.4063929295783
 20
339.6395402264311
 30
0.0
 11
357.8807786397135
 21
339.639540226431
 31
0.0
  0
LINE
  5
C98
330
70
100
AcDbEntity
  8
TEKUSU
  6
DASHED2
 48
0.5
100
AcDbLine
 10
379.4063929295783
 20
344.6395402264311
 30
0.0
 11
357.8807786397135
 21
344.639540226431
 31
0.0
  0
ENDSEC
  0
SECTION
  2
OBJECTS
  0
DICTIONARY
  5
C
330
0
100
AcDbDictionary
281
     1
  3
ACAD_CIP_PREVIOUS_PRODUCT_INFO
350
1EB
  3
ACAD_COLOR
350
63
  3
ACAD_DETAILVIEWSTYLE
350
6A
  3
ACAD_GROUP
350
D
  3
ACAD_LAYOUT
350
62
  3
ACAD_MATERIAL
350
10
  3
ACAD_MLEADERSTYLE
350
66
  3
ACAD_MLINESTYLE
350
5F
  3
ACAD_PLOTSETTINGS
350
61
  3
ACAD_PLOTSTYLENAME
350
E
  3
ACAD_SCALELIST
350
42
  3
ACAD_SECTIONVIEWSTYLE
350
68
  3
ACAD_TABLESTYLE
350
64
  3
ACAD_VISUALSTYLE
350
29
  3
ACDB_RECOMPOSE_DATA
350
CE4
  3
AcDbVariableDictionary
350
1D7
  3
AcDsDecomposeData
350
CEA
  0
DICTIONARY
  5
209
330
8
100
AcDbDictionary
280
     1
281
     1
  0
DICTIONARY
  5
1F7
330
2
100
AcDbDictionary
280
     1
281
     1
  3
ACAD_LAYERSTATES
360
1F8
  0
DICTIONARY
  5
1F1
330
54
100
AcDbDictionary
280
     1
281
     1
  3
ADSK_XREC_LAYER_RECONCILED
360
1F2
  0
DICTIONARY
  5
8F
330
8E
100
AcDbDictionary
280
     1
281
     1
  3
ADSK_XREC_LAYER_RECONCILED
360
90
  0
DICTIONARY
  5
94
330
93
100
AcDbDictionary
280
     1
281
     1
  3
ADSK_XREC_LAYER_RECONCILED
360
95
  0
DICTIONARY
  5
BB
330
BA
100
AcDbDictionary
280
     1
281
     1
  3
ADSK_XREC_LAYER_RECONCILED
360
BC
  0
DICTIONARY
  5
C0
330
BF
100
AcDbDictionary
280
     1
281
     1
  3
ADSK_XREC_LAYER_RECONCILED
360
C1
  0
DICTIONARY
  5
D8
330
D7
100
AcDbDictionary
280
     1
281
     1
  3
ADSK_XREC_LAYER_RECONCILED
360
D9
  0
DICTIONARY
  5
E7
330
E6
100
AcDbDictionary
280
     1
281
     1
  3
ADSK_XREC_LAYER_RECONCILED
360
E8
  0
DICTIONARY
  5
F5
330
F4
100
AcDbDictionary
280
     1
281
     1
  3
ADSK_XREC_LAYER_RECONCILED
360
F6
  0
DICTIONARY
  5
139
330
138
100
AcDbDictionary
280
     1
281
     1
  3
ADSK_XREC_LAYER_RECONCILED
360
13A
  0
DICTIONARY
  5
15F
330
15E
100
AcDbDictionary
280
     1
281
     1
  3
ADSK_XREC_LAYER_RECONCILED
360
160
  0
DICTIONARY
  5
172
330
171
100
AcDbDictionary
280
     1
281
     1
  3
ADSK_XREC_LAYER_RECONCILED
360
1F3
  0
DICTIONARY
  5
5F5
330
5F4
100
AcDbDictionary
280
     1
281
     1
  0
DICTIONARY
  5
5F7
330
5F6
100
AcDbDictionary
280
     1
281
     1
  0
DICTIONARY
  5
5F9
330
5F8
100
AcDbDictionary
280
     1
281
     1
  0
DICTIONARY
  5
5FB
330
5FA
100
AcDbDictionary
280
     1
281
     1
  0
DICTIONARY
  5
1CF
330
70
100
AcDbDictionary
280
     1
281
     1
  3
ACAD_SORTENTS
360
1D0
  0
XRECORD
  5
1EB
102
{ACAD_REACTORS
330
C
102
}
330
C
100
AcDbXrecord
280
     1
300
ACDLT
300
2017
300
86604ACDLT_2017_0F
  0
DICTIONARY
  5
63
102
{ACAD_REACTORS
330
C
102
}
330
C
100
AcDbDictionary
281
     1
  0
DICTIONARY
  5
6A
102
{ACAD_REACTORS
330
C
102
}
330
C
100
AcDbDictionary
281
     1
  3
Imperial24
350
6B
  3
Metric50
350
1E4
  0
DICTIONARY
  5
D
102
{ACAD_REACTORS
330
C
102
}
330
C
100
AcDbDictionary
281
     1
  0
DICTIONARY
  5
62
102
{ACAD_REACTORS
330
C
102
}
330
C
100
AcDbDictionary
281
     1
  3
Model
350
73
  3
レイアウト1
350
6F
  3
レイアウト2
350
77
  0
DICTIONARY
  5
10
102
{ACAD_REACTORS
330
C
102
}
330
C
100
AcDbDictionary
281
     1
  3
ByBlock
350
19
  3
ByLayer
350
11
  3
Global
350
21
  0
DICTIONARY
  5
66
102
{ACAD_REACTORS
330
C
102
}
330
C
100
AcDbDictionary
281
     1
  3
Standard
350
67
  0
DICTIONARY
  5
5F
102
{ACAD_REACTORS
330
C
102
}
330
C
100
AcDbDictionary
281
     1
  3
Standard
350
60
  0
DICTIONARY
  5
61
102
{ACAD_REACTORS
330
C
102
}
330
C
100
AcDbDictionary
281
     1
  0
ACDBDICTIONARYWDFLT
  5
E
102
{ACAD_REACTORS
330
C
102
}
330
C
100
AcDbDictionary
281
     1
  3
Normal
350
F
  3
スタイル 1
350
8B
100
AcDbDictionaryWithDefault
340
F
  0
DICTIONARY
  5
42
102
{ACAD_REACTORS
330
C
102
}
330
C
100
AcDbDictionary
281
     1
  3
A0
350
43
  3
A1
350
44
  3
A2
350
45
  3
A3
350
46
  3
A4
350
47
  3
A5
350
48
  3
A6
350
49
  3
A7
350
4A
  3
A8
350
4B
  3
A9
350
4C
  3
B0
350
4D
  3
B1
350
4E
  3
B2
350
4F
  3
B3
350
50
  3
B4
350
51
  3
B5
350
52
  3
B6
350
53
  0
DICTIONARY
  5
68
102
{ACAD_REACTORS
330
C
102
}
330
C
100
AcDbDictionary
281
     1
  3
Imperial24
350
69
  3
Metric50
350
1E3
  0
DICTIONARY
  5
64
102
{ACAD_REACTORS
330
C
102
}
330
C
100
AcDbDictionary
281
     1
  3
Standard
350
65
  0
DICTIONARY
  5
29
102
{ACAD_REACTORS
330
C
102
}
330
C
100
AcDbDictionary
281
     1
  3
2dWireframe
350
2F
  3
Basic
350
2E
  3
Brighten
350
35
  3
ColorChange
350
39
  3
Conceptual
350
32
  3
Dim
350
34
  3
EdgeColorOff
350
41
  3
Facepattern
350
38
  3
Flat
350
2A
  3
FlatWithEdges
350
2B
  3
Gouraud
350
2C
  3
GouraudWithEdges
350
2D
  3
Hidden
350
31
  3
JitterOff
350
3F
  3
Linepattern
350
37
  3
OverhangOff
350
40
  3
Realistic
350
33
  3
Shaded
350
3E
  3
Shaded with edges
350
3D
  3
Shades of Gray
350
3A
  3
Sketchy
350
3B
  3
Thicken
350
36
  3
Wireframe
350
30
  3
X-Ray
350
3C
  0
XRECORD
  5
CE4
102
{ACAD_REACTORS
330
C
102
}
330
C
100
AcDbXrecord
280
     1
 90
        1
330
65
330
7D9
  0
DICTIONARY
  5
1D7
102
{ACAD_REACTORS
330
C
102
}
330
C
100
AcDbDictionary
281
     1
  3
ANNOALLVISIBLE
350
1DD
  3
CANNOSCALE
350
1DE
  3
CMLEADERSTYLE
350
1D9
  3
CTABLESTYLE
350
1D8
  3
CVIEWDETAILSTYLE
350
1DA
  3
CVIEWSECTIONSTYLE
350
1DB
  3
LAYEREVAL
350
1E0
  3
LAYERNOTIFY
350
1E1
  3
LIGHTINGUNITS
350
1DF
  3
MSLTSCALE
350
1DC
  0
DICTIONARY
  5
CEA
102
{ACAD_REACTORS
330
C
102
}
330
C
100
AcDbDictionary
281
     1
  3
AcDsRecords
350
CEC
  3
AcDsSchemas
350
CEB
1001
ACAD
1070
     2
  0
DICTIONARY
  5
1F8
102
{ACAD_REACTORS
330
1F7
102
}
330
1F7
100
AcDbDictionary
281
     1
  0
XRECORD
  5
1F2
102
{ACAD_REACTORS
330
1F1
102
}
330
1F1
100
AcDbXrecord
280
     1
290
     1
  0
XRECORD
  5
90
102
{ACAD_REACTORS
330
8F
102
}
330
8F
100
AcDbXrecord
280
     1
290
     1
  0
XRECORD
  5
95
102
{ACAD_REACTORS
330
94
102
}
330
94
100
AcDbXrecord
280
     1
290
     1
  0
XRECORD
  5
BC
102
{ACAD_REACTORS
330
BB
102
}
330
BB
100
AcDbXrecord
280
     1
290
     1
  0
XRECORD
  5
C1
102
{ACAD_REACTORS
330
C0
102
}
330
C0
100
AcDbXrecord
280
     1
290
     1
  0
XRECORD
  5
D9
102
{ACAD_REACTORS
330
D8
102
}
330
D8
100
AcDbXrecord
280
     1
290
     1
  0
XRECORD
  5
E8
102
{ACAD_REACTORS
330
E7
102
}
330
E7
100
AcDbXrecord
280
     1
290
     1
  0
XRECORD
  5
F6
102
{ACAD_REACTORS
330
F5
102
}
330
F5
100
AcDbXrecord
280
     1
290
     1
  0
XRECORD
  5
13A
102
{ACAD_REACTORS
330
139
102
}
330
139
100
AcDbXrecord
280
     1
290
     1
  0
XRECORD
  5
160
102
{ACAD_REACTORS
330
15F
102
}
330
15F
100
AcDbXrecord
280
     1
290
     1
  0
XRECORD
  5
1F3
102
{ACAD_REACTORS
330
172
102
}
330
172
100
AcDbXrecord
280
     1
290
     1
  0
SORTENTSTABLE
  5
1D0
102
{ACAD_REACTORS
330
1CF
102
}
330
1CF
100
AcDbSortentsTable
330
70
331
734
  5
728
331
730
  5
724
331
72C
  5
720
331
728
  5
71C
331
76F
  5
743
331
76B
  5
73F
331
7E7
  5
B7E
331
7AC
  5
780
331
767
  5
7C0
331
7E3
  5
B7A
331
7A8
  5
77C
331
763
  5
7BC
331
7DF
  5
B76
331
7A4
  5
778
331
81C
  5
C96
331
7DB
  5
B72
331
7A0
  5
774
331
B5
  5
B5
331
B1
  5
B1
331
AD
  5
AD
331
A9
  5
A9
331
727
  5
71B
331
723
  5
717
331
71F
  5
7AD
331
75C
  5
B69
331
71B
  5
7A9
331
758
  5
B4A
331
79F
  5
773
331
79B
  5
76F
331
797
  5
76B
331
7D4
  5
7C6
331
793
  5
767
331
7D0
  5
7A4
331
C96
  5
B6B
331
A5
  5
A5
331
A1
  5
A1
331
9D
  5
9D
331
717
  5
7A6
331
713
  5
AC7
331
754
  5
7B4
331
750
  5
804
331
74C
  5
7AF
331
748
  5
73A
331
B80
  5
817
331
B7C
  5
80F
331
B78
  5
80B
331
78F
  5
763
331
78B
  5
75F
331
7CC
  5
7A0
331
7C8
  5
79C
331
787
  5
75B
331
783
  5
757
331
7C4
  5
798
331
7C0
  5
794
331
747
  5
AFE
331
743
  5
737
331
73F
  5
733
331
B77
  5
80A
331
73B
  5
72F
331
B73
  5
806
331
B6F
  5
7FF
331
B6B
  5
7FB
331
77E
  5
752
331
7BF
  5
793
331
77A
  5
74E
331
7BB
  5
78F
331
776
  5
74A
331
7B7
  5
78B
331
7B3
  5
787
331
772
  5
746
331
7EA
  5
B81
331
737
  5
72B
331
733
  5
727
331
72F
  5
723
331
72B
  5
71F
331
76E
  5
742
331
7AF
  5
783
331
76A
  5
73E
331
7E6
  5
B7D
331
7AB
  5
77F
331
766
  5
7BF
331
7E2
  5
B79
331
7A7
  5
77B
331
762
  5
7BB
331
7DE
  5
B75
331
7A3
  5
777
331
7DA
  5
B71
331
B4
  5
B4
331
B0
  5
B0
331
AC
  5
AC
331
A8
  5
A8
331
726
  5
71A
331
722
  5
716
331
75F
  5
810
331
71E
  5
7AC
331
75B
  5
B68
331
71A
  5
714
331
79E
  5
772
331
79A
  5
76E
331
7D7
  5
B70
331
796
  5
76A
331
7D3
  5
7C5
331
792
  5
766
331
C95
  5
B6A
331
A4
  5
A4
331
A0
  5
A0
331
9C
  5
9C
331
757
  5
B2E
331
716
  5
713
331
712
  5
AC6
331
753
  5
7B3
331
74F
  5
7B0
331
74B
  5
73D
331
B7F
  5
816
331
B7B
  5
80E
331
78E
  5
762
331
7CF
  5
7A3
331
78A
  5
75E
331
7CB
  5
79F
331
7C7
  5
79B
331
786
  5
75A
331
782
  5
756
331
7C3
  5
797
331
746
  5
AC8
331
742
  5
736
331
73E
  5
732
331
B76
  5
809
331
73A
  5
72E
331
B72
  5
805
331
B6E
  5
7FE
331
B6A
  5
7FA
331
77D
  5
751
331
7BE
  5
792
331
779
  5
74D
331
7BA
  5
78E
331
7B6
  5
78A
331
775
  5
749
331
7B2
  5
786
331
771
  5
745
331
7E9
  5
B80
331
B8
  5
B8
331
736
  5
72A
331
732
  5
726
331
72E
  5
722
331
72A
  5
71E
331
76D
  5
741
331
7AE
  5
782
331
769
  5
7C2
331
7E5
  5
B7C
331
7AA
  5
77E
331
765
  5
7BE
331
7E1
  5
B78
331
7A6
  5
77A
331
761
  5
814
331
81E
  5
C98
331
7DD
  5
B74
331
7A2
  5
776
331
81A
  5
C95
331
7D9
  5
7C8
331
B7
  5
B7
331
B3
  5
B3
331
C98
  5
B6D
331
AF
  5
AF
331
AB
  5
AB
331
725
  5
719
331
721
  5
715
331
75E
  5
813
331
71D
  5
7AB
331
75A
  5
7B8
331
719
  5
7A8
331
79D
  5
771
331
799
  5
76D
331
7D6
  5
B6F
331
795
  5
769
331
7D2
  5
7C4
331
791
  5
765
331
A7
  5
A7
331
A3
  5
A3
331
9F
  5
9F
331
9B
  5
9B
331
756
  5
7B6
331
715
  5
7A5
331
752
  5
7B2
331
74E
  5
803
331
74A
  5
73C
331
B7E
  5
812
331
B7A
  5
80D
331
78D
  5
761
331
7CE
  5
7A2
331
789
  5
75D
331
7CA
  5
79E
331
7C6
  5
79A
331
785
  5
759
331
781
  5
755
331
7C2
  5
796
331
745
  5
739
331
741
  5
735
331
73D
  5
731
331
B75
  5
808
331
739
  5
72D
331
B71
  5
801
331
B6D
  5
7FD
331
B69
  5
7F9
331
77C
  5
750
331
7BD
  5
791
331
778
  5
74C
331
7B9
  5
78D
331
7B5
  5
789
331
774
  5
748
331
770
  5
744
331
7B1
  5
785
331
7E8
  5
B7F
331
735
  5
729
331
731
  5
725
331
72D
  5
721
331
729
  5
71D
331
76C
  5
740
331
7AD
  5
781
331
768
  5
7C1
331
7E4
  5
B7B
331
7A9
  5
77D
331
764
  5
7BD
331
7E0
  5
B77
331
7A5
  5
779
331
760
  5
7BA
331
81D
  5
C97
331
7DC
  5
B73
331
7A1
  5
775
331
7D8
  5
7C7
331
B6
  5
B6
331
B2
  5
B2
331
AE
  5
AE
331
AA
  5
AA
331
724
  5
718
331
720
  5
7AE
331
75D
  5
7B9
331
71C
  5
7AA
331
759
  5
7B7
331
718
  5
7A7
331
79C
  5
770
331
798
  5
76C
331
7D5
  5
B6E
331
794
  5
768
331
7D1
  5
7C3
331
790
  5
764
331
C97
  5
B6C
331
A6
  5
A6
331
A2
  5
A2
331
9E
  5
9E
331
9A
  5
9A
331
755
  5
7B5
331
714
  5
712
331
751
  5
7B1
331
74D
  5
802
331
749
  5
73B
331
B81
  5
818
331
B7D
  5
811
331
B79
  5
80C
331
78C
  5
760
331
7CD
  5
7A1
331
788
  5
75C
331
7C9
  5
79D
331
7C5
  5
799
331
784
  5
758
331
780
  5
754
331
7C1
  5
795
331
91
  5
91
331
744
  5
738
331
740
  5
734
331
73C
  5
730
331
B74
  5
807
331
738
  5
72C
331
B70
  5
800
331
B6C
  5
7FC
331
B68
  5
7F8
331
77F
  5
753
331
77B
  5
74F
331
7BC
  5
790
331
7B8
  5
78C
331
777
  5
74B
331
7B4
  5
788
331
773
  5
747
331
7EB
  5
7F7
331
7B0
  5
784
  0
ACDBDETAILVIEWSTYLE
  5
6B
102
{ACAD_XDICTIONARY
360
9E5
102
}
102
{ACAD_REACTORS
330
6A
102
}
330
6A
100
AcDbModelDocViewStyle
 70
     0
  3
Imperial24
290
     0
100
AcDbDetailViewStyle
 70
     0
 71
     0
 90
        3
 71
     1
340
55
 62
   256
 40
0.24
340
0
 62
   256
 40
0.24
300

 40
0.36
280
     3
 71
     2
340
5D
 90
       25
 62
   256
 71
     3
340
55
 62
   256
 40
0.24
 90
        1
 40
0.75
 90
        1
300
%<\AcVar ViewType \f "%tc1">% %<\AcVar ViewDetailId>%\PSCALE %<\AcVar ViewScale \f "%sn">%
 71
     4
340
5D
 90
       25
 62
   256
340
5D
 90
       25
 62
   256
280
     0
  0
ACDBDETAILVIEWSTYLE
  5
1E4
102
{ACAD_XDICTIONARY
360
9E9
102
}
102
{ACAD_REACTORS
330
6A
102
}
330
6A
100
AcDbModelDocViewStyle
 70
     0
  3
Metric50
290
     0
100
AcDbDetailViewStyle
 70
     0
 71
     0
 90
        3
 71
     1
340
55
 62
   256
 40
5.0
340
0
 62
   256
 40
5.0
300

 40
0.0
280
     1
 71
     2
340
5D
 90
       25
 62
   256
 71
     3
340
55
 62
   256
 40
5.0
 90
        0
 40
15.0
 90
        1
300
%<\AcVar ViewDetailId>% (%<\AcVar ViewScale \f "%sn">%)
 71
     4
340
5D
 90
       25
 62
   256
340
5D
 90
       25
 62
   256
280
     0
  0
LAYOUT
  5
73
102
{ACAD_XDICTIONARY
360
244
102
}
102
{ACAD_REACTORS
330
62
102
}
330
62
100
AcDbPlotSettings
  1

  2
Adobe PDF
  4
A3
  6

 40
3.174999952316284
 41
3.174999952316284
 42
3.17498779296875
 43
3.17498779296875
 44
297.0318298339844
 45
420.1583251953125
 46
7.82224685422534
 47
11.9024324210759
 48
29.99999996129679
 49
21.9999999716174
140
809.9999989550038
141
571.9999992620521
142
1.0
143
2.0
 70
 11940
 72
     1
 73
     1
 74
     1
  7
monochrome.ctb
 75
     0
147
0.5284904803941046
 76
     1
 77
     2
 78
   300
148
-29.99623178516709
149
-21.96262803508535
100
AcDbLayout
  1
Model
 70
     1
 71
     0
 10
0.0
 20
0.0
 11
12.0
 21
9.0
 12
0.0
 22
0.0
 32
0.0
 14
0.0
 24
0.0
 34
0.0
 15
0.0
 25
0.0
 35
0.0
146
0.0
 13
0.0
 23
0.0
 33
0.0
 16
1.0
 26
0.0
 36
0.0
 17
0.0
 27
1.0
 37
0.0
 76
     0
330
70
331
57
1001
ACAD_PSEXT
1000
Adobe PDF
1000
Adobe PDF Converter
1000
Documents\*.pdf
1000

1070
     0
  0
LAYOUT
  5
6F
102
{ACAD_REACTORS
330
62
102
}
330
62
100
AcDbPlotSettings
  1

  2
ApeosPort-IV C4475
  4

  6

 40
0.0
 41
0.0
 42
0.0
 43
0.0
 44
0.0
 45
0.0
 46
0.0
 47
0.0
 48
0.0
 49
0.0
140
0.0
141
0.0
142
1.0
143
1.0
 70
   688
 72
     0
 73
     0
 74
     5
  7
monochrome.ctb
 75
    16
147
1.0
 76
     0
 77
     2
 78
   300
148
0.0
149
0.0
100
AcDbLayout
  1
レイアウト1
 70
     0
 71
     1
 10
0.0
 20
0.0
 11
12.0
 21
9.0
 12
0.0
 22
0.0
 32
0.0
 14
1.000000000000000E+20
 24
1.000000000000000E+20
 34
1.000000000000000E+20
 15
-1.000000000000000E+20
 25
-1.000000000000000E+20
 35
-1.000000000000000E+20
146
0.0
 13
0.0
 23
0.0
 33
0.0
 16
1.0
 26
0.0
 36
0.0
 17
0.0
 27
1.0
 37
0.0
 76
     0
330
6C
  0
LAYOUT
  5
77
102
{ACAD_REACTORS
330
62
102
}
330
62
100
AcDbPlotSettings
  1

  2
ApeosPort-IV C4475
  4

  6

 40
0.0
 41
0.0
 42
0.0
 43
0.0
 44
0.0
 45
0.0
 46
0.0
 47
0.0
 48
0.0
 49
0.0
140
0.0
141
0.0
142
1.0
143
1.0
 70
   688
 72
     0
 73
     0
 74
     5
  7
monochrome.ctb
 75
    16
147
1.0
 76
     0
 77
     2
 78
   300
148
0.0
149
0.0
100
AcDbLayout
  1
レイアウト2
 70
     1
 71
     2
 10
0.0
 20
0.0
 11
12.0
 21
9.0
 12
0.0
 22
0.0
 32
0.0
 14
0.0
 24
0.0
 34
0.0
 15
0.0
 25
0.0
 35
0.0
146
0.0
 13
0.0
 23
0.0
 33
0.0
 16
1.0
 26
0.0
 36
0.0
 17
0.0
 27
1.0
 37
0.0
 76
     0
330
74
  0
MATERIAL
  5
19
102
{ACAD_XDICTIONARY
360
1A
102
}
102
{ACAD_REACTORS
330
10
102
}
330
10
100
AcDbMaterial
  1
ByBlock
 72
     0
 43
0.0208333333333333
 43
0.0
 43
0.0
 43
0.0
 43
0.0
 43
0.0208333333333333
 43
0.0
 43
0.0
 43
0.0
 43
0.0
 43
1.0
 43
0.0
 43
0.0
 43
0.0
 43
0.0
 43
1.0
 77
     0
 47
0.0208333333333333
 47
0.0
 47
0.0
 47
0.0
 47
0.0
 47
0.0208333333333333
 47
0.0
 47
0.0
 47
0.0
 47
0.0
 47
1.0
 47
0.0
 47
0.0
 47
0.0
 47
0.0
 47
1.0
171
     0
 49
0.0208333333333333
 49
0.0
 49
0.0
 49
0.0
 49
0.0
 49
0.0208333333333333
 49
0.0
 49
0.0
 49
0.0
 49
0.0
 49
1.0
 49
0.0
 49
0.0
 49
0.0
 49
0.0
 49
1.0
175
     0
142
0.0208333333333333
142
0.0
142
0.0
142
0.0
142
0.0
142
0.0208333333333333
142
0.0
142
0.0
142
0.0
142
0.0
142
1.0
142
0.0
142
0.0
142
0.0
142
0.0
142
1.0
179
     0
144
0.0208333333333333
144
0.0
144
0.0
144
0.0
144
0.0
144
0.0208333333333333
144
0.0
144
0.0
144
0.0
144
0.0
144
1.0
144
0.0
144
0.0
144
0.0
144
0.0
144
1.0
147
0.0208333333333333
147
0.0
147
0.0
147
0.0
147
0.0
147
0.0208333333333333
147
0.0
147
0.0
147
0.0
147
0.0
147
1.0
147
0.0
147
0.0
147
0.0
147
0.0
147
1.0
  0
MATERIAL
  5
11
102
{ACAD_XDICTIONARY
360
12
102
}
102
{ACAD_REACTORS
330
10
102
}
330
10
100
AcDbMaterial
  1
ByLayer
 72
     0
 43
0.0208333333333333
 43
0.0
 43
0.0
 43
0.0
 43
0.0
 43
0.0208333333333333
 43
0.0
 43
0.0
 43
0.0
 43
0.0
 43
1.0
 43
0.0
 43
0.0
 43
0.0
 43
0.0
 43
1.0
 77
     0
 47
0.0208333333333333
 47
0.0
 47
0.0
 47
0.0
 47
0.0
 47
0.0208333333333333
 47
0.0
 47
0.0
 47
0.0
 47
0.0
 47
1.0
 47
0.0
 47
0.0
 47
0.0
 47
0.0
 47
1.0
171
     0
 49
0.0208333333333333
 49
0.0
 49
0.0
 49
0.0
 49
0.0
 49
0.0208333333333333
 49
0.0
 49
0.0
 49
0.0
 49
0.0
 49
1.0
 49
0.0
 49
0.0
 49
0.0
 49
0.0
 49
1.0
175
     0
142
0.0208333333333333
142
0.0
142
0.0
142
0.0
142
0.0
142
0.0208333333333333
142
0.0
142
0.0
142
0.0
142
0.0
142
1.0
142
0.0
142
0.0
142
0.0
142
0.0
142
1.0
179
     0
144
0.0208333333333333
144
0.0
144
0.0
144
0.0
144
0.0
144
0.0208333333333333
144
0.0
144
0.0
144
0.0
144
0.0
144
1.0
144
0.0
144
0.0
144
0.0
144
0.0
144
1.0
147
0.0208333333333333
147
0.0
147
0.0
147
0.0
147
0.0
147
0.0208333333333333
147
0.0
147
0.0
147
0.0
147
0.0
147
1.0
147
0.0
147
0.0
147
0.0
147
0.0
147
1.0
  0
MATERIAL
  5
21
102
{ACAD_XDICTIONARY
360
22
102
}
102
{ACAD_REACTORS
330
10
102
}
330
10
100
AcDbMaterial
  1
Global
 72
     0
 43
0.0208333333333333
 43
0.0
 43
0.0
 43
0.0
 43
0.0
 43
0.0208333333333333
 43
0.0
 43
0.0
 43
0.0
 43
0.0
 43
1.0
 43
0.0
 43
0.0
 43
0.0
 43
0.0
 43
1.0
 77
     0
 47
0.0208333333333333
 47
0.0
 47
0.0
 47
0.0
 47
0.0
 47
0.0208333333333333
 47
0.0
 47
0.0
 47
0.0
 47
0.0
 47
1.0
 47
0.0
 47
0.0
 47
0.0
 47
0.0
 47
1.0
171
     0
 49
0.0208333333333333
 49
0.0
 49
0.0
 49
0.0
 49
0.0
 49
0.0208333333333333
 49
0.0
 49
0.0
 49
0.0
 49
0.0
 49
1.0
 49
0.0
 49
0.0
 49
0.0
 49
0.0
 49
1.0
175
     0
142
0.0208333333333333
142
0.0
142
0.0
142
0.0
142
0.0
142
0.0208333333333333
142
0.0
142
0.0
142
0.0
142
0.0
142
1.0
142
0.0
142
0.0
142
0.0
142
0.0
142
1.0
179
     0
144
0.0208333333333333
144
0.0
144
0.0
144
0.0
144
0.0
144
0.0208333333333333
144
0.0
144
0.0
144
0.0
144
0.0
144
1.0
144
0.0
144
0.0
144
0.0
144
0.0
144
1.0
147
0.0208333333333333
147
0.0
147
0.0
147
0.0
147
0.0
147
0.0208333333333333
147
0.0
147
0.0
147
0.0
147
0.0
147
1.0
147
0.0
147
0.0
147
0.0
147
0.0
147
1.0
  0
MLEADERSTYLE
  5
67
102
{ACAD_XDICTIONARY
360
D1D
102
}
102
{ACAD_REACTORS
330
66
102
}
330
66
100
AcDbMLeaderStyle
179
     2
170
     2
171
     1
172
     0
 90
        2
 40
0.0
 41
0.0
173
     1
 91
-1056964608
340
5B
 92
       -2
290
     1
 42
0.09
291
     1
 43
0.36
  3
Standard
 44
0.18
300

342
55
174
     1
178
     6
175
     1
176
     0
 93
-1056964608
 45
0.18
292
     0
297
     0
 46
0.18
 94
-1056964608
 47
1.0
 49
1.0
140
1.0
293
     1
141
0.0
294
     1
177
     0
142
1.0
295
     0
296
     0
143
0.125
271
     0
272
     9
273
     9
  0
MLINESTYLE
  5
60
102
{ACAD_REACTORS
330
5F
102
}
330
5F
100
AcDbMlineStyle
  2
STANDARD
 70
     0
  3

 62
   256
 51
90.0
 52
90.0
 71
     2
 49
0.5
 62
   256
  6
BYLAYER
 49
-0.5
 62
   256
  6
BYLAYER
  0
ACDBPLACEHOLDER
  5
F
102
{ACAD_REACTORS
330
E
102
}
330
E
  0
ACDBPLACEHOLDER
  5
8B
102
{ACAD_REACTORS
330
E
102
}
330
E
  0
SCALE
  5
43
102
{ACAD_REACTORS
330
42
102
}
330
42
100
AcDbScale
 70
     0
300
1:1
140
1.0
141
1.0
290
     1
  0
SCALE
  5
44
102
{ACAD_REACTORS
330
42
102
}
330
42
100
AcDbScale
 70
     0
300
1:2
140
1.0
141
2.0
290
     0
  0
SCALE
  5
45
102
{ACAD_REACTORS
330
42
102
}
330
42
100
AcDbScale
 70
     0
300
1:4
140
1.0
141
4.0
290
     0
  0
SCALE
  5
46
102
{ACAD_REACTORS
330
42
102
}
330
42
100
AcDbScale
 70
     0
300
1:5
140
1.0
141
5.0
290
     0
  0
SCALE
  5
47
102
{ACAD_REACTORS
330
42
102
}
330
42
100
AcDbScale
 70
     0
300
1:8
140
1.0
141
8.0
290
     0
  0
SCALE
  5
48
102
{ACAD_REACTORS
330
42
102
}
330
42
100
AcDbScale
 70
     0
300
1:10
140
1.0
141
10.0
290
     0
  0
SCALE
  5
49
102
{ACAD_REACTORS
330
42
102
}
330
42
100
AcDbScale
 70
     0
300
1:16
140
1.0
141
16.0
290
     0
  0
SCALE
  5
4A
102
{ACAD_REACTORS
330
42
102
}
330
42
100
AcDbScale
 70
     0
300
1:20
140
1.0
141
20.0
290
     0
  0
SCALE
  5
4B
102
{ACAD_REACTORS
330
42
102
}
330
42
100
AcDbScale
 70
     0
300
1:30
140
1.0
141
30.0
290
     0
  0
SCALE
  5
4C
102
{ACAD_REACTORS
330
42
102
}
330
42
100
AcDbScale
 70
     0
300
1:40
140
1.0
141
40.0
290
     0
  0
SCALE
  5
4D
102
{ACAD_REACTORS
330
42
102
}
330
42
100
AcDbScale
 70
     0
300
1:50
140
1.0
141
50.0
290
     0
  0
SCALE
  5
4E
102
{ACAD_REACTORS
330
42
102
}
330
42
100
AcDbScale
 70
     0
300
1:100
140
1.0
141
100.0
290
     0
  0
SCALE
  5
4F
102
{ACAD_REACTORS
330
42
102
}
330
42
100
AcDbScale
 70
     0
300
2:1
140
2.0
141
1.0
290
     0
  0
SCALE
  5
50
102
{ACAD_REACTORS
330
42
102
}
330
42
100
AcDbScale
 70
     0
300
4:1
140
4.0
141
1.0
290
     0
  0
SCALE
  5
51
102
{ACAD_REACTORS
330
42
102
}
330
42
100
AcDbScale
 70
     0
300
8:1
140
8.0
141
1.0
290
     0
  0
SCALE
  5
52
102
{ACAD_REACTORS
330
42
102
}
330
42
100
AcDbScale
 70
     0
300
10:1
140
10.0
141
1.0
290
     0
  0
SCALE
  5
53
102
{ACAD_REACTORS
330
42
102
}
330
42
100
AcDbScale
 70
     0
300
100:1
140
100.0
141
1.0
290
     0
  0
ACDBSECTIONVIEWSTYLE
  5
69
102
{ACAD_XDICTIONARY
360
9E3
102
}
102
{ACAD_REACTORS
330
68
102
}
330
68
100
AcDbModelDocViewStyle
 70
     0
  3
Imperial24
290
     0
100
AcDbSectionViewStyle
 70
     0
 71
     0
 90
       78
 71
     1
340
55
 62
   256
 40
0.24
340
0
340
0
 62
   256
 40
0.24
300
I, O, Q, S, X, Z
 40
0.48
 90
        3
 40
0.18
 90
        1
 71
     2
340
5D
 90
       25
 62
   256
340
5D
 90
       50
 62
   256
 40
0.24
 40
0.0
 40
0.24
 71
     3
340
55
 62
   256
 40
0.24
 90
        1
 40
0.75
 90
        1
300
%<\AcVar ViewType \f "%tc1">% %<\AcVar ViewSectionStartId>%-%<\AcVar ViewSectionEndId>%\PSCALE %<\AcVar ViewScale \f "%sn">%
 71
     4
 62
   256
 62
   257
300
ANSI31
 40
1.0
 90
        0
290
     0
290
     0
 90
        6
 40
0.0
 40
1.570796326794896
 40
0.2617993877991494
 40
1.308996938995747
 40
-0.2617993877991494
 40
1.832595714594046
  0
ACDBSECTIONVIEWSTYLE
  5
1E3
102
{ACAD_XDICTIONARY
360
9E7
102
}
102
{ACAD_REACTORS
330
68
102
}
330
68
100
AcDbModelDocViewStyle
 70
     0
  3
Metric50
290
     0
100
AcDbSectionViewStyle
 70
     0
 71
     0
 90
      102
 71
     1
340
55
 62
   256
 40
5.0
340
0
340
0
 62
   256
 40
5.0
300
I, O, Q, S, X, Z
 40
10.0
 90
        0
 40
2.5
 90
        0
 71
     2
340
5D
 90
       25
 62
   256
340
5D
 90
       50
 62
   256
 40
5.0
 40
2.5
 40
5.0
 71
     3
340
55
 62
   256
 40
5.0
 90
        0
 40
15.0
 90
        1
300
%<\AcVar ViewSectionStartId>%-%<\AcVar ViewSectionEndId>% (%<\AcVar ViewScale \f "%sn">%)
 71
     4
 62
   256
 62
   257
300
ANSI31
 40
1.0
 90
        0
290
     0
290
     0
 90
        6
 40
0.0
 40
1.570796326794896
 40
0.2617993877991494
 40
1.308996938995747
 40
-0.2617993877991494
 40
1.832595714594046
  0
TABLESTYLE
  5
65
102
{ACAD_XDICTIONARY
360
1FE
102
}
102
{ACAD_REACTORS
330
64
102
}
330
64
100
AcDbTableStyle
280
     0
  3
Standard
 70
     0
 71
     3
 40
1.5
 41
1.5
280
     0
281
     0
  7
STANDARD
140
4.5
170
     2
 62
     0
 63
     7
283
     0
 90
      512
 91
        0
  1

274
    -2
284
     1
 64
     0
275
    -2
285
     1
 65
     0
276
    -2
286
     1
 66
     0
277
    -2
287
     1
 67
     0
278
    -2
288
     1
 68
     0
279
    -2
289
     1
 69
     0
  7
STANDARD
140
6.0
170
     5
 62
     0
 63
     7
283
     0
 90
      512
 91
        0
  1

274
    -2
284
     1
 64
     0
275
    -2
285
     1
 65
     0
276
    -2
286
     1
 66
     0
277
    -2
287
     1
 67
     0
278
    -2
288
     1
 68
     0
279
    -2
289
     1
 69
     0
  7
STANDARD
140
4.5
170
     5
 62
     0
 63
     7
283
     0
 90
      512
 91
        0
  1

274
    -2
284
     1
 64
     0
275
    -2
285
     1
 65
     0
276
    -2
286
     1
 66
     0
277
    -2
287
     1
 67
     0
278
    -2
288
     1
 68
     0
279
    -2
289
     1
 69
     0
  0
VISUALSTYLE
  5
2F
102
{ACAD_XDICTIONARY
360
CF7
102
}
102
{ACAD_REACTORS
330
29
102
}
330
29
100
AcDbVisualStyle
  2
2dWireframe
 70
     4
177
     2
291
     0
 71
     0
176
     1
 72
     2
176
     1
 73
     0
176
     1
 90
        0
176
     1
 40
0.6
176
     1
 41
30.0
176
     1
 63
     7
421
 16777215
176
     1
 74
     1
176
     1
 91
        4
176
     1
 64
     7
176
     1
 65
   257
176
     1
 75
     1
176
     1
175
     1
176
     1
 42
1.0
176
     1
 92
        0
176
     1
 66
   257
176
     1
 43
1.0
176
     1
 76
     1
176
     1
 77
     6
176
     1
 78
     2
176
     1
 67
     7
176
     1
 79
     5
176
     1
170
     0
176
     1
171
     0
176
     1
290
     0
176
     1
 93
        1
176
     1
 44
0.0
176
     1
173
     0
176
     1
1001
ACAD
1000
AcDbSavedByObjectVersion
1070
     0
  0
VISUALSTYLE
  5
2E
102
{ACAD_XDICTIONARY
360
CF5
102
}
102
{ACAD_REACTORS
330
29
102
}
330
29
100
AcDbVisualStyle
  2
Basic
 70
     7
177
     2
291
     1
 71
     1
176
     1
 72
     0
176
     1
 73
     1
176
     1
 90
        0
176
     1
 40
0.6
176
     1
 41
30.0
176
     1
 63
     7
421
 16777215
176
     1
 74
     0
176
     1
 91
        4
176
     1
 64
     7
176
     1
 65
   257
176
     1
 75
     1
176
     1
175
     1
176
     1
 42
1.0
176
     1
 92
        8
176
     1
 66
     7
176
     1
 43
1.0
176
     1
 76
     1
176
     1
 77
     6
176
     1
 78
     2
176
     1
 67
     7
176
     1
 79
     5
176
     1
170
     0
176
     1
171
     0
176
     1
290
     0
176
     1
 93
        1
176
     1
 44
0.0
176
     1
173
     0
176
     1
1001
ACAD
1000
AcDbSavedByObjectVersion
1070
     0
  0
VISUALSTYLE
  5
35
102
{ACAD_XDICTIONARY
360
D03
102
}
102
{ACAD_REACTORS
330
29
102
}
330
29
100
AcDbVisualStyle
  2
Brighten
 70
    12
177
     2
291
     1
 71
     2
176
     1
 72
     2
176
     1
 73
     0
176
     1
 90
        0
176
     1
 40
0.6
176
     1
 41
30.0
176
     1
 63
     7
421
 16777215
176
     1
 74
     1
176
     1
 91
        4
176
     1
 64
     7
176
     1
 65
   257
176
     1
 75
     1
176
     1
175
     1
176
     1
 42
1.0
176
     1
 92
        8
176
     1
 66
     7
176
     1
 43
1.0
176
     1
 76
     1
176
     1
 77
     6
176
     1
 78
     2
176
     1
 67
     7
176
     1
 79
     5
176
     1
170
     0
176
     1
171
     0
176
     1
290
     0
176
     1
 93
        1
176
     1
 44
50.0
176
     1
173
     0
176
     1
1001
ACAD
1000
AcDbSavedByObjectVersion
1070
     0
  0
VISUALSTYLE
  5
39
102
{ACAD_XDICTIONARY
360
D0B
102
}
102
{ACAD_REACTORS
330
29
102
}
330
29
100
AcDbVisualStyle
  2
ColorChange
 70
    16
177
     2
291
     1
 71
     2
176
     1
 72
     2
176
     1
 73
     3
176
     1
 90
        0
176
     1
 40
0.6
176
     1
 41
30.0
176
     1
 63
     8
421
  8421504
176
     1
 74
     1
176
     1
 91
        4
176
     1
 64
     7
176
     1
 65
   257
176
     1
 75
     1
176
     1
175
     1
176
     1
 42
1.0
176
     1
 92
        8
176
     1
 66
     8
424
  8421504
176
     1
 43
1.0
176
     1
 76
     1
176
     1
 77
     6
176
     1
 78
     2
176
     1
 67
     7
176
     1
 79
     5
176
     1
170
     0
176
     1
171
     0
176
     1
290
     0
176
     1
 93
        1
176
     1
 44
0.0
176
     1
173
     0
176
     1
1001
ACAD
1000
AcDbSavedByObjectVersion
1070
     0
  0
VISUALSTYLE
  5
32
102
{ACAD_XDICTIONARY
360
CFD
102
}
102
{ACAD_REACTORS
330
29
102
}
330
29
100
AcDbVisualStyle
  2
Conceptual
 70
     9
177
     2
291
     0
 71
     3
176
     1
 72
     2
176
     1
 73
     0
176
     1
 90
        0
176
     1
 40
0.6
176
     1
 41
30.0
176
     1
 63
     7
421
 16777215
176
     1
 74
     2
176
     1
 91
        2
176
     1
 64
     7
176
     1
 65
   257
176
     1
 75
     1
176
     1
175
     1
176
     1
 42
179.0
176
     1
 92
        8
176
     1
 66
     7
176
     1
 43
1.0
176
     1
 76
     1
176
     1
 77
     6
176
     1
 78
     2
176
     1
 67
     7
176
     1
 79
     3
176
     1
170
     0
176
     1
171
     0
176
     1
290
     0
176
     1
 93
        1
176
     1
 44
0.0
176
     1
173
     0
176
     1
1001
ACAD
1000
AcDbSavedByObjectVersion
1070
     0
  0
VISUALSTYLE
  5
34
102
{ACAD_XDICTIONARY
360
D01
102
}
102
{ACAD_REACTORS
330
29
102
}
330
29
100
AcDbVisualStyle
  2
Dim
 70
    11
177
     2
291
     1
 71
     2
176
     1
 72
     2
176
     1
 73
     0
176
     1
 90
        0
176
     1
 40
0.6
176
     1
 41
30.0
176
     1
 63
     7
421
 16777215
176
     1
 74
     1
176
     1
 91
        4
176
     1
 64
     7
176
     1
 65
   257
176
     1
 75
     1
176
     1
175
     1
176
     1
 42
1.0
176
     1
 92
        8
176
     1
 66
     7
176
     1
 43
1.0
176
     1
 76
     1
176
     1
 77
     6
176
     1
 78
     2
176
     1
 67
     7
176
     1
 79
     5
176
     1
170
     0
176
     1
171
     0
176
     1
290
     0
176
     1
 93
        1
176
     1
 44
-50.0
176
     1
173
     0
176
     1
1001
ACAD
1000
AcDbSavedByObjectVersion
1070
     0
  0
VISUALSTYLE
  5
41
102
{ACAD_XDICTIONARY
360
D1B
102
}
102
{ACAD_REACTORS
330
29
102
}
330
29
100
AcDbVisualStyle
  2
EdgeColorOff
 70
    22
177
     2
291
     1
 71
     2
176
     0
 72
     2
176
     0
 73
     0
176
     0
 90
        0
176
     0
 40
0.6
176
     0
 41
30.0
176
     0
 63
     7
421
 16777215
176
     0
 74
     1
176
     0
 91
        4
176
     0
 64
     7
176
     0
 65
   257
176
     0
 75
     1
176
     0
175
     1
176
     0
 42
1.0
176
     0
 92
        8
176
     2
 66
     7
176
     0
 43
1.0
176
     0
 76
     1
176
     0
 77
     6
176
     0
 78
     2
176
     0
 67
     7
176
     0
 79
     5
176
     0
170
     0
176
     0
171
     0
176
     0
290
     0
176
     0
 93
        1
176
     0
 44
0.0
176
     0
173
     0
176
     0
1001
ACAD
1000
AcDbSavedByObjectVersion
1070
     0
  0
VISUALSTYLE
  5
38
102
{ACAD_XDICTIONARY
360
D09
102
}
102
{ACAD_REACTORS
330
29
102
}
330
29
100
AcDbVisualStyle
  2
Facepattern
 70
    15
177
     2
291
     1
 71
     2
176
     1
 72
     2
176
     1
 73
     0
176
     1
 90
        0
176
     1
 40
0.6
176
     1
 41
30.0
176
     1
 63
     7
421
 16777215
176
     1
 74
     1
176
     1
 91
        4
176
     1
 64
     7
176
     1
 65
   257
176
     1
 75
     1
176
     1
175
     1
176
     1
 42
1.0
176
     1
 92
        8
176
     1
 66
     7
176
     1
 43
1.0
176
     1
 76
     1
176
     1
 77
     6
176
     1
 78
     2
176
     1
 67
     7
176
     1
 79
     5
176
     1
170
     0
176
     1
171
     0
176
     1
290
     0
176
     1
 93
        1
176
     1
 44
0.0
176
     1
173
     0
176
     1
1001
ACAD
1000
AcDbSavedByObjectVersion
1070
     0
  0
VISUALSTYLE
  5
2A
102
{ACAD_XDICTIONARY
360
CED
102
}
102
{ACAD_REACTORS
330
29
102
}
330
29
100
AcDbVisualStyle
  2
Flat
 70
     0
177
     2
291
     1
 71
     2
176
     1
 72
     1
176
     1
 73
     1
176
     1
 90
        2
176
     1
 40
0.6
176
     1
 41
30.0
176
     1
 63
     7
421
 16777215
176
     1
 74
     0
176
     1
 91
        0
176
     1
 64
     7
176
     1
 65
   257
176
     1
 75
     1
176
     1
175
     1
176
     1
 42
1.0
176
     1
 92
        8
176
     1
 66
     7
176
     1
 43
1.0
176
     1
 76
     1
176
     1
 77
     6
176
     1
 78
     2
176
     1
 67
     7
176
     1
 79
     5
176
     1
170
     0
176
     1
171
     0
176
     1
290
     0
176
     1
 93
       13
176
     1
 44
0.0
176
     1
173
     0
176
     1
1001
ACAD
1000
AcDbSavedByObjectVersion
1070
     0
  0
VISUALSTYLE
  5
2B
102
{ACAD_XDICTIONARY
360
CEF
102
}
102
{ACAD_REACTORS
330
29
102
}
330
29
100
AcDbVisualStyle
  2
FlatWithEdges
 70
     1
177
     2
291
     1
 71
     2
176
     1
 72
     1
176
     1
 73
     1
176
     1
 90
        2
176
     1
 40
0.6
176
     1
 41
30.0
176
     1
 63
     7
421
 16777215
176
     1
 74
     1
176
     1
 91
        0
176
     1
 64
     7
176
     1
 65
   257
176
     1
 75
     1
176
     1
175
     1
176
     1
 42
1.0
176
     1
 92
        0
176
     1
 66
   257
176
     1
 43
1.0
176
     1
 76
     1
176
     1
 77
     6
176
     1
 78
     2
176
     1
 67
     7
176
     1
 79
     5
176
     1
170
     0
176
     1
171
     0
176
     1
290
     0
176
     1
 93
       13
176
     1
 44
0.0
176
     1
173
     0
176
     1
1001
ACAD
1000
AcDbSavedByObjectVersion
1070
     0
  0
VISUALSTYLE
  5
2C
102
{ACAD_XDICTIONARY
360
CF1
102
}
102
{ACAD_REACTORS
330
29
102
}
330
29
100
AcDbVisualStyle
  2
Gouraud
 70
     2
177
     2
291
     1
 71
     2
176
     1
 72
     2
176
     1
 73
     1
176
     1
 90
        2
176
     1
 40
0.6
176
     1
 41
30.0
176
     1
 63
     7
421
 16777215
176
     1
 74
     0
176
     1
 91
        0
176
     1
 64
     7
176
     1
 65
   257
176
     1
 75
     1
176
     1
175
     1
176
     1
 42
1.0
176
     1
 92
        0
176
     1
 66
     7
176
     1
 43
1.0
176
     1
 76
     1
176
     1
 77
     6
176
     1
 78
     2
176
     1
 67
     7
176
     1
 79
     5
176
     1
170
     0
176
     1
171
     0
176
     1
290
     0
176
     1
 93
       13
176
     1
 44
0.0
176
     1
173
     0
176
     1
1001
ACAD
1000
AcDbSavedByObjectVersion
1070
     0
  0
VISUALSTYLE
  5
2D
102
{ACAD_XDICTIONARY
360
CF3
102
}
102
{ACAD_REACTORS
330
29
102
}
330
29
100
AcDbVisualStyle
  2
GouraudWithEdges
 70
     3
177
     2
291
     1
 71
     2
176
     1
 72
     2
176
     1
 73
     1
176
     1
 90
        2
176
     1
 40
0.6
176
     1
 41
30.0
176
     1
 63
     7
421
 16777215
176
     1
 74
     1
176
     1
 91
        0
176
     1
 64
     7
176
     1
 65
   257
176
     1
 75
     1
176
     1
175
     1
176
     1
 42
1.0
176
     1
 92
        0
176
     1
 66
   257
176
     1
 43
1.0
176
     1
 76
     1
176
     1
 77
     6
176
     1
 78
     2
176
     1
 67
     7
176
     1
 79
     5
176
     1
170
     0
176
     1
171
     0
176
     1
290
     0
176
     1
 93
       13
176
     1
 44
0.0
176
     1
173
     0
176
     1
1001
ACAD
1000
AcDbSavedByObjectVersion
1070
     0
  0
VISUALSTYLE
  5
31
102
{ACAD_XDICTIONARY
360
CFB
102
}
102
{ACAD_REACTORS
330
29
102
}
330
29
100
AcDbVisualStyle
  2
Hidden
 70
     6
177
     2
291
     0
 71
     1
176
     1
 72
     2
176
     1
 73
     2
176
     1
 90
        0
176
     1
 40
0.6
176
     1
 41
30.0
176
     1
 63
     7
421
 16777215
176
     1
 74
     2
176
     1
 91
        2
176
     1
 64
     7
176
     1
 65
   257
176
     1
 75
     2
176
     1
175
     1
176
     1
 42
40.0
176
     1
 92
        0
176
     1
 66
   257
176
     1
 43
1.0
176
     1
 76
     1
176
     1
 77
     6
176
     1
 78
     2
176
     1
 67
     7
176
     1
 79
     3
176
     1
170
     0
176
     1
171
     0
176
     1
290
     0
176
     1
 93
        1
176
     1
 44
0.0
176
     1
173
     0
176
     1
1001
ACAD
1000
AcDbSavedByObjectVersion
1070
     0
  0
VISUALSTYLE
  5
3F
102
{ACAD_XDICTIONARY
360
D17
102
}
102
{ACAD_REACTORS
330
29
102
}
330
29
100
AcDbVisualStyle
  2
JitterOff
 70
    20
177
     2
291
     1
 71
     2
176
     0
 72
     2
176
     0
 73
     0
176
     0
 90
        0
176
     0
 40
0.6
176
     0
 41
30.0
176
     0
 63
     7
421
 16777215
176
     0
 74
     1
176
     0
 91
        4
176
     0
 64
     7
176
     0
 65
   257
176
     0
 75
     1
176
     0
175
     1
176
     0
 42
1.0
176
     0
 92
       10
176
     2
 66
     7
176
     0
 43
1.0
176
     0
 76
     1
176
     0
 77
     6
176
     0
 78
     2
176
     0
 67
     7
176
     0
 79
     5
176
     0
170
     0
176
     0
171
     0
176
     0
290
     0
176
     0
 93
        1
176
     0
 44
0.0
176
     0
173
     0
176
     0
1001
ACAD
1000
AcDbSavedByObjectVersion
1070
     0
  0
VISUALSTYLE
  5
37
102
{ACAD_XDICTIONARY
360
D07
102
}
102
{ACAD_REACTORS
330
29
102
}
330
29
100
AcDbVisualStyle
  2
Linepattern
 70
    14
177
     2
291
     1
 71
     2
176
     1
 72
     2
176
     1
 73
     0
176
     1
 90
        0
176
     1
 40
0.6
176
     1
 41
30.0
176
     1
 63
     7
421
 16777215
176
     1
 74
     1
176
     1
 91
        4
176
     1
 64
     7
176
     1
 65
   257
176
     1
 75
     7
176
     1
175
     7
176
     1
 42
1.0
176
     1
 92
        8
176
     1
 66
     7
176
     1
 43
1.0
176
     1
 76
     1
176
     1
 77
     6
176
     1
 78
     2
176
     1
 67
     7
176
     1
 79
     5
176
     1
170
     0
176
     1
171
     0
176
     1
290
     0
176
     1
 93
        1
176
     1
 44
0.0
176
     1
173
     0
176
     1
1001
ACAD
1000
AcDbSavedByObjectVersion
1070
     0
  0
VISUALSTYLE
  5
40
102
{ACAD_XDICTIONARY
360
D19
102
}
102
{ACAD_REACTORS
330
29
102
}
330
29
100
AcDbVisualStyle
  2
OverhangOff
 70
    21
177
     2
291
     1
 71
     2
176
     0
 72
     2
176
     0
 73
     0
176
     0
 90
        0
176
     0
 40
0.6
176
     0
 41
30.0
176
     0
 63
     7
421
 16777215
176
     0
 74
     1
176
     0
 91
        4
176
     0
 64
     7
176
     0
 65
   257
176
     0
 75
     1
176
     0
175
     1
176
     0
 42
1.0
176
     0
 92
        9
176
     2
 66
     7
176
     0
 43
1.0
176
     0
 76
     1
176
     0
 77
     6
176
     0
 78
     2
176
     0
 67
     7
176
     0
 79
     5
176
     0
170
     0
176
     0
171
     0
176
     0
290
     0
176
     0
 93
        1
176
     0
 44
0.0
176
     0
173
     0
176
     0
1001
ACAD
1000
AcDbSavedByObjectVersion
1070
     0
  0
VISUALSTYLE
  5
33
102
{ACAD_XDICTIONARY
360
CFF
102
}
102
{ACAD_REACTORS
330
29
102
}
330
29
100
AcDbVisualStyle
  2
Realistic
 70
     8
177
     2
291
     0
 71
     2
176
     1
 72
     2
176
     1
 73
     0
176
     1
 90
        2
176
     1
 40
0.6
176
     1
 41
30.0
176
     1
 63
     7
421
 16777215
176
     1
 74
     0
176
     1
 91
        0
176
     1
 64
     7
176
     1
 65
   257
176
     1
 75
     1
176
     1
175
     1
176
     1
 42
1.0
176
     1
 92
        8
176
     1
 66
   257
176
     1
 43
1.0
176
     1
 76
     1
176
     1
 77
     6
176
     1
 78
     2
176
     1
 67
     7
176
     1
 79
     3
176
     1
170
     0
176
     1
171
     0
176
     1
290
     0
176
     1
 93
       13
176
     1
 44
0.0
176
     1
173
     0
176
     1
1001
ACAD
1000
AcDbSavedByObjectVersion
1070
     0
  0
VISUALSTYLE
  5
3E
102
{ACAD_XDICTIONARY
360
D15
102
}
102
{ACAD_REACTORS
330
29
102
}
330
29
100
AcDbVisualStyle
  2
Shaded
 70
    27
177
     2
291
     0
 71
     2
176
     1
 72
     2
176
     1
 73
     1
176
     1
 90
        2
176
     1
 40
0.6
176
     1
 41
30.0
176
     1
 63
     7
421
 16777215
176
     1
 74
     0
176
     1
 91
        4
176
     1
 64
     7
176
     1
 65
   257
176
     1
 75
     1
176
     1
175
     1
176
     1
 42
1.0
176
     1
 92
        8
176
     1
 66
   257
176
     1
 43
1.0
176
     1
 76
     1
176
     1
 77
     6
176
     1
 78
     2
176
     1
 67
     8
425
  7895160
176
     1
 79
     3
176
     1
170
     0
176
     1
171
     0
176
     1
290
     0
176
     1
 93
        5
176
     1
 44
0.0
176
     1
173
     0
176
     1
1001
ACAD
1000
AcDbSavedByObjectVersion
1070
     0
  0
VISUALSTYLE
  5
3D
102
{ACAD_XDICTIONARY
360
D13
102
}
102
{ACAD_REACTORS
330
29
102
}
330
29
100
AcDbVisualStyle
  2
Shaded with edges
 70
    26
177
     2
291
     0
 71
     2
176
     1
 72
     2
176
     1
 73
     1
176
     1
 90
        2
176
     1
 40
0.6
176
     1
 41
30.0
176
     1
 63
     7
421
 16777215
176
     1
 74
     1
176
     1
 91
        2
176
     1
 64
     7
176
     1
 65
   257
176
     1
 75
     2
176
     1
175
     1
176
     1
 42
1.0
176
     1
 92
        8
176
     1
 66
   257
176
     1
 43
1.0
176
     1
 76
     1
176
     1
 77
     6
176
     1
 78
     2
176
     1
 67
     7
176
     1
 79
     3
176
     1
170
     0
176
     1
171
     0
176
     1
290
     0
176
     1
 93
        5
176
     1
 44
0.0
176
     1
173
     0
176
     1
1001
ACAD
1000
AcDbSavedByObjectVersion
1070
     0
  0
VISUALSTYLE
  5
3A
102
{ACAD_XDICTIONARY
360
D0D
102
}
102
{ACAD_REACTORS
330
29
102
}
330
29
100
AcDbVisualStyle
  2
Shades of Gray
 70
    23
177
     2
291
     0
 71
     2
176
     1
 72
     2
176
     1
 73
     3
176
     1
 90
        0
176
     1
 40
0.6
176
     1
 41
30.0
176
     1
 63
     7
421
 16777215
176
     1
 74
     2
176
     1
 91
        2
176
     1
 64
     7
176
     1
 65
     7
176
     1
 75
     1
176
     1
175
     1
176
     1
 42
40.0
176
     1
 92
        8
176
     1
 66
     7
176
     1
 43
1.0
176
     1
 76
     1
176
     1
 77
     6
176
     1
 78
     2
176
     1
 67
     7
176
     1
 79
     3
176
     1
170
     0
176
     1
171
     0
176
     1
290
     0
176
     1
 93
        1
176
     1
 44
0.0
176
     1
173
     0
176
     1
1001
ACAD
1000
AcDbSavedByObjectVersion
1070
     0
  0
VISUALSTYLE
  5
3B
102
{ACAD_XDICTIONARY
360
D0F
102
}
102
{ACAD_REACTORS
330
29
102
}
330
29
100
AcDbVisualStyle
  2
Sketchy
 70
    24
177
     2
291
     0
 71
     1
176
     1
 72
     2
176
     1
 73
     2
176
     1
 90
        0
176
     1
 40
0.6
176
     1
 41
30.0
176
     1
 63
     7
421
 16777215
176
     1
 74
     2
176
     1
 91
        2
176
     1
 64
     7
176
     1
 65
     7
176
     1
 75
     1
176
     1
175
     1
176
     1
 42
40.0
176
     1
 92
       11
176
     1
 66
     7
176
     1
 43
1.0
176
     1
 76
     1
176
     1
 77
     6
176
     1
 78
     2
176
     1
 67
     7
176
     1
 79
     6
176
     1
170
     0
176
     1
171
     0
176
     1
290
     0
176
     1
 93
        1
176
     1
 44
0.0
176
     1
173
     0
176
     1
1001
ACAD
1000
AcDbSavedByObjectVersion
1070
     0
  0
VISUALSTYLE
  5
36
102
{ACAD_XDICTIONARY
360
D05
102
}
102
{ACAD_REACTORS
330
29
102
}
330
29
100
AcDbVisualStyle
  2
Thicken
 70
    13
177
     2
291
     1
 71
     2
176
     1
 72
     2
176
     1
 73
     0
176
     1
 90
        0
176
     1
 40
0.6
176
     1
 41
30.0
176
     1
 63
     7
421
 16777215
176
     1
 74
     1
176
     1
 91
        4
176
     1
 64
     7
176
     1
 65
   257
176
     1
 75
     1
176
     1
175
     1
176
     1
 42
1.0
176
     1
 92
       12
176
     1
 66
     7
176
     1
 43
1.0
176
     1
 76
     1
176
     1
 77
     6
176
     1
 78
     2
176
     1
 67
     7
176
     1
 79
     5
176
     1
170
     0
176
     1
171
     0
176
     1
290
     0
176
     1
 93
        1
176
     1
 44
0.0
176
     1
173
     0
176
     1
1001
ACAD
1000
AcDbSavedByObjectVersion
1070
     0
  0
VISUALSTYLE
  5
30
102
{ACAD_XDICTIONARY
360
CF9
102
}
102
{ACAD_REACTORS
330
29
102
}
330
29
100
AcDbVisualStyle
  2
Wireframe
 70
     5
177
     2
291
     0
 71
     0
176
     1
 72
     2
176
     1
 73
     0
176
     1
 90
        0
176
     1
 40
0.6
176
     1
 41
30.0
176
     1
 63
     7
421
 16777215
176
     1
 74
     1
176
     1
 91
        4
176
     1
 64
     7
176
     1
 65
   257
176
     1
 75
     1
176
     1
175
     1
176
     1
 42
1.0
176
     1
 92
        0
176
     1
 66
   257
176
     1
 43
1.0
176
     1
 76
     1
176
     1
 77
     6
176
     1
 78
     2
176
     1
 67
     7
176
     1
 79
     3
176
     1
170
     0
176
     1
171
     0
176
     1
290
     0
176
     1
 93
        1
176
     1
 44
0.0
176
     1
173
     0
176
     1
1001
ACAD
1000
AcDbSavedByObjectVersion
1070
     0
  0
VISUALSTYLE
  5
3C
102
{ACAD_XDICTIONARY
360
D11
102
}
102
{ACAD_REACTORS
330
29
102
}
330
29
100
AcDbVisualStyle
  2
X-Ray
 70
    25
177
     2
291
     0
 71
     2
176
     1
 72
     2
176
     1
 73
     1
176
     1
 90
        1
176
     1
 40
0.5
176
     1
 41
30.0
176
     1
 63
     7
421
 16777215
176
     1
 74
     1
176
     1
 91
        0
176
     1
 64
     7
176
     1
 65
   257
176
     1
 75
     1
176
     1
175
     1
176
     1
 42
1.0
176
     1
 92
        8
176
     1
 66
     7
176
     1
 43
1.0
176
     1
 76
     1
176
     1
 77
     6
176
     1
 78
     2
176
     1
 67
     7
176
     1
 79
     3
176
     1
170
     0
176
     1
171
     0
176
     1
290
     0
176
     1
 93
       13
176
     1
 44
0.0
176
     1
173
     0
176
     1
1001
ACAD
1000
AcDbSavedByObjectVersion
1070
     0
  0
DICTIONARYVAR
  5
1DD
102
{ACAD_REACTORS
330
1D7
102
}
330
1D7
100
DictionaryVariables
280
     0
  1
0
  0
DICTIONARYVAR
  5
1DE
102
{ACAD_REACTORS
330
1D7
102
}
330
1D7
100
DictionaryVariables
280
     0
  1
1:1
  0
DICTIONARYVAR
  5
1D9
102
{ACAD_REACTORS
330
1D7
102
}
330
1D7
100
DictionaryVariables
280
     0
  1
STANDARD
  0
DICTIONARYVAR
  5
1D8
102
{ACAD_REACTORS
330
1D7
102
}
330
1D7
100
DictionaryVariables
280
     0
  1
STANDARD
  0
DICTIONARYVAR
  5
1DA
102
{ACAD_REACTORS
330
1D7
102
}
330
1D7
100
DictionaryVariables
280
     0
  1
Imperial24
  0
DICTIONARYVAR
  5
1DB
102
{ACAD_REACTORS
330
1D7
102
}
330
1D7
100
DictionaryVariables
280
     0
  1
Imperial24
  0
DICTIONARYVAR
  5
1E0
102
{ACAD_REACTORS
330
1D7
102
}
330
1D7
100
DictionaryVariables
280
     0
  1
1
  0
DICTIONARYVAR
  5
1E1
102
{ACAD_REACTORS
330
1D7
102
}
330
1D7
100
DictionaryVariables
280
     0
  1
15
  0
DICTIONARYVAR
  5
1DF
102
{ACAD_REACTORS
330
1D7
102
}
330
1D7
100
DictionaryVariables
280
     0
  1
0
  0
DICTIONARYVAR
  5
1DC
102
{ACAD_REACTORS
330
1D7
102
}
330
1D7
100
DictionaryVariables
280
     0
  1
0
  0
DICTIONARY
  5
CEC
102
{ACAD_REACTORS
330
CEA
102
}
330
CEA
100
AcDbDictionary
281
     1
  0
DICTIONARY
  5
CEB
102
{ACAD_REACTORS
330
CEA
102
}
330
CEA
100
AcDbDictionary
281
     1
  3
2137697860176
350
CE5
  3
2137697860192
350
CE6
  3
2137697860208
350
CE7
  3
2137697860224
350
CE8
  3
2137697860240
350
CE9
  0
DICTIONARY
  5
9E5
330
6B
100
AcDbDictionary
280
     1
281
     1
  3
ACAD_XREC_ROUNDTRIP
360
D20
  0
DICTIONARY
  5
9E9
330
1E4
100
AcDbDictionary
280
     1
281
     1
  3
ACAD_XREC_ROUNDTRIP
360
D22
  0
DICTIONARY
  5
244
330
73
100
AcDbDictionary
280
     1
281
     1
  0
DICTIONARY
  5
1A
330
19
100
AcDbDictionary
280
     1
281
     1
  3
BUMPTILE
360
1C
  3
DIFFUSETILE
360
1B
  3
OPACITYTILE
360
1F
  3
REFLECTIONTILE
360
1E
  3
REFRACTIONTILE
360
20
  3
SPECULARTILE
360
1D
  0
DICTIONARY
  5
12
330
11
100
AcDbDictionary
280
     1
281
     1
  3
BUMPTILE
360
14
  3
DIFFUSETILE
360
13
  3
OPACITYTILE
360
17
  3
REFLECTIONTILE
360
16
  3
REFRACTIONTILE
360
18
  3
SPECULARTILE
360
15
  0
DICTIONARY
  5
22
330
21
100
AcDbDictionary
280
     1
281
     1
  3
BUMPTILE
360
24
  3
DIFFUSETILE
360
23
  3
OPACITYTILE
360
27
  3
REFLECTIONTILE
360
26
  3
REFRACTIONTILE
360
28
  3
SPECULARTILE
360
25
  0
DICTIONARY
  5
D1D
330
67
100
AcDbDictionary
280
     1
281
     1
  3
ACAD_XREC_ROUNDTRIP
360
D1E
  0
DICTIONARY
  5
9E3
330
69
100
AcDbDictionary
280
     1
281
     1
  3
ACAD_XREC_ROUNDTRIP
360
D1F
  0
DICTIONARY
  5
9E7
330
1E3
100
AcDbDictionary
280
     1
281
     1
  3
ACAD_XREC_ROUNDTRIP
360
D21
  0
DICTIONARY
  5
1FE
330
65
100
AcDbDictionary
280
     1
281
     1
  3
ACAD_ROUNDTRIP_2008_TABLESTYLE_CELLSTYLEMAP
360
CE3
  0
DICTIONARY
  5
CF7
330
2F
100
AcDbDictionary
280
     1
281
     1
  3
ACAD_XREC_ROUNDTRIP
360
CF8
  0
DICTIONARY
  5
CF5
330
2E
100
AcDbDictionary
280
     1
281
     1
  3
ACAD_XREC_ROUNDTRIP
360
CF6
  0
DICTIONARY
  5
D03
330
35
100
AcDbDictionary
280
     1
281
     1
  3
ACAD_XREC_ROUNDTRIP
360
D04
  0
DICTIONARY
  5
D0B
330
39
100
AcDbDictionary
280
     1
281
     1
  3
ACAD_XREC_ROUNDTRIP
360
D0C
  0
DICTIONARY
  5
CFD
330
32
100
AcDbDictionary
280
     1
281
     1
  3
ACAD_XREC_ROUNDTRIP
360
CFE
  0
DICTIONARY
  5
D01
330
34
100
AcDbDictionary
280
     1
281
     1
  3
ACAD_XREC_ROUNDTRIP
360
D02
  0
DICTIONARY
  5
D1B
330
41
100
AcDbDictionary
280
     1
281
     1
  3
ACAD_XREC_ROUNDTRIP
360
D1C
  0
DICTIONARY
  5
D09
330
38
100
AcDbDictionary
280
     1
281
     1
  3
ACAD_XREC_ROUNDTRIP
360
D0A
  0
DICTIONARY
  5
CED
330
2A
100
AcDbDictionary
280
     1
281
     1
  3
ACAD_XREC_ROUNDTRIP
360
CEE
  0
DICTIONARY
  5
CEF
330
2B
100
AcDbDictionary
280
     1
281
     1
  3
ACAD_XREC_ROUNDTRIP
360
CF0
  0
DICTIONARY
  5
CF1
330
2C
100
AcDbDictionary
280
     1
281
     1
  3
ACAD_XREC_ROUNDTRIP
360
CF2
  0
DICTIONARY
  5
CF3
330
2D
100
AcDbDictionary
280
     1
281
     1
  3
ACAD_XREC_ROUNDTRIP
360
CF4
  0
DICTIONARY
  5
CFB
330
31
100
AcDbDictionary
280
     1
281
     1
  3
ACAD_XREC_ROUNDTRIP
360
CFC
  0
DICTIONARY
  5
D17
330
3F
100
AcDbDictionary
280
     1
281
     1
  3
ACAD_XREC_ROUNDTRIP
360
D18
  0
DICTIONARY
  5
D07
330
37
100
AcDbDictionary
280
     1
281
     1
  3
ACAD_XREC_ROUNDTRIP
360
D08
  0
DICTIONARY
  5
D19
330
40
100
AcDbDictionary
280
     1
281
     1
  3
ACAD_XREC_ROUNDTRIP
360
D1A
  0
DICTIONARY
  5
CFF
330
33
100
AcDbDictionary
280
     1
281
     1
  3
ACAD_XREC_ROUNDTRIP
360
D00
  0
DICTIONARY
  5
D15
330
3E
100
AcDbDictionary
280
     1
281
     1
  3
ACAD_XREC_ROUNDTRIP
360
D16
  0
DICTIONARY
  5
D13
330
3D
100
AcDbDictionary
280
     1
281
     1
  3
ACAD_XREC_ROUNDTRIP
360
D14
  0
DICTIONARY
  5
D0D
330
3A
100
AcDbDictionary
280
     1
281
     1
  3
ACAD_XREC_ROUNDTRIP
360
D0E
  0
DICTIONARY
  5
D0F
330
3B
100
AcDbDictionary
280
     1
281
     1
  3
ACAD_XREC_ROUNDTRIP
360
D10
  0
DICTIONARY
  5
D05
330
36
100
AcDbDictionary
280
     1
281
     1
  3
ACAD_XREC_ROUNDTRIP
360
D06
  0
DICTIONARY
  5
CF9
330
30
100
AcDbDictionary
280
     1
281
     1
  3
ACAD_XREC_ROUNDTRIP
360
CFA
  0
DICTIONARY
  5
D11
330
3C
100
AcDbDictionary
280
     1
281
     1
  3
ACAD_XREC_ROUNDTRIP
360
D12
  0
XRECORD
  5
CE5
102
{ACAD_REACTORS
330
CEB
102
}
330
CEB
100
AcDbXrecord
280
     1
  1
AcDb_Thumbnail_Schema
102
{ATTRRECORD
341
CE6
  2
AcDbDs::TreatedAsObjectData
280
     1
291
     1
102
ATTRRECORD}
102
{ATTRRECORD
341
CE7
  2
AcDbDs::Legacy
280
     1
291
     1
102
ATTRRECORD}
  2
AcDbDs::ID
280
    10
 91
        8
102
{ATTRRECORD
341
CE8
  2
AcDs:Indexable
280
     1
291
     1
102
ATTRRECORD}
102
{ATTRRECORD
341
CE9
  2
AcDbDs::HandleAttribute
280
     7
282
     1
102
ATTRRECORD}
  2
Thumbnail_Data
280
    15
 91
        0
  0
XRECORD
  5
CE6
102
{ACAD_REACTORS
330
CEB
102
}
330
CEB
100
AcDbXrecord
280
     1
  1
AcDbDs::TreatedAsObjectDataSchema
  2
AcDbDs::TreatedAsObjectData
280
     1
 91
        0
  0
XRECORD
  5
CE7
102
{ACAD_REACTORS
330
CEB
102
}
330
CEB
100
AcDbXrecord
280
     1
  1
AcDbDs::LegacySchema
  2
AcDbDs::Legacy
280
     1
 91
        0
  0
XRECORD
  5
CE8
102
{ACAD_REACTORS
330
CEB
102
}
330
CEB
100
AcDbXrecord
280
     1
  1
AcDbDs::IndexedPropertySchema
  2
AcDs:Indexable
280
     1
 91
        0
  0
XRECORD
  5
CE9
102
{ACAD_REACTORS
330
CEB
102
}
330
CEB
100
AcDbXrecord
280
     1
  1
AcDbDs::HandleAttributeSchema
  2
AcDbDs::HandleAttribute
280
     7
 91
        1
284
     1
  0
XRECORD
  5
D20
102
{ACAD_REACTORS
330
9E5
102
}
330
9E5
100
AcDbXrecord
280
     1
102
DISPLAYNAME
  1
Imperial24
102
FLAGS
 90
        0
  0
XRECORD
  5
D22
102
{ACAD_REACTORS
330
9E9
102
}
330
9E9
100
AcDbXrecord
280
     1
102
DISPLAYNAME
  1
Metric50
102
FLAGS
 90
        0
  0
XRECORD
  5
1C
102
{ACAD_REACTORS
330
1A
102
}
330
1A
100
AcDbXrecord
280
     1
270
     1
271
     1
  0
XRECORD
  5
1B
102
{ACAD_REACTORS
330
1A
102
}
330
1A
100
AcDbXrecord
280
     1
270
     1
271
     1
  0
XRECORD
  5
1F
102
{ACAD_REACTORS
330
1A
102
}
330
1A
100
AcDbXrecord
280
     1
270
     1
271
     1
  0
XRECORD
  5
1E
102
{ACAD_REACTORS
330
1A
102
}
330
1A
100
AcDbXrecord
280
     1
270
     1
271
     1
  0
XRECORD
  5
20
102
{ACAD_REACTORS
330
1A
102
}
330
1A
100
AcDbXrecord
280
     1
270
     1
271
     1
  0
XRECORD
  5
1D
102
{ACAD_REACTORS
330
1A
102
}
330
1A
100
AcDbXrecord
280
     1
270
     1
271
     1
  0
XRECORD
  5
14
102
{ACAD_REACTORS
330
12
102
}
330
12
100
AcDbXrecord
280
     1
270
     1
271
     1
  0
XRECORD
  5
13
102
{ACAD_REACTORS
330
12
102
}
330
12
100
AcDbXrecord
280
     1
270
     1
271
     1
  0
XRECORD
  5
17
102
{ACAD_REACTORS
330
12
102
}
330
12
100
AcDbXrecord
280
     1
270
     1
271
     1
  0
XRECORD
  5
16
102
{ACAD_REACTORS
330
12
102
}
330
12
100
AcDbXrecord
280
     1
270
     1
271
     1
  0
XRECORD
  5
18
102
{ACAD_REACTORS
330
12
102
}
330
12
100
AcDbXrecord
280
     1
270
     1
271
     1
  0
XRECORD
  5
15
102
{ACAD_REACTORS
330
12
102
}
330
12
100
AcDbXrecord
280
     1
270
     1
271
     1
  0
XRECORD
  5
24
102
{ACAD_REACTORS
330
22
102
}
330
22
100
AcDbXrecord
280
     1
270
     1
271
     1
  0
XRECORD
  5
23
102
{ACAD_REACTORS
330
22
102
}
330
22
100
AcDbXrecord
280
     1
270
     1
271
     1
  0
XRECORD
  5
27
102
{ACAD_REACTORS
330
22
102
}
330
22
100
AcDbXrecord
280
     1
270
     1
271
     1
  0
XRECORD
  5
26
102
{ACAD_REACTORS
330
22
102
}
330
22
100
AcDbXrecord
280
     1
270
     1
271
     1
  0
XRECORD
  5
28
102
{ACAD_REACTORS
330
22
102
}
330
22
100
AcDbXrecord
280
     1
270
     1
271
     1
  0
XRECORD
  5
25
102
{ACAD_REACTORS
330
22
102
}
330
22
100
AcDbXrecord
280
     1
270
     1
271
     1
  0
XRECORD
  5
D1E
102
{ACAD_REACTORS
330
D1D
102
}
330
D1D
100
AcDbXrecord
280
     1
102
ACAD_ROUNDTRIP_2012_MLEADER_STYLE
298
     1
  0
XRECORD
  5
D1F
102
{ACAD_REACTORS
330
9E3
102
}
330
9E3
100
AcDbXrecord
280
     1
102
DISPLAYNAME
  1
Imperial24
102
FLAGS
 90
        0
  0
XRECORD
  5
D21
102
{ACAD_REACTORS
330
9E7
102
}
330
9E7
100
AcDbXrecord
280
     1
102
DISPLAYNAME
  1
Metric50
102
FLAGS
 90
        0
  0
CELLSTYLEMAP
  5
CE3
102
{ACAD_REACTORS
330
1FE
102
}
330
1FE
100
AcDbCellStyleMap
 90
        3
300
CELLSTYLE
  1
TABLEFORMAT_BEGIN
 90
        5
170
     1
 91
        0
 92
    32768
 62
   257
 93
        1
300
CONTENTFORMAT
  1
CONTENTFORMAT_BEGIN
 90
        0
 91
        0
 92
      512
 93
        0
300

 40
0.0
140
1.0
 94
        5
 62
     0
340
55
144
6.0
309
CONTENTFORMAT_END
171
     1
301
MARGIN
  1
CELLMARGIN_BEGIN
 40
1.5
 40
1.5
 40
1.5
 40
1.5
 40
4.5
 40
4.5
309
CELLMARGIN_END
 94
        6
 95
        1
302
GRIDFORMAT
  1
GRIDFORMAT_BEGIN
 90
        0
 91
        1
 62
     0
 92
       -2
340
0
 93
        0
 40
1.125
309
GRIDFORMAT_END
 95
        2
302
GRIDFORMAT
  1
GRIDFORMAT_BEGIN
 90
        0
 91
        1
 62
     0
 92
       -2
340
0
 93
        0
 40
1.125
309
GRIDFORMAT_END
 95
        4
302
GRIDFORMAT
  1
GRIDFORMAT_BEGIN
 90
        0
 91
        1
 62
     0
 92
       -2
340
0
 93
        0
 40
1.125
309
GRIDFORMAT_END
 95
        8
302
GRIDFORMAT
  1
GRIDFORMAT_BEGIN
 90
        0
 91
        1
 62
     0
 92
       -2
340
0
 93
        0
 40
1.125
309
GRIDFORMAT_END
 95
       16
302
GRIDFORMAT
  1
GRIDFORMAT_BEGIN
 90
        0
 91
        1
 62
     0
 92
       -2
340
0
 93
        0
 40
1.125
309
GRIDFORMAT_END
 95
       32
302
GRIDFORMAT
  1
GRIDFORMAT_BEGIN
 90
        0
 91
        1
 62
     0
 92
       -2
340
0
 93
        0
 40
1.125
309
GRIDFORMAT_END
309
TABLEFORMAT_END
  1
CELLSTYLE_BEGIN
 90
        1
 91
        1
300
_TITLE
309
CELLSTYLE_END
300
CELLSTYLE
  1
TABLEFORMAT_BEGIN
 90
        5
170
     1
 91
        0
 92
        0
 62
   257
 93
        1
300
CONTENTFORMAT
  1
CONTENTFORMAT_BEGIN
 90
        0
 91
        0
 92
      512
 93
        0
300

 40
0.0
140
1.0
 94
        5
 62
     0
340
55
144
4.5
309
CONTENTFORMAT_END
171
     1
301
MARGIN
  1
CELLMARGIN_BEGIN
 40
1.5
 40
1.5
 40
1.5
 40
1.5
 40
4.5
 40
4.5
309
CELLMARGIN_END
 94
        6
 95
        1
302
GRIDFORMAT
  1
GRIDFORMAT_BEGIN
 90
        0
 91
        1
 62
     0
 92
       -2
340
0
 93
        0
 40
1.125
309
GRIDFORMAT_END
 95
        2
302
GRIDFORMAT
  1
GRIDFORMAT_BEGIN
 90
        0
 91
        1
 62
     0
 92
       -2
340
0
 93
        0
 40
1.125
309
GRIDFORMAT_END
 95
        4
302
GRIDFORMAT
  1
GRIDFORMAT_BEGIN
 90
        0
 91
        1
 62
     0
 92
       -2
340
0
 93
        0
 40
1.125
309
GRIDFORMAT_END
 95
        8
302
GRIDFORMAT
  1
GRIDFORMAT_BEGIN
 90
        0
 91
        1
 62
     0
 92
       -2
340
0
 93
        0
 40
1.125
309
GRIDFORMAT_END
 95
       16
302
GRIDFORMAT
  1
GRIDFORMAT_BEGIN
 90
        0
 91
        1
 62
     0
 92
       -2
340
0
 93
        0
 40
1.125
309
GRIDFORMAT_END
 95
       32
302
GRIDFORMAT
  1
GRIDFORMAT_BEGIN
 90
        0
 91
        1
 62
     0
 92
       -2
340
0
 93
        0
 40
1.125
309
GRIDFORMAT_END
309
TABLEFORMAT_END
  1
CELLSTYLE_BEGIN
 90
        2
 91
        1
300
_HEADER
309
CELLSTYLE_END
300
CELLSTYLE
  1
TABLEFORMAT_BEGIN
 90
        5
170
     1
 91
        0
 92
        0
 62
   257
 93
        1
300
CONTENTFORMAT
  1
CONTENTFORMAT_BEGIN
 90
        0
 91
        0
 92
      512
 93
        0
300

 40
0.0
140
1.0
 94
        2
 62
     0
340
55
144
4.5
309
CONTENTFORMAT_END
171
     1
301
MARGIN
  1
CELLMARGIN_BEGIN
 40
1.5
 40
1.5
 40
1.5
 40
1.5
 40
4.5
 40
4.5
309
CELLMARGIN_END
 94
        6
 95
        1
302
GRIDFORMAT
  1
GRIDFORMAT_BEGIN
 90
        0
 91
        1
 62
     0
 92
       -2
340
0
 93
        0
 40
1.125
309
GRIDFORMAT_END
 95
        2
302
GRIDFORMAT
  1
GRIDFORMAT_BEGIN
 90
        0
 91
        1
 62
     0
 92
       -2
340
0
 93
        0
 40
1.125
309
GRIDFORMAT_END
 95
        4
302
GRIDFORMAT
  1
GRIDFORMAT_BEGIN
 90
        0
 91
        1
 62
     0
 92
       -2
340
0
 93
        0
 40
1.125
309
GRIDFORMAT_END
 95
        8
302
GRIDFORMAT
  1
GRIDFORMAT_BEGIN
 90
        0
 91
        1
 62
     0
 92
       -2
340
0
 93
        0
 40
1.125
309
GRIDFORMAT_END
 95
       16
302
GRIDFORMAT
  1
GRIDFORMAT_BEGIN
 90
        0
 91
        1
 62
     0
 92
       -2
340
0
 93
        0
 40
1.125
309
GRIDFORMAT_END
 95
       32
302
GRIDFORMAT
  1
GRIDFORMAT_BEGIN
 90
        0
 91
        1
 62
     0
 92
       -2
340
0
 93
        0
 40
1.125
309
GRIDFORMAT_END
309
TABLEFORMAT_END
  1
CELLSTYLE_BEGIN
 90
        3
 91
        2
300
_DATA
309
CELLSTYLE_END
  0
XRECORD
  5
CF8
102
{ACAD_REACTORS
330
CF7
102
}
330
CF7
100
AcDbXrecord
280
     1
102
RTVSPost2010Prop28
280
     1
102
RTVSPost2010PropOp28
 70
     1
102
RTVSPost2010Prop29
280
     1
102
RTVSPost2010PropOp29
 70
     1
102
RTVSPost2010Prop30
280
     0
102
RTVSPost2010PropOp30
 70
     1
102
RTVSPost2010Prop31
280
     0
102
RTVSPost2010PropOp31
 70
     1
102
RTVSPost2010Prop32
280
     0
102
RTVSPost2010PropOp32
 70
     1
102
RTVSPost2010Prop33
280
     0
102
RTVSPost2010PropOp33
 70
     1
102
RTVSPost2010Prop34
280
     0
102
RTVSPost2010PropOp34
 70
     1
102
RTVSPost2010Prop35
280
     0
102
RTVSPost2010PropOp35
 70
     1
102
RTVSPost2010Prop36
280
     0
102
RTVSPost2010PropOp36
 70
     1
102
RTVSPost2010Prop37
 90
       50
102
RTVSPost2010PropOp37
 70
     1
102
RTVSPost2010Prop38
140
0.0
102
RTVSPost2010PropOp38
 70
     1
102
RTVSPost2010Prop39
140
1.0
102
RTVSPost2010PropOp39
 70
     1
102
RTVSPost2010Prop40
 90
        0
102
RTVSPost2010PropOp40
 70
     1
102
RTVSPost2010Prop41ColorIndex
 90
       18
102
RTVSPost2010Prop41ColorRGB
 90
        0
102
RTVSPost2010PropOp41
 70
     1
102
RTVSPost2010Prop42
 90
       50
102
RTVSPost2010PropOp42
 70
     1
102
RTVSPost2010Prop43
 90
        3
102
RTVSPost2010PropOp43
 70
     1
102
RTVSPost2010Prop44ColorIndex
 90
        5
102
RTVSPost2010Prop44ColorRGB
 90
      255
102
RTVSPost2010PropOp44
 70
     1
102
RTVSPost2010Prop45
280
     0
102
RTVSPost2010PropOp45
 70
     1
102
RTVSPost2010Prop46
 90
       50
102
RTVSPost2010PropOp46
 70
     1
102
RTVSPost2010Prop47
 90
       50
102
RTVSPost2010PropOp47
 70
     1
102
RTVSPost2010Prop48
 90
       50
102
RTVSPost2010PropOp48
 70
     1
102
RTVSPost2010Prop49
280
     0
102
RTVSPost2010PropOp49
 70
     1
102
RTVSPost2010Prop50
 90
       50
102
RTVSPost2010PropOp50
 70
     1
102
RTVSPost2010Prop51ColorIndex
 90
      256
102
RTVSPost2010Prop51ColorRGB
 90
-16777216
102
RTVSPost2010PropOp51
 70
     0
102
RTVSPost2010Prop52
140
1.0
102
RTVSPost2010PropOp52
 70
     0
102
RTVSPost2010Prop53
 90
        2
102
RTVSPost2010PropOp53
 70
     1
102
RTVSPost2010Prop54
  1
strokes_ogs.tif
102
RTVSPost2010PropOp54
 70
     1
102
RTVSPost2010Prop55
280
     0
102
RTVSPost2010PropOp55
 70
     1
102
RTVSPost2010Prop56
140
1.0
102
RTVSPost2010PropOp56
 70
     1
102
RTVSPost2010Prop57
140
1.0
102
RTVSPost2010PropOp57
 70
     1
  0
XRECORD
  5
CF6
102
{ACAD_REACTORS
330
CF5
102
}
330
CF5
100
AcDbXrecord
280
     1
102
RTVSPost2010Prop28
280
     0
102
RTVSPost2010PropOp28
 70
     1
102
RTVSPost2010Prop29
280
     1
102
RTVSPost2010PropOp29
 70
     1
102
RTVSPost2010Prop30
280
     1
102
RTVSPost2010PropOp30
 70
     1
102
RTVSPost2010Prop31
280
     0
102
RTVSPost2010PropOp31
 70
     1
102
RTVSPost2010Prop32
280
     0
102
RTVSPost2010PropOp32
 70
     1
102
RTVSPost2010Prop33
280
     0
102
RTVSPost2010PropOp33
 70
     1
102
RTVSPost2010Prop34
280
     0
102
RTVSPost2010PropOp34
 70
     1
102
RTVSPost2010Prop35
280
     0
102
RTVSPost2010PropOp35
 70
     1
102
RTVSPost2010Prop36
280
     0
102
RTVSPost2010PropOp36
 70
     1
102
RTVSPost2010Prop37
 90
       50
102
RTVSPost2010PropOp37
 70
     1
102
RTVSPost2010Prop38
140
0.0
102
RTVSPost2010PropOp38
 70
     1
102
RTVSPost2010Prop39
140
1.0
102
RTVSPost2010PropOp39
 70
     1
102
RTVSPost2010Prop40
 90
        0
102
RTVSPost2010PropOp40
 70
     1
102
RTVSPost2010Prop41ColorIndex
 90
       18
102
RTVSPost2010Prop41ColorRGB
 90
        0
102
RTVSPost2010PropOp41
 70
     1
102
RTVSPost2010Prop42
 90
       50
102
RTVSPost2010PropOp42
 70
     1
102
RTVSPost2010Prop43
 90
        3
102
RTVSPost2010PropOp43
 70
     1
102
RTVSPost2010Prop44ColorIndex
 90
        5
102
RTVSPost2010Prop44ColorRGB
 90
      255
102
RTVSPost2010PropOp44
 70
     1
102
RTVSPost2010Prop45
280
     0
102
RTVSPost2010PropOp45
 70
     1
102
RTVSPost2010Prop46
 90
       50
102
RTVSPost2010PropOp46
 70
     1
102
RTVSPost2010Prop47
 90
       50
102
RTVSPost2010PropOp47
 70
     1
102
RTVSPost2010Prop48
 90
       50
102
RTVSPost2010PropOp48
 70
     1
102
RTVSPost2010Prop49
280
     0
102
RTVSPost2010PropOp49
 70
     1
102
RTVSPost2010Prop50
 90
       50
102
RTVSPost2010PropOp50
 70
     1
102
RTVSPost2010Prop51ColorIndex
 90
      256
102
RTVSPost2010Prop51ColorRGB
 90
-16777216
102
RTVSPost2010PropOp51
 70
     0
102
RTVSPost2010Prop52
140
1.0
102
RTVSPost2010PropOp52
 70
     0
102
RTVSPost2010Prop53
 90
        2
102
RTVSPost2010PropOp53
 70
     1
102
RTVSPost2010Prop54
  1
strokes_ogs.tif
102
RTVSPost2010PropOp54
 70
     1
102
RTVSPost2010Prop55
280
     0
102
RTVSPost2010PropOp55
 70
     1
102
RTVSPost2010Prop56
140
1.0
102
RTVSPost2010PropOp56
 70
     1
102
RTVSPost2010Prop57
140
1.0
102
RTVSPost2010PropOp57
 70
     1
  0
XRECORD
  5
D04
102
{ACAD_REACTORS
330
D03
102
}
330
D03
100
AcDbXrecord
280
     1
102
RTVSPost2010Prop28
280
     0
102
RTVSPost2010PropOp28
 70
     1
102
RTVSPost2010Prop29
280
     1
102
RTVSPost2010PropOp29
 70
     1
102
RTVSPost2010Prop30
280
     1
102
RTVSPost2010PropOp30
 70
     1
102
RTVSPost2010Prop31
280
     0
102
RTVSPost2010PropOp31
 70
     1
102
RTVSPost2010Prop32
280
     0
102
RTVSPost2010PropOp32
 70
     1
102
RTVSPost2010Prop33
280
     0
102
RTVSPost2010PropOp33
 70
     1
102
RTVSPost2010Prop34
280
     0
102
RTVSPost2010PropOp34
 70
     1
102
RTVSPost2010Prop35
280
     0
102
RTVSPost2010PropOp35
 70
     1
102
RTVSPost2010Prop36
280
     0
102
RTVSPost2010PropOp36
 70
     1
102
RTVSPost2010Prop37
 90
       50
102
RTVSPost2010PropOp37
 70
     1
102
RTVSPost2010Prop38
140
0.0
102
RTVSPost2010PropOp38
 70
     1
102
RTVSPost2010Prop39
140
1.0
102
RTVSPost2010PropOp39
 70
     1
102
RTVSPost2010Prop40
 90
        0
102
RTVSPost2010PropOp40
 70
     1
102
RTVSPost2010Prop41ColorIndex
 90
       18
102
RTVSPost2010Prop41ColorRGB
 90
        0
102
RTVSPost2010PropOp41
 70
     1
102
RTVSPost2010Prop42
 90
       50
102
RTVSPost2010PropOp42
 70
     1
102
RTVSPost2010Prop43
 90
        3
102
RTVSPost2010PropOp43
 70
     1
102
RTVSPost2010Prop44ColorIndex
 90
        5
102
RTVSPost2010Prop44ColorRGB
 90
      255
102
RTVSPost2010PropOp44
 70
     1
102
RTVSPost2010Prop45
280
     0
102
RTVSPost2010PropOp45
 70
     1
102
RTVSPost2010Prop46
 90
       50
102
RTVSPost2010PropOp46
 70
     1
102
RTVSPost2010Prop47
 90
       50
102
RTVSPost2010PropOp47
 70
     1
102
RTVSPost2010Prop48
 90
       50
102
RTVSPost2010PropOp48
 70
     1
102
RTVSPost2010Prop49
280
     0
102
RTVSPost2010PropOp49
 70
     1
102
RTVSPost2010Prop50
 90
       50
102
RTVSPost2010PropOp50
 70
     1
102
RTVSPost2010Prop51ColorIndex
 90
      256
102
RTVSPost2010Prop51ColorRGB
 90
-16777216
102
RTVSPost2010PropOp51
 70
     0
102
RTVSPost2010Prop52
140
1.0
102
RTVSPost2010PropOp52
 70
     0
102
RTVSPost2010Prop53
 90
        2
102
RTVSPost2010PropOp53
 70
     1
102
RTVSPost2010Prop54
  1
strokes_ogs.tif
102
RTVSPost2010PropOp54
 70
     1
102
RTVSPost2010Prop55
280
     0
102
RTVSPost2010PropOp55
 70
     1
102
RTVSPost2010Prop56
140
1.0
102
RTVSPost2010PropOp56
 70
     1
102
RTVSPost2010Prop57
140
1.0
102
RTVSPost2010PropOp57
 70
     1
  0
XRECORD
  5
D0C
102
{ACAD_REACTORS
330
D0B
102
}
330
D0B
100
AcDbXrecord
280
     1
102
RTVSPost2010Prop28
280
     0
102
RTVSPost2010PropOp28
 70
     1
102
RTVSPost2010Prop29
280
     1
102
RTVSPost2010PropOp29
 70
     1
102
RTVSPost2010Prop30
280
     1
102
RTVSPost2010PropOp30
 70
     1
102
RTVSPost2010Prop31
280
     0
102
RTVSPost2010PropOp31
 70
     1
102
RTVSPost2010Prop32
280
     0
102
RTVSPost2010PropOp32
 70
     1
102
RTVSPost2010Prop33
280
     0
102
RTVSPost2010PropOp33
 70
     1
102
RTVSPost2010Prop34
280
     0
102
RTVSPost2010PropOp34
 70
     1
102
RTVSPost2010Prop35
280
     0
102
RTVSPost2010PropOp35
 70
     1
102
RTVSPost2010Prop36
280
     0
102
RTVSPost2010PropOp36
 70
     1
102
RTVSPost2010Prop37
 90
       50
102
RTVSPost2010PropOp37
 70
     1
102
RTVSPost2010Prop38
140
0.0
102
RTVSPost2010PropOp38
 70
     1
102
RTVSPost2010Prop39
140
1.0
102
RTVSPost2010PropOp39
 70
     1
102
RTVSPost2010Prop40
 90
        0
102
RTVSPost2010PropOp40
 70
     1
102
RTVSPost2010Prop41ColorIndex
 90
       18
102
RTVSPost2010Prop41ColorRGB
 90
        0
102
RTVSPost2010PropOp41
 70
     1
102
RTVSPost2010Prop42
 90
       50
102
RTVSPost2010PropOp42
 70
     1
102
RTVSPost2010Prop43
 90
        3
102
RTVSPost2010PropOp43
 70
     1
102
RTVSPost2010Prop44ColorIndex
 90
        5
102
RTVSPost2010Prop44ColorRGB
 90
      255
102
RTVSPost2010PropOp44
 70
     1
102
RTVSPost2010Prop45
280
     0
102
RTVSPost2010PropOp45
 70
     1
102
RTVSPost2010Prop46
 90
       50
102
RTVSPost2010PropOp46
 70
     1
102
RTVSPost2010Prop47
 90
       50
102
RTVSPost2010PropOp47
 70
     1
102
RTVSPost2010Prop48
 90
       50
102
RTVSPost2010PropOp48
 70
     1
102
RTVSPost2010Prop49
280
     0
102
RTVSPost2010PropOp49
 70
     1
102
RTVSPost2010Prop50
 90
       50
102
RTVSPost2010PropOp50
 70
     1
102
RTVSPost2010Prop51ColorIndex
 90
      256
102
RTVSPost2010Prop51ColorRGB
 90
-16777216
102
RTVSPost2010PropOp51
 70
     0
102
RTVSPost2010Prop52
140
1.0
102
RTVSPost2010PropOp52
 70
     0
102
RTVSPost2010Prop53
 90
        2
102
RTVSPost2010PropOp53
 70
     1
102
RTVSPost2010Prop54
  1
strokes_ogs.tif
102
RTVSPost2010PropOp54
 70
     1
102
RTVSPost2010Prop55
280
     0
102
RTVSPost2010PropOp55
 70
     1
102
RTVSPost2010Prop56
140
1.0
102
RTVSPost2010PropOp56
 70
     1
102
RTVSPost2010Prop57
140
1.0
102
RTVSPost2010PropOp57
 70
     1
  0
XRECORD
  5
CFE
102
{ACAD_REACTORS
330
CFD
102
}
330
CFD
100
AcDbXrecord
280
     1
102
RTVSPost2010Prop28
280
     0
102
RTVSPost2010PropOp28
 70
     1
102
RTVSPost2010Prop29
280
     1
102
RTVSPost2010PropOp29
 70
     1
102
RTVSPost2010Prop30
280
     1
102
RTVSPost2010PropOp30
 70
     1
102
RTVSPost2010Prop31
280
     0
102
RTVSPost2010PropOp31
 70
     1
102
RTVSPost2010Prop32
280
     0
102
RTVSPost2010PropOp32
 70
     1
102
RTVSPost2010Prop33
280
     0
102
RTVSPost2010PropOp33
 70
     1
102
RTVSPost2010Prop34
280
     0
102
RTVSPost2010PropOp34
 70
     1
102
RTVSPost2010Prop35
280
     0
102
RTVSPost2010PropOp35
 70
     1
102
RTVSPost2010Prop36
280
     0
102
RTVSPost2010PropOp36
 70
     1
102
RTVSPost2010Prop37
 90
       50
102
RTVSPost2010PropOp37
 70
     1
102
RTVSPost2010Prop38
140
0.0
102
RTVSPost2010PropOp38
 70
     1
102
RTVSPost2010Prop39
140
1.0
102
RTVSPost2010PropOp39
 70
     1
102
RTVSPost2010Prop40
 90
        0
102
RTVSPost2010PropOp40
 70
     1
102
RTVSPost2010Prop41ColorIndex
 90
       18
102
RTVSPost2010Prop41ColorRGB
 90
        0
102
RTVSPost2010PropOp41
 70
     1
102
RTVSPost2010Prop42
 90
       50
102
RTVSPost2010PropOp42
 70
     1
102
RTVSPost2010Prop43
 90
        3
102
RTVSPost2010PropOp43
 70
     1
102
RTVSPost2010Prop44ColorIndex
 90
        5
102
RTVSPost2010Prop44ColorRGB
 90
      255
102
RTVSPost2010PropOp44
 70
     1
102
RTVSPost2010Prop45
280
     0
102
RTVSPost2010PropOp45
 70
     1
102
RTVSPost2010Prop46
 90
       50
102
RTVSPost2010PropOp46
 70
     1
102
RTVSPost2010Prop47
 90
       50
102
RTVSPost2010PropOp47
 70
     1
102
RTVSPost2010Prop48
 90
       50
102
RTVSPost2010PropOp48
 70
     1
102
RTVSPost2010Prop49
280
     0
102
RTVSPost2010PropOp49
 70
     1
102
RTVSPost2010Prop50
 90
       50
102
RTVSPost2010PropOp50
 70
     1
102
RTVSPost2010Prop51ColorIndex
 90
      256
102
RTVSPost2010Prop51ColorRGB
 90
-16777216
102
RTVSPost2010PropOp51
 70
     0
102
RTVSPost2010Prop52
140
1.0
102
RTVSPost2010PropOp52
 70
     0
102
RTVSPost2010Prop53
 90
        2
102
RTVSPost2010PropOp53
 70
     1
102
RTVSPost2010Prop54
  1
strokes_ogs.tif
102
RTVSPost2010PropOp54
 70
     1
102
RTVSPost2010Prop55
280
     0
102
RTVSPost2010PropOp55
 70
     1
102
RTVSPost2010Prop56
140
1.0
102
RTVSPost2010PropOp56
 70
     1
102
RTVSPost2010Prop57
140
1.0
102
RTVSPost2010PropOp57
 70
     1
  0
XRECORD
  5
D02
102
{ACAD_REACTORS
330
D01
102
}
330
D01
100
AcDbXrecord
280
     1
102
RTVSPost2010Prop28
280
     0
102
RTVSPost2010PropOp28
 70
     1
102
RTVSPost2010Prop29
280
     1
102
RTVSPost2010PropOp29
 70
     1
102
RTVSPost2010Prop30
280
     1
102
RTVSPost2010PropOp30
 70
     1
102
RTVSPost2010Prop31
280
     0
102
RTVSPost2010PropOp31
 70
     1
102
RTVSPost2010Prop32
280
     0
102
RTVSPost2010PropOp32
 70
     1
102
RTVSPost2010Prop33
280
     0
102
RTVSPost2010PropOp33
 70
     1
102
RTVSPost2010Prop34
280
     0
102
RTVSPost2010PropOp34
 70
     1
102
RTVSPost2010Prop35
280
     0
102
RTVSPost2010PropOp35
 70
     1
102
RTVSPost2010Prop36
280
     0
102
RTVSPost2010PropOp36
 70
     1
102
RTVSPost2010Prop37
 90
       50
102
RTVSPost2010PropOp37
 70
     1
102
RTVSPost2010Prop38
140
0.0
102
RTVSPost2010PropOp38
 70
     1
102
RTVSPost2010Prop39
140
1.0
102
RTVSPost2010PropOp39
 70
     1
102
RTVSPost2010Prop40
 90
        0
102
RTVSPost2010PropOp40
 70
     1
102
RTVSPost2010Prop41ColorIndex
 90
       18
102
RTVSPost2010Prop41ColorRGB
 90
        0
102
RTVSPost2010PropOp41
 70
     1
102
RTVSPost2010Prop42
 90
       50
102
RTVSPost2010PropOp42
 70
     1
102
RTVSPost2010Prop43
 90
        3
102
RTVSPost2010PropOp43
 70
     1
102
RTVSPost2010Prop44ColorIndex
 90
        5
102
RTVSPost2010Prop44ColorRGB
 90
      255
102
RTVSPost2010PropOp44
 70
     1
102
RTVSPost2010Prop45
280
     0
102
RTVSPost2010PropOp45
 70
     1
102
RTVSPost2010Prop46
 90
       50
102
RTVSPost2010PropOp46
 70
     1
102
RTVSPost2010Prop47
 90
       50
102
RTVSPost2010PropOp47
 70
     1
102
RTVSPost2010Prop48
 90
       50
102
RTVSPost2010PropOp48
 70
     1
102
RTVSPost2010Prop49
280
     0
102
RTVSPost2010PropOp49
 70
     1
102
RTVSPost2010Prop50
 90
       50
102
RTVSPost2010PropOp50
 70
     1
102
RTVSPost2010Prop51ColorIndex
 90
      256
102
RTVSPost2010Prop51ColorRGB
 90
-16777216
102
RTVSPost2010PropOp51
 70
     0
102
RTVSPost2010Prop52
140
1.0
102
RTVSPost2010PropOp52
 70
     0
102
RTVSPost2010Prop53
 90
        2
102
RTVSPost2010PropOp53
 70
     1
102
RTVSPost2010Prop54
  1
strokes_ogs.tif
102
RTVSPost2010PropOp54
 70
     1
102
RTVSPost2010Prop55
280
     0
102
RTVSPost2010PropOp55
 70
     1
102
RTVSPost2010Prop56
140
1.0
102
RTVSPost2010PropOp56
 70
     1
102
RTVSPost2010Prop57
140
1.0
102
RTVSPost2010PropOp57
 70
     1
  0
XRECORD
  5
D1C
102
{ACAD_REACTORS
330
D1B
102
}
330
D1B
100
AcDbXrecord
280
     1
102
RTVSPost2010Prop28
280
     0
102
RTVSPost2010PropOp28
 70
     0
102
RTVSPost2010Prop29
280
     1
102
RTVSPost2010PropOp29
 70
     0
102
RTVSPost2010Prop30
280
     1
102
RTVSPost2010PropOp30
 70
     0
102
RTVSPost2010Prop31
280
     0
102
RTVSPost2010PropOp31
 70
     0
102
RTVSPost2010Prop32
280
     0
102
RTVSPost2010PropOp32
 70
     0
102
RTVSPost2010Prop33
280
     0
102
RTVSPost2010PropOp33
 70
     0
102
RTVSPost2010Prop34
280
     0
102
RTVSPost2010PropOp34
 70
     0
102
RTVSPost2010Prop35
280
     0
102
RTVSPost2010PropOp35
 70
     0
102
RTVSPost2010Prop36
280
     0
102
RTVSPost2010PropOp36
 70
     0
102
RTVSPost2010Prop37
 90
       50
102
RTVSPost2010PropOp37
 70
     0
102
RTVSPost2010Prop38
140
0.0
102
RTVSPost2010PropOp38
 70
     0
102
RTVSPost2010Prop39
140
1.0
102
RTVSPost2010PropOp39
 70
     0
102
RTVSPost2010Prop40
 90
        0
102
RTVSPost2010PropOp40
 70
     0
102
RTVSPost2010Prop41ColorIndex
 90
       18
102
RTVSPost2010Prop41ColorRGB
 90
        0
102
RTVSPost2010PropOp41
 70
     0
102
RTVSPost2010Prop42
 90
       50
102
RTVSPost2010PropOp42
 70
     0
102
RTVSPost2010Prop43
 90
        3
102
RTVSPost2010PropOp43
 70
     0
102
RTVSPost2010Prop44ColorIndex
 90
        5
102
RTVSPost2010Prop44ColorRGB
 90
      255
102
RTVSPost2010PropOp44
 70
     0
102
RTVSPost2010Prop45
280
     0
102
RTVSPost2010PropOp45
 70
     0
102
RTVSPost2010Prop46
 90
       50
102
RTVSPost2010PropOp46
 70
     0
102
RTVSPost2010Prop47
 90
       50
102
RTVSPost2010PropOp47
 70
     0
102
RTVSPost2010Prop48
 90
       50
102
RTVSPost2010PropOp48
 70
     0
102
RTVSPost2010Prop49
280
     0
102
RTVSPost2010PropOp49
 70
     0
102
RTVSPost2010Prop50
 90
       50
102
RTVSPost2010PropOp50
 70
     0
102
RTVSPost2010Prop51ColorIndex
 90
      256
102
RTVSPost2010Prop51ColorRGB
 90
-16777216
102
RTVSPost2010PropOp51
 70
     0
102
RTVSPost2010Prop52
140
1.0
102
RTVSPost2010PropOp52
 70
     0
102
RTVSPost2010Prop53
 90
        2
102
RTVSPost2010PropOp53
 70
     0
102
RTVSPost2010Prop54
  1
strokes_ogs.tif
102
RTVSPost2010PropOp54
 70
     0
102
RTVSPost2010Prop55
280
     0
102
RTVSPost2010PropOp55
 70
     0
102
RTVSPost2010Prop56
140
1.0
102
RTVSPost2010PropOp56
 70
     0
102
RTVSPost2010Prop57
140
1.0
102
RTVSPost2010PropOp57
 70
     0
  0
XRECORD
  5
D0A
102
{ACAD_REACTORS
330
D09
102
}
330
D09
100
AcDbXrecord
280
     1
102
RTVSPost2010Prop28
280
     0
102
RTVSPost2010PropOp28
 70
     1
102
RTVSPost2010Prop29
280
     1
102
RTVSPost2010PropOp29
 70
     1
102
RTVSPost2010Prop30
280
     1
102
RTVSPost2010PropOp30
 70
     1
102
RTVSPost2010Prop31
280
     0
102
RTVSPost2010PropOp31
 70
     1
102
RTVSPost2010Prop32
280
     0
102
RTVSPost2010PropOp32
 70
     1
102
RTVSPost2010Prop33
280
     0
102
RTVSPost2010PropOp33
 70
     1
102
RTVSPost2010Prop34
280
     0
102
RTVSPost2010PropOp34
 70
     1
102
RTVSPost2010Prop35
280
     0
102
RTVSPost2010PropOp35
 70
     1
102
RTVSPost2010Prop36
280
     0
102
RTVSPost2010PropOp36
 70
     1
102
RTVSPost2010Prop37
 90
       50
102
RTVSPost2010PropOp37
 70
     1
102
RTVSPost2010Prop38
140
0.0
102
RTVSPost2010PropOp38
 70
     1
102
RTVSPost2010Prop39
140
1.0
102
RTVSPost2010PropOp39
 70
     1
102
RTVSPost2010Prop40
 90
        0
102
RTVSPost2010PropOp40
 70
     1
102
RTVSPost2010Prop41ColorIndex
 90
       18
102
RTVSPost2010Prop41ColorRGB
 90
        0
102
RTVSPost2010PropOp41
 70
     1
102
RTVSPost2010Prop42
 90
       50
102
RTVSPost2010PropOp42
 70
     1
102
RTVSPost2010Prop43
 90
        3
102
RTVSPost2010PropOp43
 70
     1
102
RTVSPost2010Prop44ColorIndex
 90
        5
102
RTVSPost2010Prop44ColorRGB
 90
      255
102
RTVSPost2010PropOp44
 70
     1
102
RTVSPost2010Prop45
280
     0
102
RTVSPost2010PropOp45
 70
     1
102
RTVSPost2010Prop46
 90
       50
102
RTVSPost2010PropOp46
 70
     1
102
RTVSPost2010Prop47
 90
       50
102
RTVSPost2010PropOp47
 70
     1
102
RTVSPost2010Prop48
 90
       50
102
RTVSPost2010PropOp48
 70
     1
102
RTVSPost2010Prop49
280
     0
102
RTVSPost2010PropOp49
 70
     1
102
RTVSPost2010Prop50
 90
       50
102
RTVSPost2010PropOp50
 70
     1
102
RTVSPost2010Prop51ColorIndex
 90
      256
102
RTVSPost2010Prop51ColorRGB
 90
-16777216
102
RTVSPost2010PropOp51
 70
     0
102
RTVSPost2010Prop52
140
1.0
102
RTVSPost2010PropOp52
 70
     0
102
RTVSPost2010Prop53
 90
        2
102
RTVSPost2010PropOp53
 70
     1
102
RTVSPost2010Prop54
  1
strokes_ogs.tif
102
RTVSPost2010PropOp54
 70
     1
102
RTVSPost2010Prop55
280
     0
102
RTVSPost2010PropOp55
 70
     1
102
RTVSPost2010Prop56
140
1.0
102
RTVSPost2010PropOp56
 70
     1
102
RTVSPost2010Prop57
140
1.0
102
RTVSPost2010PropOp57
 70
     1
  0
XRECORD
  5
CEE
102
{ACAD_REACTORS
330
CED
102
}
330
CED
100
AcDbXrecord
280
     1
102
RTVSPost2010Prop28
280
     0
102
RTVSPost2010PropOp28
 70
     1
102
RTVSPost2010Prop29
280
     1
102
RTVSPost2010PropOp29
 70
     1
102
RTVSPost2010Prop30
280
     1
102
RTVSPost2010PropOp30
 70
     1
102
RTVSPost2010Prop31
280
     0
102
RTVSPost2010PropOp31
 70
     1
102
RTVSPost2010Prop32
280
     0
102
RTVSPost2010PropOp32
 70
     1
102
RTVSPost2010Prop33
280
     0
102
RTVSPost2010PropOp33
 70
     1
102
RTVSPost2010Prop34
280
     0
102
RTVSPost2010PropOp34
 70
     1
102
RTVSPost2010Prop35
280
     0
102
RTVSPost2010PropOp35
 70
     1
102
RTVSPost2010Prop36
280
     0
102
RTVSPost2010PropOp36
 70
     1
102
RTVSPost2010Prop37
 90
       50
102
RTVSPost2010PropOp37
 70
     1
102
RTVSPost2010Prop38
140
0.0
102
RTVSPost2010PropOp38
 70
     1
102
RTVSPost2010Prop39
140
1.0
102
RTVSPost2010PropOp39
 70
     1
102
RTVSPost2010Prop40
 90
        0
102
RTVSPost2010PropOp40
 70
     1
102
RTVSPost2010Prop41ColorIndex
 90
       18
102
RTVSPost2010Prop41ColorRGB
 90
        0
102
RTVSPost2010PropOp41
 70
     1
102
RTVSPost2010Prop42
 90
       50
102
RTVSPost2010PropOp42
 70
     1
102
RTVSPost2010Prop43
 90
        3
102
RTVSPost2010PropOp43
 70
     1
102
RTVSPost2010Prop44ColorIndex
 90
        5
102
RTVSPost2010Prop44ColorRGB
 90
      255
102
RTVSPost2010PropOp44
 70
     1
102
RTVSPost2010Prop45
280
     0
102
RTVSPost2010PropOp45
 70
     1
102
RTVSPost2010Prop46
 90
       50
102
RTVSPost2010PropOp46
 70
     1
102
RTVSPost2010Prop47
 90
       50
102
RTVSPost2010PropOp47
 70
     1
102
RTVSPost2010Prop48
 90
       50
102
RTVSPost2010PropOp48
 70
     1
102
RTVSPost2010Prop49
280
     0
102
RTVSPost2010PropOp49
 70
     1
102
RTVSPost2010Prop50
 90
       50
102
RTVSPost2010PropOp50
 70
     1
102
RTVSPost2010Prop51ColorIndex
 90
      256
102
RTVSPost2010Prop51ColorRGB
 90
-16777216
102
RTVSPost2010PropOp51
 70
     0
102
RTVSPost2010Prop52
140
1.0
102
RTVSPost2010PropOp52
 70
     0
102
RTVSPost2010Prop53
 90
        2
102
RTVSPost2010PropOp53
 70
     1
102
RTVSPost2010Prop54
  1
strokes_ogs.tif
102
RTVSPost2010PropOp54
 70
     1
102
RTVSPost2010Prop55
280
     0
102
RTVSPost2010PropOp55
 70
     1
102
RTVSPost2010Prop56
140
1.0
102
RTVSPost2010PropOp56
 70
     1
102
RTVSPost2010Prop57
140
1.0
102
RTVSPost2010PropOp57
 70
     1
  0
XRECORD
  5
CF0
102
{ACAD_REACTORS
330
CEF
102
}
330
CEF
100
AcDbXrecord
280
     1
102
RTVSPost2010Prop28
280
     0
102
RTVSPost2010PropOp28
 70
     1
102
RTVSPost2010Prop29
280
     1
102
RTVSPost2010PropOp29
 70
     1
102
RTVSPost2010Prop30
280
     1
102
RTVSPost2010PropOp30
 70
     1
102
RTVSPost2010Prop31
280
     0
102
RTVSPost2010PropOp31
 70
     1
102
RTVSPost2010Prop32
280
     0
102
RTVSPost2010PropOp32
 70
     1
102
RTVSPost2010Prop33
280
     0
102
RTVSPost2010PropOp33
 70
     1
102
RTVSPost2010Prop34
280
     0
102
RTVSPost2010PropOp34
 70
     1
102
RTVSPost2010Prop35
280
     0
102
RTVSPost2010PropOp35
 70
     1
102
RTVSPost2010Prop36
280
     0
102
RTVSPost2010PropOp36
 70
     1
102
RTVSPost2010Prop37
 90
       50
102
RTVSPost2010PropOp37
 70
     1
102
RTVSPost2010Prop38
140
0.0
102
RTVSPost2010PropOp38
 70
     1
102
RTVSPost2010Prop39
140
1.0
102
RTVSPost2010PropOp39
 70
     1
102
RTVSPost2010Prop40
 90
        0
102
RTVSPost2010PropOp40
 70
     1
102
RTVSPost2010Prop41ColorIndex
 90
       18
102
RTVSPost2010Prop41ColorRGB
 90
        0
102
RTVSPost2010PropOp41
 70
     1
102
RTVSPost2010Prop42
 90
       50
102
RTVSPost2010PropOp42
 70
     1
102
RTVSPost2010Prop43
 90
        3
102
RTVSPost2010PropOp43
 70
     1
102
RTVSPost2010Prop44ColorIndex
 90
        5
102
RTVSPost2010Prop44ColorRGB
 90
      255
102
RTVSPost2010PropOp44
 70
     1
102
RTVSPost2010Prop45
280
     0
102
RTVSPost2010PropOp45
 70
     1
102
RTVSPost2010Prop46
 90
       50
102
RTVSPost2010PropOp46
 70
     1
102
RTVSPost2010Prop47
 90
       50
102
RTVSPost2010PropOp47
 70
     1
102
RTVSPost2010Prop48
 90
       50
102
RTVSPost2010PropOp48
 70
     1
102
RTVSPost2010Prop49
280
     0
102
RTVSPost2010PropOp49
 70
     1
102
RTVSPost2010Prop50
 90
       50
102
RTVSPost2010PropOp50
 70
     1
102
RTVSPost2010Prop51ColorIndex
 90
      256
102
RTVSPost2010Prop51ColorRGB
 90
-16777216
102
RTVSPost2010PropOp51
 70
     0
102
RTVSPost2010Prop52
140
1.0
102
RTVSPost2010PropOp52
 70
     0
102
RTVSPost2010Prop53
 90
        2
102
RTVSPost2010PropOp53
 70
     1
102
RTVSPost2010Prop54
  1
strokes_ogs.tif
102
RTVSPost2010PropOp54
 70
     1
102
RTVSPost2010Prop55
280
     0
102
RTVSPost2010PropOp55
 70
     1
102
RTVSPost2010Prop56
140
1.0
102
RTVSPost2010PropOp56
 70
     1
102
RTVSPost2010Prop57
140
1.0
102
RTVSPost2010PropOp57
 70
     1
  0
XRECORD
  5
CF2
102
{ACAD_REACTORS
330
CF1
102
}
330
CF1
100
AcDbXrecord
280
     1
102
RTVSPost2010Prop28
280
     0
102
RTVSPost2010PropOp28
 70
     1
102
RTVSPost2010Prop29
280
     1
102
RTVSPost2010PropOp29
 70
     1
102
RTVSPost2010Prop30
280
     1
102
RTVSPost2010PropOp30
 70
     1
102
RTVSPost2010Prop31
280
     0
102
RTVSPost2010PropOp31
 70
     1
102
RTVSPost2010Prop32
280
     0
102
RTVSPost2010PropOp32
 70
     1
102
RTVSPost2010Prop33
280
     0
102
RTVSPost2010PropOp33
 70
     1
102
RTVSPost2010Prop34
280
     0
102
RTVSPost2010PropOp34
 70
     1
102
RTVSPost2010Prop35
280
     0
102
RTVSPost2010PropOp35
 70
     1
102
RTVSPost2010Prop36
280
     0
102
RTVSPost2010PropOp36
 70
     1
102
RTVSPost2010Prop37
 90
       50
102
RTVSPost2010PropOp37
 70
     1
102
RTVSPost2010Prop38
140
0.0
102
RTVSPost2010PropOp38
 70
     1
102
RTVSPost2010Prop39
140
1.0
102
RTVSPost2010PropOp39
 70
     1
102
RTVSPost2010Prop40
 90
        0
102
RTVSPost2010PropOp40
 70
     1
102
RTVSPost2010Prop41ColorIndex
 90
       18
102
RTVSPost2010Prop41ColorRGB
 90
        0
102
RTVSPost2010PropOp41
 70
     1
102
RTVSPost2010Prop42
 90
       50
102
RTVSPost2010PropOp42
 70
     1
102
RTVSPost2010Prop43
 90
        3
102
RTVSPost2010PropOp43
 70
     1
102
RTVSPost2010Prop44ColorIndex
 90
        5
102
RTVSPost2010Prop44ColorRGB
 90
      255
102
RTVSPost2010PropOp44
 70
     1
102
RTVSPost2010Prop45
280
     0
102
RTVSPost2010PropOp45
 70
     1
102
RTVSPost2010Prop46
 90
       50
102
RTVSPost2010PropOp46
 70
     1
102
RTVSPost2010Prop47
 90
       50
102
RTVSPost2010PropOp47
 70
     1
102
RTVSPost2010Prop48
 90
       50
102
RTVSPost2010PropOp48
 70
     1
102
RTVSPost2010Prop49
280
     0
102
RTVSPost2010PropOp49
 70
     1
102
RTVSPost2010Prop50
 90
       50
102
RTVSPost2010PropOp50
 70
     1
102
RTVSPost2010Prop51ColorIndex
 90
      256
102
RTVSPost2010Prop51ColorRGB
 90
-16777216
102
RTVSPost2010PropOp51
 70
     0
102
RTVSPost2010Prop52
140
1.0
102
RTVSPost2010PropOp52
 70
     0
102
RTVSPost2010Prop53
 90
        2
102
RTVSPost2010PropOp53
 70
     1
102
RTVSPost2010Prop54
  1
strokes_ogs.tif
102
RTVSPost2010PropOp54
 70
     1
102
RTVSPost2010Prop55
280
     0
102
RTVSPost2010PropOp55
 70
     1
102
RTVSPost2010Prop56
140
1.0
102
RTVSPost2010PropOp56
 70
     1
102
RTVSPost2010Prop57
140
1.0
102
RTVSPost2010PropOp57
 70
     1
  0
XRECORD
  5
CF4
102
{ACAD_REACTORS
330
CF3
102
}
330
CF3
100
AcDbXrecord
280
     1
102
RTVSPost2010Prop28
280
     0
102
RTVSPost2010PropOp28
 70
     1
102
RTVSPost2010Prop29
280
     1
102
RTVSPost2010PropOp29
 70
     1
102
RTVSPost2010Prop30
280
     1
102
RTVSPost2010PropOp30
 70
     1
102
RTVSPost2010Prop31
280
     0
102
RTVSPost2010PropOp31
 70
     1
102
RTVSPost2010Prop32
280
     0
102
RTVSPost2010PropOp32
 70
     1
102
RTVSPost2010Prop33
280
     0
102
RTVSPost2010PropOp33
 70
     1
102
RTVSPost2010Prop34
280
     0
102
RTVSPost2010PropOp34
 70
     1
102
RTVSPost2010Prop35
280
     0
102
RTVSPost2010PropOp35
 70
     1
102
RTVSPost2010Prop36
280
     0
102
RTVSPost2010PropOp36
 70
     1
102
RTVSPost2010Prop37
 90
       50
102
RTVSPost2010PropOp37
 70
     1
102
RTVSPost2010Prop38
140
0.0
102
RTVSPost2010PropOp38
 70
     1
102
RTVSPost2010Prop39
140
1.0
102
RTVSPost2010PropOp39
 70
     1
102
RTVSPost2010Prop40
 90
        0
102
RTVSPost2010PropOp40
 70
     1
102
RTVSPost2010Prop41ColorIndex
 90
       18
102
RTVSPost2010Prop41ColorRGB
 90
        0
102
RTVSPost2010PropOp41
 70
     1
102
RTVSPost2010Prop42
 90
       50
102
RTVSPost2010PropOp42
 70
     1
102
RTVSPost2010Prop43
 90
        3
102
RTVSPost2010PropOp43
 70
     1
102
RTVSPost2010Prop44ColorIndex
 90
        5
102
RTVSPost2010Prop44ColorRGB
 90
      255
102
RTVSPost2010PropOp44
 70
     1
102
RTVSPost2010Prop45
280
     0
102
RTVSPost2010PropOp45
 70
     1
102
RTVSPost2010Prop46
 90
       50
102
RTVSPost2010PropOp46
 70
     1
102
RTVSPost2010Prop47
 90
       50
102
RTVSPost2010PropOp47
 70
     1
102
RTVSPost2010Prop48
 90
       50
102
RTVSPost2010PropOp48
 70
     1
102
RTVSPost2010Prop49
280
     0
102
RTVSPost2010PropOp49
 70
     1
102
RTVSPost2010Prop50
 90
       50
102
RTVSPost2010PropOp50
 70
     1
102
RTVSPost2010Prop51ColorIndex
 90
      256
102
RTVSPost2010Prop51ColorRGB
 90
-16777216
102
RTVSPost2010PropOp51
 70
     0
102
RTVSPost2010Prop52
140
1.0
102
RTVSPost2010PropOp52
 70
     0
102
RTVSPost2010Prop53
 90
        2
102
RTVSPost2010PropOp53
 70
     1
102
RTVSPost2010Prop54
  1
strokes_ogs.tif
102
RTVSPost2010PropOp54
 70
     1
102
RTVSPost2010Prop55
280
     0
102
RTVSPost2010PropOp55
 70
     1
102
RTVSPost2010Prop56
140
1.0
102
RTVSPost2010PropOp56
 70
     1
102
RTVSPost2010Prop57
140
1.0
102
RTVSPost2010PropOp57
 70
     1
  0
XRECORD
  5
CFC
102
{ACAD_REACTORS
330
CFB
102
}
330
CFB
100
AcDbXrecord
280
     1
102
RTVSPost2010Prop28
280
     0
102
RTVSPost2010PropOp28
 70
     1
102
RTVSPost2010Prop29
280
     1
102
RTVSPost2010PropOp29
 70
     1
102
RTVSPost2010Prop30
280
     1
102
RTVSPost2010PropOp30
 70
     1
102
RTVSPost2010Prop31
280
     0
102
RTVSPost2010PropOp31
 70
     1
102
RTVSPost2010Prop32
280
     0
102
RTVSPost2010PropOp32
 70
     1
102
RTVSPost2010Prop33
280
     0
102
RTVSPost2010PropOp33
 70
     1
102
RTVSPost2010Prop34
280
     0
102
RTVSPost2010PropOp34
 70
     1
102
RTVSPost2010Prop35
280
     0
102
RTVSPost2010PropOp35
 70
     1
102
RTVSPost2010Prop36
280
     0
102
RTVSPost2010PropOp36
 70
     1
102
RTVSPost2010Prop37
 90
       50
102
RTVSPost2010PropOp37
 70
     1
102
RTVSPost2010Prop38
140
0.0
102
RTVSPost2010PropOp38
 70
     1
102
RTVSPost2010Prop39
140
1.0
102
RTVSPost2010PropOp39
 70
     1
102
RTVSPost2010Prop40
 90
        0
102
RTVSPost2010PropOp40
 70
     1
102
RTVSPost2010Prop41ColorIndex
 90
       18
102
RTVSPost2010Prop41ColorRGB
 90
        0
102
RTVSPost2010PropOp41
 70
     1
102
RTVSPost2010Prop42
 90
       50
102
RTVSPost2010PropOp42
 70
     1
102
RTVSPost2010Prop43
 90
        3
102
RTVSPost2010PropOp43
 70
     1
102
RTVSPost2010Prop44ColorIndex
 90
        5
102
RTVSPost2010Prop44ColorRGB
 90
      255
102
RTVSPost2010PropOp44
 70
     1
102
RTVSPost2010Prop45
280
     0
102
RTVSPost2010PropOp45
 70
     1
102
RTVSPost2010Prop46
 90
       50
102
RTVSPost2010PropOp46
 70
     1
102
RTVSPost2010Prop47
 90
       50
102
RTVSPost2010PropOp47
 70
     1
102
RTVSPost2010Prop48
 90
       50
102
RTVSPost2010PropOp48
 70
     1
102
RTVSPost2010Prop49
280
     0
102
RTVSPost2010PropOp49
 70
     1
102
RTVSPost2010Prop50
 90
       50
102
RTVSPost2010PropOp50
 70
     1
102
RTVSPost2010Prop51ColorIndex
 90
      256
102
RTVSPost2010Prop51ColorRGB
 90
-16777216
102
RTVSPost2010PropOp51
 70
     0
102
RTVSPost2010Prop52
140
1.0
102
RTVSPost2010PropOp52
 70
     0
102
RTVSPost2010Prop53
 90
        2
102
RTVSPost2010PropOp53
 70
     1
102
RTVSPost2010Prop54
  1
strokes_ogs.tif
102
RTVSPost2010PropOp54
 70
     1
102
RTVSPost2010Prop55
280
     0
102
RTVSPost2010PropOp55
 70
     1
102
RTVSPost2010Prop56
140
1.0
102
RTVSPost2010PropOp56
 70
     1
102
RTVSPost2010Prop57
140
1.0
102
RTVSPost2010PropOp57
 70
     1
  0
XRECORD
  5
D18
102
{ACAD_REACTORS
330
D17
102
}
330
D17
100
AcDbXrecord
280
     1
102
RTVSPost2010Prop28
280
     0
102
RTVSPost2010PropOp28
 70
     0
102
RTVSPost2010Prop29
280
     1
102
RTVSPost2010PropOp29
 70
     0
102
RTVSPost2010Prop30
280
     1
102
RTVSPost2010PropOp30
 70
     0
102
RTVSPost2010Prop31
280
     0
102
RTVSPost2010PropOp31
 70
     0
102
RTVSPost2010Prop32
280
     0
102
RTVSPost2010PropOp32
 70
     0
102
RTVSPost2010Prop33
280
     0
102
RTVSPost2010PropOp33
 70
     0
102
RTVSPost2010Prop34
280
     0
102
RTVSPost2010PropOp34
 70
     0
102
RTVSPost2010Prop35
280
     0
102
RTVSPost2010PropOp35
 70
     0
102
RTVSPost2010Prop36
280
     0
102
RTVSPost2010PropOp36
 70
     0
102
RTVSPost2010Prop37
 90
       50
102
RTVSPost2010PropOp37
 70
     0
102
RTVSPost2010Prop38
140
0.0
102
RTVSPost2010PropOp38
 70
     0
102
RTVSPost2010Prop39
140
1.0
102
RTVSPost2010PropOp39
 70
     0
102
RTVSPost2010Prop40
 90
        0
102
RTVSPost2010PropOp40
 70
     0
102
RTVSPost2010Prop41ColorIndex
 90
       18
102
RTVSPost2010Prop41ColorRGB
 90
        0
102
RTVSPost2010PropOp41
 70
     0
102
RTVSPost2010Prop42
 90
       50
102
RTVSPost2010PropOp42
 70
     0
102
RTVSPost2010Prop43
 90
        3
102
RTVSPost2010PropOp43
 70
     0
102
RTVSPost2010Prop44ColorIndex
 90
        5
102
RTVSPost2010Prop44ColorRGB
 90
      255
102
RTVSPost2010PropOp44
 70
     0
102
RTVSPost2010Prop45
280
     0
102
RTVSPost2010PropOp45
 70
     0
102
RTVSPost2010Prop46
 90
       50
102
RTVSPost2010PropOp46
 70
     0
102
RTVSPost2010Prop47
 90
       50
102
RTVSPost2010PropOp47
 70
     0
102
RTVSPost2010Prop48
 90
       50
102
RTVSPost2010PropOp48
 70
     0
102
RTVSPost2010Prop49
280
     0
102
RTVSPost2010PropOp49
 70
     0
102
RTVSPost2010Prop50
 90
       50
102
RTVSPost2010PropOp50
 70
     0
102
RTVSPost2010Prop51ColorIndex
 90
      256
102
RTVSPost2010Prop51ColorRGB
 90
-16777216
102
RTVSPost2010PropOp51
 70
     0
102
RTVSPost2010Prop52
140
1.0
102
RTVSPost2010PropOp52
 70
     0
102
RTVSPost2010Prop53
 90
        2
102
RTVSPost2010PropOp53
 70
     0
102
RTVSPost2010Prop54
  1
strokes_ogs.tif
102
RTVSPost2010PropOp54
 70
     0
102
RTVSPost2010Prop55
280
     0
102
RTVSPost2010PropOp55
 70
     0
102
RTVSPost2010Prop56
140
1.0
102
RTVSPost2010PropOp56
 70
     0
102
RTVSPost2010Prop57
140
1.0
102
RTVSPost2010PropOp57
 70
     0
  0
XRECORD
  5
D08
102
{ACAD_REACTORS
330
D07
102
}
330
D07
100
AcDbXrecord
280
     1
102
RTVSPost2010Prop28
280
     0
102
RTVSPost2010PropOp28
 70
     1
102
RTVSPost2010Prop29
280
     1
102
RTVSPost2010PropOp29
 70
     1
102
RTVSPost2010Prop30
280
     1
102
RTVSPost2010PropOp30
 70
     1
102
RTVSPost2010Prop31
280
     0
102
RTVSPost2010PropOp31
 70
     1
102
RTVSPost2010Prop32
280
     0
102
RTVSPost2010PropOp32
 70
     1
102
RTVSPost2010Prop33
280
     0
102
RTVSPost2010PropOp33
 70
     1
102
RTVSPost2010Prop34
280
     0
102
RTVSPost2010PropOp34
 70
     1
102
RTVSPost2010Prop35
280
     0
102
RTVSPost2010PropOp35
 70
     1
102
RTVSPost2010Prop36
280
     0
102
RTVSPost2010PropOp36
 70
     1
102
RTVSPost2010Prop37
 90
       50
102
RTVSPost2010PropOp37
 70
     1
102
RTVSPost2010Prop38
140
0.0
102
RTVSPost2010PropOp38
 70
     1
102
RTVSPost2010Prop39
140
1.0
102
RTVSPost2010PropOp39
 70
     1
102
RTVSPost2010Prop40
 90
        0
102
RTVSPost2010PropOp40
 70
     1
102
RTVSPost2010Prop41ColorIndex
 90
       18
102
RTVSPost2010Prop41ColorRGB
 90
        0
102
RTVSPost2010PropOp41
 70
     1
102
RTVSPost2010Prop42
 90
       50
102
RTVSPost2010PropOp42
 70
     1
102
RTVSPost2010Prop43
 90
        3
102
RTVSPost2010PropOp43
 70
     1
102
RTVSPost2010Prop44ColorIndex
 90
        5
102
RTVSPost2010Prop44ColorRGB
 90
      255
102
RTVSPost2010PropOp44
 70
     1
102
RTVSPost2010Prop45
280
     0
102
RTVSPost2010PropOp45
 70
     1
102
RTVSPost2010Prop46
 90
       50
102
RTVSPost2010PropOp46
 70
     1
102
RTVSPost2010Prop47
 90
       50
102
RTVSPost2010PropOp47
 70
     1
102
RTVSPost2010Prop48
 90
       50
102
RTVSPost2010PropOp48
 70
     1
102
RTVSPost2010Prop49
280
     0
102
RTVSPost2010PropOp49
 70
     1
102
RTVSPost2010Prop50
 90
       50
102
RTVSPost2010PropOp50
 70
     1
102
RTVSPost2010Prop51ColorIndex
 90
      256
102
RTVSPost2010Prop51ColorRGB
 90
-16777216
102
RTVSPost2010PropOp51
 70
     0
102
RTVSPost2010Prop52
140
1.0
102
RTVSPost2010PropOp52
 70
     0
102
RTVSPost2010Prop53
 90
        2
102
RTVSPost2010PropOp53
 70
     1
102
RTVSPost2010Prop54
  1
strokes_ogs.tif
102
RTVSPost2010PropOp54
 70
     1
102
RTVSPost2010Prop55
280
     0
102
RTVSPost2010PropOp55
 70
     1
102
RTVSPost2010Prop56
140
1.0
102
RTVSPost2010PropOp56
 70
     1
102
RTVSPost2010Prop57
140
1.0
102
RTVSPost2010PropOp57
 70
     1
  0
XRECORD
  5
D1A
102
{ACAD_REACTORS
330
D19
102
}
330
D19
100
AcDbXrecord
280
     1
102
RTVSPost2010Prop28
280
     0
102
RTVSPost2010PropOp28
 70
     0
102
RTVSPost2010Prop29
280
     1
102
RTVSPost2010PropOp29
 70
     0
102
RTVSPost2010Prop30
280
     1
102
RTVSPost2010PropOp30
 70
     0
102
RTVSPost2010Prop31
280
     0
102
RTVSPost2010PropOp31
 70
     0
102
RTVSPost2010Prop32
280
     0
102
RTVSPost2010PropOp32
 70
     0
102
RTVSPost2010Prop33
280
     0
102
RTVSPost2010PropOp33
 70
     0
102
RTVSPost2010Prop34
280
     0
102
RTVSPost2010PropOp34
 70
     0
102
RTVSPost2010Prop35
280
     0
102
RTVSPost2010PropOp35
 70
     0
102
RTVSPost2010Prop36
280
     0
102
RTVSPost2010PropOp36
 70
     0
102
RTVSPost2010Prop37
 90
       50
102
RTVSPost2010PropOp37
 70
     0
102
RTVSPost2010Prop38
140
0.0
102
RTVSPost2010PropOp38
 70
     0
102
RTVSPost2010Prop39
140
1.0
102
RTVSPost2010PropOp39
 70
     0
102
RTVSPost2010Prop40
 90
        0
102
RTVSPost2010PropOp40
 70
     0
102
RTVSPost2010Prop41ColorIndex
 90
       18
102
RTVSPost2010Prop41ColorRGB
 90
        0
102
RTVSPost2010PropOp41
 70
     0
102
RTVSPost2010Prop42
 90
       50
102
RTVSPost2010PropOp42
 70
     0
102
RTVSPost2010Prop43
 90
        3
102
RTVSPost2010PropOp43
 70
     0
102
RTVSPost2010Prop44ColorIndex
 90
        5
102
RTVSPost2010Prop44ColorRGB
 90
      255
102
RTVSPost2010PropOp44
 70
     0
102
RTVSPost2010Prop45
280
     0
102
RTVSPost2010PropOp45
 70
     0
102
RTVSPost2010Prop46
 90
       50
102
RTVSPost2010PropOp46
 70
     0
102
RTVSPost2010Prop47
 90
       50
102
RTVSPost2010PropOp47
 70
     0
102
RTVSPost2010Prop48
 90
       50
102
RTVSPost2010PropOp48
 70
     0
102
RTVSPost2010Prop49
280
     0
102
RTVSPost2010PropOp49
 70
     0
102
RTVSPost2010Prop50
 90
       50
102
RTVSPost2010PropOp50
 70
     0
102
RTVSPost2010Prop51ColorIndex
 90
      256
102
RTVSPost2010Prop51ColorRGB
 90
-16777216
102
RTVSPost2010PropOp51
 70
     0
102
RTVSPost2010Prop52
140
1.0
102
RTVSPost2010PropOp52
 70
     0
102
RTVSPost2010Prop53
 90
        2
102
RTVSPost2010PropOp53
 70
     0
102
RTVSPost2010Prop54
  1
strokes_ogs.tif
102
RTVSPost2010PropOp54
 70
     0
102
RTVSPost2010Prop55
280
     0
102
RTVSPost2010PropOp55
 70
     0
102
RTVSPost2010Prop56
140
1.0
102
RTVSPost2010PropOp56
 70
     0
102
RTVSPost2010Prop57
140
1.0
102
RTVSPost2010PropOp57
 70
     0
  0
XRECORD
  5
D00
102
{ACAD_REACTORS
330
CFF
102
}
330
CFF
100
AcDbXrecord
280
     1
102
RTVSPost2010Prop28
280
     0
102
RTVSPost2010PropOp28
 70
     1
102
RTVSPost2010Prop29
280
     1
102
RTVSPost2010PropOp29
 70
     1
102
RTVSPost2010Prop30
280
     1
102
RTVSPost2010PropOp30
 70
     1
102
RTVSPost2010Prop31
280
     0
102
RTVSPost2010PropOp31
 70
     1
102
RTVSPost2010Prop32
280
     0
102
RTVSPost2010PropOp32
 70
     1
102
RTVSPost2010Prop33
280
     0
102
RTVSPost2010PropOp33
 70
     1
102
RTVSPost2010Prop34
280
     0
102
RTVSPost2010PropOp34
 70
     1
102
RTVSPost2010Prop35
280
     0
102
RTVSPost2010PropOp35
 70
     1
102
RTVSPost2010Prop36
280
     0
102
RTVSPost2010PropOp36
 70
     1
102
RTVSPost2010Prop37
 90
       50
102
RTVSPost2010PropOp37
 70
     1
102
RTVSPost2010Prop38
140
0.0
102
RTVSPost2010PropOp38
 70
     1
102
RTVSPost2010Prop39
140
1.0
102
RTVSPost2010PropOp39
 70
     1
102
RTVSPost2010Prop40
 90
        0
102
RTVSPost2010PropOp40
 70
     1
102
RTVSPost2010Prop41ColorIndex
 90
       18
102
RTVSPost2010Prop41ColorRGB
 90
        0
102
RTVSPost2010PropOp41
 70
     1
102
RTVSPost2010Prop42
 90
       50
102
RTVSPost2010PropOp42
 70
     1
102
RTVSPost2010Prop43
 90
        3
102
RTVSPost2010PropOp43
 70
     1
102
RTVSPost2010Prop44ColorIndex
 90
        5
102
RTVSPost2010Prop44ColorRGB
 90
      255
102
RTVSPost2010PropOp44
 70
     1
102
RTVSPost2010Prop45
280
     0
102
RTVSPost2010PropOp45
 70
     1
102
RTVSPost2010Prop46
 90
       50
102
RTVSPost2010PropOp46
 70
     1
102
RTVSPost2010Prop47
 90
       50
102
RTVSPost2010PropOp47
 70
     1
102
RTVSPost2010Prop48
 90
       50
102
RTVSPost2010PropOp48
 70
     1
102
RTVSPost2010Prop49
280
     0
102
RTVSPost2010PropOp49
 70
     1
102
RTVSPost2010Prop50
 90
       50
102
RTVSPost2010PropOp50
 70
     1
102
RTVSPost2010Prop51ColorIndex
 90
      256
102
RTVSPost2010Prop51ColorRGB
 90
-16777216
102
RTVSPost2010PropOp51
 70
     0
102
RTVSPost2010Prop52
140
1.0
102
RTVSPost2010PropOp52
 70
     0
102
RTVSPost2010Prop53
 90
        2
102
RTVSPost2010PropOp53
 70
     1
102
RTVSPost2010Prop54
  1
strokes_ogs.tif
102
RTVSPost2010PropOp54
 70
     1
102
RTVSPost2010Prop55
280
     0
102
RTVSPost2010PropOp55
 70
     1
102
RTVSPost2010Prop56
140
1.0
102
RTVSPost2010PropOp56
 70
     1
102
RTVSPost2010Prop57
140
1.0
102
RTVSPost2010PropOp57
 70
     1
  0
XRECORD
  5
D16
102
{ACAD_REACTORS
330
D15
102
}
330
D15
100
AcDbXrecord
280
     1
102
RTVSPost2010Prop28
280
     0
102
RTVSPost2010PropOp28
 70
     1
102
RTVSPost2010Prop29
280
     1
102
RTVSPost2010PropOp29
 70
     1
102
RTVSPost2010Prop30
280
     1
102
RTVSPost2010PropOp30
 70
     1
102
RTVSPost2010Prop31
280
     0
102
RTVSPost2010PropOp31
 70
     1
102
RTVSPost2010Prop32
280
     0
102
RTVSPost2010PropOp32
 70
     1
102
RTVSPost2010Prop33
280
     0
102
RTVSPost2010PropOp33
 70
     1
102
RTVSPost2010Prop34
280
     0
102
RTVSPost2010PropOp34
 70
     1
102
RTVSPost2010Prop35
280
     0
102
RTVSPost2010PropOp35
 70
     1
102
RTVSPost2010Prop36
280
     0
102
RTVSPost2010PropOp36
 70
     1
102
RTVSPost2010Prop37
 90
       50
102
RTVSPost2010PropOp37
 70
     1
102
RTVSPost2010Prop38
140
0.0
102
RTVSPost2010PropOp38
 70
     1
102
RTVSPost2010Prop39
140
1.0
102
RTVSPost2010PropOp39
 70
     1
102
RTVSPost2010Prop40
 90
        0
102
RTVSPost2010PropOp40
 70
     1
102
RTVSPost2010Prop41ColorIndex
 90
       18
102
RTVSPost2010Prop41ColorRGB
 90
        0
102
RTVSPost2010PropOp41
 70
     1
102
RTVSPost2010Prop42
 90
       50
102
RTVSPost2010PropOp42
 70
     1
102
RTVSPost2010Prop43
 90
        3
102
RTVSPost2010PropOp43
 70
     1
102
RTVSPost2010Prop44ColorIndex
 90
        5
102
RTVSPost2010Prop44ColorRGB
 90
      255
102
RTVSPost2010PropOp44
 70
     1
102
RTVSPost2010Prop45
280
     0
102
RTVSPost2010PropOp45
 70
     1
102
RTVSPost2010Prop46
 90
       50
102
RTVSPost2010PropOp46
 70
     1
102
RTVSPost2010Prop47
 90
       50
102
RTVSPost2010PropOp47
 70
     1
102
RTVSPost2010Prop48
 90
       50
102
RTVSPost2010PropOp48
 70
     1
102
RTVSPost2010Prop49
280
     0
102
RTVSPost2010PropOp49
 70
     1
102
RTVSPost2010Prop50
 90
       50
102
RTVSPost2010PropOp50
 70
     1
102
RTVSPost2010Prop51ColorIndex
 90
      256
102
RTVSPost2010Prop51ColorRGB
 90
-16777216
102
RTVSPost2010PropOp51
 70
     0
102
RTVSPost2010Prop52
140
1.0
102
RTVSPost2010PropOp52
 70
     0
102
RTVSPost2010Prop53
 90
        2
102
RTVSPost2010PropOp53
 70
     1
102
RTVSPost2010Prop54
  1
strokes_ogs.tif
102
RTVSPost2010PropOp54
 70
     1
102
RTVSPost2010Prop55
280
     0
102
RTVSPost2010PropOp55
 70
     1
102
RTVSPost2010Prop56
140
1.0
102
RTVSPost2010PropOp56
 70
     1
102
RTVSPost2010Prop57
140
1.0
102
RTVSPost2010PropOp57
 70
     1
  0
XRECORD
  5
D14
102
{ACAD_REACTORS
330
D13
102
}
330
D13
100
AcDbXrecord
280
     1
102
RTVSPost2010Prop28
280
     0
102
RTVSPost2010PropOp28
 70
     1
102
RTVSPost2010Prop29
280
     1
102
RTVSPost2010PropOp29
 70
     1
102
RTVSPost2010Prop30
280
     1
102
RTVSPost2010PropOp30
 70
     1
102
RTVSPost2010Prop31
280
     0
102
RTVSPost2010PropOp31
 70
     1
102
RTVSPost2010Prop32
280
     0
102
RTVSPost2010PropOp32
 70
     1
102
RTVSPost2010Prop33
280
     0
102
RTVSPost2010PropOp33
 70
     1
102
RTVSPost2010Prop34
280
     0
102
RTVSPost2010PropOp34
 70
     1
102
RTVSPost2010Prop35
280
     0
102
RTVSPost2010PropOp35
 70
     1
102
RTVSPost2010Prop36
280
     0
102
RTVSPost2010PropOp36
 70
     1
102
RTVSPost2010Prop37
 90
       50
102
RTVSPost2010PropOp37
 70
     1
102
RTVSPost2010Prop38
140
0.0
102
RTVSPost2010PropOp38
 70
     1
102
RTVSPost2010Prop39
140
1.0
102
RTVSPost2010PropOp39
 70
     1
102
RTVSPost2010Prop40
 90
        0
102
RTVSPost2010PropOp40
 70
     1
102
RTVSPost2010Prop41ColorIndex
 90
       18
102
RTVSPost2010Prop41ColorRGB
 90
        0
102
RTVSPost2010PropOp41
 70
     1
102
RTVSPost2010Prop42
 90
       50
102
RTVSPost2010PropOp42
 70
     1
102
RTVSPost2010Prop43
 90
        3
102
RTVSPost2010PropOp43
 70
     1
102
RTVSPost2010Prop44ColorIndex
 90
        5
102
RTVSPost2010Prop44ColorRGB
 90
      255
102
RTVSPost2010PropOp44
 70
     1
102
RTVSPost2010Prop45
280
     0
102
RTVSPost2010PropOp45
 70
     1
102
RTVSPost2010Prop46
 90
       50
102
RTVSPost2010PropOp46
 70
     1
102
RTVSPost2010Prop47
 90
       50
102
RTVSPost2010PropOp47
 70
     1
102
RTVSPost2010Prop48
 90
       50
102
RTVSPost2010PropOp48
 70
     1
102
RTVSPost2010Prop49
280
     0
102
RTVSPost2010PropOp49
 70
     1
102
RTVSPost2010Prop50
 90
       50
102
RTVSPost2010PropOp50
 70
     1
102
RTVSPost2010Prop51ColorIndex
 90
      256
102
RTVSPost2010Prop51ColorRGB
 90
-16777216
102
RTVSPost2010PropOp51
 70
     0
102
RTVSPost2010Prop52
140
1.0
102
RTVSPost2010PropOp52
 70
     0
102
RTVSPost2010Prop53
 90
        2
102
RTVSPost2010PropOp53
 70
     1
102
RTVSPost2010Prop54
  1
strokes_ogs.tif
102
RTVSPost2010PropOp54
 70
     1
102
RTVSPost2010Prop55
280
     0
102
RTVSPost2010PropOp55
 70
     1
102
RTVSPost2010Prop56
140
1.0
102
RTVSPost2010PropOp56
 70
     1
102
RTVSPost2010Prop57
140
1.0
102
RTVSPost2010PropOp57
 70
     1
  0
XRECORD
  5
D0E
102
{ACAD_REACTORS
330
D0D
102
}
330
D0D
100
AcDbXrecord
280
     1
102
RTVSPost2010Prop28
280
     0
102
RTVSPost2010PropOp28
 70
     1
102
RTVSPost2010Prop29
280
     1
102
RTVSPost2010PropOp29
 70
     1
102
RTVSPost2010Prop30
280
     1
102
RTVSPost2010PropOp30
 70
     1
102
RTVSPost2010Prop31
280
     0
102
RTVSPost2010PropOp31
 70
     1
102
RTVSPost2010Prop32
280
     0
102
RTVSPost2010PropOp32
 70
     1
102
RTVSPost2010Prop33
280
     0
102
RTVSPost2010PropOp33
 70
     1
102
RTVSPost2010Prop34
280
     0
102
RTVSPost2010PropOp34
 70
     1
102
RTVSPost2010Prop35
280
     0
102
RTVSPost2010PropOp35
 70
     1
102
RTVSPost2010Prop36
280
     0
102
RTVSPost2010PropOp36
 70
     1
102
RTVSPost2010Prop37
 90
       50
102
RTVSPost2010PropOp37
 70
     1
102
RTVSPost2010Prop38
140
0.0
102
RTVSPost2010PropOp38
 70
     1
102
RTVSPost2010Prop39
140
1.0
102
RTVSPost2010PropOp39
 70
     1
102
RTVSPost2010Prop40
 90
        0
102
RTVSPost2010PropOp40
 70
     1
102
RTVSPost2010Prop41ColorIndex
 90
       18
102
RTVSPost2010Prop41ColorRGB
 90
        0
102
RTVSPost2010PropOp41
 70
     1
102
RTVSPost2010Prop42
 90
       50
102
RTVSPost2010PropOp42
 70
     1
102
RTVSPost2010Prop43
 90
        3
102
RTVSPost2010PropOp43
 70
     1
102
RTVSPost2010Prop44ColorIndex
 90
        5
102
RTVSPost2010Prop44ColorRGB
 90
      255
102
RTVSPost2010PropOp44
 70
     1
102
RTVSPost2010Prop45
280
     0
102
RTVSPost2010PropOp45
 70
     1
102
RTVSPost2010Prop46
 90
       50
102
RTVSPost2010PropOp46
 70
     1
102
RTVSPost2010Prop47
 90
       50
102
RTVSPost2010PropOp47
 70
     1
102
RTVSPost2010Prop48
 90
       50
102
RTVSPost2010PropOp48
 70
     1
102
RTVSPost2010Prop49
280
     0
102
RTVSPost2010PropOp49
 70
     1
102
RTVSPost2010Prop50
 90
       50
102
RTVSPost2010PropOp50
 70
     1
102
RTVSPost2010Prop51ColorIndex
 90
      256
102
RTVSPost2010Prop51ColorRGB
 90
-16777216
102
RTVSPost2010PropOp51
 70
     0
102
RTVSPost2010Prop52
140
1.0
102
RTVSPost2010PropOp52
 70
     0
102
RTVSPost2010Prop53
 90
        2
102
RTVSPost2010PropOp53
 70
     1
102
RTVSPost2010Prop54
  1
strokes_ogs.tif
102
RTVSPost2010PropOp54
 70
     1
102
RTVSPost2010Prop55
280
     0
102
RTVSPost2010PropOp55
 70
     1
102
RTVSPost2010Prop56
140
1.0
102
RTVSPost2010PropOp56
 70
     1
102
RTVSPost2010Prop57
140
1.0
102
RTVSPost2010PropOp57
 70
     1
  0
XRECORD
  5
D10
102
{ACAD_REACTORS
330
D0F
102
}
330
D0F
100
AcDbXrecord
280
     1
102
RTVSPost2010Prop28
280
     0
102
RTVSPost2010PropOp28
 70
     1
102
RTVSPost2010Prop29
280
     1
102
RTVSPost2010PropOp29
 70
     1
102
RTVSPost2010Prop30
280
     1
102
RTVSPost2010PropOp30
 70
     1
102
RTVSPost2010Prop31
280
     0
102
RTVSPost2010PropOp31
 70
     1
102
RTVSPost2010Prop32
280
     0
102
RTVSPost2010PropOp32
 70
     1
102
RTVSPost2010Prop33
280
     0
102
RTVSPost2010PropOp33
 70
     1
102
RTVSPost2010Prop34
280
     0
102
RTVSPost2010PropOp34
 70
     1
102
RTVSPost2010Prop35
280
     0
102
RTVSPost2010PropOp35
 70
     1
102
RTVSPost2010Prop36
280
     0
102
RTVSPost2010PropOp36
 70
     1
102
RTVSPost2010Prop37
 90
       50
102
RTVSPost2010PropOp37
 70
     1
102
RTVSPost2010Prop38
140
0.0
102
RTVSPost2010PropOp38
 70
     1
102
RTVSPost2010Prop39
140
1.0
102
RTVSPost2010PropOp39
 70
     1
102
RTVSPost2010Prop40
 90
        0
102
RTVSPost2010PropOp40
 70
     1
102
RTVSPost2010Prop41ColorIndex
 90
       18
102
RTVSPost2010Prop41ColorRGB
 90
        0
102
RTVSPost2010PropOp41
 70
     1
102
RTVSPost2010Prop42
 90
       50
102
RTVSPost2010PropOp42
 70
     1
102
RTVSPost2010Prop43
 90
        3
102
RTVSPost2010PropOp43
 70
     1
102
RTVSPost2010Prop44ColorIndex
 90
        5
102
RTVSPost2010Prop44ColorRGB
 90
      255
102
RTVSPost2010PropOp44
 70
     1
102
RTVSPost2010Prop45
280
     0
102
RTVSPost2010PropOp45
 70
     1
102
RTVSPost2010Prop46
 90
       50
102
RTVSPost2010PropOp46
 70
     1
102
RTVSPost2010Prop47
 90
       50
102
RTVSPost2010PropOp47
 70
     1
102
RTVSPost2010Prop48
 90
       50
102
RTVSPost2010PropOp48
 70
     1
102
RTVSPost2010Prop49
280
     0
102
RTVSPost2010PropOp49
 70
     1
102
RTVSPost2010Prop50
 90
       50
102
RTVSPost2010PropOp50
 70
     1
102
RTVSPost2010Prop51ColorIndex
 90
      256
102
RTVSPost2010Prop51ColorRGB
 90
-16777216
102
RTVSPost2010PropOp51
 70
     0
102
RTVSPost2010Prop52
140
1.0
102
RTVSPost2010PropOp52
 70
     0
102
RTVSPost2010Prop53
 90
        2
102
RTVSPost2010PropOp53
 70
     1
102
RTVSPost2010Prop54
  1
strokes_ogs.tif
102
RTVSPost2010PropOp54
 70
     1
102
RTVSPost2010Prop55
280
     0
102
RTVSPost2010PropOp55
 70
     1
102
RTVSPost2010Prop56
140
1.0
102
RTVSPost2010PropOp56
 70
     1
102
RTVSPost2010Prop57
140
1.0
102
RTVSPost2010PropOp57
 70
     1
  0
XRECORD
  5
D06
102
{ACAD_REACTORS
330
D05
102
}
330
D05
100
AcDbXrecord
280
     1
102
RTVSPost2010Prop28
280
     0
102
RTVSPost2010PropOp28
 70
     1
102
RTVSPost2010Prop29
280
     1
102
RTVSPost2010PropOp29
 70
     1
102
RTVSPost2010Prop30
280
     1
102
RTVSPost2010PropOp30
 70
     1
102
RTVSPost2010Prop31
280
     0
102
RTVSPost2010PropOp31
 70
     1
102
RTVSPost2010Prop32
280
     0
102
RTVSPost2010PropOp32
 70
     1
102
RTVSPost2010Prop33
280
     0
102
RTVSPost2010PropOp33
 70
     1
102
RTVSPost2010Prop34
280
     0
102
RTVSPost2010PropOp34
 70
     1
102
RTVSPost2010Prop35
280
     0
102
RTVSPost2010PropOp35
 70
     1
102
RTVSPost2010Prop36
280
     0
102
RTVSPost2010PropOp36
 70
     1
102
RTVSPost2010Prop37
 90
       50
102
RTVSPost2010PropOp37
 70
     1
102
RTVSPost2010Prop38
140
0.0
102
RTVSPost2010PropOp38
 70
     1
102
RTVSPost2010Prop39
140
1.0
102
RTVSPost2010PropOp39
 70
     1
102
RTVSPost2010Prop40
 90
        0
102
RTVSPost2010PropOp40
 70
     1
102
RTVSPost2010Prop41ColorIndex
 90
       18
102
RTVSPost2010Prop41ColorRGB
 90
        0
102
RTVSPost2010PropOp41
 70
     1
102
RTVSPost2010Prop42
 90
       50
102
RTVSPost2010PropOp42
 70
     1
102
RTVSPost2010Prop43
 90
        3
102
RTVSPost2010PropOp43
 70
     1
102
RTVSPost2010Prop44ColorIndex
 90
        5
102
RTVSPost2010Prop44ColorRGB
 90
      255
102
RTVSPost2010PropOp44
 70
     1
102
RTVSPost2010Prop45
280
     0
102
RTVSPost2010PropOp45
 70
     1
102
RTVSPost2010Prop46
 90
       50
102
RTVSPost2010PropOp46
 70
     1
102
RTVSPost2010Prop47
 90
       50
102
RTVSPost2010PropOp47
 70
     1
102
RTVSPost2010Prop48
 90
       50
102
RTVSPost2010PropOp48
 70
     1
102
RTVSPost2010Prop49
280
     0
102
RTVSPost2010PropOp49
 70
     1
102
RTVSPost2010Prop50
 90
       50
102
RTVSPost2010PropOp50
 70
     1
102
RTVSPost2010Prop51ColorIndex
 90
      256
102
RTVSPost2010Prop51ColorRGB
 90
-16777216
102
RTVSPost2010PropOp51
 70
     0
102
RTVSPost2010Prop52
140
1.0
102
RTVSPost2010PropOp52
 70
     0
102
RTVSPost2010Prop53
 90
        2
102
RTVSPost2010PropOp53
 70
     1
102
RTVSPost2010Prop54
  1
strokes_ogs.tif
102
RTVSPost2010PropOp54
 70
     1
102
RTVSPost2010Prop55
280
     0
102
RTVSPost2010PropOp55
 70
     1
102
RTVSPost2010Prop56
140
1.0
102
RTVSPost2010PropOp56
 70
     1
102
RTVSPost2010Prop57
140
1.0
102
RTVSPost2010PropOp57
 70
     1
  0
XRECORD
  5
CFA
102
{ACAD_REACTORS
330
CF9
102
}
330
CF9
100
AcDbXrecord
280
     1
102
RTVSPost2010Prop28
280
     0
102
RTVSPost2010PropOp28
 70
     1
102
RTVSPost2010Prop29
280
     1
102
RTVSPost2010PropOp29
 70
     1
102
RTVSPost2010Prop30
280
     1
102
RTVSPost2010PropOp30
 70
     1
102
RTVSPost2010Prop31
280
     0
102
RTVSPost2010PropOp31
 70
     1
102
RTVSPost2010Prop32
280
     0
102
RTVSPost2010PropOp32
 70
     1
102
RTVSPost2010Prop33
280
     0
102
RTVSPost2010PropOp33
 70
     1
102
RTVSPost2010Prop34
280
     0
102
RTVSPost2010PropOp34
 70
     1
102
RTVSPost2010Prop35
280
     0
102
RTVSPost2010PropOp35
 70
     1
102
RTVSPost2010Prop36
280
     0
102
RTVSPost2010PropOp36
 70
     1
102
RTVSPost2010Prop37
 90
       50
102
RTVSPost2010PropOp37
 70
     1
102
RTVSPost2010Prop38
140
0.0
102
RTVSPost2010PropOp38
 70
     1
102
RTVSPost2010Prop39
140
1.0
102
RTVSPost2010PropOp39
 70
     1
102
RTVSPost2010Prop40
 90
        0
102
RTVSPost2010PropOp40
 70
     1
102
RTVSPost2010Prop41ColorIndex
 90
       18
102
RTVSPost2010Prop41ColorRGB
 90
        0
102
RTVSPost2010PropOp41
 70
     1
102
RTVSPost2010Prop42
 90
       50
102
RTVSPost2010PropOp42
 70
     1
102
RTVSPost2010Prop43
 90
        3
102
RTVSPost2010PropOp43
 70
     1
102
RTVSPost2010Prop44ColorIndex
 90
        5
102
RTVSPost2010Prop44ColorRGB
 90
      255
102
RTVSPost2010PropOp44
 70
     1
102
RTVSPost2010Prop45
280
     0
102
RTVSPost2010PropOp45
 70
     1
102
RTVSPost2010Prop46
 90
       50
102
RTVSPost2010PropOp46
 70
     1
102
RTVSPost2010Prop47
 90
       50
102
RTVSPost2010PropOp47
 70
     1
102
RTVSPost2010Prop48
 90
       50
102
RTVSPost2010PropOp48
 70
     1
102
RTVSPost2010Prop49
280
     0
102
RTVSPost2010PropOp49
 70
     1
102
RTVSPost2010Prop50
 90
       50
102
RTVSPost2010PropOp50
 70
     1
102
RTVSPost2010Prop51ColorIndex
 90
      256
102
RTVSPost2010Prop51ColorRGB
 90
-16777216
102
RTVSPost2010PropOp51
 70
     0
102
RTVSPost2010Prop52
140
1.0
102
RTVSPost2010PropOp52
 70
     0
102
RTVSPost2010Prop53
 90
        2
102
RTVSPost2010PropOp53
 70
     1
102
RTVSPost2010Prop54
  1
strokes_ogs.tif
102
RTVSPost2010PropOp54
 70
     1
102
RTVSPost2010Prop55
280
     0
102
RTVSPost2010PropOp55
 70
     1
102
RTVSPost2010Prop56
140
1.0
102
RTVSPost2010PropOp56
 70
     1
102
RTVSPost2010Prop57
140
1.0
102
RTVSPost2010PropOp57
 70
     1
  0
XRECORD
  5
D12
102
{ACAD_REACTORS
330
D11
102
}
330
D11
100
AcDbXrecord
280
     1
102
RTVSPost2010Prop28
280
     0
102
RTVSPost2010PropOp28
 70
     1
102
RTVSPost2010Prop29
280
     1
102
RTVSPost2010PropOp29
 70
     1
102
RTVSPost2010Prop30
280
     1
102
RTVSPost2010PropOp30
 70
     1
102
RTVSPost2010Prop31
280
     0
102
RTVSPost2010PropOp31
 70
     1
102
RTVSPost2010Prop32
280
     0
102
RTVSPost2010PropOp32
 70
     1
102
RTVSPost2010Prop33
280
     0
102
RTVSPost2010PropOp33
 70
     1
102
RTVSPost2010Prop34
280
     0
102
RTVSPost2010PropOp34
 70
     1
102
RTVSPost2010Prop35
280
     0
102
RTVSPost2010PropOp35
 70
     1
102
RTVSPost2010Prop36
280
     0
102
RTVSPost2010PropOp36
 70
     1
102
RTVSPost2010Prop37
 90
       50
102
RTVSPost2010PropOp37
 70
     1
102
RTVSPost2010Prop38
140
0.0
102
RTVSPost2010PropOp38
 70
     1
102
RTVSPost2010Prop39
140
1.0
102
RTVSPost2010PropOp39
 70
     1
102
RTVSPost2010Prop40
 90
        0
102
RTVSPost2010PropOp40
 70
     1
102
RTVSPost2010Prop41ColorIndex
 90
       18
102
RTVSPost2010Prop41ColorRGB
 90
        0
102
RTVSPost2010PropOp41
 70
     1
102
RTVSPost2010Prop42
 90
       50
102
RTVSPost2010PropOp42
 70
     1
102
RTVSPost2010Prop43
 90
        3
102
RTVSPost2010PropOp43
 70
     1
102
RTVSPost2010Prop44ColorIndex
 90
        5
102
RTVSPost2010Prop44ColorRGB
 90
      255
102
RTVSPost2010PropOp44
 70
     1
102
RTVSPost2010Prop45
280
     0
102
RTVSPost2010PropOp45
 70
     1
102
RTVSPost2010Prop46
 90
       50
102
RTVSPost2010PropOp46
 70
     1
102
RTVSPost2010Prop47
 90
       50
102
RTVSPost2010PropOp47
 70
     1
102
RTVSPost2010Prop48
 90
       50
102
RTVSPost2010PropOp48
 70
     1
102
RTVSPost2010Prop49
280
     0
102
RTVSPost2010PropOp49
 70
     1
102
RTVSPost2010Prop50
 90
       50
102
RTVSPost2010PropOp50
 70
     1
102
RTVSPost2010Prop51ColorIndex
 90
      256
102
RTVSPost2010Prop51ColorRGB
 90
-16777216
102
RTVSPost2010PropOp51
 70
     0
102
RTVSPost2010Prop52
140
1.0
102
RTVSPost2010PropOp52
 70
     0
102
RTVSPost2010Prop53
 90
        2
102
RTVSPost2010PropOp53
 70
     1
102
RTVSPost2010Prop54
  1
strokes_ogs.tif
102
RTVSPost2010PropOp54
 70
     1
102
RTVSPost2010Prop55
280
     0
102
RTVSPost2010PropOp55
 70
     1
102
RTVSPost2010Prop56
140
1.0
102
RTVSPost2010PropOp56
 70
     1
102
RTVSPost2010Prop57
140
1.0
102
RTVSPost2010PropOp57
 70
     1
  0
ENDSEC
  0
EOF
